osu file format v14

[General]
AudioFilename: audio.mp3
AudioLeadIn: 0
PreviewTime: 32117
Countdown: 0
SampleSet: Soft
StackLeniency: 0.7
Mode: 0
LetterboxInBreaks: 0
WidescreenStoryboard: 0

[Editor]
Bookmarks: 560,31944,39329,46713,54098,61483,68867,76252,83636
DistanceSpacing: 1.3
BeatDivisor: 4
GridSize: 32
TimelineZoom: 1.9

[Metadata]
Title:Walk This Way!
TitleUnicode:Walk This Way!
Artist:Kano
ArtistUnicode:鹿乃
Creator:Sotarks
Version:Hard
Source:
Tags:Stella-rium niconico samfree hatsunemiku vocaloid jap japanese vocals vocalist jrock j-rock smokelind reform kujinn onlybiscuit akitoshi corinn -laura- collab collaboration
BeatmapID:1915918
BeatmapSetID:914242

[Difficulty]
HPDrainRate:4
CircleSize:3.3
OverallDifficulty:6
ApproachRate:8
SliderMultiplier:1.52
SliderTickRate:1

[Events]
//Background and Video events
0,0,"bg.jpg",0,0
Video,0,"video.mp4"
//Break Periods
//Storyboard Layer 0 (Background)
//Storyboard Layer 1 (Fail)
//Storyboard Layer 2 (Pass)
//Storyboard Layer 3 (Foreground)
//Storyboard Sound Samples

[TimingPoints]
560,230.769230769231,4,2,22,62,1,0
560,-161.290322580645,4,2,22,62,0,0
7944,-108.695652173913,4,2,22,62,0,0
17175,-138.888888888889,4,2,22,62,0,0
31944,-121.951219512195,4,2,22,62,0,0
44867,-108.695652173913,4,2,22,62,0,0
45560,-192.307692307692,4,2,22,62,0,0
46713,-98.0392156862744,4,2,22,62,0,1
68867,-161.290322580645,4,2,22,62,0,0
75329,-121.951219512195,4,2,22,62,0,0
76252,-108.695652173913,4,2,22,62,0,0
83636,-98.0392156862745,4,2,22,62,0,1
96560,-121.951219512195,4,2,22,62,0,0
97598,-98.0392156862745,4,2,22,62,0,0
97829,-161.290322580645,4,2,22,62,0,0

[Colours]
Combo1 : 255,9,15
Combo2 : 255,243,21
Combo3 : 112,255,26
Combo4 : 17,255,255
Combo5 : 218,45,255

[HitObjects]
56,244,560,6,0,P|123:289|185:284,1,141.359994391846,6|0,1:2|0:2,0:0:0:0:
246,218,1021,2,0,P|299:174|339:172,1,94.2399962612306,2|0,1:2|0:2,0:0:0:0:
380,245,1367,2,0,P|369:284|363:353,2,94.2399962612306,2|2|0,0:2|0:2|0:2,0:0:0:0:
438,170,1944,2,0,P|433:123|420:77,1,94.2399962612306,2|2,1:2|0:2,0:0:0:0:
235,41,2406,6,0,P|203:96|113:114,1,141.359994391846,2|0,0:2|0:2,0:0:0:0:
52,67,2867,2,0,P|52:126|41:177,1,94.2399962612306,2|0,1:2|0:2,0:0:0:0:
104,234,3213,2,0,P|63:241|19:293,2,94.2399962612306,2|2|0,0:2|0:2|0:2,0:0:0:0:
187,279,3790,2,0,P|217:291|249:290,1,47.1199981306153,2|0,1:2|0:2,0:0:0:0:
288,216,4021,2,0,P|318:204|350:205,1,47.1199981306153,2|0,0:2|0:2,0:0:0:0:
402,266,4252,6,0,P|462:261|493:185,1,141.359994391846,2|0,1:2|0:2,0:0:0:0:
465,104,4713,2,0,P|406:86|360:81,1,94.2399962612306,2|0,1:2|0:2,0:0:0:0:
285,118,5060,2,0,P|275:62|241:24,2,94.2399962612306,2|2|0,0:2|0:2|0:2,0:0:0:0:
234,197,5636,2,0,P|207:235|201:281,1,94.2399962612306,2|2,1:2|0:2,0:0:0:0:
24,348,6098,6,0,P|37:255|37:189,1,141.359994391846,2|0,0:2|0:2,0:0:0:0:
21,114,6560,1,2,1:2:0:0:
21,114,6675,2,0,P|58:89|115:88,1,94.2399962612306,2|2,0:2|0:2,0:0:0:0:
173,153,7021,1,10,0:2:0:0:
173,153,7136,2,0,L|178:206,1,47.1199981306153,2|0,1:2|0:0,0:0:0:0:
271,192,7367,2,0,L|258:297,1,94.2399962612306,2|0,1:2|1:2,0:0:0:0:
321,356,7713,1,12,0:2:0:0:
458,79,7944,6,0,P|419:96|378:100,1,69.9199976528321,6|0,1:2|0:2,0:0:0:0:
299,67,8175,2,0,P|260:50|219:46,1,69.9199976528321,10|0,0:2|0:2,0:0:0:0:
153,104,8406,2,0,P|169:154|146:250,1,139.839995305664,2|8,1:2|0:2,0:0:0:0:
82,306,8752,2,0,B|169:312|122:352|226:354,1,139.839995305664,2|0,1:2|1:2,0:0:0:0:
276,280,9098,2,0,P|321:258|354:256,1,69.9199976528321,10|0,0:2|0:2,0:0:0:0:
398,334,9329,2,0,P|441:296|443:209,1,139.839995305664,2|8,1:2|0:2,0:0:0:0:
406,127,9675,6,0,P|356:142|262:146,1,139.839995305664,2|0,1:2|1:2,0:0:0:0:
189,89,10021,2,0,P|146:66|120:64,1,69.9199976528321,10|0,0:2|0:2,0:0:0:0:
44,119,10252,2,0,B|76:211|22:179|60:280,1,139.839995305664,2|8,1:2|0:2,0:0:0:0:
106,337,10598,2,0,P|155:291|237:294,1,139.839995305664,2|0,1:2|1:2,0:0:0:0:
304,345,10944,2,0,P|318:284|331:263,1,69.9199976528321,10|0,0:2|0:2,0:0:0:0:
395,213,11175,2,0,P|381:152|368:131,1,69.9199976528321,2|0,1:2|1:2,0:0:0:0:
316,69,11406,1,10,0:2:0:0:
165,192,11636,6,0,P|111:211|81:208,1,69.9199976528321,6|0,1:2|0:2,0:0:0:0:
110,113,11867,2,0,P|164:94|194:97,1,69.9199976528321,10|0,0:2|0:2,0:0:0:0:
256,150,12098,2,0,P|221:194|223:290,1,139.839995305664,2|8,1:2|0:2,0:0:0:0:
297,331,12444,2,0,P|376:298|443:292,1,139.839995305664,2|0,1:2|1:2,0:0:0:0:
486,211,12790,2,0,P|432:199|410:186,1,69.9199976528321,10|0,0:2|0:2,0:0:0:0:
346,126,13021,2,0,B|253:129|304:83|191:90,1,139.839995305664,2|8,1:2|0:2,0:0:0:0:
147,161,13367,6,0,P|104:119|13:131,1,139.839995305664,2|0,1:2|1:2,0:0:0:0:
68,210,13713,2,0,P|84:266|85:289,1,69.9199976528321,10|0,0:2|0:2,0:0:0:0:
155,346,13944,2,0,P|217:307|294:300,1,139.839995305664,2|8,1:2|0:2,0:0:0:0:
367,347,14290,2,0,P|418:315|430:233,1,139.839995305664,2|0,1:2|1:2,0:0:0:0:
356,177,14636,2,0,P|341:137|348:99,1,69.9199976528321,10|0,0:2|0:0,0:0:0:0:
412,40,14867,2,0,P|351:21|327:23,1,69.9199976528321,2|0,1:2|1:2,0:0:0:0:
258,67,15098,1,10,0:2:0:0:
64,37,15329,6,0,P|82:81|98:186,1,139.839995305664,10|4,0:2|0:3,0:0:0:0:
195,158,15675,2,0,P|177:202|161:307,1,139.839995305664,10|4,0:3|0:3,0:0:0:0:
233,358,16021,2,0,P|282:313|370:304,1,139.839995305664,10|4,0:3|0:3,0:0:0:0:
442,262,16367,2,0,P|393:217|305:208,1,139.839995305664,10|4,0:3|0:3,0:0:0:0:
245,143,16713,2,0,P|290:115|322:109,1,69.9199976528321,10|4,0:3|0:3,0:0:0:0:
403,121,16944,1,12,0:2:0:0:
206,26,17175,5,6,1:2:0:0:
206,26,17290,2,0,P|160:51|92:57,1,109.440002671875,2|2,0:2|1:2,0:0:0:0:
16,48,17636,2,0,P|32:120|39:181,1,109.440002671875,10|2,0:2|0:2,0:0:0:0:
52,242,17983,2,0,P|106:248|154:274,1,109.440002671875,2|2,1:2|0:2,0:0:0:0:
218,333,18329,2,0,P|265:329|287:314,1,54.7200013359375,2|0,1:2|0:2,0:0:0:0:
299,242,18560,2,0,P|346:246|368:261,1,54.7200013359375,10|0,0:2|0:2,0:0:0:0:
379,331,18790,1,2,1:2:0:0:
457,174,19021,6,0,P|466:135|466:112,2,54.7200013359375,2|2|2,1:2|0:2|0:2,0:0:0:0:
378,133,19367,1,2,1:2:0:0:
378,133,19483,2,0,P|327:116|252:108,1,109.440002671875,10|0,0:2|0:2,0:0:0:0:
190,141,19829,2,0,P|177:85|175:75,1,54.7200013359375,2|0,1:2|0:2,0:0:0:0:
99,46,20060,2,0,P|93:72|77:166,1,109.440002671875,2|2,0:2|0:2,0:0:0:0:
74,241,20406,2,0,P|121:226|146:226,1,54.7200013359375,10|0,0:2|0:2,0:0:0:0:
202,267,20636,1,2,1:2:0:0:
372,226,20867,6,0,P|385:189|383:157,1,54.7200013359375,0|0,1:2|0:0,0:0:0:0:
343,96,21098,2,0,P|308:115|279:117,1,54.7200013359375,2|0,0:2|1:2,0:0:0:0:
221,66,21329,2,0,B|119:84|178:138|64:156,1,164.160004007813,10|0,0:2|1:2,0:0:0:0:
25,217,21790,2,0,P|55:226|77:245,1,54.7200013359375,2|0,0:2|0:2,0:0:0:0:
135,302,22021,2,0,P|177:324|271:262,1,164.160004007813,2|0,1:2|0:0,0:0:0:0:
268,182,22483,1,2,0:2:0:0:
408,286,22713,6,0,P|446:288|480:271,2,54.7200013359375,2|2|0,1:2|0:2|0:2,0:0:0:0:
428,199,23060,1,2,1:2:0:0:
428,199,23175,2,0,P|435:125|418:75,1,109.440002671875,10|2,0:2|0:2,0:0:0:0:
366,27,23521,2,0,P|331:72|272:79,1,109.440002671875,2|2,1:2|0:2,0:0:0:0:
204,39,23867,2,0,P|153:20|140:21,1,54.7200013359375,2|8,1:2|0:2,0:0:0:0:
127,104,24098,2,0,P|76:123|63:122,1,54.7200013359375,10|8,0:2|0:2,0:0:0:0:
9,65,24329,1,2,1:2:0:0:
60,232,24560,6,0,P|68:270|70:305,2,54.7200013359375,6|2|0,1:2|0:2|0:2,0:0:0:0:
138,186,24906,2,0,P|141:158|147:132,2,54.7200013359375,2|10|0,1:2|0:2|0:2,0:0:0:0:
176,265,25252,2,0,P|211:291|283:287,1,109.440002671875,2|0,0:2|0:0,0:0:0:0:
298,205,25598,2,0,P|333:179|405:183,1,109.440002671875,2|0,0:2|0:2,0:0:0:0:
448,250,25944,1,10,0:2:0:0:
494,80,26175,1,2,1:2:0:0:
317,64,26406,6,0,P|271:51|253:41,2,54.7200013359375,2|2|2,1:2|0:2|0:2,0:0:0:0:
356,142,26752,2,0,P|382:136|408:126,2,54.7200013359375,2|10|2,1:2|0:0|0:0,0:0:0:0:
298,205,27098,1,2,0:0:0:0:
298,205,27213,2,0,P|253:182|190:185,1,109.440002671875,2|2,1:2|0:2,0:0:0:0:
134,248,27560,2,0,P|98:274|77:282,1,54.7200013359375,2|2,1:2|0:2,0:0:0:0:
30,213,27790,1,10,0:2:0:0:
127,358,28021,1,2,1:2:0:0:
295,310,28252,6,0,P|341:300|371:297,1,54.7200013359375,0|0,1:2|0:0,0:0:0:0:
391,221,28483,2,0,P|364:214|337:209,1,54.7200013359375,2|0,0:2|1:2,0:0:0:0:
252,229,28713,2,0,P|191:212|171:105,1,164.160004007813,10|0,0:2|1:2,0:0:0:0:
215,51,29175,2,0,P|266:37|290:37,1,54.7200013359375,2|0,0:2|0:2,0:0:0:0:
342,83,29406,2,0,P|358:160|367:254,1,164.160004007813,2|0,1:2|0:0,0:0:0:0:
333,325,29867,1,2,0:2:0:0:
208,201,30098,6,0,P|160:179|93:191,1,109.440002671875,2|2,1:2|0:2,0:0:0:0:
38,242,30444,1,2,1:2:0:0:
38,242,30560,2,0,P|29:188|0:130,1,109.440002671875,10|2,0:2|0:2,0:0:0:0:
42,58,30906,1,2,0:2:0:0:
42,58,31021,2,0,P|88:83|156:75,1,109.440002671875,2|10,1:2|0:2,0:0:0:0:
304,7,31483,2,0,P|312:53|322:69,1,54.7200013359375,10|8,0:2|0:2,0:0:0:0:
379,118,31713,2,0,P|371:164|361:180,1,54.7200013359375,8|8,0:2|0:2,0:0:0:0:
249,218,31944,6,0,P|223:264|228:344,2,124.640001901855,6|10|2,1:2|0:2|1:2,0:0:0:0:
399,329,32636,1,10,0:2:0:0:
399,329,32752,2,0,P|403:260|424:200,1,124.640001901855,2|0,0:2|0:0,0:0:0:0:
440,115,33098,2,0,P|388:119|368:115,1,62.3200009509277,10|0,0:2|0:2,0:0:0:0:
297,69,33329,2,0,P|245:65|225:69,1,62.3200009509277,2|0,1:2|1:2,0:0:0:0:
161,125,33560,1,10,0:2:0:0:
7,19,33790,6,0,P|27:80|43:152,1,124.640001901855,2|8,1:2|0:2,0:0:0:0:
107,204,34136,2,0,P|87:265|71:337,1,124.640001901855,2|0,0:2|1:2,0:0:0:0:
156,370,34483,2,0,B|269:352|197:300|330:270,1,186.960002852783,10|0,0:2|0:0,0:0:0:0:
394,313,34944,1,10,0:2:0:0:
460,137,35175,2,0,P|419:152|389:153,1,62.3200009509277,2|0,1:2|1:2,0:0:0:0:
321,103,35406,1,8,0:2:0:0:
142,49,35636,6,0,P|180:82|201:172,2,124.640001901855,2|10|2,1:2|0:2|1:2,0:0:0:0:
53,214,36329,1,10,0:2:0:0:
53,214,36444,2,0,P|36:258|70:338,1,124.640001901855,2|0,0:2|0:0,0:0:0:0:
149,355,36790,1,10,0:2:0:0:
294,236,37021,2,0,P|340:218|367:219,1,62.3200009509277,2|0,1:2|1:2,0:0:0:0:
437,257,37252,1,10,0:2:0:0:
483,75,37483,6,0,P|435:104|342:101,1,124.640001901855,2|8,1:2|0:2,0:0:0:0:
282,148,37829,2,0,P|234:119|141:122,1,124.640001901855,2|0,0:2|1:2,0:0:0:0:
77,83,38175,2,0,B|45:199|120:155|77:283,1,186.960002852783,10|0,0:2|0:0,0:0:0:0:
46,350,38636,1,10,0:2:0:0:
210,260,38867,2,0,P|265:246|287:251,1,62.3200009509277,2|0,1:2|1:2,0:0:0:0:
349,295,39098,1,8,0:2:0:0:
443,133,39329,6,0,P|401:151|371:151,1,62.3200009509277,6|10,1:2|0:2,0:0:0:0:
305,102,39560,1,10,0:2:0:0:
305,102,39675,2,0,P|237:51|176:58,1,124.640001901855,10|2,0:2|1:2,0:0:0:0:
54,167,40136,2,0,B|178:164|93:238|242:232,1,186.960002852783,6|8,1:2|0:2,0:0:0:0:
305,195,40598,2,0,P|302:267|321:330,1,124.640001901855,8|8,0:3|0:3,0:0:0:0:
396,364,40944,1,4,0:3:0:0:
475,194,41175,6,0,P|465:138|453:117,1,62.3200009509277,6|10,1:2|0:2,0:0:0:0:
392,59,41406,1,10,0:2:0:0:
392,59,41521,2,0,P|325:87|252:85,1,124.640001901855,10|2,0:2|1:2,0:0:0:0:
98,20,41983,2,0,P|52:72|54:150,1,124.640001901855,6|0,1:2|0:2,0:0:0:0:
84,210,42329,1,10,0:2:0:0:
265,165,42560,1,10,0:2:0:0:
387,305,42790,1,10,0:2:0:0:
479,142,43021,6,0,P|403:151|352:110,1,124.640001901855,4|2,1:2|0:2,0:0:0:0:
303,55,43367,1,2,1:2:0:0:
303,55,43483,2,0,P|248:27|188:39,1,124.640001901855,10|0,0:2|0:2,0:0:0:0:
108,88,43829,2,0,P|69:42|-13:37,2,124.640001901855,2|2|2,1:2|0:2|1:2,0:0:0:0:
145,174,44406,1,10,0:2:0:0:
72,345,44636,1,2,1:2:0:0:
233,210,44867,6,0,P|297:182|370:201,1,139.839995305664,6|8,1:2|0:2,0:0:0:0:
448,135,45213,2,0,P|380:149|317:121,1,139.839995305664,6|8,1:2|0:2,0:0:0:0:
261,46,45560,1,6,1:2:0:0:
27,152,46713,6,0,P|86:128|125:132,1,77.5200004731445,6|0,1:2|0:2,0:0:0:0:
174,183,46944,2,0,P|233:207|272:203,1,77.5200004731445,10|0,0:2|0:2,0:0:0:0:
313,142,47175,2,0,P|351:80|444:76,1,155.040000946289,2|10,1:2|0:2,0:0:0:0:
471,151,47521,2,0,P|445:220|439:311,1,155.040000946289,2|0,0:2|0:2,0:0:0:0:
360,353,47867,2,0,P|309:329|282:331,1,77.5200004731445,10|0,0:2|0:2,0:0:0:0:
234,253,48098,2,0,P|183:277|156:275,1,77.5200004731445,2|0,1:2|1:2,0:0:0:0:
79,234,48329,1,10,0:2:0:0:
122,52,48560,6,0,P|196:31|265:78,1,155.040000946289,2|10,1:2|0:2,0:0:0:0:
359,226,49021,2,0,P|377:160|384:66,1,155.040000946289,2|10,1:2|0:2,0:0:0:0:
465,28,49367,2,0,P|470:105|490:180,1,155.040000946289,2|0,0:2|0:2,0:0:0:0:
461,269,49713,2,0,P|399:247|372:250,1,77.5200004731445,10|0,0:2|0:2,0:0:0:0:
315,305,49944,2,0,P|253:327|226:324,1,77.5200004731445,2|0,1:2|1:2,0:0:0:0:
160,281,50175,1,10,0:2:0:0:
83,111,50406,6,0,P|146:56|229:73,1,155.040000946289,2|8,1:2|0:2,0:0:0:0:
274,132,50752,2,0,P|337:187|420:170,1,155.040000946289,2|0,0:2|1:2,0:0:0:0:
460,105,51098,2,0,P|430:175|418:283,1,155.040000946289,10|0,0:2|1:2,0:0:0:0:
451,339,51444,2,0,B|350:323|401:387|284:372,1,155.040000946289,2|0,0:2|0:2,0:0:0:0:
235,312,51790,2,0,P|196:273|162:269,1,77.5200004731445,2|0,1:2|1:2,0:0:0:0:
85,293,52021,1,10,0:2:0:0:
46,110,52252,6,0,P|98:144|200:137,1,155.040000946289,2|8,1:2|0:2,0:0:0:0:
248,70,52598,2,0,P|300:36|402:43,1,155.040000946289,2|0,0:2|1:2,0:0:0:0:
455,105,52944,2,0,P|406:157|407:250,1,155.040000946289,10|0,0:2|1:2,0:0:0:0:
431,326,53290,2,0,P|351:313|270:293,1,155.040000946289,2|0,0:2|0:2,0:0:0:0:
193,333,53636,2,0,P|122:351|106:351,1,77.5200004731445,2|0,1:2|1:2,0:0:0:0:
31,315,53867,1,10,0:2:0:0:
71,133,54098,6,0,P|96:180|104:218,1,77.5200004731445,6|0,1:2|0:2,0:0:0:0:
193,222,54329,2,0,P|204:185|224:151,1,77.5200004731445,10|0,0:2|0:2,0:0:0:0:
286,82,54560,2,0,P|346:121|437:99,1,155.040000946289,2|10,1:2|0:2,0:0:0:0:
483,34,54906,2,0,P|471:104|465:201,1,155.040000946289,2|0,0:2|0:2,0:0:0:0:
486,278,55252,1,10,0:2:0:0:
314,350,55483,2,0,P|241:368|224:364,1,77.5200004731445,2|0,1:2|1:2,0:0:0:0:
165,313,55713,1,10,0:2:0:0:
118,132,55944,6,0,P|177:79|268:86,1,155.040000946289,2|10,1:2|0:2,0:0:0:0:
355,231,56406,2,0,P|261:199|195:204,1,155.040000946289,2|10,1:2|0:2,0:0:0:0:
130,256,56752,2,0,P|75:303|-7:270,1,155.040000946289,2|0,0:2|0:2,0:0:0:0:
25,190,57098,1,10,0:2:0:0:
126,33,57329,2,0,P|180:53|216:53,1,77.5200004731445,2|0,1:2|1:2,0:0:0:0:
284,14,57560,1,10,0:2:0:0:
436,119,57790,6,0,P|366:119|288:184,1,155.040000946289,2|8,1:2|0:2,0:0:0:0:
257,250,58136,2,0,P|195:295|119:297,1,155.040000946289,2|0,0:2|1:2,0:0:0:0:
42,243,58483,2,0,P|69:142|69:78,1,155.040000946289,10|0,0:2|1:2,0:0:0:0:
151,45,58829,2,0,P|155:122|179:195,1,155.040000946289,2|0,0:2|0:2,0:0:0:0:
269,170,59175,2,0,P|323:148|359:148,1,77.5200004731445,2|0,1:2|1:2,0:0:0:0:
430,174,59406,1,10,0:2:0:0:
338,334,59636,6,0,P|244:292|183:294,1,155.040000946289,2|8,1:2|0:2,0:0:0:0:
99,292,59983,2,0,P|120:238|103:135,1,155.040000946289,2|0,0:2|1:2,0:0:0:0:
67,59,60329,2,0,P|161:17|222:19,1,155.040000946289,10|0,0:2|1:2,0:0:0:0:
270,89,60675,2,0,P|311:144|409:128,1,155.040000946289,2|0,0:2|0:2,0:0:0:0:
467,87,61021,2,0,P|477:135|483:175,1,77.5200004731445,2|8,1:2|0:2,0:0:0:0:
417,231,61252,2,0,P|407:279|401:319,1,77.5200004731445,10|8,0:2|0:2,0:0:0:0:
315,341,61483,5,6,1:2:0:0:
315,341,61598,2,0,P|267:325|228:323,1,77.5200004731445,2|8,0:2|0:2,0:0:0:0:
157,279,61829,2,0,P|109:295|70:297,1,77.5200004731445,2|0,0:2|1:2,0:0:0:0:
32,218,62060,2,0,P|23:168|35:120,1,77.5200004731445,2|8,1:2|0:2,0:0:0:0:
68,59,62290,2,0,P|104:96|210:92,1,155.040000946289,2|2,0:2|0:2,0:0:0:0:
364,4,62752,1,2,0:2:0:0:
364,4,62867,2,0,P|339:64|340:156,1,155.040000946289,2|10,1:2|0:2,0:0:0:0:
433,314,63329,5,2,1:2:0:0:
433,314,63444,2,0,P|380:292|346:288,1,77.5200004731445,2|8,0:2|0:2,0:0:0:0:
272,256,63675,2,0,P|219:278|185:282,1,77.5200004731445,2|0,0:2|1:2,0:0:0:0:
116,323,63906,2,0,P|99:275|96:232,1,77.5200004731445,2|8,1:2|0:2,0:0:0:0:
108,156,64136,2,0,P|171:163|247:95,1,155.040000946289,2|2,0:2|0:2,0:0:0:0:
280,24,64483,1,10,0:2:0:0:
437,121,64713,2,0,P|415:166|412:209,1,77.5200004731445,2|0,1:2|1:2,0:0:0:0:
439,282,64944,1,8,0:2:0:0:
267,355,65175,6,0,B|251:274|303:319|283:174,1,155.040000946289,6|8,1:2|0:2,0:0:0:0:
161,66,65636,2,0,P|123:95|87:102,1,77.5200004731445,0|0,1:2|1:2,0:0:0:0:
14,53,65867,1,10,0:2:0:0:
14,53,65983,2,0,P|54:118|66:215,1,155.040000946289,2|0,0:2|0:2,0:0:0:0:
47,286,66329,1,8,0:2:0:0:
192,169,66560,2,0,P|250:156|281:158,1,77.5200004731445,2|0,1:2|1:2,0:0:0:0:
325,228,66790,1,10,0:2:0:0:
438,80,67021,6,0,P|452:160|462:254,1,155.040000946289,2|8,1:2|0:2,0:0:0:0:
403,307,67367,2,0,B|298:310|366:363|226:362,1,155.040000946289,2|0,0:2|1:2,0:0:0:0:
199,291,67713,2,0,P|166:229|67:220,1,155.040000946289,10|4,0:2|1:2,0:0:0:0:
28,138,68060,2,0,P|105:119|201:88,1,155.040000946289,10|8,0:2|0:2,0:0:0:0:
255,45,68406,2,0,P|327:67|348:69,1,77.5200004731445,10|4,0:3|0:3,0:0:0:0:
337,159,68636,2,0,P|374:150|410:136,1,77.5200004731445,10|4,0:3|0:3,0:0:0:0:
453,52,68867,5,6,1:2:0:0:
106,201,69329,1,2,1:2:0:0:
456,337,69790,1,2,0:2:0:0:
456,337,69906,2,0,P|441:284|439:231,1,94.2399962612306,2|2,0:2|0:2,0:0:0:0:
454,151,70252,1,0,1:2:0:0:
84,77,70713,6,0,P|141:43|175:43,1,94.2399962612306,2|2,0:2|0:2,0:0:0:0:
342,114,71175,2,0,L|337:172,2,47.1199981306153,2|2|2,1:2|0:2|0:2,0:0:0:0:
220,258,71636,1,2,0:2:0:0:
220,258,71752,2,0,P|161:231|118:231,1,94.2399962612306,2|2,0:2|0:2,0:0:0:0:
43,262,72098,1,0,1:2:0:0:
203,361,72329,1,0,0:2:0:0:
373,279,72560,5,2,1:2:0:0:
70,54,73021,1,2,1:2:0:0:
445,86,73483,1,2,0:2:0:0:
445,86,73598,2,0,P|401:42|352:37,1,94.2399962612306,2|2,0:2|0:2,0:0:0:0:
278,54,73944,1,0,1:2:0:0:
19,328,74406,6,0,P|80:343|126:359,1,94.2399962612306,2|2,0:2|0:2,0:0:0:0:
255,232,74867,2,0,P|194:247|148:263,1,94.2399962612306,2|2,1:2|0:2,0:0:0:0:
90,188,75329,1,10,0:2:0:0:
90,188,75444,2,0,P|108:114|139:73,2,124.640001901855,2|2|2,1:2|1:2|1:2,0:0:0:0:
8,141,76021,1,12,0:2:0:0:
54,305,76252,6,0,P|93:288|134:284,1,69.9199976528321,2|0,1:2|0:2,0:0:0:0:
213,317,76483,2,0,P|252:334|293:338,1,69.9199976528321,10|0,0:2|0:2,0:0:0:0:
359,280,76714,2,0,P|343:230|366:134,1,139.839995305664,2|8,1:2|0:2,0:0:0:0:
430,78,77060,2,0,B|343:72|390:32|286:30,1,139.839995305664,2|0,1:2|1:2,0:0:0:0:
236,104,77406,2,0,P|191:126|158:128,1,69.9199976528321,10|0,0:2|0:2,0:0:0:0:
114,50,77637,2,0,P|71:88|69:175,1,139.839995305664,2|8,1:2|0:2,0:0:0:0:
106,257,77983,6,0,P|156:242|250:238,1,139.839995305664,2|0,1:2|1:2,0:0:0:0:
323,295,78329,2,0,P|366:318|392:320,1,69.9199976528321,10|0,0:2|0:2,0:0:0:0:
468,265,78560,2,0,B|436:173|490:205|452:104,1,139.839995305664,2|8,1:2|0:2,0:0:0:0:
406,47,78906,2,0,P|357:93|275:90,1,139.839995305664,2|0,1:2|1:2,0:0:0:0:
208,39,79252,2,0,P|194:100|181:121,1,69.9199976528321,10|0,0:2|0:2,0:0:0:0:
117,171,79483,2,0,P|131:232|144:253,1,69.9199976528321,2|0,1:2|1:2,0:0:0:0:
196,315,79714,1,10,0:2:0:0:
347,192,79944,6,0,P|401:173|431:176,1,69.9199976528321,2|0,1:2|0:2,0:0:0:0:
402,271,80175,2,0,P|348:290|318:287,1,69.9199976528321,10|0,0:2|0:2,0:0:0:0:
256,234,80406,2,0,P|291:190|289:94,1,139.839995305664,2|8,1:2|0:2,0:0:0:0:
215,53,80752,2,0,P|136:86|69:92,1,139.839995305664,2|0,1:2|1:2,0:0:0:0:
26,173,81098,2,0,P|80:185|102:198,1,69.9199976528321,10|0,0:2|0:2,0:0:0:0:
166,258,81329,2,0,B|259:255|208:301|321:294,1,139.839995305664,2|8,1:2|0:2,0:0:0:0:
365,223,81675,6,0,P|408:265|499:253,1,139.839995305664,2|0,1:2|1:2,0:0:0:0:
444,174,82021,2,0,P|428:118|427:95,1,69.9199976528321,10|0,0:2|0:2,0:0:0:0:
357,38,82252,2,0,P|295:77|218:84,1,139.839995305664,2|8,1:2|0:2,0:0:0:0:
145,37,82598,2,0,P|94:69|82:151,1,139.839995305664,2|0,1:2|1:2,0:0:0:0:
156,207,82944,2,0,P|171:247|164:285,1,69.9199976528321,10|0,0:2|0:2,0:0:0:0:
100,344,83175,2,0,P|161:363|185:361,1,69.9199976528321,10|0,0:2|1:2,0:0:0:0:
254,317,83406,1,10,0:2:0:0:
413,52,83636,6,0,P|418:108|426:144,1,77.5200004731445,6|0,1:2|0:2,0:0:0:0:
342,190,83867,2,0,P|290:153|185:161,1,155.040000946289,10|10,0:2|0:2,0:0:0:0:
120,214,84213,1,0,1:2:0:0:
120,214,84329,2,0,P|99:166|100:132,1,77.5200004731445,8|2,0:2|1:2,0:0:0:0:
139,48,84560,2,0,P|218:31|313:32,2,155.040000946289,8|10|10,0:2|0:2|0:2,0:0:0:0:
44,82,85136,1,0,1:2:0:0:
44,82,85252,2,0,P|40:120|22:154,1,77.5200004731445,8|2,0:2|1:2,0:0:0:0:
26,255,85483,6,0,P|71:275|92:307,1,77.5200004731445,8|0,0:2|1:2,0:0:0:0:
168,356,85713,2,0,B|263:346|207:300|320:283,1,155.040000946289,10|10,0:2|0:2,0:0:0:0:
399,315,86060,1,0,1:2:0:0:
399,315,86175,2,0,P|417:263|416:222,1,77.5200004731445,8|2,0:2|1:2,0:0:0:0:
330,190,86406,2,0,P|312:138|313:97,1,77.5200004731445,8|0,0:2|1:2,0:0:0:0:
390,54,86636,2,0,P|342:78|228:91,1,155.040000946289,10|10,0:2|0:2,0:0:0:0:
150,48,86983,1,0,1:2:0:0:
150,48,87098,2,0,P|142:103|125:142,1,77.5200004731445,10|0,0:2|1:2,0:0:0:0:
65,197,87329,6,0,P|150:219|194:282,1,155.040000946289,6|10,1:2|0:2,0:0:0:0:
381,333,87790,2,0,P|394:279|409:247,1,77.5200004731445,10|0,0:2|1:2,0:0:0:0:
303,238,88021,2,0,P|290:184|275:152,1,77.5200004731445,8|2,0:2|1:2,0:0:0:0:
372,120,88252,2,0,P|385:66|400:34,1,77.5200004731445,8|0,0:2|1:2,0:0:0:0:
293,30,88483,2,0,P|247:66|144:84,1,155.040000946289,10|10,0:2|0:2,0:0:0:0:
60,46,88829,1,0,1:2:0:0:
60,46,88944,2,0,P|53:106|43:135,1,77.5200004731445,8|2,0:2|1:2,0:0:0:0:
129,181,89175,6,0,P|136:241|146:270,1,77.5200004731445,8|0,0:2|1:2,0:0:0:0:
119,356,89406,2,0,P|212:314|286:308,1,155.040000946289,10|10,0:2|0:2,0:0:0:0:
355,349,89752,1,0,1:2:0:0:
355,349,89867,2,0,P|380:303|384:268,1,77.5200004731445,8|2,0:2|1:2,0:0:0:0:
462,214,90098,2,0,P|437:168|433:133,1,77.5200004731445,8|0,0:2|1:2,0:0:0:0:
414,44,90329,2,0,L|319:66,1,77.5200004731445,10|8,0:2|0:2,0:0:0:0:
289,149,90560,2,0,L|213:131,1,77.5200004731445,10|8,0:2|0:2,0:0:0:0:
166,42,90790,2,0,L|90:59,1,77.5200004731445,10|8,0:2|0:2,0:0:0:0:
42,148,91021,6,0,P|112:187|159:255,1,155.040000946289,6|8,1:2|0:2,0:0:0:0:
202,336,91367,2,0,P|280:364|356:314,1,155.040000946289,6|8,1:2|0:2,0:0:0:0:
372,237,91713,2,0,P|385:155|422:73,1,155.040000946289,6|8,1:2|0:2,0:0:0:0:
319,47,92060,2,0,P|257:84|151:81,1,155.040000946289,6|8,1:2|0:2,0:0:0:0:
88,36,92406,2,0,P|76:96|64:132,1,77.5200004731445,10|8,0:3|0:3,0:0:0:0:
102,207,92636,1,10,0:2:0:0:
299,164,92867,6,0,P|366:195|386:303,1,155.040000946289,6|8,1:2|0:2,0:0:0:0:
318,335,93213,2,0,P|226:297|145:290,1,155.040000946289,6|8,1:2|0:2,0:0:0:0:
75,325,93560,2,0,P|57:214|24:149,1,155.040000946289,6|8,1:2|0:2,0:0:0:0:
59,76,93906,2,0,B|165:69|98:126|232:125,1,155.040000946289,6|8,1:2|0:2,0:0:0:0:
275,55,94252,2,0,P|332:37|360:35,1,77.5200004731445,10|8,0:3|0:3,0:0:0:0:
442,75,94483,1,12,0:2:0:0:
481,272,94713,6,0,P|425:190|359:193,1,155.040000946289,14|4,0:3|0:3,0:0:0:0:
305,260,95060,2,0,P|229:230|136:228,1,155.040000946289,10|4,0:3|0:3,0:0:0:0:
70,278,95406,2,0,P|64:180|39:102,1,155.040000946289,10|4,0:3|0:3,0:0:0:0:
118,52,95752,2,0,P|192:91|291:87,1,155.040000946289,10|4,0:3|0:3,0:0:0:0:
332,21,96098,2,0,P|349:100|351:119,1,77.5200004731445,10|4,0:3|0:3,0:0:0:0:
340,197,96329,1,12,0:0:0:0:
20,161,96560,6,0,B|321:147|101:355|470:341,1,498.560007607422,6|8,1:2|0:2,0:0:0:0:
449,232,97598,2,0,P|436:183|432:142,1,77.5200004731445,6|0,1:2|0:2,0:0:0:0:
449,47,97829,2,0,B|286:69|421:139|238:167,1,235.599990653077,6|0,1:2|0:0,0:0:0:0:
