osu file format v14

[General]
AudioFilename: audio.mp3
AudioLeadIn: 0
PreviewTime: 32117
Countdown: 0
SampleSet: Soft
StackLeniency: 0.7
Mode: 0
LetterboxInBreaks: 0
WidescreenStoryboard: 1

[Editor]
Bookmarks: 560,7944,17175,24560,31944,39329,46713,54098,61483,68867,76252,79944,83636,87329,91021
DistanceSpacing: 1.9
BeatDivisor: 4
GridSize: 32
TimelineZoom: 1.5

[Metadata]
Title:Walk This Way!
TitleUnicode:Walk This Way!
Artist:Kano
ArtistUnicode:鹿乃
Creator:Sotarks
Version:Extreme
Source:
Tags:Stella-rium niconico samfree hatsunemiku vocaloid jap japanese vocals vocalist jrock j-rock smokelind reform kujinn onlybiscuit akitoshi corinn -laura- collab collaboration
BeatmapID:1909554
BeatmapSetID:914242

[Difficulty]
HPDrainRate:5
CircleSize:3.8
OverallDifficulty:9.7
ApproachRate:9.8
SliderMultiplier:2.22
SliderTickRate:1

[Events]
//Background and Video events
0,0,"bg.jpg",0,0
Video,0,"video.mp4"
//Break Periods
//Storyboard Layer 0 (Background)
//Storyboard Layer 1 (Fail)
//Storyboard Layer 2 (Pass)
//Storyboard Layer 3 (Foreground)
//Storyboard Sound Samples

[TimingPoints]
560,230.769230769231,4,2,22,42,1,0
560,-161.290322580645,4,2,22,42,0,0
7021,-100,4,2,22,52,0,0
7944,-108.695652173913,4,2,22,62,0,0
17175,-138.888888888889,4,2,22,52,0,0
31944,-121.951219512195,4,2,22,62,0,0
44867,-108.695652173913,4,2,22,52,0,0
45560,-192.307692307692,4,2,22,52,0,0
46021,-192.307692307692,4,2,22,42,0,0
46252,-192.307692307692,4,2,22,32,0,0
46713,-98.0392156862744,4,2,22,72,0,1
68867,-161.290322580645,4,2,22,62,0,0
68925,-161.290322580645,4,2,22,52,0,0
76252,-108.695652173913,4,2,22,62,0,0
83636,-98.0392156862745,4,2,22,72,0,1
96560,-121.951219512195,4,2,22,62,0,0
97194,-121.951219512195,4,2,22,5,0,0
97252,-121.951219512195,4,2,22,62,0,0
97598,-98.0392156862745,4,2,22,62,0,0
97829,-161.290322580645,4,2,22,62,0,0
98521,-161.290322580645,4,2,22,42,0,0

[Colours]
Combo1 : 255,9,15
Combo2 : 255,243,21
Combo3 : 112,255,26
Combo4 : 17,255,255
Combo5 : 218,45,255

[HitObjects]
408,305,560,6,0,B|277:296|367:221|214:214,1,206.459991809143,6|0,1:2|0:2,0:0:0:0:
120,289,1021,1,2,1:2:0:0:
120,289,1136,2,0,P|106:243|97:221,1,68.8199972697145,2|0,0:2|0:2,0:0:0:0:
153,119,1367,2,0,P|193:62|285:63,2,137.639994539429,2|2|0,0:2|0:2|0:2,0:0:0:0:
233,215,1944,2,0,P|299:195|377:190,1,137.639994539429,2|2,1:2|0:2,0:0:0:0:
384,197,2406,6,0,P|377:271|372:339,1,137.639994539429,2|0,0:2|0:0,0:0:0:0:
283,370,2752,1,0,0:2:0:0:
221,315,2867,1,2,1:2:0:0:
221,315,2983,2,0,P|179:293|154:289,1,68.8199972697145,2|0,0:2|0:2,0:0:0:0:
35,208,3213,2,0,P|99:200|147:129,2,137.639994539429,2|2|0,0:2|0:2|0:2,0:0:0:0:
86,75,3790,2,0,P|134:50|165:49,1,68.8199972697145,2|0,1:2|0:2,0:0:0:0:
300,162,4021,2,0,P|267:154|239:136,1,68.8199972697145,2|0,0:2|0:2,0:0:0:0:
449,45,4252,6,0,P|385:66|340:206,1,206.459991809143,2|0,1:2|0:2,0:0:0:0:
389,300,4713,1,2,1:2:0:0:
389,300,4829,2,0,P|341:285|314:286,1,68.8199972697145,2|0,0:2|0:2,0:0:0:0:
216,355,5060,2,0,P|233:302|231:208,2,137.639994539429,2|2|0,0:2|0:2|0:2,0:0:0:0:
148,268,5636,2,0,P|137:214|129:193,1,68.8199972697145,2|0,1:2|0:2,0:0:0:0:
203,123,5867,2,0,P|214:69|222:48,1,68.8199972697145,2|0,0:2|0:2,0:0:0:0:
315,164,6098,6,0,P|366:159|430:98,1,137.639994539429,2|0,0:2|0:0,0:0:0:0:
338,70,6444,1,0,0:2:0:0:
295,158,6560,1,2,1:2:0:0:
295,158,6675,2,0,P|303:206|312:300,1,137.639994539429,2|2,0:2|0:2,0:0:0:0:
203,150,7021,1,10,0:2:0:0:
344,315,7136,1,2,1:2:0:0:
93,99,7367,1,2,1:2:0:0:
423,240,7598,1,0,1:2:0:0:
334,124,7713,2,0,P|323:170|315:234,1,111,12|0,0:2|0:0,0:0:0:0:
152,340,7944,6,0,P|194:310|244:297,1,102.1199965719,6|0,1:2|0:2,0:0:0:0:
410,234,8175,2,0,P|360:220|319:191,1,102.1199965719,10|0,0:2|0:2,0:0:0:0:
145,40,8406,2,0,P|166:95|173:144,1,102.1199965719,2|0,1:2|1:2,0:0:0:0:
242,297,8636,1,8,0:2:0:0:
380,87,8752,6,0,P|458:96|482:226,1,204.239993143799,2|0,1:2|1:2,0:0:0:0:
258,117,9098,2,0,P|266:66|285:19,1,102.1199965719,10|0,0:2|0:2,0:0:0:0:
410,234,9329,2,0,P|428:281|437:331,1,102.1199965719,2|0,1:2|1:2,0:0:0:0:
255,154,9560,1,8,0:2:0:0:
56,343,9675,6,0,B|169:339|134:275|259:263,1,204.239993143799,2|0,1:2|1:2,0:0:0:0:
452,126,10021,2,0,P|372:135|355:150,1,102.1199965719,10|0,0:2|0:2,0:0:0:0:
304,359,10252,2,0,P|324:304|326:254,1,102.1199965719,2|0,1:2|1:2,0:0:0:0:
258,117,10483,1,8,0:2:0:0:
90,297,10598,6,0,P|70:242|68:192,1,102.1199965719,2|0,1:2|0:0,0:0:0:0:
139,67,10829,1,0,1:2:0:0:
232,252,10944,2,0,P|252:197|254:147,1,102.1199965719,10|0,0:2|0:2,0:0:0:0:
44,87,11175,2,0,P|87:62|138:66,1,102.1199965719,2|0,1:2|1:2,0:0:0:0:
348,174,11406,2,0,P|297:178|254:152,1,102.1199965719,10|0,0:2|0:2,0:0:0:0:
17,94,11636,6,0,P|55:133|76:184,1,102.1199965719,6|0,1:2|0:2,0:0:0:0:
173,355,11867,2,0,P|194:308|230:272,1,102.1199965719,10|0,0:2|0:2,0:0:0:0:
405,91,12098,2,0,P|367:130|346:181,1,102.1199965719,2|0,1:2|1:2,0:0:0:0:
431,333,12329,1,8,0:2:0:0:
254,152,12444,6,0,P|191:136|122:256,1,204.239993143799,2|0,1:2|1:2,0:0:0:0:
405,91,12790,2,0,P|464:64|521:59,1,102.1199965719,10|0,0:2|0:2,0:0:0:0:
327,284,13021,2,0,P|276:274|231:251,1,102.1199965719,2|0,1:2|1:2,0:0:0:0:
142,121,13252,1,8,0:2:0:0:
447,208,13367,6,0,P|514:172|500:59,1,204.239993143799,2|0,1:2|1:2,0:0:0:0:
327,284,13713,2,0,P|302:230|300:184,1,102.1199965719,10|0,0:2|0:2,0:0:0:0:
169,25,13944,2,0,P|164:75|141:120,1,102.1199965719,2|0,1:2|1:2,0:0:0:0:
20,233,14175,1,8,0:2:0:0:
252,53,14290,6,0,B|354:56|315:126|448:125,1,204.239993143799,2|0,1:2|1:2,0:0:0:0:
204,197,14636,2,0,P|138:224|100:216,1,102.1199965719,10|0,0:2|0:0,0:0:0:0:
344,295,14867,2,0,P|394:293|438:317,1,102.1199965719,2|0,1:2|1:2,0:0:0:0:
280,149,15098,2,0,P|256:91|251:48,1,102.1199965719,10|0,0:2|0:2,0:0:0:0:
169,332,15329,5,10,0:2:0:0:
25,193,15444,1,4,0:3:0:0:
267,171,15560,1,4,0:3:0:0:
32,323,15675,5,10,0:3:0:0:
140,120,15790,1,4,0:3:0:0:
274,332,15906,1,4,0:3:0:0:
25,294,16021,5,10,0:3:0:0:
238,144,16136,1,4,0:3:0:0:
170,369,16252,1,4,0:3:0:0:
118,142,16367,5,10,0:3:0:0:
337,252,16483,1,4,0:3:0:0:
115,255,16598,1,4,0:3:0:0:
295,78,16713,5,10,0:3:0:0:
295,341,16829,1,4,0:3:0:0:
87,94,16944,1,12,0:2:0:0:
376,162,17175,5,6,1:2:0:0:
376,162,17290,2,0,P|383:122|398:86,1,79.9200019511719,2|0,0:2|0:2,0:0:0:0:
260,220,17521,1,2,1:2:0:0:
260,220,17636,2,0,P|253:180|238:144,1,79.9200019511719,10|0,0:2|0:2,0:0:0:0:
295,341,17867,1,2,0:2:0:0:
295,341,17983,6,0,B|198:327|236:372|136:361,1,159.840003902344,2|2,1:2|0:2,0:0:0:0:
54,222,18329,2,0,P|57:261|66:300,1,79.9200019511719,2|0,1:2|0:2,0:0:0:0:
191,180,18560,2,0,P|199:141|203:101,1,79.9200019511719,10|0,0:2|0:2,0:0:0:0:
280,259,18790,2,0,P|332:236|363:191,1,79.9200019511719,2|0,1:2|0:2,0:0:0:0:
427,63,19021,5,2,1:2:0:0:
449,201,19136,1,2,0:2:0:0:
402,49,19252,1,2,0:2:0:0:
424,187,19367,1,2,1:2:0:0:
280,113,19483,2,0,P|235:100|191:103,1,79.9200019511719,10|0,0:2|0:0,0:0:0:0:
158,251,19713,5,0,0:2:0:0:
158,251,19829,2,0,P|197:250|235:238,1,79.9200019511719,2|0,1:2|0:2,0:0:0:0:
393,172,20060,1,2,0:2:0:0:
393,172,20175,2,0,P|384:216|382:261,1,79.9200019511719,0|2,1:2|0:2,0:0:0:0:
275,57,20406,2,0,P|282:98|286:157,1,79.9200019511719,10|0,0:2|0:2,0:0:0:0:
137,12,20636,2,0,P|129:53|121:198,1,159.840003902344,2|0,1:2|1:2,0:0:0:0:
269,355,21098,6,0,P|227:343|180:339,1,79.9200019511719,2|0,0:2|1:2,0:0:0:0:
375,268,21329,2,0,P|402:252|382:123,1,159.840003902344,10|0,0:2|0:2,0:0:0:0:
271,222,21675,5,0,1:2:0:0:
271,222,21790,2,0,P|257:182|251:127,1,79.9200019511719,2|0,0:2|0:2,0:0:0:0:
141,260,22021,2,0,P|67:282|10:231,1,159.840003902344,2|8,1:2|0:2,0:0:0:0:
237,68,22483,2,0,P|285:73|325:110,1,79.9200019511719,2|0,0:2|0:2,0:0:0:0:
384,245,22713,5,2,1:2:0:0:
384,245,22829,2,0,P|389:194|399:144,1,79.9200019511719,2|0,0:2|0:2,0:0:0:0:
258,315,23060,1,2,1:2:0:0:
258,315,23176,2,0,P|254:272|243:214,1,79.9200019511719,10|0,0:2|0:2,0:0:0:0:
165,108,23406,1,2,0:2:0:0:
165,108,23521,2,0,P|158:147|155:187,1,79.9200019511719,2|0,1:2|0:0,0:0:0:0:
100,33,23752,5,2,0:2:0:0:
255,96,23867,2,0,P|301:80|357:72,1,79.9200019511719,2|8,1:2|0:2,0:0:0:0:
497,207,24098,1,10,0:2:0:0:
369,75,24213,1,8,0:2:0:0:
341,256,24329,1,2,1:2:0:0:
411,75,24444,1,8,0:2:0:0:
207,222,24560,5,6,1:2:0:0:
207,222,24675,2,0,P|159:241|118:237,1,79.9200019511719,2|0,0:2|0:2,0:0:0:0:
312,314,24906,1,2,1:2:0:0:
312,314,25021,2,0,P|360:333|401:329,1,79.9200019511719,10|0,0:2|0:2,0:0:0:0:
381,142,25252,1,2,0:2:0:0:
381,142,25367,6,0,P|371:192|364:250,1,79.9200019511719,2|0,1:2|0:0,0:0:0:0:
201,57,25598,2,0,P|211:107|218:165,1,79.9200019511719,2|2,0:2|1:2,0:0:0:0:
330,55,25829,1,0,0:2:0:0:
330,55,25944,2,0,P|376:33|434:35,1,79.9200019511719,10|0,0:2|0:2,0:0:0:0:
230,220,26175,2,0,P|190:214|155:195,1,79.9200019511719,2|0,1:2|0:2,0:0:0:0:
43,76,26406,5,2,1:2:0:0:
64,232,26521,1,2,0:2:0:0:
24,84,26636,1,2,0:2:0:0:
45,240,26751,1,2,1:2:0:0:
130,108,26867,2,0,P|177:90|229:91,1,79.9200019511719,10|2,0:0|0:0,0:0:0:0:
322,237,27098,1,2,0:0:0:0:
322,237,27213,2,0,P|282:232|245:217,1,79.9200019511719,2|0,1:2|0:2,0:0:0:0:
285,45,27444,5,2,0:2:0:0:
285,45,27560,2,0,P|296:96|300:149,1,79.9200019511719,2|2,1:2|0:2,0:0:0:0:
144,242,27790,2,0,P|148:202|157:163,1,79.9200019511719,10|0,0:2|0:2,0:0:0:0:
322,237,28021,2,0,P|330:275|334:315,1,79.9200019511719,2|0,1:2|0:2,0:0:0:0:
166,240,28252,1,0,1:2:0:0:
166,240,28483,6,0,P|211:218|262:223,1,79.9200019511719,2|0,0:2|1:2,0:0:0:0:
395,332,28713,2,0,P|344:329|334:224,1,159.840003902344,10|0,0:2|0:2,0:0:0:0:
426,98,29060,1,0,1:2:0:0:
426,98,29175,6,0,P|436:145|429:188,1,79.9200019511719,2|0,0:2|0:2,0:0:0:0:
221,74,29406,2,0,P|266:40|349:98,1,159.840003902344,2|8,1:2|0:2,0:0:0:0:
202,283,29867,2,0,P|162:302|122:296,1,79.9200019511719,2|0,0:2|0:2,0:0:0:0:
26,172,30098,6,0,P|35:228|36:276,1,79.9200019511719,2|0,1:2|0:2,0:0:0:0:
162,101,30329,1,2,0:2:0:0:
143,209,30444,1,2,1:2:0:0:
77,68,30560,2,0,P|108:26|163:14,1,79.9200019511719,10|0,0:2|0:2,0:0:0:0:
295,123,30790,1,2,0:2:0:0:
157,150,30906,1,2,0:2:0:0:
361,54,31021,6,0,P|347:105|342:149,1,79.9200019511719,2|10,1:2|0:3,0:0:0:0:
238,297,31252,2,0,P|231:257|220:219,1,79.9200019511719,10|10,0:2|0:3,0:0:0:0:
92,129,31483,1,10,0:2:0:0:
369,236,31598,1,8,0:2:0:0:
87,326,31713,1,8,0:2:0:0:
162,84,31829,1,8,0:2:0:0:
334,323,31944,6,0,P|405:335|480:248,1,182.04000277771,6|10,1:2|0:2,0:0:0:0:
456,103,32290,1,0,0:2:0:0:
352,226,32406,2,0,P|297:209|258:204,1,91.020001388855,2|0,1:2|1:2,0:0:0:0:
362,72,32636,1,10,0:2:0:0:
232,280,32752,2,0,P|218:189|185:77,1,182.04000277771,2|0,0:2|0:0,0:0:0:0:
117,249,33098,2,0,P|65:275|20:279,1,91.020001388855,10|0,0:2|0:2,0:0:0:0:
66,68,33329,2,0,P|110:76|150:98,1,91.020001388855,2|0,1:2|1:2,0:0:0:0:
247,240,33560,1,10,0:2:0:0:
247,240,33790,6,0,B|357:221|288:302|443:298,1,182.04000277771,2|8,1:2|0:2,0:0:0:0:
373,112,34136,2,0,P|379:170|388:209,2,91.020001388855,2|0|0,0:2|1:2|1:2,0:0:0:0:
211,33,34483,2,0,P|206:143|197:236,1,182.04000277771,10|0,0:2|0:0,0:0:0:0:
119,300,34829,1,0,0:0:0:0:
28,201,34944,2,0,P|83:169|117:165,1,91.020001388855,10|0,0:2|0:2,0:0:0:0:
240,328,35175,2,0,P|195:317|158:292,1,91.020001388855,2|0,1:2|1:2,0:0:0:0:
291,174,35406,1,8,0:2:0:0:
291,174,35636,6,0,P|337:217|459:183,1,182.04000277771,2|10,1:2|0:2,0:0:0:0:
482,86,35983,1,0,0:2:0:0:
346,49,36098,2,0,P|369:112|375:146,1,91.020001388855,2|0,1:2|1:2,0:0:0:0:
304,290,36329,1,10,0:2:0:0:
245,75,36444,2,0,B|134:61|181:151|58:143,1,182.04000277771,2|0,0:2|0:0,0:0:0:0:
188,254,36790,2,0,P|211:190|216:160,1,91.020001388855,10|0,0:2|0:2,0:0:0:0:
26,79,37021,2,0,P|35:123|53:165,1,91.020001388855,2|0,1:2|1:2,0:0:0:0:
188,291,37252,1,10,0:2:0:0:
188,291,37483,6,0,P|240:226|352:238,1,182.04000277771,2|8,1:2|0:2,0:0:0:0:
467,306,37829,2,0,P|426:261|417:204,2,91.020001388855,2|0|0,0:2|1:2|1:2,0:0:0:0:
468,124,38175,2,0,P|363:86|271:80,1,182.04000277771,10|0,0:2|0:0,0:0:0:0:
197,144,38521,1,0,0:0:0:0:
84,47,38636,2,0,P|99:100|106:144,1,91.020001388855,10|0,0:2|0:2,0:0:0:0:
209,261,38867,2,0,P|217:216|230:172,1,91.020001388855,2|0,1:2|1:2,0:0:0:0:
115,303,39098,1,8,0:2:0:0:
115,303,39329,5,6,1:2:0:0:
186,63,39444,1,10,0:2:0:0:
320,250,39560,1,10,0:2:0:0:
43,195,39675,1,10,0:2:0:0:
379,42,39906,1,2,1:2:0:0:
257,322,40136,6,0,B|319:179|242:186|285:45,1,273.060004166565,6|8,1:2|0:2,0:0:0:0:
397,177,40598,2,0,P|411:217|419:269,1,91.020001388855,8|0,0:3|0:2,0:0:0:0:
199,133,40829,1,8,0:3:0:0:
199,133,40944,2,0,P|185:173|177:225,1,91.020001388855,4|0,0:3|0:2,0:0:0:0:
363,70,41175,5,6,1:2:0:0:
118,73,41290,1,10,0:2:0:0:
284,238,41406,1,10,0:2:0:0:
245,2,41521,1,10,0:2:0:0:
80,329,41752,1,2,1:2:0:0:
20,90,41983,6,0,P|103:67|174:140,1,182.04000277771,6|0,1:2|0:2,0:0:0:0:
86,270,42329,2,0,P|81:224|67:165,1,91.020001388855,10|0,0:2|0:2,0:0:0:0:
214,29,42560,2,0,P|204:73|199:118,1,91.020001388855,10|0,0:2|1:2,0:0:0:0:
298,270,42790,2,0,P|302:224|313:180,1,91.020001388855,10|0,0:2|0:2,0:0:0:0:
508,84,43021,6,0,P|445:79|394:179,1,182.04000277771,4|2,1:2|0:2,0:0:0:0:
502,319,43367,1,2,1:2:0:0:
493,238,43483,2,0,B|397:245|448:298|306:316,1,182.04000277771,10|0,0:2|0:2,0:0:0:0:
217,163,43829,2,0,P|237:202|254:248,1,91.020001388855,2|0,1:2|0:2,0:0:0:0:
322,83,44060,2,0,P|337:40|358:0,1,91.020001388855,2|2,0:2|0:2,0:0:0:0:
130,158,44290,1,2,1:2:0:0:
130,158,44406,2,0,P|115:115|94:75,1,91.020001388855,10|0,0:2|0:2,0:0:0:0:
276,274,44636,2,0,P|291:231|312:191,1,91.020001388855,2|0,1:2|0:2,0:0:0:0:
28,216,44867,6,0,P|112:206|145:248,1,102.1199965719,6|0,1:2|0:2,0:0:0:0:
172,341,45098,1,8,0:2:0:0:
302,133,45213,2,0,P|281:209|272:269,1,102.1199965719,6|0,1:2|0:2,0:0:0:0:
333,354,45444,1,8,0:2:0:0:
512,179,45560,6,0,B|387:171|430:98|293:102,1,230.87999859082,6|0,1:2|0:2,0:0:0:0:
169,140,46713,6,0,P|151:201|145:283,1,113.22000069104,6|0,1:2|0:2,0:0:0:0:
344,329,46944,2,0,P|336:272|321:218,1,113.22000069104,10|0,0:2|0:2,0:0:0:0:
154,102,47175,2,0,P|136:163|130:245,1,113.22000069104,2|0,1:2|1:2,0:0:0:0:
343,106,47406,1,10,0:2:0:0:
257,319,47521,2,0,P|371:359|428:284,1,226.44000138208,2|0,0:2|0:2,0:0:0:0:
330,84,47867,2,0,P|265:63|191:53,1,113.22000069104,10|0,0:2|0:2,0:0:0:0:
56,237,48098,2,0,P|111:227|164:208,1,113.22000069104,2|0,1:2|1:2,0:0:0:0:
56,18,48329,2,0,P|36:71|26:126,1,113.22000069104,10|0,0:2|0:2,0:0:0:0:
263,236,48560,6,0,P|246:182|219:131,1,113.22000069104,2|0,1:2|0:2,0:0:0:0:
419,31,48790,2,0,P|392:81|375:134,1,113.22000069104,10|0,0:2|0:2,0:0:0:0:
236,273,49021,2,0,P|219:219|192:168,1,113.22000069104,2|0,1:2|1:2,0:0:0:0:
140,372,49252,1,10,0:2:0:0:
286,125,49367,2,0,P|187:73|90:138,1,226.44000138208,2|0,0:2|0:2,0:0:0:0:
298,326,49713,2,0,P|363:318|431:289,1,113.22000069104,10|0,0:2|0:2,0:0:0:0:
192,169,49944,2,0,P|138:150|82:144,1,113.22000069104,2|0,1:2|1:2,0:0:0:0:
340,246,50175,2,0,P|390:219|433:182,1,113.22000069104,10|0,0:2|0:2,0:0:0:0:
210,20,50406,6,0,P|196:133|181:273,1,226.44000138208,2|8,1:2|0:2,0:0:0:0:
370,375,50752,2,0,P|363:312|355:250,1,113.22000069104,2|0,0:2|1:2,0:0:0:0:
230,51,50983,1,0,1:2:0:0:
248,324,51098,2,0,P|112:310|91:198,1,226.44000138208,10|0,0:2|1:2,0:0:0:0:
286,125,51444,2,0,P|351:105|410:103,1,113.22000069104,2|8,0:2|0:2,0:0:0:0:
465,287,51675,1,0,0:2:0:0:
256,142,51790,2,0,P|196:129|119:122,1,113.22000069104,2|0,1:2|1:2,0:0:0:0:
334,293,52021,2,0,P|393:280|471:273,1,113.22000069104,10|0,0:2|0:2,0:0:0:0:
502,32,52252,6,0,P|415:-16|298:73,1,226.44000138208,2|8,1:2|0:2,0:0:0:0:
220,228,52598,2,0,P|223:294|233:372,1,113.22000069104,2|0,0:2|1:2,0:0:0:0:
404,172,52829,1,0,1:2:0:0:
197,46,52944,2,0,P|89:66|42:164,1,226.44000138208,10|0,0:2|1:2,0:0:0:0:
190,323,53290,6,0,P|249:311|312:278,1,113.22000069104,2|8,0:2|0:2,0:0:0:0:
367,76,53521,1,0,0:2:0:0:
411,345,53636,2,0,P|442:293|461:225,1,113.22000069104,2|0,1:2|1:2,0:0:0:0:
278,65,53867,2,0,P|282:121|299:175,1,113.22000069104,10|0,0:2|0:2,0:0:0:0:
512,154,54098,6,0,P|462:140|389:161,1,113.22000069104,6|0,1:2|0:2,0:0:0:0:
242,275,54329,2,0,P|296:287|350:273,1,113.22000069104,10|0,0:2|0:2,0:0:0:0:
512,140,54560,2,0,P|462:126|389:147,1,113.22000069104,2|0,1:2|1:2,0:0:0:0:
461,287,54790,1,10,0:2:0:0:
323,15,54906,2,0,P|259:123|312:225,1,226.44000138208,2|0,0:2|0:2,0:0:0:0:
440,357,55252,2,0,P|453:271|469:212,1,113.22000069104,10|0,0:2|0:2,0:0:0:0:
229,174,55483,2,0,P|241:229|248:285,1,113.22000069104,2|0,1:2|1:2,0:0:0:0:
459,369,55713,2,0,P|472:283|488:224,1,113.22000069104,10|0,0:2|0:2,0:0:0:0:
294,116,55944,6,0,P|238:94|173:108,1,113.22000069104,2|0,1:2|0:2,0:0:0:0:
18,266,56175,2,0,P|73:272|125:251,1,113.22000069104,10|0,0:2|0:2,0:0:0:0:
304,100,56406,2,0,P|248:78|183:92,1,113.22000069104,2|2,1:2|1:2,0:0:0:0:
65,187,56636,1,10,0:2:0:0:
364,212,56752,2,0,P|412:93|345:-13,1,226.44000138208,2|0,0:2|0:2,0:0:0:0:
232,212,57098,2,0,P|253:301|263:362,1,113.22000069104,10|0,0:2|0:2,0:0:0:0:
464,248,57329,2,0,P|475:192|488:137,1,113.22000069104,2|0,1:2|1:2,0:0:0:0:
212,227,57560,2,0,P|233:316|243:377,1,113.22000069104,10|0,0:2|0:2,0:0:0:0:
256,53,57790,6,0,P|148:38|72:137,1,226.44000138208,2|8,1:2|0:2,0:0:0:0:
117,293,58136,2,0,P|192:311|247:289,1,113.22000069104,2|0,0:2|1:2,0:0:0:0:
372,201,58367,1,0,1:2:0:0:
202,138,58483,2,0,P|227:252|253:381,1,226.44000138208,10|0,0:2|1:2,0:0:0:0:
461,247,58829,2,0,P|477:142|488:92,1,113.22000069104,2|8,0:2|0:2,0:0:0:0:
365,33,59060,1,0,0:2:0:0:
258,249,59175,2,0,P|199:278|137:274,1,113.22000069104,2|0,1:2|1:2,0:0:0:0:
26,82,59406,2,0,P|82:84|131:111,1,113.22000069104,10|0,0:2|0:2,0:0:0:0:
78,374,59636,6,0,P|34:253|72:158,1,226.44000138208,2|8,1:2|0:2,0:0:0:0:
251,75,59983,2,0,P|281:153|269:217,1,113.22000069104,2|0,0:2|1:2,0:0:0:0:
161,295,60213,1,0,1:2:0:0:
0,94,60329,2,0,P|99:41|222:92,1,226.44000138208,10|0,0:2|1:2,0:0:0:0:
302,262,60675,2,0,P|230:300|152:281,1,113.22000069104,2|8,0:2|0:2,0:0:0:0:
77,224,60906,1,0,0:2:0:0:
305,94,61021,1,2,1:2:0:0:
136,349,61136,1,8,0:2:0:0:
130,60,61252,1,10,0:2:0:0:
376,241,61367,1,8,0:2:0:0:
162,172,61483,5,6,1:2:0:0:
162,172,61598,2,0,P|178:54|191:35,1,113.22000069104,2|8,0:2|0:2,0:0:0:0:
352,259,61829,2,0,P|367:312|363:369,1,113.22000069104,2|0,0:2|1:2,0:0:0:0:
104,261,62060,2,0,P|58:150|60:127,1,113.22000069104,2|8,1:2|0:2,0:0:0:0:
335,78,62290,2,0,P|457:45|470:53,1,113.22000069104,2|0,0:2|1:2,0:0:0:0:
260,213,62521,2,0,P|204:207|161:171,1,113.22000069104,2|8,0:2|0:2,0:0:0:0:
416,133,62752,1,2,0:2:0:0:
416,133,62867,2,0,P|439:255|446:275,1,113.22000069104,2|0,1:2|1:2,0:0:0:0:
198,56,63098,2,0,P|191:112|178:167,1,113.22000069104,10|0,0:2|0:2,0:0:0:0:
59,331,63329,5,2,1:2:0:0:
59,331,63444,2,0,P|174:295|189:302,1,113.22000069104,2|8,0:2|0:2,0:0:0:0:
434,347,63675,2,0,P|378:341|334:306,1,113.22000069104,2|0,0:2|1:2,0:0:0:0:
226,68,63906,2,0,P|268:178|266:190,1,113.22000069104,2|8,1:2|0:2,0:0:0:0:
35,220,64136,2,0,P|44:164|77:119,1,113.22000069104,2|0,0:2|1:2,0:0:0:0:
207,293,64367,1,2,0:2:0:0:
207,293,64483,2,0,P|197:237|164:192,1,113.22000069104,10|0,0:2|0:2,0:0:0:0:
85,329,64713,1,2,1:2:0:0:
180,158,64829,1,0,1:2:0:0:
85,329,64944,1,8,0:2:0:0:
437,359,65175,6,0,B|455:206|371:296|390:93,1,226.44000138208,6|8,1:2|0:2,0:0:0:0:
440,37,65521,1,0,0:2:0:0:
301,103,65636,2,0,P|183:62|171:63,1,113.22000069104,0|0,1:2|1:2,0:0:0:0:
97,206,65867,1,10,0:2:0:0:
97,206,65983,2,0,P|259:154|347:153,1,226.44000138208,2|0,0:2|0:2,0:0:0:0:
383,284,66329,2,0,P|262:249|252:251,1,113.22000069104,8|0,0:2|0:2,0:0:0:0:
171,365,66560,1,2,1:2:0:0:
298,331,66675,1,0,1:2:0:0:
81,234,66790,1,10,0:2:0:0:
358,38,67021,6,0,P|450:103|400:205,1,226.44000138208,2|8,1:2|0:2,0:0:0:0:
295,123,67367,2,0,P|177:91|148:102,1,113.22000069104,2|0,0:2|1:2,0:0:0:0:
54,212,67598,1,0,1:2:0:0:
0,70,67713,2,0,P|118:38|147:49,1,113.22000069104,10|0,0:2|0:2,0:0:0:0:
216,229,67944,5,4,1:2:0:0:
85,119,68060,1,10,0:2:0:0:
125,292,68175,1,8,0:2:0:0:
234,141,68290,1,8,0:2:0:0:
54,212,68406,1,10,0:3:0:0:
174,62,68521,1,4,0:3:0:0:
216,229,68636,1,10,0:3:0:0:
85,119,68752,1,4,0:3:0:0:
257,145,68867,6,0,B|331:141|310:92|389:86,1,137.639994539429,6|0,1:2|0:0,0:0:0:0:
468,274,69329,2,0,P|455:207|395:181,1,137.639994539429,2|0,1:2|0:0,0:0:0:0:
247,341,69790,1,2,0:2:0:0:
247,341,69906,2,0,P|239:308|227:272,1,68.8199972697145,2|0,0:2|0:0,0:0:0:0:
89,345,70136,1,2,0:2:0:0:
89,345,70252,2,0,P|100:274|117:204,1,137.639994539429,0|0,1:2|0:2,0:0:0:0:
225,53,70713,6,0,P|235:108|166:167,1,137.639994539429,2|2,0:2|0:2,0:0:0:0:
326,47,71175,2,0,P|357:26|389:12,1,68.8199972697145,2|2,1:2|0:2,0:0:0:0:
468,137,71406,2,0,P|439:117|408:103,1,68.8199972697145,2|0,0:2|0:2,0:0:0:0:
342,217,71636,1,2,0:2:0:0:
342,217,71752,2,0,L|320:139,1,68.8199972697145,2|0,0:2|0:2,0:0:0:0:
442,306,71982,1,2,0:2:0:0:
442,306,72098,2,0,L|464:228,1,68.8199972697145,0|0,1:2|0:2,0:0:0:0:
323,366,72329,2,0,L|253:348,1,68.8199972697145,0|0,0:2|0:0,0:0:0:0:
39,242,72560,6,0,B|112:245|92:276|176:290,1,137.639994539429,2|0,1:2|0:0,0:0:0:0:
297,133,73021,2,0,P|240:129|200:195,1,137.639994539429,2|0,1:2|0:0,0:0:0:0:
36,62,73483,1,2,0:2:0:0:
36,62,73598,2,0,P|50:98|58:144,1,68.8199972697145,2|0,0:2|0:0,0:0:0:0:
182,16,73829,1,2,0:2:0:0:
182,16,73944,2,0,P|168:52|160:98,1,68.8199972697145,0|0,1:2|0:0,0:0:0:0:
318,135,74175,2,0,P|310:101|297:69,1,68.8199972697145,0|0,0:2|0:0,0:0:0:0:
466,18,74406,6,0,P|450:90|441:163,1,137.639994539429,2|2,0:2|0:2,0:0:0:0:
264,280,74867,2,0,P|301:226|389:220,1,137.639994539429,2|2,1:2|0:2,0:0:0:0:
126,200,75329,5,10,0:2:0:0:
185,354,75444,1,2,1:2:0:0:
488,152,75675,6,0,B|421:167|444:207|358:214,1,137.639994539429,2|2,1:2|1:2,0:0:0:0:
257,103,76021,2,0,P|291:115|328:146,1,68.8199972697145,12|0,0:2|0:2,0:0:0:0:
85,290,76252,6,0,P|93:235|116:160,1,102.1199965719,2|0,1:2|0:2,0:0:0:0:
236,3,76483,2,0,P|249:52|256:102,1,102.1199965719,10|0,0:2|0:2,0:0:0:0:
57,312,76713,2,0,P|65:257|88:182,1,102.1199965719,2|0,1:2|1:2,0:0:0:0:
208,45,76944,1,8,0:2:0:0:
208,287,77060,6,0,P|307:291|362:202,1,204.239993143799,2|0,1:2|1:2,0:0:0:0:
159,112,77406,2,0,P|101:96|50:99,1,102.1199965719,10|0,0:2|0:2,0:0:0:0:
95,338,77636,2,0,P|145:338|194:323,1,102.1199965719,2|0,1:2|1:2,0:0:0:0:
253,112,77867,1,8,0:2:0:0:
360,327,77983,6,0,P|371:227|388:120,1,204.239993143799,2|0,1:2|1:2,0:0:0:0:
197,5,78329,2,0,P|204:55|210:106,1,102.1199965719,10|0,0:2|0:2,0:0:0:0:
60,297,78560,2,0,P|65:246|73:195,1,102.1199965719,2|0,1:2|1:2,0:0:0:0:
166,0,78790,1,8,0:2:0:0:
216,251,78906,6,0,B|341:239|277:157|410:163,1,204.239993143799,2|0,1:2|1:2,0:0:0:0:
122,113,79252,2,0,P|90:175|83:253,1,102.1199965719,10|0,0:2|0:2,0:0:0:0:
355,120,79483,2,0,P|341:70|316:26,1,102.1199965719,2|0,1:2|1:2,0:0:0:0:
181,207,79713,2,0,P|176:276|202:350,1,102.1199965719,10|0,0:2|0:2,0:0:0:0:
430,237,79944,6,0,P|358:208|289:211,1,102.1199965719,2|0,1:2|0:2,0:0:0:0:
180,381,80175,2,0,P|230:372|275:349,1,102.1199965719,10|0,0:2|0:2,0:0:0:0:
432,225,80406,2,0,P|360:196|291:199,1,102.1199965719,2|0,1:2|1:2,0:0:0:0:
181,207,80636,1,8,0:2:0:0:
491,310,80752,6,0,P|528:236|457:127,1,204.239993143799,2|0,1:2|1:2,0:0:0:0:
308,220,81098,2,0,P|293:283|288:332,1,102.1199965719,10|0,0:2|0:2,0:0:0:0:
156,158,81329,2,0,P|143:108|136:57,1,102.1199965719,2|0,1:2|1:2,0:0:0:0:
67,260,81560,1,8,0:2:0:0:
275,98,81675,6,0,B|407:103|336:163|464:175,1,204.239993143799,2|0,1:2|1:2,0:0:0:0:
346,324,82021,2,0,P|295:351|226:346,1,102.1199965719,10|0,0:2|0:2,0:0:0:0:
99,152,82252,2,0,P|149:155|193:180,1,102.1199965719,2|0,1:2|1:2,0:0:0:0:
107,312,82483,1,8,0:2:0:0:
213,69,82598,6,0,P|226:159|248:299,1,204.239993143799,2|0,1:2|1:2,0:0:0:0:
372,136,82944,2,0,P|382:59|387:7,1,102.1199965719,10|0,0:2|0:2,0:0:0:0:
429,306,83175,1,10,0:2:0:0:
253,83,83290,1,0,1:2:0:0:
500,168,83406,1,10,0:2:0:0:
500,168,83636,6,0,P|422:174|374:198,1,113.22000069104,6|0,1:2|0:2,0:0:0:0:
146,99,83867,2,0,P|199:117|255:118,1,113.22000069104,10|0,0:2|0:2,0:0:0:0:
424,24,84098,1,10,0:2:0:0:
269,160,84213,1,0,1:2:0:0:
456,273,84329,1,8,0:2:0:0:
386,141,84444,1,2,1:2:0:0:
232,331,84560,5,8,0:2:0:0:
440,237,84675,1,0,1:2:0:0:
255,118,84790,2,0,P|201:99|145:98,1,113.22000069104,10|0,0:2|0:2,0:0:0:0:
36,298,85021,1,10,0:2:0:0:
200,213,85136,1,0,1:2:0:0:
34,54,85252,1,8,0:2:0:0:
97,187,85367,1,2,1:2:0:0:
280,24,85483,5,8,0:2:0:0:
139,85,85598,1,0,1:2:0:0:
286,243,85713,2,0,P|342:242|395:223,1,113.22000069104,10|0,0:2|0:2,0:0:0:0:
280,68,85944,1,10,0:2:0:0:
200,213,86060,1,0,1:2:0:0:
401,304,86175,1,8,0:2:0:0:
322,157,86290,1,2,1:2:0:0:
186,346,86406,5,8,0:2:0:0:
309,260,86521,1,0,1:2:0:0:
177,129,86636,2,0,P|121:130|68:149,1,113.22000069104,10|0,0:2|0:2,0:0:0:0:
213,317,86867,1,10,0:2:0:0:
322,157,86983,1,0,1:2:0:0:
116,255,87098,1,10,0:2:0:0:
283,367,87213,1,0,1:2:0:0:
213,133,87329,6,0,P|220:77|246:27,1,113.22000069104,6|0,1:2|0:2,0:0:0:0:
412,175,87560,2,0,P|437:225|445:281,1,113.22000069104,10|0,0:2|0:2,0:0:0:0:
244,141,87790,1,10,0:2:0:0:
283,367,87905,1,0,1:2:0:0:
382,171,88021,1,8,0:2:0:0:
261,286,88136,1,2,1:2:0:0:
134,118,88252,5,8,0:2:0:0:
340,160,88367,1,0,1:2:0:0:
161,289,88483,2,0,P|106:301|49:295,1,113.22000069104,10|0,0:2|0:2,0:0:0:0:
235,85,88713,1,10,0:2:0:0:
349,257,88829,1,0,1:2:0:0:
137,213,88944,1,8,0:2:0:0:
332,107,89060,1,2,1:2:0:0:
211,289,89175,5,8,0:2:0:0:
198,75,89290,1,0,1:2:0:0:
349,257,89406,2,0,P|361:312|355:369,1,113.22000069104,10|0,0:2|0:2,0:0:0:0:
165,181,89636,1,10,0:2:0:0:
382,171,89752,1,0,1:2:0:0:
250,383,89867,1,8,0:2:0:0:
292,178,89983,1,2,1:2:0:0:
145,358,90098,6,0,P|88:356|34:336,1,113.22000069104,8|0,0:2|1:2,0:0:0:0:
222,100,90329,1,10,0:2:0:0:
252,339,90444,1,8,0:2:0:0:
318,83,90560,1,10,0:2:0:0:
201,274,90675,1,8,0:2:0:0:
143,16,90790,1,10,0:2:0:0:
292,178,90906,1,8,0:2:0:0:
65,119,91021,6,0,P|89:180|98:242,1,113.22000069104,6|0,1:2|0:2,0:0:0:0:
82,338,91252,1,8,0:2:0:0:
236,49,91367,2,0,P|212:110|203:172,1,113.22000069104,6|0,1:2|0:2,0:0:0:0:
219,268,91598,1,8,0:2:0:0:
329,138,91713,2,0,P|353:199|362:261,1,113.22000069104,6|0,1:2|0:2,0:0:0:0:
346,357,91944,1,8,0:2:0:0:
505,71,92060,2,0,P|481:132|486:298,1,226.44000138208,6|8,1:2|0:2,0:0:0:0:
241,65,92406,1,10,0:3:0:0:
504,175,92521,1,8,0:3:0:0:
256,299,92636,1,10,0:2:0:0:
256,299,92867,6,0,P|195:273|132:271,1,113.22000069104,6|0,1:2|0:2,0:0:0:0:
45,313,93098,1,8,0:2:0:0:
268,161,93213,2,0,P|329:187|392:189,1,113.22000069104,6|0,1:2|0:2,0:0:0:0:
479,147,93444,1,8,0:2:0:0:
252,315,93560,2,0,P|191:289|128:287,1,113.22000069104,6|0,1:2|0:2,0:0:0:0:
41,329,93791,1,8,0:2:0:0:
274,137,93906,2,0,P|335:163|491:127,1,226.44000138208,6|8,1:2|0:2,0:0:0:0:
211,49,94252,1,10,0:3:0:0:
374,289,94367,1,8,0:3:0:0:
422,29,94483,1,12,0:2:0:0:
422,29,94713,5,14,0:3:0:0:
335,232,94829,1,4,0:3:0:0:
232,27,94944,1,4,0:3:0:0:
447,176,95060,5,10,0:3:0:0:
178,171,95175,1,4,0:3:0:0:
324,73,95291,1,4,0:3:0:0:
229,289,95406,5,10,0:3:0:0:
143,72,95521,1,4,0:3:0:0:
334,179,95636,1,4,0:3:0:0:
78,222,95752,5,10,0:3:0:0:
260,95,95867,1,4,0:3:0:0:
240,337,95983,1,4,0:3:0:0:
110,74,96098,5,10,0:3:0:0:
119,361,96213,1,4,0:3:0:0:
363,178,96329,1,12,0:0:0:0:
458,349,96560,6,0,B|127:321|339:164|21:152,1,500.610007638703,6|0,1:2|0:2,0:0:0:0:
8,130,97252,2,0,P|-2:84|-1:52,2,45.5100006944275,0|0|0,1:2|1:2|1:2,0:0:0:0:
147,34,97483,1,8,0:2:0:0:
34,253,97598,5,6,1:2:0:0:
34,253,97829,6,0,B|314:229|134:95|405:85,1,412.919983618287,6|0,1:2|0:2,0:0:0:0:
