osu file format v14

[General]
AudioFilename: Walk This Way.mp3
AudioLeadIn: 0
PreviewTime: 46131
Countdown: 0
SampleSet: None
StackLeniency: 0.7
Mode: 0
LetterboxInBreaks: 0
WidescreenStoryboard: 1

[Editor]
DistanceSpacing: 1
BeatDivisor: 2
GridSize: 4
TimelineZoom: 2.999999

[Metadata]
Title:Walk This Way!
TitleUnicode:Walk This Way!
Artist:Kano
ArtistUnicode:鹿乃
Creator:Rumia-
Version:Insane
Source:
Tags:Stella-rium
BeatmapID:1538882
BeatmapSetID:728975

[Difficulty]
HPDrainRate:4
CircleSize:4
OverallDifficulty:7
ApproachRate:9
SliderMultiplier:1.65
SliderTickRate:1

[Events]
//Background and Video events
0,0,"walk this way.jpg",0,0
//Break Periods
2,69004,71666
2,72696,74666
2,76388,84820
2,89312,90127
2,137312,139973
2,141003,142973
//Storyboard Layer 0 (Background)
//Storyboard Layer 1 (Fail)
//Storyboard Layer 2 (Pass)
//Storyboard Layer 3 (Foreground)
//Storyboard Sound Samples

[TimingPoints]
497,230.769230769231,4,2,0,30,1,0
958,-133.333333333333,4,2,0,30,0,0
2804,-133.333333333333,4,2,0,30,0,0
7650,-76.9230769230769,4,2,0,30,0,0
7881,-133.333333333333,4,2,0,30,0,0
17112,-133.333333333333,4,2,0,30,0,0
31881,-117.647058823529,4,2,0,30,0,0
46650,-100,4,2,0,30,0,1
68804,-133.333333333333,4,2,0,15,0,0
72266,-133.333333333333,4,2,0,15,0,0
75266,-133.333333333333,4,2,0,45,0,0
76189,-133.333333333333,4,2,0,30,0,0
85420,-133.333333333333,4,2,0,45,0,0
92804,-133.333333333333,4,2,0,45,0,0
114958,-100,4,2,0,60,0,1
137112,-133.333333333333,4,2,0,45,0,0
144497,-100,4,2,0,45,0,1
147150,-133.333333333333,4,2,0,45,0,0
147497,-133.333333333333,4,2,0,25,0,0
148189,-100,4,2,0,45,0,1
150843,-133.333333333333,4,2,0,45,0,0
151881,-133.333333333333,4,2,0,45,0,0
162958,-90.9090909090909,4,2,0,30,0,1
166650,-111.111111111111,4,2,0,30,0,1
174035,-133.333333333333,4,2,0,30,0,0
181420,-133.333333333333,4,2,0,30,0,0
185112,-133.333333333333,4,2,0,30,0,0
186958,-133.333333333333,4,2,0,30,0,0
188804,-117.647058823529,4,2,0,30,0,0
189612,-133.333333333333,4,2,0,30,0,0
190650,-100,4,2,0,30,0,1
212804,-133.333333333333,4,2,0,15,0,0
220189,-133.333333333333,4,2,0,30,0,0
227573,-100,4,2,0,30,0,0
238650,-133.333333333333,4,2,0,30,0,0
240497,-133.333333333333,4,2,0,30,0,0
241766,-133.333333333333,4,2,0,30,0,0

[HitObjects]
288,256,497,6,0,B|344:248|344:248|408:260|408:260|472:248,1,165
344,328,958,2,0,L|256:344,1,61.875002360344
404,180,1304,2,0,L|492:164,1,61.875002360344
436,88,1535,2,0,B|368:104|368:104|300:88,1,123.750004720688
184,172,1881,2,0,B|252:156|252:156|320:172,1,123.750004720688
212,84,2343,6,0,L|144:100,1,61.875002360344
24,148,2689,1,0,0:0:0:0:
24,148,2804,2,0,L|96:176,1,61.875002360344
132,260,3150,2,0,L|56:276,1,61.875002360344
152,340,3381,2,0,L|84:356,1,61.875002360344
224,272,3612,1,0,0:0:0:0:
252,348,3727,2,0,P|292:312|284:224,2,123.750004720688
452,268,4650,6,0,B|460:232|460:232|448:192,1,61.875002360344
288,168,4997,2,0,B|280:208|280:208|296:244,1,61.875002360344
364,284,5227,2,0,B|376:232|376:232|364:200|364:200|376:148,1,123.750004720688
440,100,5573,2,0,B|376:120|376:120|304:84,1,123.750004720688
384,36,6035,5,0,0:0:0:0:
384,36,6150,1,0,0:0:0:0:
128,348,6496,1,0,0:0:0:0:
60,284,6612,2,0,B|120:264|120:264|180:280,1,123.750004720688
356,332,6958,2,0,L|420:324,1,61.875002360344
256,200,7304,2,0,L|320:192,2,61.875002360344
176,268,7650,2,0,P|152:212|192:112,1,160.874992635727
200,108,7881,6,0,L|336:92,1,123.750004720688
478,317,8343,2,0,L|342:333,1,123.750004720688
268,276,8689,2,0,L|136:264,1,123.750004720688
76,336,9035,1,0,0:0:0:0:
232,196,9266,2,0,L|170:189,1,61.875002360344
168,280,9497,1,0,0:0:0:0:
240,356,9612,6,0,P|300:356|352:296,1,123.750004720688
368,224,9958,2,0,L|440:232,1,61.875002360344
504,132,10189,2,0,L|428:136,1,61.875002360344
368,68,10420,1,0,0:0:0:0:
368,68,10535,2,0,P|332:80|232:48,1,123.750004720688
232,144,10881,2,0,P|276:160|312:164,1,61.875002360344
172,220,11112,2,0,P|128:236|92:240,1,61.875002360344
36,188,11343,1,0,0:0:0:0:
64,348,11573,6,0,L|196:336,1,123.750004720688
336,336,12035,2,0,P|364:284|332:216,1,123.750004720688
284,276,12381,2,0,L|160:268,1,123.750004720688
68,256,12727,1,0,0:0:0:0:
224,184,12958,2,0,P|240:136|240:104,1,61.875002360344
224,28,13189,1,0,0:0:0:0:
224,28,13304,6,0,B|284:40|284:40|356:28,1,123.750004720688
456,88,13650,2,0,L|376:104,1,61.875002360344
328,168,13881,2,0,L|252:156,2,61.875002360344
360,252,14227,2,0,B|388:276|388:276|356:308|356:308|352:368,1,123.750004720688
432,348,14573,2,0,L|496:344,1,61.875002360344
484,196,14804,2,0,L|420:200,1,61.875002360344
328,168,15035,1,0,0:0:0:0:
120,276,15266,6,0,P|84:288|40:288,2,61.875002360344
132,180,15612,2,0,P|109:149|95:107,2,61.875002360344
228,160,15958,2,0,P|251:129|287:105,2,61.875002360344
268,248,16304,2,0,P|303:260|338:287,2,61.875002360344
208,320,16650,2,0,P|206:357|191:399,2,61.875002360344
204,72,17112,6,0,L|272:64,1,61.875002360344
148,148,17343,2,0,L|12:132,1,123.750004720688
64,304,17804,1,0,0:0:0:0:
144,344,17920,2,0,P|192:352|264:320,1,123.750004720688
320,268,18266,2,0,L|388:276,1,61.875002360344
408,352,18497,2,0,P|452:324|460:248,1,123.750004720688
240,216,18958,5,0,0:0:0:0:
216,300,19073,1,0,0:0:0:0:
152,236,19189,2,0,L|80:236,1,61.875002360344
24,156,19420,2,0,L|152:156,1,123.750004720688
236,128,19766,2,0,P|288:140|324:204,2,123.750004720688
240,216,20343,1,0,0:0:0:0:
312,60,20573,1,0,0:0:0:0:
360,244,21035,6,0,L|432:236,2,61.875002360344
140,152,21727,2,0,L|72:140,2,61.875002360344
256,232,22420,2,0,L|268:296,1,61.875002360344
184,296,22650,6,0,L|164:360,2,61.875002360344
96,300,22997,1,0,0:0:0:0:
24,340,23112,2,0,P|16:284|60:228,1,123.750004720688
140,216,23458,1,0,0:0:0:0:
338,302,23689,2,0,P|315:322|288:336,2,61.875002360344
411,340,24035,2,0,P|422:310|424:280,1,61.875002360344
352,228,24266,2,0,L|256:236,1,92.812503540516
228,236,24497,6,0,P|224:192|232:156,1,61.875002360344
380,60,24843,2,0,P|384:104|375:140,1,61.875002360344
208,84,25189,1,0,0:0:0:0:
152,160,25304,2,0,B|92:168|92:168|20:152,2,123.750004720688
100,88,25881,1,0,0:0:0:0:
48,256,26112,1,0,0:0:0:0:
236,308,26343,6,0,L|224:376,2,61.875002360344
304,248,26689,2,0,L|296:176,2,61.875002360344
340,336,27035,1,0,0:0:0:0:
340,336,27150,2,0,B|404:312|404:312|472:340,1,123.750004720688
492,268,27497,2,0,B|436:244|436:244,1,61.875002360344
368,184,27727,1,0,0:0:0:0:
480,80,27958,1,0,0:0:0:0:
368,184,28189,6,0,L|236:168,1,123.750004720688
196,40,28650,1,0,0:0:0:0:
196,40,29112,2,0,P|180:84|184:116,1,61.875002360344
192,192,29343,1,0,0:0:0:0:
192,192,29804,6,0,P|144:192|120:188,1,61.875002360344
48,168,30035,2,0,L|60:296,1,123.750004720688
128,348,30381,1,0,0:0:0:0:
128,348,30497,2,0,L|216:344,1,61.875002360344
264,296,30727,2,0,L|336:304,1,61.875002360344
392,356,30958,6,0,P|416:316|416:284,1,61.875002360344
496,272,31189,2,0,P|472:228|440:212,1,61.875002360344
380,184,31420,2,0,L|312:196,3,61.875002360344
336,92,31881,5,0,0:0:0:0:
266,300,32112,1,0,0:0:0:0:
236,224,32343,2,0,B|179:224|179:224|144:240|144:240|80:240,1,140.250002675056
68,164,32689,2,0,B|124:164|124:164|160:148|160:148|212:148,1,140.250002675056
304,172,33035,2,0,P|320:212|316:244,1,70.1250013375282
368,312,33266,2,0,L|452:308,1,70.1250013375282
488,240,33497,1,0,0:0:0:0:
304,172,33727,6,0,L|448:164,1,140.250002675056
360,92,34073,2,0,L|216:88,1,140.250002675056
176,160,34420,2,0,P|140:112|172:24,1,140.250002675056
80,168,34881,2,0,L|68:240,1,70.1250013375282
152,280,35112,2,0,L|164:356,3,70.1250013375282
256,340,35573,6,0,L|408:348,1,140.250002675056
476,232,36035,2,0,P|492:176|472:84,1,140.250002675056
400,52,36381,2,0,L|244:56,1,140.250002675056
184,96,36727,2,0,L|108:80,1,70.1250013375282
32,172,36958,2,0,L|108:164,1,70.1250013375282
188,264,37189,2,0,L|112:248,1,70.1250013375282
244,160,37420,6,0,P|268:112|268:80,2,70.1250013375282
272,256,37766,2,0,P|260:308|244:328,2,70.1250013375282
324,188,38112,2,0,L|472:176,1,140.250002675056
192,344,38573,2,0,L|96:340,1,70.1250013375282
56,300,38804,2,0,P|52:256|68:216,1,70.1250013375282
124,180,39035,2,0,L|200:184,1,70.1250013375282
272,256,39266,6,0,L|348:264,1,70.1250013375282
428,272,39497,1,0,0:0:0:0:
428,272,39612,1,0,0:0:0:0:
324,184,39843,1,0,0:0:0:0:
464,176,40073,6,0,L|308:184,1,140.250002675056
240,148,40420,1,0,0:0:0:0:
240,148,40535,1,0,0:0:0:0:
152,124,40650,2,0,L|148:48,1,70.1250013375282
76,180,40881,2,0,L|72:252,1,70.1250013375282
104,328,41112,6,0,P|56:332|24:324,2,70.1250013375282
180,264,41458,1,0,0:0:0:0:
316,340,41689,1,0,0:0:0:0:
464,280,41920,6,0,B|480:228|480:228|468:140,1,140.250002675056
400,68,42266,2,0,L|384:144,1,70.1250013375282
300,192,42497,2,0,L|292:120,1,70.1250013375282
220,56,42727,2,0,L|204:132,1,70.1250013375282
152,192,42958,6,0,B|104:204|104:204|8:192,1,140.250002675056
100,124,43304,1,0,0:0:0:0:
100,124,43420,2,0,L|16:116,1,70.1250013375282
128,300,43766,1,0,0:0:0:0:
128,300,44112,6,0,P|172:292|216:304,1,70.1250013375282
268,352,44343,2,0,P|312:356|344:348,1,70.1250013375282
408,292,44573,1,0,0:0:0:0:
408,292,44804,6,0,P|392:216|424:144,1,140.250002675056
432,88,45150,2,0,L|276:88,1,140.250002675056
216,148,45497,1,0,0:0:0:0:
216,148,46189,6,0,B|159:153|159:153|120:144|120:144|56:148,1,140.250002675056
100,220,46650,2,0,B|140:244|140:244|128:320|128:320|56:328,1,165
204,336,47112,2,0,L|216:244,1,82.5
300,216,47343,1,0,0:0:0:0:
300,216,47458,2,0,B|348:236|348:236|472:232,1,165
468,148,47804,2,0,L|380:152,1,82.5
268,60,48035,2,0,L|376:56,1,82.5
432,44,48266,1,0,0:0:0:0:
236,140,48497,6,0,P|192:96|212:-4,1,165
208,337,48958,2,0,B|276:300|276:300|300:216,1,165
211,242,49304,2,0,B|156:276|156:276|56:284,1,165
40,200,49650,2,0,L|132:196,1,82.5
236,140,49881,2,0,L|336:144,1,82.5
384,232,50112,2,0,L|492:224,1,82.5
328,308,50343,6,0,P|300:268|336:152,1,165
392,80,50689,2,0,B|436:72|436:72|484:80,2,82.5
284,68,51035,2,0,P|228:56|144:124,1,165
128,208,51381,1,0,0:0:0:0:
128,208,51497,2,0,L|32:200,1,82.5
56,328,51727,2,0,L|152:320,1,82.5
246,296,51958,2,0,L|330:308,1,82.5
444,336,52189,6,0,B|476:272|476:272|472:168,1,165
392,80,52535,2,0,L|400:264,1,165
316,328,52881,2,0,P|312:256|204:228,1,165
128,208,53227,2,0,B|84:224|84:224|28:212,2,82.5
196,120,53573,2,0,B|212:76|192:24,1,82.5
244,224,53804,2,0,P|248:272|236:320,1,82.5
288,144,54035,6,0,B|360:132|360:132|476:152,1,165
456,292,54497,2,0,L|280:280,1,165
224,336,54843,2,0,P|208:288|280:196,1,165
364,188,55189,2,0,P|412:192|464:188,1,82.5
288,120,55420,2,0,P|224:124|176:112,1,82.5
128,68,55650,1,0,0:0:0:0:
128,68,55881,6,0,B|128:128|128:128|144:164|144:164|140:232,1,165
68,300,56227,1,0,0:0:0:0:
60,204,56343,2,0,B|60:176|60:176|48:144|48:144|48:112,2,82.5
68,300,56689,2,0,P|144:292|224:344,1,165
300,340,57035,2,0,P|292:280|280:244,1,82.5
352,192,57266,2,0,P|356:136|376:96,1,82.5
288,48,57497,1,0,0:0:0:0:
288,48,57727,6,0,B|232:64|232:64|96:52,1,165
56,124,58073,2,0,L|228:140,1,165
264,224,58420,2,0,B|200:232|200:232|156:224|156:224|92:232,1,165
96,316,58766,2,0,B|160:308|160:308|204:316|204:316|268:308,1,165
352,292,59112,2,0,P|408:296|452:304,1,82.5
492,216,59343,2,0,P|440:216|388:204,1,82.5
336,152,59573,6,0,P|340:104|360:60,2,82.5
264,224,59920,2,0,B|212:236|212:236|68:224,1,165
16,244,60266,2,0,B|8:208|24:172|24:172|12:136|12:136|24:96|16:52,1,165
92,120,60612,2,0,L|264:128,1,165
332,68,60958,1,0,0:0:0:0:
364,72,61073,1,0,0:0:0:0:
396,76,61189,1,0,0:0:0:0:
428,80,61304,1,0,0:0:0:0:
460,84,61420,6,0,P|472:136|460:192,1,82.5
420,236,61650,1,0,0:0:0:0:
420,236,61766,2,0,L|312:228,1,82.5
276,296,61997,2,0,L|180:288,1,82.5
120,344,62227,2,0,P|100:288|160:196,1,165
40,48,62689,1,0,0:0:0:0:
40,48,62804,2,0,P|48:104|32:152,1,82.5
136,116,63035,2,0,P|172:108|232:120,1,82.5
292,184,63266,5,0,0:0:0:0:
292,184,63381,2,0,B|352:196|352:196|480:176,2,165
192,340,64073,2,0,P|164:244|204:168,1,165
236,112,64420,1,0,0:0:0:0:
344,312,64650,2,0,P|364:272|368:224,1,82.5
448,244,64881,2,0,P|428:180|400:156,1,82.5
400,84,65112,6,0,B|356:76|356:76|316:100|316:100|308:56|280:32|240:4|184:32|160:60|156:108|156:108|116:84|116:84|68:88,1,412.5
20,160,65804,1,0,0:0:0:0:
20,160,65920,2,0,B|152:184|152:184|64:264,1,247.5
252,332,66497,2,0,B|300:320|300:320|360:332,1,82.5
400,244,66727,2,0,B|352:256|352:256|292:244,1,82.5
188,180,66958,6,0,B|236:164|236:164|352:184,1,165
436,92,67304,2,0,B|388:108|388:108|272:88,1,165
192,56,67650,1,0,0:0:0:0:
192,56,67766,1,0,0:0:0:0:
192,56,67881,2,0,P|140:60|96:52,3,82.5
12,124,68343,2,0,P|60:124|100:140,3,82.5
164,196,68804,5,0,0:0:0:0:
264,124,72266,6,0,B|264:172|264:172|252:208|252:208|252:260,1,123.750004720688
376,312,75266,6,0,L|456:304,1,61.875002360344
308,232,75612,2,0,B|264:220|264:220|168:236,1,123.750004720688
172,316,75958,2,0,B|260:300|260:300|296:312,1,123.750004720688
132,128,85420,6,0,P|92:136|52:124,2,61.875002360344
272,40,85881,2,0,P|284:108|268:172,1,123.750004720688
216,220,86227,2,0,B|264:204|264:204|360:216,1,123.750004720688
416,160,86573,2,0,P|424:116|412:76,1,61.875002360344
472,240,86804,2,0,P|480:308|464:364,1,123.750004720688
312,360,87266,6,0,B|268:344|268:344|184:352,1,123.750004720688
92,340,87612,1,0,0:0:0:0:
92,340,87727,2,0,B|64:288|64:288|60:216,1,123.750004720688
128,180,88073,2,0,P|120:236|40:272,1,123.750004720688
52,120,88535,1,0,0:0:0:0:
52,120,88650,2,0,L|40:48,2,61.875002360344
32,280,89112,1,0,0:0:0:0:
320,360,90727,6,0,P|356:352|392:324,1,61.875002360344
448,288,90958,2,0,P|420:264|372:260,1,61.875002360344
324,220,91189,2,0,P|312:260|324:292,1,61.875002360344
424,192,91420,2,0,B|436:140|436:140|428:40,1,123.750004720688
344,92,91766,1,0,0:0:0:0:
344,92,91997,2,0,L|340:16,2,61.875002360344
248,144,92343,2,0,L|256:220,2,61.875002360344
24,84,92804,5,0,0:0:0:0:
24,84,92920,2,0,L|112:88,1,61.875002360344
248,144,93150,1,0,0:0:0:0:
248,144,93266,2,0,L|160:148,1,61.875002360344
96,184,93497,2,0,L|84:320,1,123.750004720688
168,352,93843,2,0,L|180:228,1,123.750004720688
179,228,94189,1,0,0:0:0:0:
304,344,94420,1,0,0:0:0:0:
452,248,94650,6,0,L|380:236,2,61.875002360344
272,184,94997,2,0,L|344:172,2,61.875002360344
184,232,95343,2,0,L|188:299,1,61.875002360344
96,176,95573,2,0,P|84:108|104:48,1,123.750004720688
275,64,96035,2,0,P|287:132|267:192,1,123.750004720688
160,276,96497,6,0,L|24:260,1,123.750004720688
96,176,96958,1,0,0:0:0:0:
96,176,97420,2,0,P|140:184|168:176,1,61.875002360344
236,132,97650,1,0,0:0:0:0:
256,280,97881,1,0,0:0:0:0:
384,336,98112,6,0,L|396:268,1,61.875002360344
448,232,98343,2,0,B|396:248|396:248|324:220,1,123.750004720688
229,193,98689,1,0,0:0:0:0:
229,193,98804,2,0,L|237:113,1,61.875002360344
28,104,99150,1,0,0:0:0:0:
28,104,99266,6,0,B|72:84|72:84|148:96,1,123.750004720688
72,176,99612,1,0,0:0:0:0:
76,200,99727,1,0,0:0:0:0:
80,224,99843,1,0,0:0:0:0:
84,248,99958,1,0,0:0:0:0:
88,272,100073,1,0,0:0:0:0:
36,340,100189,6,0,B|92:352|92:352|172:328,1,123.750004720688
312,320,100650,2,0,B|368:308|368:308|444:320,1,123.750004720688
480,248,100997,2,0,L|344:224,1,123.750004720688
288,168,101343,2,0,P|284:128|288:100,1,61.875002360344
376,56,101573,2,0,P|380:96|376:124,1,61.875002360344
288,168,101804,2,0,L|168:160,1,92.812503540516
176,160,102035,6,0,L|188:304,1,123.750004720688
64,368,102381,2,0,L|72:236,1,123.750004720688
62,154,102727,2,0,P|115:135|179:163,1,123.750004720688
204,344,103189,2,0,P|240:352|288:344,1,61.875002360344
340,296,103420,2,0,P|376:288|424:296,1,61.875002360344
468,352,103650,2,0,P|476:296|476:272,1,61.875002360344
488,200,103881,6,0,L|344:188,1,123.750004720688
196,128,104343,2,0,L|340:120,1,123.750004720688
248,52,104689,2,0,L|120:48,1,123.750004720688
84,120,105035,2,0,L|4:116,1,61.875002360344
136,208,105266,2,0,L|216:204,1,61.875002360344
84,292,105497,2,0,L|4:288,1,61.875002360344
188,344,105727,6,0,L|216:272,1,61.875002360344
210,286,105958,1,0,0:0:0:0:
300,336,106073,2,0,L|328:264,1,61.875002360344
322,278,106304,1,0,0:0:0:0:
408,340,106420,2,0,L|436:268,1,61.875002360344
430,282,106651,1,0,0:0:0:0:
472,100,106881,1,0,0:0:0:0:
264,48,107112,2,0,L|336:44,1,61.875002360344
224,148,107343,2,0,L|156:140,1,61.875002360344
68,96,107573,6,0,L|60:24,2,61.875002360344
80,188,107920,1,0,0:0:0:0:
164,332,108150,1,0,0:0:0:0:
328,328,108381,2,0,P|392:308|460:328,1,123.750004720688
464,240,108727,2,0,L|484:176,1,61.875002360344
436,116,108958,2,0,L|456:52,1,61.875002360344
372,48,109189,2,0,L|300:52,1,61.875002360344
244,112,109420,6,0,L|168:104,2,61.875002360344
320,164,109766,2,0,L|316:292,1,123.750004720688
136,344,110227,2,0,L|140:216,1,123.750004720688
56,288,110573,2,0,L|52:360,1,61.875002360344
220,272,110804,2,0,L|224:200,1,61.875002360344
68,136,111035,2,0,L|64:208,1,61.875002360344
144,60,111266,6,0,B|196:80|196:80|280:60,1,123.750004720688
348,104,111612,1,0,0:0:0:0:
348,104,111727,2,0,L|416:92,1,61.875002360344
281,281,112073,2,0,L|205:269,1,61.875002360344
452,348,112420,2,0,L|460:280,1,61.875002360344
496,232,112650,2,0,B|472:268|472:268|456:184,1,123.750004720688
348,104,113112,6,0,L|372:240,1,123.750004720688
268,352,113458,2,0,L|292:216,1,123.750004720688
176,204,113804,2,0,L|52:200,1,123.750004720688
404,268,114497,6,0,B|432:276|440:320|440:320|471:305|471:305|512:312,1,123.750004720688
360,332,114958,6,0,B|368:364|368:364|268:352|268:352|296:312,1,165
208,292,115304,1,0,0:0:0:0:
208,292,115420,2,0,B|176:332|176:332|120:320|120:320|96:344|60:348,1,165
48,260,115766,2,0,B|48:228|64:200|64:200|44:172|44:172|60:144|60:144|44:112,1,165
144,164,116112,2,0,P|196:176|236:156,1,82.5
355,40,116343,2,0,P|315:32|276:44,1,82.5
480,104,116573,2,0,L|472:240,1,123.75
464,244,116804,6,0,P|392:228|312:296,1,165
232,328,117150,1,0,0:0:0:0:
232,328,117266,2,0,B|228:264|228:264|248:224|248:224|240:164,1,165
168,204,117612,2,0,B|140:240|140:240|52:216|52:216|44:160,1,165
72,108,117958,2,0,L|172:124,1,82.5
309,61,118189,2,0,L|228:48,1,82.5
352,156,118420,2,0,L|452:172,1,82.5
488,256,118650,6,0,P|436:252|352:332,1,165
256,352,118997,2,0,L|268:188,1,165
168,204,119343,2,0,P|104:224|8:176,1,165
92,128,119689,2,0,B|208:104|208:104|144:84,1,165
248,28,120035,2,0,L|336:40,1,82.5
448,176,120266,2,0,L|364:180,1,82.5
252,224,120497,6,0,L|256:316,1,82.5
176,344,120727,1,0,0:0:0:0:
96,312,120843,2,0,L|120:128,1,165
32,68,121189,2,0,L|124:60,1,82.5
212,48,121420,1,0,0:0:0:0:
264,128,121535,2,0,P|316:132|388:52,1,165
484,96,121881,2,0,L|472:184,1,82.5
382,298,122112,2,0,L|376:216,1,82.5
476,348,122343,6,0,B|424:332|424:332|304:344,1,165
228,288,122689,1,0,0:0:0:0:
228,288,122804,2,0,B|176:300|176:300|48:288,1,165
88,208,123150,2,0,B|168:214|168:214|252:196,1,165
376,100,123497,2,0,P|432:96|488:108,1,82.5
464,297,123727,2,0,P|408:301|352:289,1,82.5
308,320,123958,1,0,0:0:0:0:
308,320,124189,6,0,B|236:304|236:304|128:320,1,165
40,256,124535,1,0,0:0:0:0:
40,256,124650,2,0,B|84:236|84:236|84:168|84:168|32:148,1,165
32,60,124997,2,0,B|96:80|96:80|208:64,1,165
296,36,125343,2,0,L|284:136,1,82.5
192,260,125573,2,0,L|184:177,1,82.5
268,336,125804,2,0,P|320:328|376:336,1,82.5
440,340,126035,6,0,B|480:216|480:216|428:232,1,165
348,268,126381,2,0,B|308:144|308:144|360:160,1,165
440,152,126727,2,0,B|444:100|496:68|496:68|456:68|420:44,1,165
332,64,127073,2,0,B|280:72|236:36|236:36|256:76|236:132,1,165
140,72,127420,2,0,L|40:60,1,82.5
124,168,127650,2,0,L|24:156,1,82.5
120,266,127881,6,0,B|92:260|92:260|40:272,2,82.5
188,328,128227,2,0,B|248:336|248:336|356:320,1,165
416,264,128573,2,0,L|496:280,2,82.5
328,216,128920,2,0,B|296:224|276:248|276:248|288:112,1,165
224,24,129266,2,0,L|212:120,1,82.5
112,228,129497,2,0,L|124:136,1,82.5
36,44,129727,6,0,B|44:136|44:136|32:232,1,165
28,316,130073,2,0,B|92:304|92:304|200:324,1,165
280,272,130420,1,0,0:0:0:0:
356,336,130535,2,0,P|372:288|344:208,1,123.75
320,188,130766,2,0,L|220:200,1,82.5
152,252,130997,1,0,0:0:0:0:
152,252,131112,2,0,L|44:232,1,82.5
0,156,131343,2,0,L|84:140,1,82.5
168,68,131573,6,0,L|64:48,2,82.5
200,152,131920,2,0,B|256:132|264:76|264:76|288:104|328:116,1,165
348,36,132266,1,0,0:0:0:0:
448,48,132381,2,0,B|444:84|412:112|412:112|440:160|440:160|432:216,1,165
468,288,132727,2,0,L|368:280,1,82.5
232,348,132958,2,0,L|328:348,1,82.5
184,272,133189,2,0,L|84:264,1,82.5
24,192,133420,6,0,L|208:184,1,165
308,180,133766,1,0,0:0:0:0:
392,124,133881,2,0,L|384:36,2,82.5
468,188,134227,2,0,P|416:224|408:324,1,165
308,348,134573,2,0,L|316:264,1,82.5
308,180,134804,2,0,L|208:188,1,82.5
144,56,135035,2,0,L|240:48,1,82.5
64,104,135266,6,0,B|96:152|96:152|72:276,1,165
188,336,135612,2,0,B|156:288|156:288|180:164,1,165
264,184,135958,2,0,B|248:269|248:269|288:272|288:272|316:304,1,165
392,356,136304,2,0,B|412:320|412:320|460:316|460:316|484:272|484:272|476:240,1,165
388,232,136650,1,0,0:0:0:0:
388,232,136766,1,0,0:0:0:0:
388,232,136881,1,0,0:0:0:0:
388,232,136997,1,0,0:0:0:0:
388,232,137112,5,0,0:0:0:0:
176,192,140573,6,0,L|312:188,1,123.750004720688
404,324,143573,5,0,0:0:0:0:
404,324,143689,2,0,L|268:308,1,123.750004720688
180,236,144150,2,0,L|200:168,2,61.875002360344
377,233,144497,6,0,L|296:224,1,82.5
389,149,144727,2,0,L|308:140,1,82.5
397,65,144958,2,0,L|316:56,3,82.5
228,72,145420,6,0,L|216:160,1,82.5
132,100,145650,2,0,L|120:188,1,82.5
36,132,145881,2,0,L|24:220,3,82.5
48,304,146343,6,0,P|96:292|148:312,1,82.5
216,336,146573,2,0,P|264:348|316:328,1,82.5
364,284,146804,2,0,L|448:292,2,82.5
252,256,147150,1,0,0:0:0:0:
252,132,147497,6,0,L|252:256,1,123.750004720688
44,304,148189,6,0,L|144:288,1,82.5
120,196,148420,2,0,L|20:180,1,82.5
48,84,148650,2,0,L|148:68,3,82.5
224,36,149112,6,0,L|244:120,1,82.5
336,168,149343,2,0,L|356:64,1,82.5
436,48,149573,2,0,L|472:136,3,82.5
464,216,150035,6,0,L|448:304,1,82.5
368,344,150266,2,0,L|272:328,1,82.5
212,264,150497,2,0,L|228:176,2,82.5
128,336,150843,1,0,0:0:0:0:
336,200,151189,6,0,P|344:144|332:92,1,92.812503540516
336,88,151420,2,0,B|416:104|473:87|473:87|440:132,1,185.625007081032
260,148,151881,6,0,P|236:100|264:24,1,123.750004720688
180,200,152343,2,0,L|192:284,2,61.875002360344
96,200,152689,2,0,L|112:328,1,123.750004720688
204,336,153035,2,0,P|236:324|280:344,1,61.875002360344
356,316,153266,2,0,P|424:332|480:304,1,123.750004720688
296,248,153727,6,0,L|288:160,1,61.875002360344
260,96,153958,1,0,0:0:0:0:
260,96,154189,2,0,B|196:104|196:104|120:96,1,123.750004720688
44,92,154535,2,0,L|56:224,1,123.750004720688
68,308,154881,1,0,0:0:0:0:
184,164,155112,2,0,L|176:80,2,61.875002360344
248,340,155573,6,0,B|312:324|312:324|392:336,1,123.750004720688
472,180,156035,2,0,L|480:104,2,61.875002360344
392,232,156381,2,0,P|324:240|256:204,1,123.750004720688
236,136,156727,2,0,L|248:12,1,123.750004720688
84,100,157189,1,0,0:0:0:0:
84,100,157304,2,0,L|100:236,1,123.750004720688
112,316,157650,1,0,0:0:0:0:
288,260,157881,6,0,P|316:216|320:196,2,61.875002360344
364,316,158227,2,0,P|392:360|396:380,2,61.875002360344
440,260,158573,2,0,L|464:116,2,123.750004720688
388,80,159266,6,0,L|248:56,1,123.750004720688
120,176,159727,2,0,L|44:160,2,61.875002360344
156,260,160073,2,0,P|196:228|200:140,1,123.750004720688
300,152,160420,2,0,L|376:168,1,61.875002360344
312,244,160650,2,0,L|388:260,1,61.875002360344
104,332,160997,6,0,P|72:284|80:208,1,123.750004720688
172,160,161343,2,0,L|256:172,1,61.875002360344
312,244,161573,2,0,L|396:236,1,61.875002360344
484,56,161920,6,0,P|408:88|324:32,1,185.625007081032
240,200,162497,1,0,0:0:0:0:
156,240,162612,1,0,0:0:0:0:
84,184,162727,2,0,L|88:120,1,61.875002360344
208,56,162958,6,0,L|268:20,2,60.5000018463135
300,64,163189,2,0,L|388:52,2,60.5000018463135
376,112,163420,2,0,L|444:124,2,60.5000018463135
432,180,163650,2,0,L|488:220,2,60.5000018463135
452,264,163881,6,0,L|476:328,2,60.5000018463135
360,240,164112,2,0,L|396:160,2,60.5000018463135
284,292,164343,2,0,L|308:356,2,60.5000018463135
196,268,164573,2,0,L|232:188,2,60.5000018463135
104,312,164804,6,0,L|172:304,2,60.5000018463135
188,272,165035,2,0,L|36:288,1,121.000003692627
88,196,165266,6,0,L|20:188,2,60.5000018463135
4,156,165497,2,0,L|156:172,1,121.000003692627
128,76,165727,6,0,L|196:68,2,60.5000018463135
216,44,165958,2,0,L|352:67,1,121.000003692627
424,92,166189,6,0,P|320:216|424:272,1,272.250008308411
480,256,166650,6,0,L|461:327,2,74.2499977340699
371,267,166997,2,0,L|352:338,2,74.2499977340699
260,272,167343,2,0,L|241:343,2,74.2499977340699
151,283,167690,2,0,L|132:354,2,74.2499977340699
40,280,168035,2,0,L|21:351,2,74.2499977340699
32,128,168497,6,0,L|50:56,2,74.2499977340699
141,117,168844,2,0,L|159:45,2,74.2499977340699
252,112,169190,2,0,L|270:40,2,74.2499977340699
361,101,169537,2,0,L|379:29,2,74.2499977340699
472,104,169882,2,0,L|490:32,2,74.2499977340699
193,276,170343,6,0,P|182:328|188:364,2,74.2499977340699
156,158,170689,2,0,P|103:163|71:180,2,74.2499977340699
257,87,171035,2,0,P|235:38|209:12,2,74.2499977340699
356,161,171381,2,0,P|395:125|412:92,2,74.2499977340699
316,277,171727,2,0,P|362:304|398:309,2,74.2499977340699
50,295,172189,6,0,L|134:283,2,74.2499977340699
256,200,172535,2,0,L|172:188,2,74.2499977340699
103,81,172881,2,0,L|30:92,1,74.2499977340699
184,24,173112,1,0,0:0:0:0:
184,24,174035,6,0,L|206:153,1,123.750004720688
256,264,174381,1,0,0:0:0:0:
256,264,174497,2,0,P|312:248|396:272,1,123.750004720688
448,336,174843,2,0,B|468:268|468:268|452:212,1,123.750004720688
368,172,175189,2,0,L|296:160,1,61.875002360344
440,92,175420,2,0,L|512:80,1,61.875002360344
356,40,175650,1,0,0:0:0:0:
356,40,175881,6,0,P|296:48|220:28,1,123.750004720688
188,108,176227,2,0,P|128:100|60:140,1,123.750004720688
24,48,176573,1,0,0:0:0:0:
144,188,176804,1,0,0:0:0:0:
24,336,177035,1,0,0:0:0:0:
144,188,177266,6,0,L|152:120,1,61.875002360344
208,336,177497,2,0,L|216:268,1,61.875002360344
308,239,177727,6,0,L|324:95,1,123.750004720688
408,112,178073,1,0,0:0:0:0:
408,112,178189,2,0,B|400:196|400:196|432:180|460:184,1,123.750004720688
456,268,178535,2,0,L|448:340,1,61.875002360344
368,296,178766,1,0,0:0:0:0:
368,296,178881,2,0,L|325:354,1,61.875002360344
276,268,179112,2,0,L|209:297,1,61.875002360344
216,200,179343,2,0,L|144:192,1,61.875002360344
36,176,179573,6,0,L|56:100,2,61.875002360344
136,108,179920,2,0,L|156:32,2,61.875002360344
232,108,180266,2,0,B|268:100|268:100|320:108|320:108|368:96,2,123.750004720688
480,120,180843,2,0,L|472:188,1,61.875002360344
404,212,181073,2,0,L|412:280,2,61.875002360344
488,336,181420,5,0,0:0:0:0:
416,348,181535,1,0,0:0:0:0:
344,356,181650,1,0,0:0:0:0:
268,356,181766,2,0,P|268:308|260:268,1,61.875002360344
152,196,181997,2,0,P|184:216|232:220,1,61.875002360344
368,116,182227,6,0,P|334:133|300:220,1,123.750004720688
404,212,182573,1,0,0:0:0:0:
404,212,182689,1,0,0:0:0:0:
476,108,182920,1,0,0:0:0:0:
476,108,183035,1,0,0:0:0:0:
352,28,183266,5,0,0:0:0:0:
280,36,183381,1,0,0:0:0:0:
208,48,183497,1,0,0:0:0:0:
136,56,183612,2,0,L|156:144,1,61.875002360344
88,200,183843,2,0,L|174:226,1,61.875002360344
172,312,184073,6,0,P|240:296|304:316,1,123.750004720688
400,328,184420,2,0,L|460:312,1,61.875002360344
344,244,184650,2,0,L|284:228,1,61.875002360344
364,160,184881,2,0,L|304:144,1,61.875002360344
424,100,185112,6,0,P|448:148|424:224,1,123.750004720688
344,244,185458,1,0,0:0:0:0:
344,244,185573,2,0,L|256:224,1,61.875002360344
64,256,185920,2,0,L|136:248,1,61.875002360344
92,160,186150,1,0,0:0:0:0:
92,160,186266,2,0,P|56:148|20:144,1,61.875002360344
184,152,186497,2,0,P|176:114|161:81,1,61.875002360344
229,240,186727,2,0,P|257:214|278:185,1,61.875002360344
155,314,186958,6,0,P|207:334|299:322,1,123.750004720688
303,145,187304,2,0,P|259:180|224:265,1,123.750004720688
366,349,187650,2,0,P|357:293|300:220,1,123.750004720688
172,64,188112,1,0,0:0:0:0:
228,116,188227,1,0,0:0:0:0:
248,44,188343,1,0,0:0:0:0:
424,56,188804,6,0,P|456:76|476:104,1,70.1250013375282
404,140,189035,6,0,P|421:173|424:208,1,70.1250013375282
348,204,189266,6,0,P|346:241|336:272,1,70.1250013375282
268,228,189497,6,0,P|245:259|220:276,1,70.1250013375282
4,64,190189,5,0,0:0:0:0:
4,64,190420,1,0,0:0:0:0:
4,64,190650,6,0,B|64:80|64:80|176:52,1,165
255,80,190997,1,0,0:0:0:0:
255,80,191112,2,0,P|291:140|255:240,1,165
120,240,191458,2,0,P|196:264|267:227,1,165
95,164,191804,2,0,P|99:208|144:256,1,82.5
119,88,192035,2,0,P|97:122|94:163,1,82.5
196,71,192266,2,0,P|155:69|118:87,1,82.5
184,156,192497,6,0,P|236:148|276:44,1,165
364,52,192843,1,0,0:0:0:0:
364,52,192958,2,0,L|456:40,2,82.5
332,148,193304,2,0,L|512:124,1,165
316,228,193650,2,0,P|268:204|252:156,1,82.5
384,276,193881,2,0,P|339:305|289:295,1,82.5
460,248,194112,2,0,P|463:301|429:339,1,82.5
468,168,194343,6,0,P|492:132|500:88,1,82.5
408,116,194573,1,0,0:0:0:0:
408,116,194689,2,0,P|372:72|252:112,1,165
280,208,195035,6,0,P|299:169|333:140,1,82.5
356,233,195265,1,0,0:0:0:0:
356,233,195381,2,0,P|412:242|437:366,1,165
356,328,195727,6,0,L|248:320,1,82.5
120,256,195958,2,0,L|228:248,1,82.5
320,108,196189,6,0,P|272:116|212:88,1,82.5
176,36,196420,1,0,0:0:0:0:
97,92,196535,2,0,L|121:264,1,165
184,332,196881,6,0,P|212:292|216:240,1,82.5
48,184,197112,1,0,0:0:0:0:
48,184,197227,2,0,P|24:224|60:336,1,165
184,332,197573,1,0,0:0:0:0:
264,316,197689,1,0,0:0:0:0:
344,300,197804,1,0,0:0:0:0:
424,280,197920,1,0,0:0:0:0:
504,260,198035,6,0,P|525:182|496:100,1,165
276,99,198497,2,0,P|255:177|284:259,1,165
370,211,198843,2,0,P|421:199|357:159,1,165
211,32,199189,2,0,P|154:38|110:21,1,82.5
6,113,199420,2,0,P|63:107|107:124,1,82.5
173,158,199650,2,0,L|158:257,1,82.5
15,320,199881,6,0,B|64:307|64:307|183:327,1,165
259,324,200227,1,0,0:0:0:0:
336,293,200343,2,0,P|385:301|454:212,1,165
349,47,200689,2,0,L|370:214,1,165
272,144,201035,2,0,L|260:47,1,82.5
205,198,201266,2,0,P|248:226|303:217,1,82.5
184,109,201497,2,0,P|139:103|97:111,1,82.5
5,225,201727,6,0,P|82:220|150:282,1,165
213,350,202073,2,0,P|270:308|288:212,1,165
281,67,202420,2,0,P|224:109|206:205,1,165
325,137,202766,2,0,P|355:108|367:70,1,82.5
457,42,202997,1,0,0:0:0:0:
457,42,203112,2,0,B|499:19|499:19|471:143,1,165
454,222,203458,1,0,0:0:0:0:
431,310,203573,6,0,L|263:278,1,165
181,268,203920,2,0,P|210:218|313:205,1,165
124,156,204266,2,0,L|76:320,1,165
15,186,204612,2,0,P|47:129|28:28,1,165
115,33,204959,1,0,0:0:0:0:
188,70,205074,1,0,0:0:0:0:
269,83,205190,1,0,0:0:0:0:
350,69,205305,1,0,0:0:0:0:
421,27,205420,6,0,L|461:124,1,82.5
387,154,205650,1,0,0:0:0:0:
387,154,205766,2,0,P|392:225|348:286,1,123.75
350,284,205997,2,0,L|251:267,1,82.5
189,319,206227,2,0,P|184:248|228:187,1,123.75
225,193,206458,2,0,L|137:177,1,82.5
40,255,206689,1,0,0:0:0:0:
35,311,206804,2,0,P|86:311|24:287,1,165
225,193,207266,6,0,P|292:195|334:168,1,82.5
260,104,207497,1,0,0:0:0:0:
204,176,207612,2,0,P|172:116|127:94,1,82.5
196,204,207843,2,0,P|160:261|163:310,1,82.5
240,332,208073,6,0,P|292:312|416:344,1,165
472,296,208420,2,0,P|480:244|472:208,1,82.5
384,156,208650,2,0,P|376:208|384:244,1,82.5
472,120,208881,2,0,L|484:36,1,82.5
360,44,209112,6,0,P|288:64|192:32,1,165
120,64,209458,1,0,0:0:0:0:
120,64,209573,2,0,P|104:116|76:136,1,82.5
32,216,209804,1,0,0:0:0:0:
32,216,209920,6,0,P|104:212|196:256,1,165
244,324,210266,2,0,B|268:280|268:280|260:192,1,123.75
260,184,210497,2,0,P|304:200|352:192,1,82.5
476,112,210727,2,0,L|460:16,1,82.5
424,180,210958,6,0,P|416:248|468:344,1,165
320,296,211304,2,0,P|256:244|164:296,1,165
140,336,211650,2,0,P|116:308|108:260,1,82.5
28,252,211881,2,0,P|40:217|77:186,1,82.5
40,112,212112,2,0,P|76:105|121:122,1,82.5
168,48,212343,2,0,P|192:76|199:124,1,82.5
288,136,212573,2,0,P|275:170|238:201,1,82.5
222,292,212804,6,0,P|185:298|184:156,2,247.500009441376
192,228,213843,1,0,0:0:0:0:
292,265,214073,1,0,0:0:0:0:
292,265,214189,2,0,P|251:222|192:228,1,123.750004720688
360,180,214650,6,0,L|432:168,1,61.875002360344
484,120,214881,2,0,L|420:72,1,61.875002360344
361,42,215112,2,0,L|352:104,2,61.875002360344
272,64,215573,1,0,0:0:0:0:
272,64,215689,2,0,L|252:216,1,123.750004720688
245,303,216035,1,0,0:0:0:0:
245,303,216266,6,0,B|241:247|241:247|261:215|261:215|253:175,1,123.750004720688
328,280,216958,1,0,0:0:0:0:
168,192,217420,1,0,0:0:0:0:
168,192,217536,2,0,P|168:148|240:120,1,123.750004720688
312,172,217881,2,0,L|464:156,1,123.750004720688
156,288,218343,6,0,P|164:336|184:364,1,61.875002360344
252,296,218573,2,0,P|300:288|328:268,1,61.875002360344
260,204,218804,2,0,P|252:155|232:127,1,61.875002360344
168,192,219035,2,0,P|119:200|91:220,1,61.875002360344
48,276,219266,5,0,0:0:0:0:
48,276,219381,1,0,0:0:0:0:
204,360,219612,1,0,0:0:0:0:
252,160,219843,1,0,0:0:0:0:
252,160,219958,2,0,P|240:100|252:52,1,92.812503540516
312,108,220189,6,0,L|176:92,1,123.750004720688
34,317,220651,2,0,L|170:333,1,123.750004720688
244,276,220997,2,0,L|376:264,1,123.750004720688
436,336,221343,1,0,0:0:0:0:
280,196,221574,2,0,L|342:189,1,61.875002360344
344,280,221805,1,0,0:0:0:0:
272,356,221920,6,0,P|212:356|160:296,1,123.750004720688
144,224,222266,2,0,L|72:232,1,61.875002360344
8,132,222497,2,0,L|84:136,1,61.875002360344
144,68,222728,1,0,0:0:0:0:
144,68,222843,2,0,P|180:80|280:48,1,123.750004720688
280,144,223189,2,0,P|236:160|200:164,1,61.875002360344
340,220,223420,2,0,P|384:236|420:240,1,61.875002360344
476,188,223651,1,0,0:0:0:0:
448,348,223881,6,0,L|316:336,1,123.750004720688
176,336,224343,2,0,P|148:284|180:216,1,123.750004720688
228,276,224689,2,0,L|352:268,1,123.750004720688
444,256,225035,1,0,0:0:0:0:
288,184,225266,2,0,P|272:136|272:104,1,61.875002360344
288,28,225497,1,0,0:0:0:0:
288,28,225612,6,0,B|228:40|228:40|156:28,1,123.750004720688
56,88,225958,2,0,L|136:104,1,61.875002360344
184,168,226189,2,0,L|260:156,2,61.875002360344
144,276,226535,2,0,L|272:260,1,123.750004720688
80,348,226881,2,0,L|16:344,1,61.875002360344
28,196,227112,2,0,L|92:200,1,61.875002360344
184,168,227343,1,0,0:0:0:0:
256,348,227573,6,0,P|304:304|400:312,1,165
488,228,227920,1,0,0:0:0:0:
488,228,228035,6,0,P|420:232|380:216,1,82.5
236,260,228266,2,0,P|266:199|300:172,1,82.5
324,36,228497,2,0,P|361:92|367:135,1,82.5
360,344,228727,6,0,L|348:252,1,82.5
200,100,228958,2,0,L|285:135,1,82.5
504,100,229189,2,0,L|430:156,1,82.5
236,260,229420,6,0,P|184:268|128:252,1,82.5
296,113,229650,2,0,L|332:13,1,82.5
332,220,229881,2,0,P|364:261|379:317,1,82.5,0|0,3:0|3:0,3:0:0:0:
192,168,230112,2,0,L|87:186,1,82.5
72,256,230343,5,0,0:0:0:0:
164,284,230458,1,0,0:0:0:0:
244,236,230573,2,0,P|272:188|272:148,1,82.5
292,60,230804,1,0,3:0:0:0:
204,48,230919,1,0,3:0:0:0:
136,104,231035,2,0,P|108:152|108:192,1,82.5
280,336,231266,6,0,L|448:328,1,165
480,252,231612,1,0,0:0:0:0:
480,252,231727,2,0,L|392:240,1,82.5
388,56,231958,2,0,L|476:44,1,82.5
400,224,232189,6,0,L|312:212,1,82.5
316,92,232420,2,0,L|404:80,1,82.5
312,200,232650,2,0,L|224:188,1,82.5
224,120,232881,2,0,L|312:108,1,82.5
236,272,233112,6,0,L|148:284,1,82.5
36,116,233343,2,0,L|40:220,1,82.5
248,248,233573,6,0,L|160:260,1,82.5
60,92,233804,2,0,L|64:196,1,82.5
84,64,234035,6,0,L|88:168,1,82.5
224,120,234266,1,0,0:0:0:0:
288,168,234381,1,0,0:0:0:0:
380,164,234497,2,0,L|368:44,1,82.5
132,220,234727,2,0,L|144:340,1,82.5
288,320,234958,6,0,P|336:332|424:268,1,165
224,156,235304,2,0,P|237:203|337:247,1,165
336,16,235650,2,0,P|301:51|313:159,1,165
512,44,235997,2,0,P|464:32|376:95,1,165
472,200,236343,6,0,L|464:112,1,82.5
392,288,236573,2,0,L|384:200,1,82.5
172,344,236804,6,0,P|224:288|312:280,1,165
300,188,237150,2,0,P|208:196|132:140,1,165
24,100,237497,2,0,P|80:68|192:80,1,165
380,200,237843,2,0,P|368:132|268:104,1,165
448,112,238189,2,0,L|464:20,1,82.5
488,256,238420,2,0,L|504:164,1,82.5
304,352,238650,6,0,L|328:284,2,61.875002360344
220,288,238997,2,0,L|196:220,2,61.875002360344
288,200,239343,6,0,L|312:132,2,61.875002360344
212,136,239690,2,0,L|188:68,2,61.875002360344
108,148,240035,2,0,L|37:134,1,61.875002360344
64,236,240266,2,0,L|17:290,1,61.875002360344
176,344,240497,6,0,P|232:356|144:280,1,371.250014162064
312,136,241420,1,0,0:0:0:0:
312,136,241535,2,0,L|432:124,1,92.812503540516
456,116,241766,6,0,L|256:96,1,185.625007081032
