osu file format v14

[General]
AudioFilename: Walk This Way.mp3
AudioLeadIn: 0
PreviewTime: 46131
Countdown: 0
SampleSet: None
StackLeniency: 0.7
Mode: 0
LetterboxInBreaks: 0
WidescreenStoryboard: 1

[Editor]
DistanceSpacing: 0.9
BeatDivisor: 2
GridSize: 4
TimelineZoom: 2.999999

[Metadata]
Title:Walk This Way!
TitleUnicode:Walk This Way!
Artist:Kano
ArtistUnicode:鹿乃
Creator:Rumia-
Version:Extra
Source:
Tags:Stella-rium
BeatmapID:1538880
BeatmapSetID:728975

[Difficulty]
HPDrainRate:5
CircleSize:4
OverallDifficulty:8
ApproachRate:9.4
SliderMultiplier:1.7
SliderTickRate:1

[Events]
//Background and Video events
0,0,"walk this way.jpg",0,0
//Break Periods
2,76389,84880
2,89312,90187
2,213004,215726
2,216696,218726
//Storyboard Layer 0 (Background)
//Storyboard Layer 1 (Fail)
//Storyboard Layer 2 (Pass)
//Storyboard Layer 3 (Foreground)
//Storyboard Sound Samples

[TimingPoints]
497,230.769230769231,4,2,0,30,1,0
958,-133.333333333333,4,2,0,30,0,0
1881,-100,4,2,0,30,0,0
2343,-100,4,2,0,30,0,0
2804,-133.333333333333,4,2,0,30,0,0
3958,-100,4,2,0,30,0,0
7650,-76.9230769230769,4,2,0,30,0,0
7881,-90.9090909090909,4,2,0,30,0,0
17112,-133.333333333333,4,2,0,30,0,0
19420,-100,4,2,0,30,0,0
31881,-90.9090909090909,4,2,0,30,0,0
44804,-71.4285714285714,4,2,0,30,0,0
46650,-76.9230769230769,4,2,0,30,0,1
68804,-133.333333333333,4,2,0,15,0,0
72266,-100,4,2,0,15,0,0
75266,-100,4,2,0,45,0,0
76189,-83.3333333333333,4,2,0,30,0,0
85420,-100,4,2,0,45,0,0
92804,-100,4,2,0,45,0,0
114958,-76.9230769230769,4,2,0,60,0,1
137112,-100,4,2,0,45,0,0
144497,-100,4,2,0,45,0,0
147150,-100,4,2,0,45,0,0
147497,-100,4,2,0,25,0,0
148189,-100,4,2,0,45,0,0
150843,-100,4,2,0,45,0,0
151881,-90.9090909090909,4,2,0,45,0,0
162958,-90.9090909090909,4,2,0,30,0,0
166650,-111.111111111111,4,2,0,30,0,0
173112,-90.9090909090909,4,2,0,30,0,0
173804,-90.9090909090909,4,2,0,5,0,0
174035,-100,4,2,0,30,0,0
177727,-90.9090909090909,4,2,0,30,0,0
181420,-90.9090909090909,4,2,0,30,0,0
185112,-105.263157894737,4,2,0,30,0,0
186958,-90.9090909090909,4,2,0,30,0,0
188804,-90.9090909090909,4,2,0,30,0,0
189612,-90.9090909090909,4,2,0,30,0,0
190650,-83.3333333333333,4,2,0,30,0,1
213035,-100,4,2,0,15,0,0
220189,-90.9090909090909,4,2,0,30,0,0
227573,-90.9090909090909,4,2,0,30,0,0
234958,-83.3333333333333,4,2,0,30,0,0
235650,-90.9090909090909,4,2,0,30,0,0
236804,-83.3333333333333,4,2,0,30,0,0
237497,-90.9090909090909,4,2,0,30,0,0
238650,-83.3333333333333,4,2,0,30,0,0
240497,-200,4,2,0,30,0,0
241420,-100,4,2,0,30,0,0
241766,-133.333333333333,4,2,0,30,0,0

[HitObjects]
72,84,497,6,0,P|136:96|264:64,1,170
444,52,958,1,0,0:0:0:0:
444,52,1073,2,0,L|432:144,1,63.7500024318696
376,180,1304,2,0,L|392:292,1,95.6250036478044
360,164,1535,2,0,L|380:304,1,127.500004863739
208,244,1881,2,0,P|168:276|164:360,1,127.5
248,316,2112,2,0,L|96:316,1,127.5
54,268,2343,1,0,0:0:0:0:
54,268,2458,6,0,B|94:244|94:244|226:244,1,160
296,108,2804,2,0,L|284:176,1,63.7500024318696
384,56,3035,1,0,0:0:0:0:
384,56,3150,2,0,L|368:160,1,95.6250036478044
408,40,3381,2,0,L|388:168,1,127.500004863739
448,240,3727,2,0,L|428:360,1,95.6250036478044
500,320,3958,2,0,P|424:280|360:300,1,127.5
304,332,4189,1,0,0:0:0:0:
304,332,4304,6,0,B|192:308|232:356|124:332,1,170
44,216,4650,2,0,L|36:128,1,85
128,52,4881,1,0,0:0:0:0:
128,52,4997,2,0,L|120:148,1,85
148,32,5227,2,0,L|140:128,1,85
292,248,5458,1,0,0:0:0:0:
292,248,5573,6,0,B|196:228|236:276|144:256,1,127.5
52,168,5804,2,0,B|148:148|108:196|200:176,1,127.5
172,96,6035,1,0,0:0:0:0:
172,96,6150,2,0,P|224:104|256:208,1,170
156,324,6497,1,0,0:0:0:0:
156,324,6612,2,0,L|64:352,1,85
100,200,6843,1,0,0:0:0:0:
100,200,6958,6,0,L|212:164,1,85
460,196,7304,2,0,P|396:200|396:104,1,170
484,32,7650,2,0,L|460:200,1,165.749992412568
496,288,7881,6,0,P|416:292|388:168,1,187.000005706787
164,204,8343,2,0,L|160:96,1,93.5000028533937
256,216,8573,1,0,0:0:0:0:
256,216,8689,6,0,P|232:272|96:252,1,187.000005706787
80,84,9035,1,0,0:0:0:0:
80,84,9266,2,0,P|149:86|185:94,1,93.5000028533937
164,204,9497,1,0,0:0:0:0:
164,204,9612,6,0,B|84:208|32:198|32:198|52:160|52:120,1,187.000005706787
77,289,9958,2,0,P|113:229|41:145,1,187.000005706787
52,56,10304,1,0,0:0:0:0:
52,56,10420,1,0,0:0:0:0:
52,56,10535,6,0,P|124:92|184:208,1,187.000005706787
216,280,10881,2,0,L|380:272,1,140.25000428009
424,228,11112,2,0,L|260:204,1,140.25000428009
204,176,11343,2,0,L|368:168,1,140.25000428009
216,96,11573,6,0,P|156:108|144:232,1,187.000005706787
432,232,12035,2,0,L|444:136,1,93.5000028533937
360,312,12266,1,0,0:0:0:0:
360,312,12381,6,0,P|280:316|160:296,1,187.000005706787
32,228,12727,1,0,0:0:0:0:
32,228,12958,6,0,P|116:236|232:208,1,187.000005706787
202,298,13304,2,0,P|137:238|160:152,1,187.000005706787
260,88,13650,2,0,L|360:76,1,93.5000028533936
295,284,13881,2,0,L|187:300,1,93.5000028533937
392,264,14112,1,0,0:0:0:0:
436,180,14227,6,0,P|428:120|320:144,1,187.000005706787
164,180,14573,2,0,L|332:196,1,140.25000428009
248,144,14804,2,0,L|100:164,1,140.25000428009
168,104,15035,2,0,L|336:120,1,140.25000428009
436,180,15266,5,0,0:0:0:0:
304,220,15381,2,0,L|200:212,1,93.5000028533936
320,108,15612,5,0,0:0:0:0:
324,245,15727,2,0,L|289:343,1,93.5000028533936
220,204,15958,5,0,0:0:0:0:
353,235,16073,2,0,L|439:293,1,93.5000028533936
280,336,16304,5,0,0:0:0:0:
345,215,16419,2,0,L|424:147,1,93.5000028533936
416,296,16650,5,0,0:0:0:0:
315,201,16765,2,0,L|269:106,1,93.5000028533936
280,336,17112,6,0,P|336:336|368:348,2,63.7500024318696
88,316,17573,2,0,P|76:256|92:176,1,127.500004863739
192,68,17920,2,0,P|192:124|180:152,1,63.7500024318696
164,256,18150,1,0,0:0:0:0:
164,256,18266,1,0,0:0:0:0:
164,256,18381,1,0,0:0:0:0:
164,256,18497,2,0,L|304:248,1,127.500004863739
464,116,18958,5,0,0:0:0:0:
412,188,19073,1,0,0:0:0:0:
376,108,19188,1,0,0:0:0:0:
464,116,19304,1,0,0:0:0:0:
412,188,19420,2,0,P|336:188|292:112,1,170
464,116,19766,2,0,P|496:168|484:228,1,85
400,272,19997,1,0,0:0:0:0:
400,272,20112,2,0,L|412:184,1,85
288,112,20343,6,0,L|288:292,1,170
204,120,20689,1,0,0:0:0:0:
204,120,20804,2,0,P|220:48|332:48,1,170
136,40,21150,2,0,P|124:96|128:136,1,85
148,288,21612,6,0,P|92:292|48:276,1,85
232,232,21843,1,0,0:0:0:0:
232,232,21958,2,0,P|300:244|424:232,1,170
223,321,22420,6,0,P|167:305|134:266,1,85
88,216,22650,1,0,0:0:0:0:
72,124,22766,1,0,0:0:0:0:
116,44,22881,1,0,0:0:0:0:
208,28,22997,1,0,0:0:0:0:
300,40,23112,6,0,P|368:52|496:24,1,170
360,132,23458,2,0,P|284:144|176:120,1,170
193,127,23804,1,0,0:0:0:0:
276,208,23919,1,0,0:0:0:0:
360,132,24035,2,0,P|436:132|472:124,1,85
276,208,24266,2,0,P|213:216|165:200,1,85
92,308,24497,5,0,0:0:0:0:
52,208,24612,2,0,P|48:148|64:112,1,85
173,347,24843,1,0,0:0:0:0:
213,247,24958,2,0,P|217:187|201:151,1,85
68,320,25189,1,0,0:0:0:0:
28,220,25304,2,0,P|24:160|40:124,1,85
222,81,25535,6,0,P|234:153|202:265,1,170
316,88,25881,2,0,P|376:96|416:92,1,85
484,188,26112,2,0,P|424:196|384:192,1,85
216,308,26343,6,0,P|152:312|116:300,2,85
140,148,26689,2,0,P|204:144|240:156,2,85
40,240,27035,1,0,0:0:0:0:
40,240,27150,2,0,B|88:248|120:264|120:264|156:248|216:240,1,170
320,232,27497,2,0,P|388:240|432:260,1,85
480,116,27727,6,0,P|392:120|304:88,1,170
224,44,28073,1,0,0:0:0:0:
200,136,28189,2,0,P|200:228|232:320,1,170
376,320,28535,2,0,L|468:320,1,85
380,168,28997,5,0,0:0:0:0:
380,168,29112,2,0,P|312:180|288:176,1,85
464,104,29343,2,0,P|484:192|464:276,1,170
240,312,29804,5,0,0:0:0:0:
240,312,29920,1,0,0:0:0:0:
240,312,30035,2,0,P|176:320|144:312,1,85
56,184,30266,1,0,0:0:0:0:
56,184,30381,1,0,0:0:0:0:
56,184,30497,2,0,P|128:192|156:184,1,85
156,44,30727,2,0,P|88:40|60:44,1,85
348,64,30958,6,0,L|432:60,1,85
268,152,31189,2,0,L|168:148,1,85
348,64,31420,5,0,0:0:0:0:
400,140,31535,1,0,0:0:0:0:
408,232,31650,1,0,0:0:0:0:
372,320,31766,1,0,0:0:0:0:
276,352,31881,6,0,L|80:348,1,187.000005706787
36,176,32227,1,0,0:0:0:0:
36,176,32343,2,0,L|152:172,1,93.5000028533936
200,64,32573,1,0,0:0:0:0:
264,136,32689,6,0,P|268:216|184:300,1,187.000005706787
108,316,33035,2,0,L|8:308,1,93.5000028533936
84,136,33266,2,0,L|192:144,1,93.5000028533936
296,264,33497,2,0,L|196:256,1,93.5000028533936
316,68,33727,6,0,L|512:84,1,187.000005706787
328,144,34073,2,0,P|256:120|264:12,1,187.000005706787
328,144,34420,2,0,L|124:156,1,187.000005706787
141,154,34881,5,0,0:0:0:0:
79,97,34997,1,0,0:0:0:0:
6,139,35112,1,0,0:0:0:0:
24,222,35227,1,0,0:0:0:0:
107,230,35343,1,0,0:0:0:0:
79,97,35458,1,0,0:0:0:0:
24,222,35573,6,0,P|56:296|160:292,1,187.000005706787
224,256,35920,1,0,0:0:0:0:
280,316,36035,2,0,P|304:252|216:180,1,187.000005706787
280,316,36381,6,0,B|392:312|352:340|472:332,1,187.000005706787
312,128,36727,2,0,L|320:232,1,93.5000028533936
472,156,36958,2,0,L|464:44,1,93.5000028533936
208,44,37189,1,0,0:0:0:0:
208,44,37420,6,0,L|216:160,1,93.5000028533936
224,244,37650,1,0,0:0:0:0:
120,108,37766,6,0,L|128:224,1,93.5000028533936
136,308,37996,1,0,0:0:0:0:
32,152,38112,6,0,L|40:268,1,93.5000028533936
48,352,38342,1,0,0:0:0:0:
136,308,38458,1,0,0:0:0:0:
224,352,38573,1,0,0:0:0:0:
320,312,38689,1,0,0:0:0:0:
416,360,38804,2,0,L|424:240,1,93.5000028533936
280,116,39035,2,0,L|284:228,1,93.5000028533936
432,168,39266,5,0,0:0:0:0:
424,80,39381,1,0,0:0:0:0:
348,32,39497,1,0,0:0:0:0:
260,48,39612,5,0,0:0:0:0:
432,168,39843,1,0,0:0:0:0:
284,232,40073,2,0,B|224:232|224:232|144:256|144:256|84:260,1,187.000005706787
232,320,40420,6,0,L|328:324,1,93.5000028533936
124,180,40650,2,0,L|24:176,1,93.5000028533936
192,112,40881,1,0,0:0:0:0:
192,112,40997,1,0,0:0:0:0:
192,112,41112,5,0,0:0:0:0:
268,144,41227,1,0,0:0:0:0:
352,132,41343,1,0,0:0:0:0:
420,80,41458,2,0,L|416:188,1,93.5000028533936
284,324,41689,2,0,L|288:212,1,93.5000028533936
184,40,41920,6,0,L|184:240,1,187.000005706787
47,306,42266,1,0,0:0:0:0:
73,199,42381,1,0,0:0:0:0:
146,277,42497,1,0,0:0:0:0:
30,280,42612,1,0,0:0:0:0:
106,200,42727,1,0,0:0:0:0:
130,304,42843,1,0,0:0:0:0:
16,136,42958,6,0,B|76:128|108:104|108:104|160:136|236:132,1,187.000005706787
304,212,43304,1,0,0:0:0:0:
304,212,43420,2,0,L|208:232,1,93.5000028533936
444,304,43766,2,0,L|320:328,1,93.5000028533936
424,124,43997,2,0,L|320:144,1,93.5000028533936
252,300,44227,1,0,0:0:0:0:
172,332,44343,1,0,0:0:0:0:
92,308,44458,1,0,0:0:0:0:
60,232,44573,1,0,0:0:0:0:
60,232,44804,6,0,P|132:172|216:304,1,237.999992736817
144,264,45150,2,0,L|124:16,1,237.999992736817
40,68,45497,2,0,P|112:128|196:-4,1,237.999992736817
144,264,46189,5,0,0:0:0:0:
152,284,46420,1,0,0:0:0:0:
160,304,46650,6,0,P|248:320|388:288,1,220.999989883423
408,192,46997,1,0,0:0:0:0:
260,128,47112,2,0,L|264:240,1,110.499994941712
408,192,47343,1,0,0:0:0:0:
360,72,47458,6,0,P|272:28|148:96,1,220.999989883423
48,176,47804,2,0,L|48:304,1,110.499994941712
224,348,48035,2,0,L|220:220,1,110.499994941712
408,192,48266,2,0,L|412:324,1,110.499994941712
120,184,48497,6,0,P|200:144|328:192,1,220.999989883423
162,272,48843,1,0,0:0:0:0:
162,272,48958,2,0,P|98:280|54:252,1,110.499994941712
124,60,49189,1,0,0:0:0:0:
124,60,49304,6,0,P|224:88|336:64,1,220.999989883423
252,108,49650,2,0,L|260:228,1,110.499994941712
456,280,49881,2,0,L|448:156,1,110.499994941712
244,208,50112,2,0,L|252:328,1,110.499994941712
344,148,50343,6,0,P|240:104|140:152,1,220.999989883423
72,252,50689,1,0,0:0:0:0:
72,252,50804,2,0,L|76:364,1,110.499994941712
144,84,51035,2,0,B|132:128|176:168|176:168|160:212|160:212|168:324,1,220.999989883423
272,364,51381,2,0,L|260:224,1,110.499994941712
260,164,51612,1,0,0:0:0:0:
444,248,51727,6,0,L|448:132,1,110.499994941712
256,53,51958,2,0,L|260:181,1,110.499994941712
384,68,52189,6,0,B|308:68|260:52|260:52|208:72|148:72,1,220.999989883423
384,152,52535,1,0,0:0:0:0:
384,152,52650,2,0,P|452:128|476:80,1,110.499994941712
256,52,52881,2,0,B|204:72|164:64|164:64|160:100|160:100|112:80|56:104,1,220.999989883423
236,144,53227,2,0,P|308:120|340:100,1,110.499994941712
112,172,53458,1,0,0:0:0:0:
112,172,53573,5,0,0:0:0:0:
48,236,53689,1,0,0:0:0:0:
80,316,53804,1,0,0:0:0:0:
168,324,53920,1,0,0:0:0:0:
252,300,54035,6,0,B|328:304|368:272|368:272|412:328|412:372,1,220.999989883423
296,212,54381,1,0,0:0:0:0:
296,212,54497,2,0,B|336:204|372:176|372:176|436:212|464:280,1,220.999989883423
312,124,54843,6,0,P|248:136|280:28,1,220.999989883423
424,96,55189,2,0,P|412:160|424:216,1,110.499994941712
228,272,55420,2,0,P|208:204|224:144,1,110.499994941712
64,80,55650,2,0,P|52:144|64:200,1,110.499994941712
108,316,55881,6,0,B|204:300|204:300|188:272|188:272|252:316|308:312,1,220.999989883423
472,200,56343,1,0,0:0:0:0:
384,216,56458,1,0,0:0:0:0:
316,160,56573,1,0,0:0:0:0:
304,72,56689,1,0,0:0:0:0:
380,28,56804,6,0,P|308:56|168:28,1,220.999989883423
100,84,57150,1,0,0:0:0:0:
32,140,57266,2,0,L|40:260,1,110.499994941712
192,320,57497,2,0,L|200:196,1,110.499994941712
408,88,57727,6,0,B|284:124|204:28,1,220.999989883423
408,88,58073,1,0,0:0:0:0:
404,176,58189,2,0,L|392:304,1,110.499994941712
272,356,58420,1,0,0:0:0:0:
272,356,58535,2,0,B|256:284|256:284|268:200,1,110.499994941712
312,104,58766,2,0,B|304:172|304:172|244:144|196:188|196:188|180:260,1,220.999989883423
44,308,59112,6,0,P|116:320|172:304,1,110.499994941712
152,176,59343,2,0,P|80:164|24:180,1,110.499994941712
232,252,59573,6,0,B|248:184|248:184|228:28,1,220.999989883423
272,172,59920,2,0,B|344:184|344:184|504:144,1,220.999989883423
428,68,60266,2,0,P|400:148|480:272,1,220.999989883423
384,336,60612,2,0,P|292:312|172:352,1,220.999989883423
88,340,60958,5,0,0:0:0:0:
44,264,61073,1,0,0:0:0:0:
44,171,61189,1,0,0:0:0:0:
80,92,61304,1,0,0:0:0:0:
156,48,61420,6,0,P|220:68|284:68,1,110.499994941712
376,148,61650,1,0,0:0:0:0:
376,148,61766,2,0,P|240:152|184:188,1,165.749992412568
180,192,61997,2,0,L|184:328,1,110.499994941712
380,340,62227,6,0,P|384:248|360:160,1,165.749992412568
408,176,62458,2,0,L|416:52,1,110.499994941712
236,40,62689,1,0,0:0:0:0:
236,40,62804,2,0,P|268:160|224:252,1,220.999989883423
16,144,63266,1,0,0:0:0:0:
104,144,63381,1,0,0:0:0:0:
164,208,63497,1,0,0:0:0:0:
180,296,63612,6,0,P|116:308|48:292,1,110.499994941712
260,232,63843,2,0,P|324:220|392:236,1,110.499994941712
164,208,64073,2,0,P|156:128|184:68,1,110.499994941712
336,128,64304,1,0,0:0:0:0:
272,199,64420,2,0,P|188:211|120:195,1,110.499994941712
320,264,64650,5,0,0:0:0:0:
400,228,64766,1,0,0:0:0:0:
420,140,64881,1,0,0:0:0:0:
368,68,64997,1,0,0:0:0:0:
272,60,65112,6,0,B|212:72|212:72|104:56|104:56|32:72,1,220.999989883423
104,148,65458,1,0,0:0:0:0:
104,148,65573,2,0,L|88:280,1,110.499994941712
208,328,65804,2,0,L|200:212,1,110.499994941712
312,140,66035,6,0,L|296:268,1,110.499994941712
418,336,66266,2,0,L|398:216,1,110.499994941712
472,132,66497,1,0,0:0:0:0:
408,72,66612,1,0,0:0:0:0:
320,68,66727,1,0,0:0:0:0:
244,116,66843,1,0,0:0:0:0:
164,152,66958,6,0,P|88:156|20:32,1,220.999989883423
116,80,67304,2,0,P|80:144|180:240,1,220.999989883423
252,256,67650,1,0,0:0:0:0:
340,260,67766,1,0,0:0:0:0:
416,212,67881,1,0,0:0:0:0:
424,124,67997,1,0,0:0:0:0:
384,48,68112,6,0,P|320:56|256:44,1,110.499994941712
252,256,68343,2,0,P|316:248|380:260,1,110.499994941712
368,68,68573,2,0,P|304:76|240:64,1,110.499994941712
184,328,68804,5,0,0:0:0:0:
64,248,69266,2,0,P|52:184|64:112,1,127.500004863739
216,48,69727,1,0,0:0:0:0:
216,48,69843,2,0,P|296:56|368:32,1,127.500004863739
460,144,70650,6,0,L|456:224,1,63.7500024318696
268,332,70881,2,0,L|264:252,1,63.7500024318696
352,96,71112,2,0,L|348:176,1,63.7500024318696
152,304,71343,2,0,L|148:216,1,63.7500024318696
256,64,71573,5,0,0:0:0:0:
256,64,71689,1,0,0:0:0:0:
40,76,71920,2,0,L|44:232,1,127.500004863739
56,324,72266,2,0,L|212:312,1,127.5
183,314,72497,5,0,0:0:0:0:
208,308,72958,1,0,0:0:0:0:
424,180,73420,2,0,P|344:184|248:144,1,170
396,104,73766,2,0,P|460:104|488:220,1,170
502,190,74112,1,0,0:0:0:0:
208,308,74343,6,0,L|204:216,1,85
340,143,74573,2,0,L|344:243,1,85
176,316,74804,2,0,L|172:224,1,85
308,151,75034,2,0,L|312:251,1,85
220,96,75266,5,0,0:0:0:0:
220,96,75381,2,0,P|288:64|396:116,1,170
444,280,75843,2,0,L|436:388,1,85
296,344,76073,1,0,0:0:0:0:
484,192,76189,5,0,0:0:0:0:
408,160,85420,6,0,L|436:72,2,85
240,260,85881,2,0,P|304:260|384:336,1,170
176,328,86227,2,0,P|160:268|212:168,1,170
288,128,86573,1,0,0:0:0:0:
376,92,86689,1,0,0:0:0:0:
288,128,86804,2,0,P|208:140|100:120,1,170
32,292,87266,6,0,P|112:280|220:300,1,170
288,260,87612,1,0,0:0:0:0:
288,260,87727,2,0,P|364:276|456:256,1,170
288,128,88073,2,0,L|288:284,1,127.5
288,255,88304,2,0,P|212:275|132:207,1,170
144,84,88650,2,0,L|136:180,1,85
44,268,88881,2,0,L|32:148,1,85
28,64,89112,5,0,0:0:0:0:
48,252,90727,5,0,0:0:0:0:
116,316,90843,1,0,0:0:0:0:
204,348,90958,2,0,P|280:348|312:344,1,85
292,184,91189,2,0,P|216:184|184:188,1,85
384,276,91420,6,0,P|400:208|376:88,1,170
308,60,91766,1,0,0:0:0:0:
220,32,91881,1,0,0:0:0:0:
128,56,91997,1,0,0:0:0:0:
52,108,92112,2,0,L|52:200,1,85
192,248,92343,2,0,L|192:144,1,85
20,180,92573,2,0,L|20:280,1,85
112,288,92804,5,0,0:0:0:0:
216,324,92920,1,0,0:0:0:0:
296,268,93035,1,0,0:0:0:0:
120,324,93150,5,0,0:0:0:0:
192,248,93266,2,0,P|176:180|160:140,1,85
296,268,93497,2,0,B|364:288|392:318|392:318|408:276|432:256,1,170
264,184,93843,2,0,B|204:216|212:284|212:284|188:240|180:216,1,170
136,160,94189,2,0,L|48:164,1,85
48,344,94420,2,0,L|156:336,1,85
385,255,94650,6,0,P|305:255|265:167,1,170
272,88,94997,1,0,0:0:0:0:
272,88,95112,2,0,L|392:84,1,85
220,163,95343,1,0,0:0:0:0:
220,163,95458,6,0,L|116:159,1,85
112,344,95689,1,0,0:0:0:0:
176,244,95804,1,0,0:0:0:0:
64,248,95920,1,0,0:0:0:0:
240,332,96035,2,0,L|348:328,1,85
304,160,96266,2,0,L|188:164,1,85
428,228,96497,6,0,B|448:184|448:184|436:52,1,170
340,280,96843,1,0,0:0:0:0:
340,280,96958,2,0,P|396:312|500:308,1,170
428,228,97304,1,0,0:0:0:0:
428,228,97420,2,0,L|424:136,1,85
224,172,97650,2,0,L|228:264,1,85
232,352,97881,1,0,0:0:0:0:
232,352,98112,5,0,0:0:0:0:
140,348,98227,1,0,0:0:0:0:
64,292,98343,2,0,L|64:208,1,85
224,172,98573,2,0,L|224:264,1,85
144,128,98804,5,0,0:0:0:0:
144,128,98920,2,0,P|200:88|304:128,1,170
336,200,99266,2,0,L|336:292,1,85
232,352,99497,5,0,0:0:0:0:
140,348,99612,1,0,0:0:0:0:
64,292,99727,1,0,0:0:0:0:
40,200,99843,1,0,0:0:0:0:
52,108,99958,1,0,0:0:0:0:
108,32,100073,1,0,0:0:0:0:
108,32,100189,6,0,B|164:48|164:48|300:36,1,170
464,220,100535,1,0,0:0:0:0:
376,296,100650,2,0,L|380:408,2,85
284,212,100997,6,0,P|276:136|300:44,1,170
376,296,101343,2,0,P|316:316|184:284,1,170
108,232,101689,1,0,0:0:0:0:
108,232,101804,2,0,L|104:132,1,85
208,64,102035,6,0,P|296:76|392:40,1,170
216,156,102381,2,0,P|308:188|408:176,1,170
200,248,102727,2,0,P|264:296|352:316,1,170
152,344,103189,5,0,0:0:0:0:
64,308,103304,1,0,0:0:0:0:
32,220,103420,2,0,L|40:112,1,85
164,52,103650,2,0,L|156:160,1,85
244,328,103881,6,0,L|424:328,1,170
464,192,104227,1,0,0:0:0:0:
464,192,104343,2,0,P|396:200|352:192,1,85
284,132,104573,1,0,0:0:0:0:
284,132,104689,6,0,P|220:132|180:124,1,85
112,88,104920,1,0,0:0:0:0:
52,156,105035,2,0,L|40:252,1,85
303,284,105266,2,0,L|312:200,1,85
168,240,105497,2,0,L|156:360,1,85
464,192,105727,6,0,P|416:128|480:72,1,170
384,140,106073,1,0,0:0:0:0:
384,140,106189,2,0,P|328:136|280:120,1,85
140,204,106420,2,0,P|204:204|320:272,1,170
80,336,106881,5,0,0:0:0:0:
44,248,106997,1,0,0:0:0:0:
52,156,107112,1,0,0:0:0:0:
96,72,107227,1,0,0:0:0:0:
184,44,107343,1,0,0:0:0:0:
276,60,107458,1,0,0:0:0:0:
316,144,107573,6,0,P|312:208|292:248,1,85
460,320,107804,2,0,P|464:256|484:216,1,85
456,52,108150,1,0,0:0:0:0:
312,328,108381,2,0,P|220:336|112:324,1,170
36,228,108727,5,0,0:0:0:0:
36,228,108843,1,0,0:0:0:0:
148,168,108958,1,0,0:0:0:0:
148,168,109073,1,0,0:0:0:0:
248,256,109189,1,0,0:0:0:0:
248,256,109304,1,0,0:0:0:0:
356,176,109420,6,0,P|424:172|476:152,1,85
268,56,109650,2,0,P|200:60|148:80,1,85
64,316,109997,1,0,0:0:0:0:
372,308,110227,2,0,P|276:324|200:304,1,170
424,228,110573,6,0,P|468:268|476:312,1,85
356,176,110804,1,0,0:0:0:0:
268,212,110920,1,0,0:0:0:0:
188,164,111035,2,0,P|184:108|196:64,1,85
357,92,111266,6,0,P|361:148|349:192,1,85
212,336,111612,1,0,0:0:0:0:
212,336,111727,1,0,0:0:0:0:
212,336,111843,2,0,B|164:328|124:352|124:352|84:324|24:332,1,170
48,84,112304,5,0,0:0:0:0:
120,128,112420,1,0,0:0:0:0:
204,112,112535,1,0,0:0:0:0:
276,64,112650,2,0,L|268:216,1,127.5
308,276,112881,2,0,L|316:128,1,127.5
208,328,113112,6,0,L|32:332,1,170
252,216,113458,2,0,L|428:224,1,170
208,136,113804,2,0,P|164:232|220:304,1,170
424,316,114497,5,0,0:0:0:0:
436,296,114727,1,0,0:0:0:0:
448,280,114958,6,0,B|472:232|452:188|452:188|476:148|476:148|444:92|456:44,1,220.999989883423
212,328,115420,2,0,P|272:336|328:328,1,110.499994941712
316,180,115650,2,0,P|256:172|200:180,1,110.499994941712
384,284,115881,2,0,P|420:188|368:68,1,220.999989883423
272,60,116227,1,0,0:0:0:0:
272,60,116343,2,0,L|160:60,1,110.499994941712
37,168,116573,2,0,L|148:168,1,110.499994941712
226,357,116804,6,0,P|151:280|44:280,1,220.999989883423
108,364,117150,1,0,0:0:0:0:
108,364,117266,2,0,P|180:288|296:344,1,220.999989883423
400,340,117612,1,0,0:0:0:0:
400,340,117727,6,0,L|440:212,1,110.499994941712
304,128,117958,2,0,L|268:244,1,110.499994941712
448,312,118189,2,0,L|488:184,1,110.499994941712
292,72,118420,2,0,L|256:188,1,110.499994941712
432,96,118650,6,0,P|372:124|204:68,1,220.999989883423
144,40,118997,1,0,0:0:0:0:
144,40,119112,2,0,B|116:40|84:52|84:52|56:32|32:32,1,110.499994941712
136,136,119343,1,0,0:0:0:0:
136,136,119458,2,0,B|108:136|76:148|76:148|48:128|24:128,1,110.499994941712
128,232,119689,2,0,P|200:216|152:312,1,220.999989883423
228,144,120035,6,0,P|276:184|300:224,1,110.499994941712
388,328,120266,2,0,P|424:272|472:236,1,110.499994941712
480,108,120497,6,0,P|408:112|292:24,1,220.999989883423
416,24,120843,2,0,P|388:104|456:220,1,220.999989883423
480,108,121189,2,0,P|368:124|328:228,1,220.999989883423
388,328,121535,1,0,0:0:0:0:
388,328,121650,2,0,L|376:212,1,110.499994941712
272,108,121881,2,0,L|260:232,1,110.499994941712
76,288,122112,1,0,0:0:0:0:
248,320,122227,1,0,0:0:0:0:
108,184,122343,6,0,P|104:104|220:44,1,220.999989883423
288,188,122689,1,0,0:0:0:0:
288,188,122804,2,0,L|276:304,2,110.499994941712
384,232,123150,6,0,P|320:264|180:200,1,220.999989883423
388,144,123497,2,0,B|424:128|424:128|464:152|504:160,1,110.499994941712
356,68,123727,2,0,B|308:92|308:92|316:48|292:24,1,110.499994941712
384,232,123958,2,0,B|424:212|424:212|424:252|448:276,1,110.499994941712
288,344,124189,6,0,P|264:280|308:136,1,220.999989883423
240,208,124535,1,0,0:0:0:0:
240,208,124650,2,0,L|108:216,2,110.499994941712
148,312,124997,6,0,P|176:188|152:92,1,220.999989883423
40,240,125343,2,0,B|28:300|28:300|44:360,1,110.499994941712
152,96,125573,2,0,B|208:88|208:88|272:100,1,110.499994941712
148,312,125804,2,0,B|92:320|92:320|28:308,1,110.499994941712
240,208,126035,6,0,P|320:212|372:192,2,110.499994941712
276,316,126381,2,0,P|348:300|476:364,1,220.999989883423
444,232,126727,2,0,B|448:176|448:176|472:160|476:128,2,110.499994941712
388,104,127073,2,0,B|336:92|284:120|284:120|248:96|248:96|172:104,1,220.999989883423
352,300,127420,2,0,P|364:236|352:180,1,110.499994941712
172,192,127650,2,0,P|160:256|172:312,1,110.499994941712
308,136,127881,6,0,P|312:60|468:60,1,220.999989883423
284,64,128227,2,0,L|164:56,2,110.499994941712
432,172,128573,2,0,L|188:152,1,220.999989883423
320,256,128920,1,0,0:0:0:0:
320,256,129035,2,0,L|456:272,1,110.499994941712
236,328,129266,5,0,0:0:0:0:
148,316,129381,1,0,0:0:0:0:
76,264,129497,1,0,0:0:0:0:
44,180,129612,1,0,0:0:0:0:
44,92,129727,6,0,B|108:88|156:68|156:68|204:88|288:92,1,220.999989883423
64,316,130073,2,0,P|48:264|72:184,1,110.499994941712
144,160,130304,1,0,0:0:0:0:
232,204,130420,1,0,0:0:0:0:
320,256,130535,6,0,P|412:244|404:116,1,220.999989883423
340,72,130881,1,0,0:0:0:0:
340,72,130997,2,0,B|276:80|276:80|212:72,2,110.499994941712
261,172,131343,2,0,L|129:152,1,110.499994941712
188,260,131573,6,0,L|56:240,2,110.499994941712
228,344,131920,2,0,B|392:316|392:316|464:328,1,220.999989883423
132,320,132266,1,0,0:0:0:0:
132,320,132381,2,0,P|116:256|124:204,1,110.499994941712
344,192,132612,2,0,P|360:256|352:308,2,110.499994941712
252,140,132958,5,0,0:0:0:0:
164,132,133073,1,0,0:0:0:0:
92,184,133189,1,0,0:0:0:0:
84,272,133304,1,0,0:0:0:0:
148,336,133420,6,0,B|248:380|296:292|296:292|360:328,1,220.999989883423
468,284,133766,1,0,0:0:0:0:
468,284,133881,2,0,L|344:224,1,110.499994941712
344,136,134112,2,0,L|484:100,1,110.499994941712
280,64,134343,6,0,P|248:136|348:232,1,220.999989883423
48,224,134804,1,0,0:0:0:0:
132,200,134920,1,0,0:0:0:0:
216,232,135035,1,0,0:0:0:0:
272,300,135150,1,0,0:0:0:0:
352,336,135266,6,0,P|436:348|480:336,1,110.499994941712
464,204,135497,2,0,P|380:192|336:204,1,110.499994941712
163,292,135727,2,0,P|247:304|291:292,1,110.499994941712
275,160,135958,2,0,P|191:148|147:160,1,110.499994941712
48,224,136189,6,0,P|44:136|152:36,1,220.999989883423
220,48,136535,1,0,0:0:0:0:
296,88,136650,1,0,0:0:0:0:
384,84,136766,1,0,0:0:0:0:
456,32,136881,5,0,0:0:0:0:
460,120,136997,1,0,0:0:0:0:
464,204,137112,5,0,0:0:0:0:
448,224,137573,1,0,0:0:0:0:
436,244,138497,1,0,0:0:0:0:
216,332,138958,6,0,P|144:340|40:300,2,170
280,256,139535,1,0,0:0:0:0:
280,256,139650,2,0,P|280:196|276:144,1,85
108,176,139881,2,0,P|108:232|112:272,1,85
228,52,140227,2,0,P|324:72|412:48,1,170
448,160,140573,2,0,L|288:152,1,127.5
320,153,140804,5,0,0:0:0:0:
128,72,141266,1,0,0:0:0:0:
48,216,141727,2,0,P|116:212|152:200,1,85
328,292,142073,1,0,0:0:0:0:
328,292,142304,2,0,P|248:280|212:280,1,85
464,208,142650,6,0,L|476:120,1,85
316,68,142881,2,0,L|304:176,1,85
328,292,143112,1,0,0:0:0:0:
344,308,143343,1,0,0:0:0:0:
360,328,143573,5,0,0:0:0:0:
228,352,143689,1,0,0:0:0:0:
208,336,143920,1,0,0:0:0:0:
188,320,144150,1,0,0:0:0:0:
220,204,144266,2,0,P|240:144|232:104,1,85
40,52,144497,6,0,L|144:44,1,85
44,132,144727,2,0,L|148:124,1,85
44,216,144958,2,0,L|148:208,1,85
48,296,145188,2,0,L|152:288,1,85
316,332,145420,6,0,L|212:340,1,85
312,252,145650,2,0,L|208:260,1,85
312,168,145881,2,0,L|208:176,1,85
308,88,146111,2,0,L|204:96,1,85
424,184,146343,6,0,L|520:176,1,85
276,64,146573,2,0,L|172:72,1,85
392,172,146805,2,0,L|488:164,1,85
412,68,147035,1,0,0:0:0:0:
256,172,147150,1,0,0:0:0:0:
256,172,147497,6,0,B|256:228|232:252|232:252|256:284|252:336,1,170
64,192,148189,6,0,L|176:188,1,85
160,324,148420,2,0,L|48:328,1,85
212,120,148650,2,0,L|324:116,1,85
308,252,148881,2,0,L|196:256,1,85
360,40,149112,6,0,L|472:36,1,85
456,172,149343,2,0,L|344:176,1,85
212,120,149573,1,0,0:0:0:0:
212,120,149689,1,0,0:0:0:0:
308,252,149804,1,0,0:0:0:0:
308,252,149920,1,0,0:0:0:0:
192,264,150035,6,0,L|192:348,1,85
60,224,150266,2,0,L|60:120,1,85
228,232,150497,2,0,L|228:316,1,85
96,192,150728,2,0,L|96:88,1,85
204,120,151189,6,0,P|272:136|340:104,1,127.5
344,124,151420,2,0,P|272:156|184:120,1,170
52,308,151881,6,0,B|176:280|116:360|272:316,1,187.000005706787
344,124,152343,2,0,L|388:24,2,93.5000028533936
252,224,152689,2,0,B|128:252|188:172|32:216,1,187.000005706787
212,152,153035,2,0,P|176:208|268:316,1,187.000005706787
308,332,153381,1,0,0:0:0:0:
392,324,153497,1,0,0:0:0:0:
448,264,153612,1,0,0:0:0:0:
468,184,153727,6,0,L|476:88,1,93.5000028533936
308,96,153958,2,0,L|300:192,1,93.5000028533936
396,60,154189,2,0,P|344:20|212:64,1,187.000005706787
172,104,154535,2,0,P|96:140|4:68,1,187.000005706787
100,56,154881,5,0,0:0:0:0:
32,212,154997,1,0,0:0:0:0:
136,136,155112,1,0,0:0:0:0:
88,288,155227,1,0,0:0:0:0:
188,208,155343,1,0,0:0:0:0:
152,368,155458,1,0,0:0:0:0:
272,264,155573,6,0,P|356:276|396:352,1,140.25000428009
428,356,155804,2,0,L|456:244,1,93.5000028533936
388,172,156035,2,0,L|412:68,2,93.5000028533936
272,264,156381,2,0,P|200:288|80:240,1,187.000005706787
24,132,156727,2,0,P|92:128|144:132,1,93.5000028533936
128,300,156958,2,0,P|60:304|8:300,1,93.5000028533936
184,192,157189,1,0,0:0:0:0:
272,264,157304,6,0,P|392:276|468:248,1,187.000005706787
472,160,157650,2,0,L|484:60,1,93.5000028533936
216,72,157881,1,0,0:0:0:0:
292,120,157997,1,0,0:0:0:0:
300,32,158112,1,0,0:0:0:0:
216,72,158227,2,0,P|144:100|48:40,1,187.000005706787
48,156,158573,6,0,L|36:256,1,93.5000028533936
172,340,158804,2,0,L|184:232,1,93.5000028533936
344,164,159035,2,0,L|332:264,1,93.5000028533936
424,128,159266,6,0,P|336:76|264:128,1,187.000005706787
236,192,159612,1,0,0:0:0:0:
164,236,159727,1,0,0:0:0:0:
164,152,159843,1,0,0:0:0:0:
236,192,159958,1,0,0:0:0:0:
164,236,160073,6,0,P|96:212|96:96,1,187.000005706787
256,32,160420,2,0,L|244:148,1,93.5000028533936
342,164,160650,2,0,L|330:276,1,93.5000028533936
164,152,160881,1,0,0:0:0:0:
164,152,160997,6,0,P|240:180|352:160,1,187.000005706787
400,100,161343,2,0,L|408:0,1,93.5000028533936
342,164,161573,2,0,P|390:184|458:164,2,93.5000028533936
280,228,161920,6,0,P|368:272|484:260,1,187.000005706787
320,304,162266,2,0,L|184:320,1,93.5000028533936
76,328,162497,1,0,0:0:0:0:
40,200,162612,1,0,0:0:0:0:
160,232,162727,2,0,L|264:220,1,93.5000028533936
56,56,162958,6,0,L|136:44,2,62.3333352355958
124,136,163189,2,0,L|204:148,2,62.3333352355958
208,64,163420,2,0,L|288:52,2,62.3333352355958
288,144,163651,2,0,L|368:156,2,62.3333352355958
360,76,163881,2,0,L|440:64,2,62.3333352355958
436,144,164112,2,0,L|516:156,2,62.3333352355958
380,216,164343,2,0,L|304:228,2,62.3333352355958
428,296,164573,2,0,L|508:308,2,62.3333352355958
324,336,164804,6,0,L|332:256,2,62.3333352355958
248,244,165035,2,0,L|244:160,2,62.3333352355958
380,216,165266,2,0,L|388:136,2,62.3333352355958
304,124,165497,2,0,L|300:40,2,62.3333352355958
460,88,165727,2,0,L|468:20,2,62.3333352355958
408,148,165958,2,0,L|400:220,2,62.3333352355958
408,148,166189,2,0,P|344:160|368:72,1,187.000005706787
362,72,166535,1,0,0:0:0:0:
256,76,166650,6,0,L|176:64,2,76.4999976654053
408,148,166997,2,0,L|488:136,2,76.4999976654053
248,212,167343,2,0,L|168:200,2,76.4999976654053
412,284,167689,2,0,L|492:272,2,76.4999976654053
252,348,168035,2,0,L|164:336,2,76.4999976654053
28,176,168497,6,0,L|44:88,2,76.4999976654053
112,248,168843,2,0,L|128:160,2,76.4999976654053
216,200,169189,2,0,L|232:96,2,76.4999976654053
300,272,169535,2,0,L|316:168,2,76.4999976654053
416,196,169881,2,0,L|428:112,2,76.4999976654053
208,272,170343,6,0,P|204:328|212:356,2,76.4999976654053
166,166,170689,2,0,P|111:176|86:191,2,76.4999976654053
257,98,171035,2,0,P|233:48|212:27,2,76.4999976654053
346,169,171381,2,0,P|388:132|403:107,2,76.4999976654053
301,273,171727,2,0,P|347:305|376:312,2,76.4999976654053
156,104,172189,6,0,P|96:100|56:108,1,76.4999976654053
32,296,172420,1,0,0:0:0:0:
136,348,172535,2,0,P|196:352|236:344,1,76.4999976654053
208,196,172766,1,0,0:0:0:0:
297,267,172881,2,0,P|369:263|401:247,1,76.4999976654053
460,52,173112,5,0,0:0:0:0:
51,39,174035,6,0,B|92:33|136:49|136:49|177:37|177:37|238:35,1,170
316,62,174381,1,0,0:0:0:0:
390,132,174497,2,0,B|436:142|436:142|476:134,1,85
323,197,174727,1,0,0:0:0:0:
323,197,174843,6,0,B|229:175|229:175|144:201,1,170
323,197,175189,2,0,P|330:132|323:95,1,85
158,196,175420,2,0,P|151:261|158:298,1,85
405,341,175650,2,0,L|401:241,1,85
208,64,175881,6,0,P|296:76|389:55,1,170
375,145,176227,2,0,P|277:158|259:156,1,85
196,218,176458,1,0,0:0:0:0:
196,218,176573,2,0,P|285:240|381:228,1,170
152,344,177035,5,0,0:0:0:0:
64,308,177150,1,0,0:0:0:0:
24,222,177266,2,0,L|32:114,1,85
164,52,177496,2,0,L|156:160,1,85
24,222,177727,6,0,P|56:296|160:292,1,187.000005706787
224,259,178074,1,0,0:0:0:0:
280,316,178189,2,0,P|304:252|216:180,1,187.000005706787
280,316,178535,6,0,B|351:313|351:313|398:337|398:337|472:332,1,187.000005706787
312,128,178881,2,0,L|320:232,1,93.5000028533936
472,156,179112,2,0,L|464:44,1,93.5000028533936
208,44,179343,1,0,0:0:0:0:
208,44,179574,6,0,L|216:160,1,93.5000028533936
224,244,179804,1,0,0:0:0:0:
120,108,179920,6,0,L|128:224,1,93.5000028533936
136,308,180150,1,0,0:0:0:0:
32,152,180266,6,0,L|40:268,1,93.5000028533936
48,352,180496,1,0,0:0:0:0:
38,245,180612,1,0,0:0:0:0:
134,214,180727,2,0,L|136:325,1,93.5000028533936
234,351,180958,1,0,0:0:0:0:
224,244,181074,1,0,0:0:0:0:
314,202,181189,2,0,L|316:304,1,93.5000028533936
400,348,181420,5,0,0:0:0:0:
464,268,181535,1,0,0:0:0:0:
416,176,181650,1,0,0:0:0:0:
314,202,181766,1,0,0:0:0:0:
308,224,181997,1,0,0:0:0:0:
304,244,182227,6,0,P|224:260|108:216,1,187.000005706787
52,136,182573,2,0,L|56:32,1,93.5000028533936
296,244,182920,1,0,0:0:0:0:
296,244,183035,2,0,L|292:348,1,93.5000028533936
64,348,183266,5,0,0:0:0:0:
44,248,183381,1,0,0:0:0:0:
124,184,183497,1,0,0:0:0:0:
216,228,183612,1,0,0:0:0:0:
232,208,183843,1,0,0:0:0:0:
248,188,184073,6,0,P|336:200|444:180,1,187.000005706787
300,248,184420,2,0,L|304:344,1,93.5000028533936
428,184,184650,2,0,L|424:68,1,93.5000028533936
244,94,184881,2,0,L|248:190,1,93.5000028533936
200,340,185112,6,0,P|116:344|48:264,1,161.499995687485
52,208,185458,1,0,0:0:0:0:
52,208,185573,2,0,L|56:96,1,80.7499978437424
224,84,185920,2,0,L|216:176,1,80.7499978437424
252,58,186150,1,0,0:0:0:0:
252,58,186265,6,0,L|244:150,1,80.7499978437424
300,302,186496,2,0,L|256:230,1,80.7499978437424
100,214,186727,2,0,L|196:202,1,80.7499978437424
476,296,186958,6,0,B|416:300|376:272|376:272|340:296|272:308,1,187.000005706787
480,208,187304,2,0,P|436:212|492:148,1,187.000005706787
336,148,187650,2,0,B|348:76|436:52|436:52|424:24|432:-16,1,187.000005706787
204,184,188112,5,0,0:0:0:0:
360,160,188227,1,0,0:0:0:0:
376,312,188343,1,0,0:0:0:0:
56,212,188804,6,0,L|48:328,1,93.5000028533936
204,184,189035,1,0,0:0:0:0:
196,68,189150,1,0,0:0:0:0:
360,248,189266,2,0,L|352:364,1,93.5000028533936
468,188,189497,1,0,0:0:0:0:
460,72,189612,1,0,0:0:0:0:
80,52,190189,5,0,0:0:0:0:
80,52,190420,1,0,0:0:0:0:
80,52,190650,6,0,P|144:88|260:32,1,203.999993774414
208,144,190997,1,0,0:0:0:0:
116,208,191112,2,0,P|52:220|8:204,1,101.999996887207
220,180,191343,1,0,0:0:0:0:
200,292,191458,6,0,P|296:288|376:356,1,203.999993774414
452,240,191804,2,0,P|412:196|368:180,1,101.999996887207
288,28,192035,2,0,P|274:86|287:131,1,101.999996887207
200,292,192266,2,0,P|255:269|285:233,1,101.999996887207
84,80,192497,6,0,B|68:144|68:144|84:288,1,203.999993774414
176,128,192843,1,0,0:0:0:0:
272,184,192958,2,0,B|336:200|336:200|488:156,1,203.999993774414
316,84,193304,1,0,0:0:0:0:
272,184,193420,6,0,P|272:256|284:312,1,101.999996887207
464,272,193650,2,0,P|464:200|452:144,1,101.999996887207
176,128,193881,2,0,P|176:200|188:256,1,101.999996887207
368,216,194111,2,0,P|368:144|356:88,1,101.999996887207
96,112,194343,6,0,P|144:52|252:104,1,203.999993774414
256,240,194689,2,0,P|208:300|100:248,1,203.999993774414
176,128,195035,2,0,L|180:236,2,101.999996887207
288,88,195381,2,0,B|344:108|344:108|492:84,1,203.999993774414
468,280,195727,6,0,P|416:288|360:260,1,101.999996887207
388,128,195958,2,0,P|440:120|496:148,1,101.999996887207
308,320,196189,6,0,P|300:240|420:204,1,203.999993774414
308,320,196535,2,0,B|236:320|236:320|156:348|156:348|72:344,1,203.999993774414
40,232,196881,2,0,P|116:196|72:100,1,203.999993774414
144,204,197227,2,0,B|208:212|248:188|248:188|268:232|340:248,1,203.999993774414
444,332,197573,5,0,0:0:0:0:
404,248,197689,1,0,0:0:0:0:
400,156,197804,1,0,0:0:0:0:
448,76,197920,1,0,0:0:0:0:
492,156,198035,6,0,P|376:168|280:120,1,203.999993774414
244,60,198381,1,0,0:0:0:0:
160,100,198497,2,0,L|40:108,1,101.999996887207
216,184,198727,1,0,0:0:0:0:
292,256,198843,6,0,P|384:236|380:332,1,203.999993774414
216,336,199189,2,0,L|92:328,1,101.999996887207
36,216,199420,2,0,L|164:204,1,101.999996887207
236,104,199650,2,0,L|112:96,1,101.999996887207
336,48,199881,6,0,P|424:48|436:176,1,203.999993774414
404,220,200227,1,0,0:0:0:0:
324,264,200343,2,0,L|196:252,1,101.999996887207
140,124,200573,1,0,0:0:0:0:
236,104,200689,6,0,B|296:96|296:96|350:115|350:115|400:88|464:92,1,203.999993774414
276,184,201035,2,0,L|168:200,1,101.999996887207
348,344,201266,2,0,L|484:320,1,101.999996887207
228,280,201497,2,0,L|88:264,1,101.999996887207
475,169,201727,6,0,P|383:193|267:181,1,203.999993774414
200,48,202073,1,0,0:0:0:0:
200,48,202189,2,0,P|276:36|328:52,1,101.999996887207
232,160,202420,2,0,B|176:180|176:180|136:144|68:144|20:184,1,203.999993774414
112,232,202766,1,0,0:0:0:0:
199,260,202881,1,0,0:0:0:0:
199,352,202997,1,0,0:0:0:0:
58,306,203112,5,0,0:0:0:0:
199,260,203227,1,0,0:0:0:0:
112,380,203343,1,0,0:0:0:0:
112,232,203458,1,0,0:0:0:0:
199,352,203573,6,0,B|248:336|300:360|300:360|328:332|328:332|360:348|428:348,1,203.999993774414
480,200,203920,2,0,B|431:184|379:208|379:208|351:180|351:180|319:196|251:196,1,203.999993774414
84,116,204266,2,0,P|140:108|192:120,1,101.999996887207
292,194,204497,1,0,0:0:0:0:
232,280,204612,2,0,P|128:296|32:240,1,203.999993774414
84,116,204958,5,0,0:0:0:0:
232,280,205073,1,0,0:0:0:0:
88,280,205189,1,0,0:0:0:0:
246,122,205304,1,0,0:0:0:0:
84,116,205420,6,0,P|116:156|252:108,1,203.999993774414
388,196,205766,2,0,L|392:304,1,101.999996887207
468,168,205997,2,0,P|436:128|300:176,1,203.999993774414
272,244,206343,1,0,0:0:0:0:
272,244,206458,2,0,L|276:352,1,101.999996887207
124,344,206689,1,0,0:0:0:0:
124,344,206804,2,0,L|120:216,1,101.999996887207
252,80,207035,2,0,P|196:120|144:136,1,101.999996887207
32,248,207266,6,0,P|100:248|144:276,2,101.999996887207
124,344,207612,2,0,P|188:320|208:280,1,101.999996887207
140,176,207843,2,0,P|204:184|252:164,1,101.999996887207
296,240,208073,6,0,P|325:177|229:77,1,203.999993774414
296,240,208420,2,0,B|352:248|352:248|400:240,1,101.999996887207
251,79,208650,2,0,B|195:71|195:71|147:79,1,101.999996887207
185,337,208881,2,0,B|241:345|241:345|289:337,1,101.999996887207
140,176,209112,6,0,P|68:152|32:252,1,203.999993774414
92,320,209458,1,0,0:0:0:0:
184,336,209573,2,0,L|328:332,1,101.999996887207
328,172,209804,2,0,L|216:176,1,101.999996887207
388,256,210035,5,0,0:0:0:0:
424,172,210150,1,0,0:0:0:0:
380,92,210266,1,0,0:0:0:0:
292,72,210381,1,0,0:0:0:0:
200,88,210497,2,0,P|136:100|84:80,1,101.999996887207
316,324,210727,2,0,P|380:312|432:332,1,101.999996887207
240,160,210958,6,0,P|160:180|40:144,1,203.999993774414
276,252,211304,2,0,P|356:232|476:268,1,203.999993774414
224,336,211650,5,0,0:0:0:0:
132,348,211766,1,0,0:0:0:0:
56,300,211881,1,0,0:0:0:0:
36,208,211997,1,0,0:0:0:0:
84,128,212112,1,0,0:0:0:0:
176,116,212227,1,0,0:0:0:0:
256,160,212343,5,0,0:0:0:0:
276,252,212458,1,0,0:0:0:0:
224,336,212573,1,0,0:0:0:0:
132,348,212689,1,0,0:0:0:0:
56,300,212804,1,0,0:0:0:0:
252,76,216266,6,0,B|260:120|260:120|240:216|240:216|252:264,1,170
376,144,219266,6,0,L|464:132,1,85
144,292,219612,2,0,L|52:284,1,85
96,189,219843,1,0,0:0:0:0:
96,189,219958,2,0,P|164:181|204:221,1,127.5
203,219,220189,6,0,L|431:227,1,187.000005706787
88,184,220650,2,0,L|80:88,2,93.5000028533936
4,80,220997,2,0,P|32:36|152:64,1,187.000005706787
216,128,221343,1,0,0:0:0:0:
203,219,221458,2,0,L|187:319,2,93.5000028533936
280,292,221804,1,0,0:0:0:0:
376,324,221920,6,0,B|444:336|444:336|472:280|452:216,1,187.000005706787
284,120,222266,2,0,B|216:132|216:132|188:76|208:12,1,187.000005706787
384,104,222612,2,0,L|396:204,1,93.5000028533936
280,292,222843,6,0,B|216:304|184:320|184:320|136:300|76:284,1,187.000005706787
32,204,223189,2,0,L|32:96,1,93.5000028533936
192,224,223420,2,0,L|184:340,1,93.5000028533936
387,197,223650,2,0,L|383:85,1,93.5000028533936
120,176,223881,6,0,P|176:140|272:200,1,187.000005706787
320,108,224227,1,0,0:0:0:0:
320,108,224343,2,0,P|372:120|424:112,2,93.5000028533936
472,52,224689,6,0,B|484:112|484:112|464:256,1,187.000005706787
356,320,225035,2,0,P|296:320|248:312,1,93.5000028533936
272,168,225266,2,0,P|332:168|380:176,2,93.5000028533936
196,248,225612,6,0,B|132:272|132:272|104:256|104:256|76:276|76:276|20:248,1,187.000005706787
160,172,225958,2,0,P|220:168|268:204,1,93.5000028533936
228,324,226189,2,0,P|168:328|120:292,2,93.5000028533936
480,216,226535,6,0,P|372:216|276:220,1,187.000005706787
392,144,226881,2,0,P|396:84|388:40,1,93.5000028533936
296,220,227112,2,0,P|296:280|304:328,1,93.5000028533936
160,172,227343,2,0,P|164:112|156:68,1,93.5000028533936
68,220,227573,6,0,P|148:264|252:220,1,187.000005706787
300,180,227920,1,0,0:0:0:0:
352,112,228035,6,0,L|340:12,1,93.5000028533936
168,36,228266,2,0,L|180:136,1,93.5000028533936
328,144,228497,2,0,L|316:44,1,93.5000028533936
144,68,228728,2,0,L|156:168,1,93.5000028533936
300,180,228958,2,0,L|288:80,1,93.5000028533936
116,104,229189,2,0,L|128:204,1,93.5000028533936
272,300,229420,6,0,P|328:308|392:296,1,93.5000028533936
184,191,229650,2,0,P|128:183|64:195,1,93.5000028533936
284,260,229881,2,0,P|340:268|404:256,1,93.5000028533936
196,151,230111,2,0,P|140:143|76:155,1,93.5000028533936
296,216,230343,2,0,P|352:224|416:212,1,93.5000028533936
208,107,230573,2,0,P|152:99|88:111,1,93.5000028533936
316,128,230804,5,0,0:0:0:0:
392,164,230920,1,0,0:0:0:0:
440,96,231035,1,0,0:0:0:0:
388,28,231150,1,0,0:0:0:0:
304,48,231266,6,0,P|232:64|112:28,1,187.000005706787
60,92,231612,1,0,0:0:0:0:
44,176,231727,2,0,L|48:280,1,93.5000028533936
184,320,231958,2,0,L|180:216,1,93.5000028533936
120,80,232189,2,0,L|124:184,1,93.5000028533936
260,224,232420,2,0,L|256:120,1,93.5000028533936
192,4,232650,2,0,L|196:108,1,93.5000028533936
332,148,232881,2,0,L|328:44,1,93.5000028533936
192,172,233112,6,0,P|176:220|184:272,1,93.5000028533936
332,280,233343,2,0,P|348:232|340:180,1,93.5000028533936
164,172,233573,2,0,P|148:220|156:272,1,93.5000028533936
360,288,233804,2,0,P|376:240|368:188,1,93.5000028533936
136,172,234035,2,0,P|120:220|128:272,1,93.5000028533936
332,148,234266,5,0,0:0:0:0:
304,68,234381,1,0,0:0:0:0:
228,28,234497,1,0,0:0:0:0:
144,32,234612,1,0,0:0:0:0:
80,84,234727,1,0,0:0:0:0:
56,164,234843,1,0,0:0:0:0:
64,256,234958,6,0,P|196:252|268:280,1,203.999993774414
456,228,235304,2,0,P|340:240|240:292,1,203.999993774414
76,224,235650,6,0,P|208:220|265:241,1,187.000005706787
438,198,235996,2,0,P|322:210|238:250,1,187.000005706787
248,160,236343,5,0,0:0:0:0:
244,140,236458,1,0,0:0:0:0:
240,120,236573,1,0,0:0:0:0:
161,302,236804,6,0,P|161:234|265:254,1,203.999993774414
372,304,237150,2,0,P|372:236|268:256,1,203.999993774414
171,319,237497,6,0,P|171:251|275:271,1,187.000005706787
365,319,237843,2,0,P|365:251|261:271,1,187.000005706787
256,192,238189,5,0,0:0:0:0:
252,172,238304,1,0,0:0:0:0:
248,152,238419,1,0,0:0:0:0:
76,56,238650,2,0,L|64:176,2,101.999996887207
152,276,238997,2,0,L|148:148,2,101.999996887207
304,260,239343,5,0,0:0:0:0:
432,280,239458,2,0,L|440:152,1,101.999996887207
288,236,239689,5,0,0:0:0:0:
416,256,239804,2,0,L|424:128,1,101.999996887207
272,212,240035,5,0,0:0:0:0:
400,232,240150,2,0,L|408:104,1,101.999996887207
256,192,240497,12,0,241304,0:0:0:0:
180,208,241420,5,0,0:0:0:0:
180,208,241535,2,0,L|72:200,1,85
256,300,241766,6,0,P|364:248|276:92,1,318.750012159348
