osu file format v14

[General]
AudioFilename: Walk This Way.mp3
AudioLeadIn: 0
PreviewTime: 46131
Countdown: 0
SampleSet: Soft
StackLeniency: 0.7
Mode: 0
LetterboxInBreaks: 0
WidescreenStoryboard: 1

[Editor]
DistanceSpacing: 1.1
BeatDivisor: 2
GridSize: 4
TimelineZoom: 2.999999

[Metadata]
Title:Walk This Way!
TitleUnicode:Walk This Way!
Artist:Kano
ArtistUnicode:鹿乃
Creator:Rumia-
Version:7.6
Source:
Tags:Stella-rium
BeatmapID:1572830
BeatmapSetID:728975

[Difficulty]
HPDrainRate:4
CircleSize:4
OverallDifficulty:8.5
ApproachRate:9.8
SliderMultiplier:1.8
SliderTickRate:1

[Events]
//Background and Video events
0,0,"walk this way.jpg",0,0
//Break Periods
2,76389,84911
2,89312,90218
//Storyboard Layer 0 (Background)
//Storyboard Layer 1 (Fail)
//Storyboard Layer 2 (Pass)
//Storyboard Layer 3 (Foreground)
//Storyboard Sound Samples

[TimingPoints]
497,230.769230769231,4,2,0,30,1,0
958,-133.333333333333,4,2,0,30,0,0
2343,-100,4,2,0,30,0,0
2804,-133.333333333333,4,2,0,30,0,0
3958,-100,4,2,0,30,0,0
7650,-76.9230769230769,4,2,0,30,0,0
7881,-90.9090909090909,4,2,0,30,0,0
17112,-133.333333333333,4,2,0,30,0,0
19420,-100,4,2,0,30,0,0
31881,-90.9090909090909,4,2,0,30,0,0
44804,-71.4285714285714,4,2,0,30,0,0
46650,-76.9230769230769,4,2,0,30,0,1
68804,-133.333333333333,4,2,0,15,0,0
72266,-100,4,2,0,15,0,0
75266,-100,4,2,0,45,0,0
76189,-83.3333333333333,4,2,0,30,0,0
85420,-100,4,2,0,45,0,0
92458,-76.9230769230769,4,2,0,45,0,0
92804,-100,4,2,0,45,0,0
114958,-76.9230769230769,4,2,0,60,0,1
137112,-100,4,2,0,45,0,0
144497,-100,4,2,0,45,0,0
147150,-100,4,2,0,45,0,0
147497,-100,4,2,0,25,0,0
148189,-100,4,2,0,45,0,0
150843,-100,4,2,0,45,0,0
151881,-90.9090909090909,4,2,0,45,0,0
162958,-90.9090909090909,4,2,0,30,0,0
166650,-111.111111111111,4,2,0,30,0,0
173112,-90.9090909090909,4,2,0,30,0,0
174035,-105.263157894737,4,2,0,30,0,0
181420,-90.9090909090909,4,2,0,30,0,0
185112,-105.263157894737,4,2,0,30,0,0
186958,-90.9090909090909,4,2,0,30,0,0
188804,-90.9090909090909,4,2,0,30,0,0
189612,-90.9090909090909,4,2,0,30,0,0
190650,-83.3333333333333,4,2,0,30,0,1
213035,-100,4,2,0,15,0,0
220189,-90.9090909090909,4,2,0,30,0,0
227573,-90.9090909090909,4,2,0,30,0,0
234958,-83.3333333333333,4,2,0,30,0,0
235650,-90.9090909090909,4,2,0,30,0,0
238650,-83.3333333333333,4,2,0,30,0,0
240497,-200,4,2,0,30,0,0
241766,-133.333333333333,4,2,0,30,0,0

[HitObjects]
24,304,497,6,0,B|80:296|80:296|152:312|152:312|216:304,1,180
448,264,958,1,0,0:0:0:0:
448,264,1073,2,0,L|448:336,1,67.5000025749208
352,200,1304,2,0,L|352:272,1,67.5000025749208
352,200,1535,2,0,L|352:336,1,135.000005149842
264,240,1881,2,0,P|264:176|288:144,1,101.250003862381
344,112,2112,2,0,L|188:92,1,135.000005149842
24,168,2458,6,0,P|96:164|100:260,1,180
32,296,2804,1,0,0:0:0:0:
32,296,2920,2,0,L|120:312,1,67.5000025749208
200,280,3150,2,0,L|320:304,1,101.250003862381
336,224,3381,2,0,L|420:240,1,67.5000025749208
360,144,3612,1,0,0:0:0:0:
360,144,3727,6,0,P|312:144|256:200,1,101.250003862381
272,296,3958,2,0,L|424:312,1,135
416,232,4189,6,0,P|368:248|360:376,1,180
464,160,4535,1,0,0:0:0:0:
464,160,4650,2,0,P|408:144|352:152,1,90
272,112,4881,1,0,0:0:0:0:
272,112,4997,6,0,P|216:120|168:112,1,90
16,176,5227,2,0,P|80:176|120:192,1,90
192,320,5458,1,0,0:0:0:0:
192,320,5573,2,0,P|128:328|32:304,1,135
168,240,5804,2,0,P|240:248|272:312,1,135
480,248,6035,6,0,B|400:248|400:248|368:264|368:264|280:264,1,180
136,176,6381,1,0,0:0:0:0:
136,176,6497,1,0,0:0:0:0:
136,176,6612,2,0,L|240:176,1,90
56,256,6843,1,0,0:0:0:0:
56,256,6958,2,0,P|32:192|48:144,1,90
272,100,7304,2,0,L|256:188,1,90
299,364,7535,1,0,0:0:0:0:
248,280,7650,6,0,B|320:280|320:280|368:304|368:304|448:304,1,175.499991966248
496,224,7881,2,0,L|392:224,1,99.0000030212403
299,364,8112,2,0,L|187:364,1,99.0000030212403
56,256,8343,1,0,0:0:0:0:
196,238,8458,1,0,0:0:0:0:
138,338,8573,1,0,0:0:0:0:
136,176,8689,6,0,P|200:152|232:160,1,99.0000030212403
120,320,8920,2,0,P|56:312|24:280,1,99.0000030212403
318,148,9150,1,0,0:0:0:0:
291,322,9266,1,0,0:0:0:0:
196,238,9381,1,0,0:0:0:0:
196,238,9497,1,0,0:0:0:0:
465,217,9612,6,0,B|401:217|401:217|337:233|337:233|257:233,1,198.000006042481
64,224,9958,2,0,P|48:168|64:112,1,99.0000030212403
208,120,10189,2,0,P|224:176|208:232,1,99.0000030212403
56,352,10420,1,0,0:0:0:0:
152,264,10535,6,0,P|152:168|64:104,1,198.000006042481
152,264,10881,2,0,L|272:272,1,99.0000030212403
176,111,11112,2,0,L|78:106,1,99.0000030212403
344,32,11343,2,0,B|328:136|328:136|336:200,1,148.50000453186
344,267,11573,6,0,P|272:243|336:179,1,198.000006042481
432,352,11920,1,0,0:0:0:0:
512,280,12035,1,0,0:0:0:0:
416,248,12150,1,0,0:0:0:0:
432,352,12266,1,0,0:0:0:0:
512,280,12381,6,0,B|520:224|504:192|472:160|472:160|384:160,1,198.000006042481
256,248,12727,2,0,L|264:352,1,99.0000030212403
160,208,12958,2,0,P|208:160|272:160,1,99.0000030212403
344,267,13189,1,0,0:0:0:0:
160,304,13304,6,0,P|96:288|88:152,1,198.000006042481
168,112,13650,2,0,P|216:128|248:176,1,99.0000030212403
48,152,13881,2,0,P|32:80|56:40,1,99.0000030212403
140,214,14112,5,0,0:0:0:0:
234,316,14227,1,0,0:0:0:0:
107,294,14343,1,0,0:0:0:0:
228,228,14458,1,0,0:0:0:0:
144,368,14573,6,0,P|104:376|24:360,1,99.0000030212403
140,214,14804,1,0,0:0:0:0:
124,384,14920,1,0,0:0:0:0:
234,316,15035,2,0,P|310:323|406:315,1,148.50000453186
416,320,15266,5,0,0:0:0:0:
464,168,15381,1,0,0:0:0:0:
464,168,15497,1,0,0:0:0:0:
294,60,15612,1,0,0:0:0:0:
300,216,15727,1,0,0:0:0:0:
300,216,15843,1,0,0:0:0:0:
186,164,15958,5,0,0:0:0:0:
152,320,16073,1,0,0:0:0:0:
152,320,16189,1,0,0:0:0:0:
64,196,16304,1,0,0:0:0:0:
62,43,16419,1,0,0:0:0:0:
62,43,16535,1,0,0:0:0:0:
192,144,16650,2,0,P|256:144|288:160,1,99.0000030212403
416,320,16881,1,0,0:0:0:0:
416,320,17112,6,0,B|368:320|368:320|320:336|320:336|264:336,1,135.000005149842
272,200,17458,1,0,0:0:0:0:
272,200,17573,2,0,B|320:200|320:200|368:184|368:184|424:184,1,135.000005149842
296,120,17920,1,0,0:0:0:0:
296,120,18035,6,0,L|208:120,1,67.5000025749208
384,256,18266,2,0,L|464:256,1,67.5000025749208
280,328,18497,2,0,P|208:344|168:320,1,101.250003862381
152,312,18727,2,0,L|152:224,1,67.5000025749208
136,160,18958,5,0,0:0:0:0:
58,53,19073,1,0,0:0:0:0:
183,94,19189,1,0,0:0:0:0:
58,134,19304,1,0,0:0:0:0:
136,28,19420,2,0,P|200:16|256:56,1,135
272,96,19650,2,0,L|264:192,1,90
392,336,19881,6,0,L|392:224,1,90
360,96,20112,1,0,0:0:0:0:
480,224,20227,1,0,0:0:0:0:
304,216,20343,2,0,L|208:216,1,90
40,312,20573,2,0,L|168:312,1,90
267,308,20804,1,0,0:0:0:0:
272,336,21035,6,0,P|352:336|392:328,1,90
480,224,21266,1,0,0:0:0:0:
480,224,21497,2,0,P|408:232|368:224,1,90
288,152,21727,1,0,0:0:0:0:
392,72,21843,1,0,0:0:0:0:
288,152,21958,2,0,P|216:160|176:152,1,90
40,232,22189,2,0,P|112:232|152:240,1,90
273,276,22420,5,0,0:0:0:0:
208,192,22535,1,0,0:0:0:0:
160,320,22650,1,0,0:0:0:0:
216,224,22766,1,0,0:0:0:0:
280,304,22881,1,0,0:0:0:0:
204,160,22997,1,0,0:0:0:0:
160,320,23112,6,0,P|96:312|56:368,1,135
40,232,23343,2,0,L|136:232,1,90
216,224,23573,1,0,0:0:0:0:
360,168,23689,1,0,0:0:0:0:
216,128,23804,1,0,0:0:0:0:
304,248,23920,5,0,0:0:0:0:
304,96,24035,1,0,0:0:0:0:
216,224,24150,1,0,0:0:0:0:
336,312,24266,6,0,B|400:312|400:312|440:328|440:328|520:328,1,180
304,248,24612,2,0,P|264:288|264:328,1,90
464,248,24843,1,0,0:0:0:0:
464,248,24958,2,0,L|456:136,1,90
344,40,25189,1,0,0:0:0:0:
344,40,25304,2,0,L|336:152,1,90
136,130,25535,2,0,L|143:36,1,90
208,224,25766,5,0,0:0:0:0:
208,224,25881,2,0,P|152:224|104:200,1,90
288,304,26112,2,0,P|344:296|392:304,1,90
456,232,26343,5,0,0:0:0:0:
352,196,26458,1,0,0:0:0:0:
376,299,26573,1,0,0:0:0:0:
468,229,26689,1,0,0:0:0:0:
343,186,26804,1,0,0:0:0:0:
372,310,26919,1,0,0:0:0:0:
480,232,27035,5,0,0:0:0:0:
480,232,27150,2,0,P|500:284|492:340,1,90
336,180,27381,1,0,0:0:0:0:
336,180,27497,2,0,P|328:116|344:68,1,90
280,280,27727,2,0,L|96:264,1,180
16,184,28073,5,0,0:0:0:0:
16,184,28189,2,0,L|128:168,1,90
168,80,28420,1,0,0:0:0:0:
276,180,28535,1,0,0:0:0:0:
152,280,28650,1,0,0:0:0:0:
152,280,28997,5,0,0:0:0:0:
347,278,29112,1,0,0:0:0:0:
255,224,29227,1,0,0:0:0:0:
434,215,29343,2,0,P|458:295|402:367,1,180
216,344,29804,1,0,0:0:0:0:
216,344,29920,1,0,0:0:0:0:
216,344,30035,6,0,P|160:360|104:352,1,90
32,224,30266,1,0,0:0:0:0:
32,224,30381,2,0,P|96:232|128:232,1,90
200,192,30612,1,0,0:0:0:0:
240,112,30727,1,0,0:0:0:0:
192,32,30843,1,0,0:0:0:0:
240,112,30958,6,0,L|360:96,1,90
472,104,31189,1,0,0:0:0:0:
300,180,31304,1,0,0:0:0:0:
336,56,31420,1,0,0:0:0:0:
476,252,31535,1,0,0:0:0:0:
472,104,31650,1,0,0:0:0:0:
328,296,31766,1,0,0:0:0:0:
192,32,31881,6,0,B|192:112|192:112|216:152|216:152|216:240,1,198.000006042481
48,304,32227,1,0,0:0:0:0:
112,208,32343,1,0,0:0:0:0:
24,208,32458,1,0,0:0:0:0:
160,304,32573,1,0,0:0:0:0:
24,208,32689,6,0,B|32:128|32:128|64:104|64:104|72:16,1,198.000006042481
192,213,33035,2,0,B|188:247|188:247|164:281|164:281|158:315,1,99.0000030212403
112,208,33266,2,0,B|116:174|116:174|140:140|140:140|146:106,1,99.0000030212403
48,304,33497,2,0,P|123:297|170:317,1,99.0000030212403
250,328,33727,5,0,0:0:0:0:
250,328,33843,2,0,P|304:330|388:317,1,99.0000030212403
478,249,34073,1,0,0:0:0:0:
478,249,34189,2,0,P|397:251|351:260,1,99.0000030212403
276,226,34420,5,0,0:0:0:0:
131,153,34535,1,0,0:0:0:0:
188,248,34650,1,0,0:0:0:0:
292,88,34766,1,0,0:0:0:0:
131,153,34881,1,0,0:0:0:0:
196,56,34997,1,0,0:0:0:0:
437,160,35112,2,0,L|428:269,1,99.0000030212403
276,340,35343,2,0,L|286:221,1,99.0000030212403
181,67,35573,6,0,P|104:64|37:157,1,198.000006042481
128,318,35920,1,0,0:0:0:0:
128,318,36035,2,0,P|199:328|234:317,1,99.0000030212403
227,156,36266,1,0,0:0:0:0:
227,156,36381,6,0,P|156:146|121:157,1,99.0000030212403
48,228,36612,1,0,0:0:0:0:
48,128,36727,2,0,L|64:12,1,99.0000030212403
139,219,36958,2,0,L|126:335,1,99.0000030212403
280,172,37189,2,0,L|296:56,1,99.0000030212403
344,252,37420,5,0,0:0:0:0:
480,224,37535,1,0,0:0:0:0:
304,356,37650,1,0,0:0:0:0:
328,224,37766,1,0,0:0:0:0:
194,184,37881,1,0,0:0:0:0:
412,150,37996,1,0,0:0:0:0:
208,272,38112,6,0,P|132:252|116:140,1,198.000006042481
200,68,38458,1,0,0:0:0:0:
313,151,38573,2,0,P|373:155|445:139,1,99.0000030212403
204,268,38804,1,0,0:0:0:0:
24,204,38920,1,0,0:0:0:0:
144,136,39035,1,0,0:0:0:0:
76,340,39150,1,0,0:0:0:0:
48,120,39266,5,0,0:0:0:0:
208,232,39381,1,0,0:0:0:0:
76,340,39497,1,0,0:0:0:0:
144,136,39612,5,0,0:0:0:0:
152,120,39843,1,0,0:0:0:0:
160,104,40073,6,0,B|212:100|212:100|252:96|264:136|312:136|312:136|376:132,1,198.000006042481
464,48,40420,1,0,0:0:0:0:
360,240,40535,1,0,0:0:0:0:
352,256,40766,5,0,0:0:0:0:
328,120,40881,1,0,0:0:0:0:
472,164,40997,1,0,0:0:0:0:
272,320,41112,5,0,0:0:0:0:
88,184,41227,1,0,0:0:0:0:
148,344,41343,1,0,0:0:0:0:
232,192,41458,2,0,P|236:136|224:88,1,99.0000030212403
44,264,41689,2,0,P|40:320|52:368,1,99.0000030212403
272,320,41920,6,0,P|364:344|456:272,1,198.000006042481
472,164,42266,2,0,L|456:56,1,99.0000030212403
232,192,42497,1,0,0:0:0:0:
352,88,42612,1,0,0:0:0:0:
280,272,42727,1,0,0:0:0:0:
400,168,42842,1,0,0:0:0:0:
220,96,42958,6,0,P|156:120|144:240,1,198.000006042481
272,352,43304,1,0,0:0:0:0:
272,352,43420,2,0,L|384:348,1,99.0000030212403
252,316,43766,2,0,L|360:312,1,99.0000030212403
224,276,43997,1,0,0:0:0:0:
224,276,44112,6,0,L|332:272,1,99.0000030212403
120,340,44343,2,0,L|12:336,1,99.0000030212403
152,216,44573,2,0,P|152:140|64:104,1,148.50000453186
32,120,44804,6,0,L|296:104,1,251.999992309571
460,210,45150,2,0,L|204:192,1,251.999992309571
36,272,45497,2,0,P|112:272|64:144,1,251.999992309571
28,116,46189,5,0,0:0:0:0:
40,100,46420,1,0,0:0:0:0:
52,84,46650,6,0,P|160:104|248:0,1,233.999989288331
124,32,46997,1,0,0:0:0:0:
92,184,47112,2,0,P|92:248|104:304,1,116.999994644165
304,348,47343,1,0,0:0:0:0:
352,228,47458,6,0,P|340:148|184:120,1,233.999989288331
352,228,47804,2,0,B|416:244|416:244|492:220,1,116.999994644165
208,105,48035,2,0,B|144:89|144:89|68:113,1,116.999994644165
64,312,48266,1,0,0:0:0:0:
140,176,48381,1,0,0:0:0:0:
216,304,48497,6,0,B|280:296|280:296|376:332|376:332|456:324,1,233.999989288331
256,372,48843,1,0,0:0:0:0:
256,372,48958,2,0,P|168:376|136:308,1,116.999994644165
112,176,49189,1,0,0:0:0:0:
64,312,49304,1,0,0:0:0:0:
200,228,49420,6,0,P|212:164|200:96,1,116.999994644165
24,112,49650,2,0,P|12:176|24:244,1,116.999994644165
200,336,49881,2,0,L|324:320,1,116.999994644165
484,200,50112,2,0,L|356:184,1,116.999994644165
235,99,50343,5,0,0:0:0:0:
373,64,50458,1,0,0:0:0:0:
326,264,50573,1,0,0:0:0:0:
232,192,50689,2,0,P|144:196|76:172,1,116.999994644165
320,132,50920,1,0,0:0:0:0:
352,260,51035,2,0,P|424:252|480:260,1,116.999994644165
312,376,51266,1,0,0:0:0:0:
236,264,51381,2,0,P|232:192|248:136,1,116.999994644165
464,92,51612,6,0,P|368:96|312:76,1,116.999994644165
236,264,51843,2,0,P|328:256|380:268,1,116.999994644165
268,48,52073,5,0,0:0:0:0:
200,144,52189,2,0,P|116:120|76:80,1,116.999994644165
368,108,52420,1,0,0:0:0:0:
347,230,52535,2,0,P|296:256|236:264,1,116.999994644165
440,176,52766,1,0,0:0:0:0:
292,144,52881,2,0,P|288:80|300:12,1,116.999994644165
460,212,53112,1,0,0:0:0:0:
392,332,53227,2,0,P|324:340|260:332,1,116.999994644165
96,328,53458,5,0,0:0:0:0:
128,236,53573,1,0,0:0:0:0:
164,132,53689,1,0,0:0:0:0:
207,299,53804,1,0,0:0:0:0:
24,232,53920,1,0,0:0:0:0:
235,184,54035,6,0,P|247:112|115:52,1,233.999989288331
24,232,54381,1,0,0:0:0:0:
96,328,54497,2,0,P|176:316|212:296,1,116.999994644165
396,216,54727,1,0,0:0:0:0:
320,321,54843,6,0,P|249:316|165:268,1,116.999994644165
164,132,55073,1,0,0:0:0:0:
164,132,55189,2,0,B|216:100|216:100|288:96,1,116.999994644165
96,212,55420,2,0,P|68:144|72:88,1,116.999994644165
200,236,55650,2,0,P|228:304|224:360,1,116.999994644165
260,168,55881,6,0,B|320:164|320:164|428:196|428:196|496:188,1,233.999989288331
332,252,56227,1,0,0:0:0:0:
332,252,56343,2,0,L|208:260,1,116.999994644165
420,120,56573,1,0,0:0:0:0:
420,120,56689,6,0,P|456:84|348:72,1,233.999989288331
404,200,57035,2,0,P|416:264|388:320,1,116.999994644165
256,304,57266,2,0,P|244:220|264:184,1,116.999994644165
256,304,57497,6,0,P|136:296|100:292,1,116.999994644165
4,196,57727,2,0,L|132:184,1,116.999994644165
200,124,57958,1,0,0:0:0:0:
144,216,58073,2,0,L|280:200,1,116.999994644165
352,224,58304,1,0,0:0:0:0:
264,136,58420,6,0,P|256:78|268:21,1,116.999994644165
472,208,58650,1,0,0:0:0:0:
472,208,58766,2,0,P|476:280|440:352,1,116.999994644165
432,104,58997,1,0,0:0:0:0:
364,216,59112,6,0,P|292:236|236:224,1,116.999994644165
48,300,59343,2,0,P|124:288|184:312,1,116.999994644165
284,356,59573,5,0,0:0:0:0:
176,184,59689,1,0,0:0:0:0:
148,332,59804,1,0,0:0:0:0:
260,256,59920,2,0,B|348:260|348:260|396:288|396:288|492:288,1,233.999989288331
332,168,60266,2,0,P|304:104|320:52,1,116.999994644165
448,192,60497,1,0,0:0:0:0:
428,296,60612,2,0,P|392:348|332:360,1,116.999994644165
160,232,60843,1,0,0:0:0:0:
344,276,60958,5,0,0:0:0:0:
284,120,61073,1,0,0:0:0:0:
240,360,61189,1,0,0:0:0:0:
244,192,61304,1,0,0:0:0:0:
144,320,61420,5,0,0:0:0:0:
344,276,61535,2,0,P|408:284|480:272,1,116.999994644165
244,192,61766,2,0,P|236:276|240:332,1,116.999994644165
408,152,61997,2,0,P|408:88|392:16,1,116.999994644165
180,104,62227,6,0,P|264:96|320:112,1,116.999994644165
188,296,62458,1,0,0:0:0:0:
244,192,62573,1,0,0:0:0:0:
296,292,62689,1,0,0:0:0:0:
152,220,62804,2,0,P|116:256|112:332,1,116.999994644165
344,360,63035,2,0,P|376:296|360:244,1,116.999994644165
88,252,63266,6,0,P|64:156|168:76,1,233.999989288331
272,36,63612,2,0,B|336:24|408:44,1,116.999994644165
376,184,63843,2,0,P|308:192|252:180,1,116.999994644165
472,136,64073,6,0,P|480:228|460:280,1,116.999994644165
308,340,64304,1,0,0:0:0:0:
396,212,64420,1,0,0:0:0:0:
472,348,64535,1,0,0:0:0:0:
280,248,64650,2,0,P|232:276|216:340,1,116.999994644165
392,264,64881,2,0,P|440:236|456:172,1,116.999994644165
300,160,65112,6,0,B|200:160|200:160|160:176|160:176|64:176,1,233.999989288331
148,96,65458,1,0,0:0:0:0:
212,252,65573,2,0,P|204:328|212:372,1,116.999994644165
348,308,65804,1,0,0:0:0:0:
460,168,65920,1,0,0:0:0:0:
292,220,66035,1,0,0:0:0:0:
452,284,66150,1,0,0:0:0:0:
360,120,66266,1,0,0:0:0:0:
348,308,66381,1,0,0:0:0:0:
460,168,66497,6,0,P|464:80|448:32,1,116.999994644165
292,220,66727,2,0,P|288:308|304:356,1,116.999994644165
384,224,66958,6,0,P|332:140|192:196,1,233.999989288331
160,252,67304,2,0,B|96:264|96:264|32:248,1,116.999994644165
127,141,67535,1,0,0:0:0:0:
160,336,67650,2,0,B|96:348|96:348|32:332,1,116.999994644165
127,141,67881,5,0,0:0:0:0:
276,257,67997,1,0,0:0:0:0:
225,75,68112,1,0,0:0:0:0:
160,252,68227,1,0,0:0:0:0:
317,147,68343,1,0,0:0:0:0:
127,141,68458,1,0,0:0:0:0:
360,224,68573,1,0,0:0:0:0:
144,60,68689,1,0,0:0:0:0:
424,160,68804,5,0,0:0:0:0:
428,148,69266,1,0,0:0:0:0:
432,136,69727,2,0,P|440:80|436:48,1,67.5000025749208
320,216,70073,2,0,P|396:252|452:248,1,135.000005149842
445,249,70420,1,0,0:0:0:0:
244,312,70650,6,0,L|168:336,1,67.5000025749208
368,320,70881,2,0,L|436:344,1,67.5000025749208
320,216,71112,2,0,L|324:144,1,67.5000025749208
412,92,71343,2,0,P|336:60|288:68,1,101.250003862381
318,60,71573,1,0,0:0:0:0:
212,192,71689,1,0,0:0:0:0:
212,192,71920,5,0,0:0:0:0:
148,332,72151,1,0,0:0:0:0:
148,332,72266,2,0,P|232:328|280:328,1,90
432,328,72497,5,0,0:0:0:0:
460,312,72958,2,0,P|476:248|440:140,1,180
388,72,73304,1,0,0:0:0:0:
264,280,73420,1,0,0:0:0:0:
240,304,73766,2,0,P|160:308|148:304,1,90
24,200,73997,2,0,P|72:192|132:212,1,90
48,72,74343,5,0,0:0:0:0:
176,240,74573,1,0,0:0:0:0:
244,64,74804,1,0,0:0:0:0:
48,184,75035,1,0,0:0:0:0:
456,208,75266,6,0,P|464:260|448:312,1,90
148,116,75612,1,0,0:0:0:0:
160,144,75843,5,0,0:0:0:0:
448,88,75958,1,0,0:0:0:0:
308,276,76073,1,0,0:0:0:0:
220,40,76189,1,0,0:0:0:0:
48,136,85420,5,0,0:0:0:0:
108,64,85535,1,0,0:0:0:0:
148,160,85650,1,0,0:0:0:0:
156,180,85881,2,0,P|240:200|332:172,1,180
436,124,86227,2,0,L|420:24,1,90
328,200,86458,1,0,0:0:0:0:
328,200,86573,6,0,P|328:248|344:292,1,90
472,252,86804,1,0,0:0:0:0:
176,336,87035,1,0,0:0:0:0:
12,216,87266,6,0,B|64:208|64:208|136:228|136:228|204:220,1,180
60,288,87612,1,0,0:0:0:0:
60,288,87727,2,0,P|44:332|56:392,1,90
136,144,87958,1,0,0:0:0:0:
136,144,88073,2,0,P|144:88|140:44,1,90
184,220,88304,5,0,0:0:0:0:
48,120,88420,1,0,0:0:0:0:
140,300,88535,1,0,0:0:0:0:
12,216,88650,2,0,B|64:204|64:204|108:220,1,90
184,220,88881,2,0,B|132:228|132:228|88:216,1,90
144,60,89112,5,0,0:0:0:0:
276,344,90727,5,0,0:0:0:0:
360,288,90843,1,0,0:0:0:0:
448,332,90958,2,0,P|464:288|460:232,1,90
276,164,91189,2,0,P|260:208|264:264,1,90
436,80,91420,6,0,B|360:72|360:72|320:92|320:92|244:84,1,180
160,72,91766,1,0,0:0:0:0:
24,160,91881,1,0,0:0:0:0:
52,52,91997,5,0,0:0:0:0:
76,212,92112,1,0,0:0:0:0:
168,152,92227,1,0,0:0:0:0:
0,136,92342,1,0,0:0:0:0:
164,240,92458,2,0,B|208:228|236:240|236:240|284:200|284:200|332:256|288:308,1,233.999989288331
164,240,92804,6,0,B|160:208|128:180|128:180|104:204,1,90
98,277,93035,2,0,P|99:219|119:187,1,90
112,304,93266,2,0,P|192:344|296:296,1,180
336,256,93612,1,0,0:0:0:0:
396,184,93727,1,0,0:0:0:0:
476,232,93843,2,0,P|480:292|472:332,1,90
304,168,94073,2,0,P|300:108|308:68,1,90
340,344,94420,1,0,0:0:0:0:
340,344,94650,6,0,B|264:360|264:360|152:336,1,180
52,248,94997,1,0,0:0:0:0:
80,344,95112,1,0,0:0:0:0:
196,200,95227,1,0,0:0:0:0:
188,296,95342,1,0,0:0:0:0:
116,156,95458,6,0,P|164:116|280:152,1,180
296,248,95804,2,0,L|288:340,1,90
395,220,96035,1,0,0:0:0:0:
484,112,96150,1,0,0:0:0:0:
351,139,96266,1,0,0:0:0:0:
492,232,96381,1,0,0:0:0:0:
432,28,96497,5,0,0:0:0:0:
172,184,96727,2,0,P|96:196|8:120,1,180
272,160,97304,1,0,0:0:0:0:
272,160,97420,2,0,L|260:264,1,90
456,332,97650,2,0,L|440:216,1,90
428,112,97881,1,0,0:0:0:0:
428,112,98112,5,0,0:0:0:0:
300,38,98227,1,0,0:0:0:0:
360,172,98343,2,0,P|352:228|332:268,1,90
208,352,98573,2,0,P|200:288|212:252,1,90
256,176,98804,1,0,0:0:0:0:
400,328,98920,1,0,0:0:0:0:
416,316,99150,5,0,0:0:0:0:
428,112,99266,1,0,0:0:0:0:
426,111,99497,5,0,0:0:0:0:
360,172,99612,1,0,0:0:0:0:
282,126,99727,1,0,0:0:0:0:
300,38,99843,1,0,0:0:0:0:
390,29,99958,1,0,0:0:0:0:
360,172,100073,1,0,0:0:0:0:
300,38,100189,6,0,B|220:36|220:36|184:48|184:48|104:44,1,180
152,164,100535,1,0,0:0:0:0:
44,116,100650,1,0,0:0:0:0:
60,236,100766,1,0,0:0:0:0:
240,112,100881,1,0,0:0:0:0:
237,229,100997,6,0,B|157:227|157:227|121:239|121:239|41:235,1,180
248,316,101343,2,0,P|300:288|316:224,1,90
224,144,101573,2,0,P|172:172|156:236,1,90
152,320,101804,1,0,0:0:0:0:
392,324,101920,1,0,0:0:0:0:
308,276,102035,6,0,P|376:232|464:272,1,180
292,360,102381,2,0,B|228:368|228:368|96:340,1,180
40,256,102727,2,0,P|84:252|24:192,1,180
34,182,103189,5,0,0:0:0:0:
96,116,103304,1,0,0:0:0:0:
188,108,103420,1,0,0:0:0:0:
260,164,103535,1,0,0:0:0:0:
344,196,103650,1,0,0:0:0:0:
432,176,103766,1,0,0:0:0:0:
432,176,103881,6,0,L|428:76,1,90
344,196,104112,2,0,L|352:292,1,90
328,100,104343,1,0,0:0:0:0:
432,176,104458,1,0,0:0:0:0:
324,80,104573,1,0,0:0:0:0:
260,252,104689,6,0,P|208:232|192:112,1,180
256,36,105035,2,0,P|308:40|352:28,1,90
186,120,105266,2,0,P|126:120|90:104,1,90
32,28,105497,1,0,0:0:0:0:
32,28,105727,5,0,0:0:0:0:
24,172,105843,1,0,0:0:0:0:
116,80,105958,1,0,0:0:0:0:
108,256,106073,1,0,0:0:0:0:
224,92,106189,1,0,0:0:0:0:
224,280,106304,1,0,0:0:0:0:
328,64,106420,1,0,0:0:0:0:
344,248,106535,1,0,0:0:0:0:
472,140,106650,6,0,B|400:136|400:136|348:156|348:156|272:152,1,180
480,52,107112,1,0,0:0:0:0:
472,140,107227,1,0,0:0:0:0:
468,232,107343,1,0,0:0:0:0:
464,320,107458,1,0,0:0:0:0:
464,320,107573,6,0,P|396:320|352:304,1,90
252,92,107804,1,0,0:0:0:0:
248,336,107920,1,0,0:0:0:0:
228,324,108150,1,0,0:0:0:0:
208,312,108381,6,0,P|160:272|72:344,1,180
36,104,108727,1,0,0:0:0:0:
84,180,108843,1,0,0:0:0:0:
172,176,108958,1,0,0:0:0:0:
216,104,109073,1,0,0:0:0:0:
36,104,109189,1,0,0:0:0:0:
172,24,109304,1,0,0:0:0:0:
80,24,109420,5,0,0:0:0:0:
216,104,109535,1,0,0:0:0:0:
84,180,109650,1,0,0:0:0:0:
172,24,109766,5,0,0:0:0:0:
160,48,109997,1,0,0:0:0:0:
152,72,110227,6,0,B|128:124|148:164|148:164|128:208|128:208|132:280,1,180
224,320,110573,2,0,L|216:228,1,90
48,76,110804,2,0,L|48:180,1,90
240,332,111035,2,0,L|232:240,1,90
32,64,111266,6,0,B|32:140|32:140|48:188|48:188|48:248,1,180
136,104,111612,1,0,0:0:0:0:
136,104,111727,2,0,P|184:124|152:44,1,180
160,196,112073,2,0,L|156:292,1,90
184,224,112304,2,0,L|180:320,1,90
76,332,112535,1,0,0:0:0:0:
264,264,112650,5,0,0:0:0:0:
364,328,112766,1,0,0:0:0:0:
460,260,112881,1,0,0:0:0:0:
408,152,112997,1,0,0:0:0:0:
300,159,113112,6,0,B|300:103|300:103|320:79|320:79|320:27,1,135
320,32,113343,1,0,0:0:0:0:
188,32,113458,2,0,B|188:88|188:88|208:112|208:112|208:164,1,135
208,159,113689,1,0,0:0:0:0:
104,144,113804,5,0,0:0:0:0:
256,192,113862,12,0,114727,0:0:0:0:
152,320,114958,6,0,B|220:316|248:264|248:264|276:316|352:320,1,233.999989288331
172,116,115304,1,0,0:0:0:0:
336,232,115420,1,0,0:0:0:0:
316,116,115535,1,0,0:0:0:0:
160,232,115650,1,0,0:0:0:0:
244,70,115766,6,0,B|228:120|248:164|248:164|244:200|244:200|264:252|248:300,1,233.999989288331
316,116,116112,2,0,B|368:144|368:144|424:100,1,116.999994644165
160,232,116343,2,0,B|108:260|108:260|52:216,1,116.999994644165
336,232,116573,2,0,P|396:232|448:252,1,116.999994644165
244,72,116804,6,0,B|232:136|232:136|244:244|244:244|232:308,1,233.999989288331
44,328,117150,1,0,0:0:0:0:
160,232,117266,1,0,0:0:0:0:
336,232,117381,1,0,0:0:0:0:
456,316,117497,1,0,0:0:0:0:
456,136,117612,1,0,0:0:0:0:
332,292,117727,6,0,B|316:348|316:348|260:324|260:324|208:348|208:348|180:260,1,233.999989288331
152,184,118073,1,0,0:0:0:0:
256,144,118189,2,0,L|256:268,1,116.999994644165
328,124,118420,2,0,L|176:120,1,116.999994644165
64,192,118650,6,0,P|16:128|120:64,1,233.999989288331
152,184,118997,1,0,0:0:0:0:
152,184,119112,2,0,L|144:308,1,116.999994644165
380,192,119343,2,0,P|428:128|324:64,1,233.999989288331
292,184,119690,1,0,0:0:0:0:
292,184,119805,2,0,L|300:308,1,116.999994644165
144,300,120035,5,0,0:0:0:0:
299,300,120150,1,0,0:0:0:0:
152,184,120266,1,0,0:0:0:0:
292,184,120381,1,0,0:0:0:0:
80,228,120497,6,0,P|76:140|204:120,1,233.999989288331
220,252,120843,1,0,0:0:0:0:
408,216,120958,1,0,0:0:0:0:
304,304,121073,1,0,0:0:0:0:
368,112,121189,2,0,B|300:108|300:108|240:80,1,116.999994644165
160,24,121420,1,0,0:0:0:0:
112,136,121535,2,0,B|180:140|180:140|240:168,1,116.999994644165
304,304,121766,1,0,0:0:0:0:
144,312,121881,6,0,P|132:224|156:176,1,116.999994644165
300,191,122112,2,0,P|312:279|288:327,1,116.999994644165
24,240,122343,6,0,B|88:252|88:252|120:224|184:216|216:256|228:308,1,233.999989288331
56,168,122689,1,0,0:0:0:0:
56,328,122804,1,0,0:0:0:0:
144,152,122920,1,0,0:0:0:0:
144,312,123035,1,0,0:0:0:0:
224,204,123150,6,0,P|228:120|104:56,1,233.999989288331
224,204,123497,2,0,B|280:224|280:224|344:204,1,116.999994644165
344,44,123727,2,0,B|280:28|280:28|212:48,1,116.999994644165
432,196,123958,2,0,L|440:68,1,116.999994644165
132,36,124189,6,0,L|144:276,1,233.999989288331
232,124,124535,5,0,0:0:0:0:
324,192,124650,2,0,L|312:316,1,116.999994644165
400,360,124881,1,0,0:0:0:0:
488,344,124997,2,0,P|424:280|312:344,1,233.999989288331
440,264,125343,2,0,B|452:204|452:204|436:144,1,116.999994644165
232,124,125573,2,0,B|220:184|220:184|236:244,1,116.999994644165
313,340,125804,2,0,P|336:256|305:148,1,175.499991966248
388,220,126093,6,0,P|328:248|248:220,1,116.999994644165
232,124,126266,1,0,0:0:0:0:
96,220,126381,2,0,P|156:248|236:220,1,116.999994644165
232,124,126612,1,0,0:0:0:0:
96,220,126727,2,0,L|104:348,1,116.999994644165
242,240,126958,1,0,0:0:0:0:
380,336,127073,2,0,L|388:208,1,116.999994644165
145,115,127304,6,0,P|196:49|315:111,1,233.999989288331
242,240,127650,2,0,L|229:76,1,116.999994644165
87,248,127881,6,0,B|59:286|59:286|53:386,1,116.999994644165
242,240,128112,1,0,0:0:0:0:
87,248,128227,2,0,B|59:210|59:210|53:110,1,116.999994644165
229,103,128458,1,0,0:0:0:0:
197,242,128573,2,0,L|74:250,1,116.999994644165
278,164,128804,1,0,0:0:0:0:
320,320,128920,2,0,L|451:310,1,116.999994644165
380,152,129150,1,0,0:0:0:0:
303,243,129266,5,0,0:0:0:0:
482,127,129381,1,0,0:0:0:0:
440,249,129497,1,0,0:0:0:0:
273,114,129612,1,0,0:0:0:0:
378,42,129727,5,0,0:0:0:0:
273,114,129843,2,0,P|181:125|126:109,1,116.999994644165
126,309,130073,2,0,P|134:253|118:181,1,116.999994644165
45,17,130304,2,0,P|58:103|91:142,1,116.999994644165
171,224,130535,6,0,B|210:250|224:275|225:321|225:321|276:285|276:285|343:329,1,233.999989288331
500,146,130881,1,0,0:0:0:0:
339,210,130997,1,0,0:0:0:0:
414,50,131112,1,0,0:0:0:0:
308,191,131227,1,0,0:0:0:0:
449,235,131343,2,0,P|417:299|301:314,1,175.499991966248
321,322,131573,5,0,0:0:0:0:
212,256,131689,1,0,0:0:0:0:
308,191,131804,1,0,0:0:0:0:
208,368,131920,2,0,P|123:371|75:347,1,116.999994644165
324,328,132150,2,0,P|392:328|448:344,1,116.999994644165
212,256,132381,6,0,B|196:188|228:100|228:100|196:64|192:24,1,233.999989288331
16,24,132727,1,0,0:0:0:0:
60,132,132843,2,0,L|208:104,1,116.999994644165
276,28,133073,1,0,0:0:0:0:
424,164,133189,1,0,0:0:0:0:
436,180,133420,6,0,B|484:216|472:272|408:288|384:256|376:236|376:236|300:256,1,233.999989288331
348,152,133766,1,0,0:0:0:0:
472,288,133881,1,0,0:0:0:0:
348,176,133997,1,0,0:0:0:0:
249,316,134112,1,0,0:0:0:0:
472,288,134227,6,0,P|384:328|232:308,1,233.999989288331
112,284,134573,1,0,0:0:0:0:
268,220,134689,1,0,0:0:0:0:
176,148,134804,2,0,B|179:178|179:178|167:218|167:218|175:262,1,116.999994644165
24,220,135035,2,0,B|20:189|20:189|32:149|32:149|24:105,1,116.999994644165
112,284,135266,6,0,B|176:260|176:260|328:336,1,233.999989288331
492,192,135612,2,0,B|420:204|420:204|272:132,1,233.999989288331
200,36,135958,1,0,0:0:0:0:
324,68,136073,1,0,0:0:0:0:
172,120,136189,1,0,0:0:0:0:
332,156,136304,1,0,0:0:0:0:
140,200,136420,5,0,0:0:0:0:
340,244,136535,1,0,0:0:0:0:
112,284,136650,1,0,0:0:0:0:
352,336,136766,1,0,0:0:0:0:
56,220,136881,1,0,0:0:0:0:
412,188,136997,1,0,0:0:0:0:
112,48,137112,5,0,0:0:0:0:
132,64,137573,1,0,0:0:0:0:
152,80,138497,1,0,0:0:0:0:
168,92,139420,1,0,0:0:0:0:
184,108,140343,1,0,0:0:0:0:
200,124,140573,6,0,B|208:184|208:184|184:244|184:244|192:320,1,180
192,348,141266,1,0,0:0:0:0:
180,324,142189,1,0,0:0:0:0:
164,296,143112,1,0,0:0:0:0:
148,264,143573,5,0,0:0:0:0:
420,304,143689,1,0,0:0:0:0:
436,316,143920,1,0,0:0:0:0:
452,328,144150,1,0,0:0:0:0:
484,244,144266,1,0,0:0:0:0:
440,168,144381,1,0,0:0:0:0:
476,84,144497,6,0,L|384:72,1,90
312,152,144727,2,0,L|216:136,1,90
152,224,144958,2,0,L|248:240,1,90
24,292,145189,2,0,L|112:308,1,90
152,224,145420,5,0,0:0:0:0:
192,316,145535,1,0,0:0:0:0:
288,332,145650,1,0,0:0:0:0:
380,292,145766,1,0,0:0:0:0:
408,196,145881,1,0,0:0:0:0:
304,216,145997,1,0,0:0:0:0:
408,168,146112,6,0,L|400:72,1,90
292,120,146343,2,0,L|284:24,1,90
220,264,146573,2,0,L|228:360,1,90
104,216,146804,2,0,L|112:312,1,90
304,216,147035,1,0,0:0:0:0:
76,120,147150,1,0,0:0:0:0:
232,104,147497,5,0,0:0:0:0:
240,132,147727,1,0,0:0:0:0:
440,180,148189,6,0,L|436:288,1,90
280,360,148420,2,0,L|280:260,1,90
180,288,148650,1,0,0:0:0:0:
340,192,148766,1,0,0:0:0:0:
80,192,148881,6,0,L|80:292,1,90
240,132,149112,2,0,L|236:40,1,90
52,220,149343,2,0,L|52:320,1,90
176,196,149573,5,0,0:0:0:0:
60,92,149689,1,0,0:0:0:0:
176,196,149804,2,0,P|224:216|284:196,1,90
424,206,150035,2,0,P|376:186|316:206,1,90
372,340,150266,5,0,0:0:0:0:
424,206,150381,1,0,0:0:0:0:
276,328,150497,1,0,0:0:0:0:
240,132,150612,1,0,0:0:0:0:
360,248,150727,1,0,0:0:0:0:
96,264,150843,1,0,0:0:0:0:
92,284,151189,6,0,P|176:268|248:292,1,135
248,304,151420,2,0,P|120:288|52:320,1,180
28,92,151881,6,0,P|100:124|220:84,1,198.000006042481
284,20,152227,1,0,0:0:0:0:
210,92,152343,2,0,P|202:140|218:204,1,99.0000030212403
248,304,152573,1,0,0:0:0:0:
116,208,152689,6,0,P|212:224|308:200,1,198.000006042481
468,116,153035,2,0,B|416:104|416:104|364:116,1,99.0000030212403
300,260,153266,2,0,B|302:215|302:215|308:196|308:196|308:160,2,99.0000030212403
456,284,153612,6,0,P|388:228|288:284,1,198.000006042481
156,260,153958,2,0,P|219:277|324:244,1,148.50000453186
356,184,154189,2,0,B|358:139|358:139|364:120|364:120|364:84,2,99.0000030212403
212,304,154535,6,0,P|116:280|68:184,1,198.000006042481
176,32,154881,2,0,L|160:144,1,99.0000030212403
180,232,155112,1,0,0:0:0:0:
180,232,155227,1,0,0:0:0:0:
360,144,155343,1,0,0:0:0:0:
360,144,155458,1,0,0:0:0:0:
292,92,155573,6,0,P|272:148|380:220,1,198.000006042481
444,140,155920,1,0,0:0:0:0:
472,324,156035,2,0,P|432:332|360:316,1,99.0000030212403
284,264,156266,1,0,0:0:0:0:
444,140,156381,6,0,P|380:68|276:120,1,198.000006042481
256,204,156727,2,0,L|272:328,1,99.0000030212403
100,320,156958,2,0,L|84:196,1,99.0000030212403
188,356,157189,1,0,0:0:0:0:
12,240,157304,6,0,P|-2:183|70:63,1,198.000006042481
212,32,157650,1,0,0:0:0:0:
216,140,157766,1,0,0:0:0:0:
124,96,157881,1,0,0:0:0:0:
232,28,157997,1,0,0:0:0:0:
240,148,158112,1,0,0:0:0:0:
100,88,158227,6,0,P|60:136|56:284,1,198.000006042481
188,320,158573,2,0,B|232:312|232:312|280:268,1,99.0000030212403
460,184,158804,2,0,B|416:192|416:192|368:236,1,99.0000030212403
184,232,159035,2,0,B|176:184|176:184|184:104,1,99.0000030212403
58,115,159266,6,0,P|154:139|258:115,1,198.000006042481
388,64,159612,1,0,0:0:0:0:
308,216,159727,1,0,0:0:0:0:
300,40,159843,1,0,0:0:0:0:
416,244,159958,1,0,0:0:0:0:
232,148,160073,6,0,P|296:124|404:212,1,198.000006042481
224,340,160420,2,0,B|204:292|204:292|212:244,1,99.0000030212403
232,148,160650,1,0,0:0:0:0:
300,40,160766,1,0,0:0:0:0:
372,140,160881,1,0,0:0:0:0:
232,148,160997,6,0,P|124:172|36:128,1,198.000006042481
280,264,161343,2,0,P|328:272|384:264,1,99.0000030212403
480,224,161573,1,0,0:0:0:0:
334,178,161689,1,0,0:0:0:0:
360,336,161804,1,0,0:0:0:0:
420,204,161920,6,0,P|412:144|280:100,1,198.000006042481
188,196,162266,2,0,B|236:208|236:208|312:196,1,99.0000030212403
320,332,162497,2,0,P|212:344|128:320,1,198.000006042481
104,112,162958,6,0,P|60:120|28:152,2,66.0000020141602
96,208,163189,2,0,P|61:236|50:280,2,66.0000020141602
140,288,163420,2,0,P|148:332|180:363,2,66.0000020141602
232,296,163650,2,0,P|274:311|317:299,2,66.0000020141602
288,224,163881,2,0,P|322:195|333:151,2,66.0000020141602
248,136,164112,2,0,P|240:91|208:60,2,66.0000020141602
160,112,164343,2,0,P|117:96|74:108,2,66.0000020141602
104,184,164573,2,0,P|69:212|58:256,2,66.0000020141602
176,288,164804,6,0,P|208:296|256:288,2,66.0000020141602
88,232,165035,2,0,P|52:224|16:232,2,66.0000020141602
188,172,165266,2,0,P|220:180|268:172,2,66.0000020141602
100,116,165497,2,0,P|64:108|28:116,2,66.0000020141602
204,72,165727,2,0,P|236:80|284:72,2,66.0000020141602
116,16,165958,2,0,P|80:8|44:16,2,66.0000020141602
306,127,166189,5,0,0:0:0:0:
270,208,166304,1,0,0:0:0:0:
188,172,166420,1,0,0:0:0:0:
225,91,166535,1,0,0:0:0:0:
464,124,166650,6,0,L|456:220,1,80.9999975280763
368,284,166881,1,0,0:0:0:0:
64,140,166997,6,0,L|72:236,1,80.9999975280763
160,300,167228,1,0,0:0:0:0:
432,156,167343,6,0,L|424:252,1,80.9999975280763
336,316,167574,1,0,0:0:0:0:
96,172,167689,6,0,L|104:268,1,80.9999975280763
192,332,167920,1,0,0:0:0:0:
400,188,168035,6,0,L|392:284,1,80.9999975280763
304,348,168266,1,0,0:0:0:0:
28,128,168497,6,0,P|88:124|124:108,1,80.9999975280763
172,36,168727,1,0,0:0:0:0:
300,148,168843,6,0,P|240:144|204:128,1,80.9999975280763
156,56,169073,1,0,0:0:0:0:
28,164,169189,6,0,P|88:160|124:144,1,80.9999975280763
172,72,169419,1,0,0:0:0:0:
296,192,169535,6,0,P|236:188|200:172,1,80.9999975280763
152,100,169765,1,0,0:0:0:0:
132,276,169881,2,0,L|144:184,2,80.9999975280763
332,296,170343,6,0,P|372:312|428:284,1,80.9999975280763
376,184,170573,1,0,0:0:0:0:
236,319,170689,6,0,P|253:358|312:378,1,80.9999975280763
346,271,170919,1,0,0:0:0:0:
151,268,171035,6,0,P|136:308|163:364,1,80.9999975280763
264,312,171265,1,0,0:0:0:0:
128,172,171381,6,0,P|89:189|69:248,1,80.9999975280763
176,282,171611,1,0,0:0:0:0:
180,87,171727,6,0,P|140:72|84:100,1,80.9999975280763
136,200,171957,1,0,0:0:0:0:
346,271,172189,5,0,0:0:0:0:
448,144,172304,1,0,0:0:0:0:
232,208,172420,1,0,0:0:0:0:
448,308,172535,5,0,0:0:0:0:
304,152,172650,1,0,0:0:0:0:
256,296,172766,1,0,0:0:0:0:
444,224,172881,1,0,0:0:0:0:
216,120,172997,1,0,0:0:0:0:
452,64,173112,1,0,0:0:0:0:
452,64,174035,6,0,P|384:80|280:40,1,170.999995433807
164,124,174497,1,0,0:0:0:0:
268,96,174612,1,0,0:0:0:0:
224,224,174727,1,0,0:0:0:0:
148,140,174843,1,0,0:0:0:0:
248,112,174958,6,0,P|292:128|320:176,1,85.4999977169037
152,56,175189,2,0,P|187:25|243:25,1,85.4999977169037
60,116,175420,2,0,P|51:69|79:21,1,85.4999977169037
72,224,175650,2,0,P|27:208|0:160,1,85.4999977169037
168,264,175881,5,0,0:0:0:0:
264,208,175997,1,0,0:0:0:0:
96,328,176112,2,0,P|76:256|92:216,1,85.4999977169037
280,200,176343,1,0,0:0:0:0:
168,264,176458,2,0,P|160:188|172:156,1,85.4999977169037
360,172,176631,6,0,P|368:248|356:280,1,85.4999977169037
236,328,176920,1,0,0:0:0:0:
448,312,177035,2,0,P|468:248|460:200,1,85.4999977169037
452,104,177266,1,0,0:0:0:0:
336,60,177381,1,0,0:0:0:0:
508,168,177497,1,0,0:0:0:0:
360,172,177612,1,0,0:0:0:0:
168,264,177727,6,0,P|248:248|336:292,1,170.999995433807
224,208,178073,1,0,0:0:0:0:
140,120,178189,2,0,L|144:28,1,85.4999977169037
316,148,178420,2,0,L|312:244,1,85.4999977169037
164,344,178650,5,0,0:0:0:0:
304,344,178766,1,0,0:0:0:0:
172,304,178881,1,0,0:0:0:0:
328,288,178997,1,0,0:0:0:0:
168,264,179112,1,0,0:0:0:0:
324,224,179227,1,0,0:0:0:0:
152,220,179343,1,0,0:0:0:0:
304,164,179458,1,0,0:0:0:0:
132,180,179573,6,0,P|72:200|28:96,1,170.999995433807
192,92,179920,2,0,B|232:116|232:116|272:92|272:92|308:112|376:92,1,170.999995433807
480,192,180266,2,0,B|424:184|400:160|400:160|360:184|320:176,1,170.999995433807
388,292,180612,1,0,0:0:0:0:
388,292,180727,2,0,L|396:184,1,85.4999977169037
308,304,180958,5,0,0:0:0:0:
472,260,181073,1,0,0:0:0:0:
312,188,181189,1,0,0:0:0:0:
464,136,181304,1,0,0:0:0:0:
228,64,181420,5,0,0:0:0:0:
192,304,181535,1,0,0:0:0:0:
272,68,181650,1,0,0:0:0:0:
308,304,181765,1,0,0:0:0:0:
227,63,181997,1,0,0:0:0:0:
418,91,182227,6,0,P|358:99|226:63,1,198.000006042481
156,28,182573,5,0,0:0:0:0:
296,16,182689,1,0,0:0:0:0:
379,159,182920,5,0,0:0:0:0:
61,127,183036,1,0,0:0:0:0:
84,296,183266,5,0,0:0:0:0:
272,200,183381,1,0,0:0:0:0:
132,368,183497,1,0,0:0:0:0:
340,264,183612,1,0,0:0:0:0:
44,208,183843,2,0,P|32:120|56:76,1,99.0000030212403
280,96,184073,6,0,B|296:156|269:201|269:201|284:240|284:240|277:313,1,198.000006042481
200,120,184420,2,0,P|196:52|220:8,1,99.0000030212403
408,208,184650,2,0,P|428:256|412:312,1,99.0000030212403
204,320,184881,2,0,P|184:272|200:216,1,99.0000030212403
280,96,185112,6,0,B|324:112|324:112|356:92|356:92|404:120|464:84,1,170.999995433807
329,202,185458,1,0,0:0:0:0:
329,202,185573,2,0,B|285:218|285:218|253:198|253:198|205:226|145:190,1,170.999995433807
45,133,185920,2,0,L|56:231,1,85.4999977169037
20,109,186150,6,0,L|31:207,1,85.4999977169037
75,274,186381,1,0,0:0:0:0:
215,183,186497,1,0,0:0:0:0:
49,175,186612,1,0,0:0:0:0:
174,277,186727,1,0,0:0:0:0:
135,118,186843,1,0,0:0:0:0:
192,344,186958,6,0,P|120:326|-3:362,1,198.000006042481
222,247,187304,2,0,B|268:271|311:255|311:255|361:273|361:273|456:251,1,198.000006042481
268,165,187650,2,0,P|211:118|144:278,1,297.000009063721
268,165,188112,5,0,0:0:0:0:
376,48,188228,1,0,0:0:0:0:
464,188,188343,1,0,0:0:0:0:
296,68,188804,5,0,0:0:0:0:
112,72,188920,1,0,0:0:0:0:
296,120,189035,1,0,0:0:0:0:
100,168,189151,1,0,0:0:0:0:
308,172,189266,1,0,0:0:0:0:
112,264,189382,1,0,0:0:0:0:
332,220,189497,1,0,0:0:0:0:
152,356,189613,1,0,0:0:0:0:
420,328,190189,5,0,0:0:0:0:
444,324,190420,1,0,0:0:0:0:
468,320,190650,2,0,P|492:208|468:108,1,215.999993408203
280,40,190997,1,0,0:0:0:0:
360,132,191112,2,0,P|424:128|484:96,1,107.999996704102
280,40,191343,1,0,0:0:0:0:
248,124,191458,6,0,P|232:228|248:344,1,215.999993408203
104,288,191804,2,0,B|164:304|232:280,1,107.999996704102
354,124,192035,2,0,P|290:116|226:132,1,107.999996704102
80,176,192266,2,0,L|76:60,1,107.999996704102
200,276,192497,6,0,P|176:344|28:348,1,215.999993408203
104,288,192843,1,0,0:0:0:0:
300,312,192958,2,0,P|368:324|412:320,1,107.999996704102
468,224,193189,1,0,0:0:0:0:
296,224,193304,6,0,P|232:248|244:384,1,215.999993408203
384,280,193650,2,0,P|396:204|368:152,1,107.999996704102
300,112,193881,1,0,0:0:0:0:
392,40,193997,1,0,0:0:0:0:
272,124,194112,2,0,P|216:132|156:116,1,107.999996704102
89,274,194343,6,0,P|191:244|296:268,1,215.999993408203
472,236,194689,2,0,L|480:104,1,107.999996704102
272,124,194920,1,0,0:0:0:0:
384,280,195035,2,0,L|400:60,1,215.999993408203
288,216,195381,2,0,L|280:332,1,107.999996704102
168,320,195612,1,0,0:0:0:0:
28,184,195727,6,0,P|84:160|144:184,1,107.999996704102
267,307,195958,2,0,P|211:331|151:307,1,107.999996704102
208,208,196189,6,0,P|224:262|384:248,1,215.999993408203
484,152,196535,2,0,B|424:136|424:136|368:152,1,107.999996704102
432,264,196766,1,0,0:0:0:0:
500,64,196881,2,0,B|424:48|424:48|276:76,1,215.999993408203
320,304,197227,2,0,P|371:315|432:304,1,107.999996704102
424,184,197458,5,0,0:0:0:0:
468,352,197573,1,0,0:0:0:0:
344,180,197689,1,0,0:0:0:0:
314,362,197804,1,0,0:0:0:0:
264,128,197920,1,0,0:0:0:0:
240,284,198035,6,0,B|184:292|184:292|0:268,1,215.999993408203
224,136,198381,2,0,P|292:136|336:176,1,107.999996704102
256,312,198612,1,0,0:0:0:0:
152,212,198727,1,0,0:0:0:0:
323,157,198843,6,0,P|347:261|307:373,1,215.999993408203
248,116,199189,2,0,P|300:72|372:92,1,107.999996704102
460,220,199420,2,0,P|392:224|360:200,1,107.999996704102
152,317,199650,2,0,P|220:325|260:309,1,107.999996704102
256,160,199881,6,0,P|152:136|24:176,1,215.999993408203
148,88,200227,1,0,0:0:0:0:
47,161,200343,2,0,L|40:288,1,107.999996704102
152,212,200573,1,0,0:0:0:0:
40,268,200689,6,0,P|152:292|264:260,1,215.999993408203
364,160,201035,2,0,P|368:104|360:44,1,107.999996704102
224,192,201266,2,0,P|216:260|224:328,1,107.999996704102
88,164,201497,2,0,P|92:108|84:48,1,107.999996704102
40,268,201727,6,0,P|128:248|268:288,1,215.999993408203
144,220,202073,2,0,P|152:152|152:104,1,107.999996704102
308,56,202304,1,0,0:0:0:0:
356,136,202420,2,0,P|260:140|212:32,1,215.999993408203
424,60,202766,1,0,0:0:0:0:
472,188,202881,2,0,L|468:320,1,107.999996704102
248,312,203112,6,0,P|336:304|392:328,1,107.999996704102
144,220,203343,2,0,P|56:212|0:236,1,107.999996704102
228,40,203573,6,0,B|236:88|236:88|216:200|216:200|232:292,1,215.999993408203
152,100,203920,1,0,0:0:0:0:
300,184,204035,1,0,0:0:0:0:
152,328,204150,1,0,0:0:0:0:
36,256,204266,2,0,P|24:196|48:128,1,107.999996704102
82,44,204497,1,0,0:0:0:0:
228,40,204612,2,0,P|240:100|216:168,1,107.999996704102
236,307,204843,1,0,0:0:0:0:
204,176,204958,5,0,0:0:0:0:
388,280,205073,1,0,0:0:0:0:
276,124,205189,1,0,0:0:0:0:
476,172,205304,1,0,0:0:0:0:
300,328,205420,6,0,P|256:236|336:164,1,215.999993408203
480,256,205766,2,0,B|420:268|420:268|360:248,1,107.999996704102
380,100,205997,2,0,B|440:88|440:88|500:108,1,107.999996704102
280,208,206227,6,0,P|268:124|136:128,1,215.999993408203
196,316,206573,1,0,0:0:0:0:
204,176,206689,1,0,0:0:0:0:
296,328,206804,2,0,L|408:316,1,107.999996704102
387,198,207035,2,0,L|280:208,1,107.999996704102
200,312,207266,5,0,0:0:0:0:
248,148,207381,1,0,0:0:0:0:
56,184,207497,1,0,0:0:0:0:
156,40,207612,2,0,P|160:116|152:164,1,107.999996704102
55,291,207843,2,0,P|51:215|59:167,1,107.999996704102
180,232,208073,6,0,P|256:248|256:372,1,215.999993408203
142,153,208420,2,0,P|235:144|287:164,1,107.999996704102
332,196,208650,1,0,0:0:0:0:
324,292,208766,1,0,0:0:0:0:
228,316,208881,1,0,0:0:0:0:
180,232,208997,1,0,0:0:0:0:
288,200,209112,6,0,P|176:144|72:208,1,215.999993408203
224,88,209458,1,0,0:0:0:0:
98,175,209573,2,0,L|98:287,1,107.999996704102
184,316,209804,1,0,0:0:0:0:
98,283,209920,6,0,P|194:227|282:299,1,215.999993408203
444,244,210266,2,0,L|424:120,1,107.999996704102
288,32,210497,1,0,0:0:0:0:
320,144,210612,1,0,0:0:0:0:
256,232,210727,1,0,0:0:0:0:
312,328,210843,1,0,0:0:0:0:
444,244,210958,6,0,P|368:240|320:216,1,107.999996704102
432,104,211189,1,0,0:0:0:0:
496,316,211304,2,0,P|412:332|360:320,1,107.999996704102
256,232,211535,1,0,0:0:0:0:
122,307,211650,5,0,0:0:0:0:
72,120,211766,1,0,0:0:0:0:
221,241,211881,1,0,0:0:0:0:
29,231,211997,1,0,0:0:0:0:
191,126,212112,5,0,0:0:0:0:
48,316,212227,1,0,0:0:0:0:
88,96,212343,1,0,0:0:0:0:
216,328,212458,1,0,0:0:0:0:
276,88,212573,1,0,0:0:0:0:
120,212,212689,1,0,0:0:0:0:
460,336,212804,5,0,0:0:0:0:
439,317,213266,1,0,0:0:0:0:
405,294,213727,1,0,0:0:0:0:
347,135,213843,2,0,P|296:171|165:128,1,180
264,44,214189,1,0,0:0:0:0:
265,68,214420,1,0,0:0:0:0:
113,199,214650,6,0,P|177:194|232:191,1,90
284,320,214881,2,0,L|192:316,1,90
359,218,215112,2,0,P|403:213|444:182,2,90
246,206,215458,1,0,0:0:0:0:
178,120,215573,2,0,L|189:13,1,90
341,42,215920,2,0,L|327:138,1,90
256,80,216150,1,0,0:0:0:0:
256,80,216266,6,0,B|244:140|244:140|260:208|260:208|256:268,1,180
253,294,216958,1,0,0:0:0:0:
152,317,217420,2,0,P|102:322|52:313,1,90
345,264,217766,2,0,P|403:268|442:265,2,90
162,209,218112,2,0,P|114:169|172:47,1,180
329,69,218573,1,0,0:0:0:0:
248,229,218804,1,0,0:0:0:0:
158,58,219035,1,0,0:0:0:0:
120,180,219266,5,0,0:0:0:0:
376,144,219381,1,0,0:0:0:0:
384,164,219612,1,0,0:0:0:0:
388,180,219843,1,0,0:0:0:0:
120,180,219958,2,0,P|104:128|120:88,1,90
208,248,220189,6,0,B|160:268|160:268|12:260,1,198.000006042481
288,200,220535,1,0,0:0:0:0:
168,272,220650,1,0,0:0:0:0:
136,92,220766,1,0,0:0:0:0:
168,272,220881,1,0,0:0:0:0:
368,120,220997,6,0,P|400:208|352:296,1,198.000006042481
216,352,221343,2,0,P|168:360|104:344,1,99.0000030212403
32,160,221573,2,0,P|80:152|144:168,1,99.0000030212403
208,240,221804,1,0,0:0:0:0:
432,136,221920,6,0,P|336:104|240:144,1,198.000006042481
344,256,222266,2,0,P|400:264|472:248,1,99.0000030212403
464,144,222497,1,0,0:0:0:0:
344,288,222612,1,0,0:0:0:0:
496,328,222727,1,0,0:0:0:0:
344,224,222843,6,0,B|288:236|288:236|248:216|248:216|208:244|132:224,1,198.000006042481
64,164,223189,2,0,L|56:40,1,99.0000030212403
184,240,223420,2,0,L|168:360,1,99.0000030212403
296,152,223650,2,0,P|344:160|400:152,1,99.0000030212403
288,328,223881,6,0,B|240:336|240:336|176:320,1,99.0000030212403
174,122,224112,1,0,0:0:0:0:
108,268,224227,1,0,0:0:0:0:
296,152,224343,1,0,0:0:0:0:
200,332,224458,1,0,0:0:0:0:
101,154,224573,1,0,0:0:0:0:
240,248,224689,6,0,B|320:264|368:224|368:224|408:256|456:256,1,198.000006042481
368,326,225035,2,0,L|368:214,1,99.0000030212403
344,88,225266,2,0,P|256:104|136:80,1,198.000006042481
13,195,225612,6,0,P|130:182|224:206,1,198.000006042481
72,314,225958,1,0,0:0:0:0:
201,152,226073,1,0,0:0:0:0:
232,360,226189,1,0,0:0:0:0:
83,196,226304,1,0,0:0:0:0:
322,170,226420,1,0,0:0:0:0:
144,312,226535,6,0,P|232:272|320:312,1,198.000006042481
392,368,226881,2,0,P|408:320|392:256,1,99.0000030212403
272,96,227112,2,0,P|256:144|272:208,1,99.0000030212403
120,368,227343,2,0,P|104:320|120:256,1,99.0000030212403
40,116,227573,6,0,P|128:144|268:100,1,198.000006042481
260,268,227920,1,0,0:0:0:0:
352,113,228035,5,0,0:0:0:0:
431,275,228150,1,0,0:0:0:0:
324,141,228266,5,0,0:0:0:0:
384,315,228381,1,0,0:0:0:0:
292,161,228497,5,0,0:0:0:0:
326,351,228612,1,0,0:0:0:0:
256,173,228727,5,0,0:0:0:0:
258,361,228843,1,0,0:0:0:0:
216,166,228958,5,0,0:0:0:0:
198,351,229073,1,0,0:0:0:0:
185,151,229189,5,0,0:0:0:0:
146,326,229304,1,0,0:0:0:0:
247,112,229420,5,0,0:0:0:0:
37,197,229535,1,0,0:0:0:0:
219,293,229650,5,0,0:0:0:0:
51,106,229765,1,0,0:0:0:0:
233,203,229881,5,0,0:0:0:0:
23,287,229996,1,0,0:0:0:0:
205,374,230112,5,0,0:0:0:0:
37,197,230227,1,0,0:0:0:0:
9,368,230343,5,0,0:0:0:0:
152,240,230458,1,0,0:0:0:0:
108,336,230573,5,0,0:0:0:0:
24,168,230688,1,0,0:0:0:0:
23,287,230804,5,0,0:0:0:0:
136,136,230919,1,0,0:0:0:0:
152,240,231035,5,0,0:0:0:0:
32,84,231150,1,0,0:0:0:0:
256,60,231266,6,0,P|265:136|240:196,1,99.0000030212403
23,287,231497,2,0,P|13:211|39:151,1,99.0000030212403
276,76,231727,2,0,P|285:152|260:212,1,99.0000030212403
43,303,231958,2,0,P|33:227|59:167,1,99.0000030212403
332,308,232189,6,0,P|404:308|448:324,1,99.0000030212403
220,136,232420,2,0,P|148:136|104:120,1,99.0000030212403
340,296,232650,2,0,P|412:296|456:312,1,99.0000030212403
228,124,232881,2,0,P|156:124|112:108,1,99.0000030212403
116,344,233112,5,0,0:0:0:0:
166,100,233227,1,0,0:0:0:0:
340,296,233343,1,0,0:0:0:0:
84,260,233458,1,0,0:0:0:0:
216,44,233573,5,0,0:0:0:0:
176,296,233689,1,0,0:0:0:0:
396,232,233804,1,0,0:0:0:0:
68,176,233920,1,0,0:0:0:0:
288,72,234035,1,0,0:0:0:0:
252,328,234150,1,0,0:0:0:0:
79,116,234266,5,0,0:0:0:0:
435,163,234381,1,0,0:0:0:0:
130,328,234497,1,0,0:0:0:0:
263,19,234612,1,0,0:0:0:0:
356,346,234727,1,0,0:0:0:0:
416,64,234842,1,0,0:0:0:0:
252,328,234958,6,0,P|157:307|7:366,1,215.999993408203
20,92,235304,2,0,B|124:125|124:125|242:83,1,215.999993408203
238,287,235650,6,0,P|152:268|29:311,1,198.000006042481
38,126,235997,2,0,B|131:155|131:155|237:117,1,198.000006042481
284,50,236343,1,0,0:0:0:0:
120,42,236458,1,0,0:0:0:0:
36,203,236573,1,0,0:0:0:0:
345,128,236804,6,0,P|365:208|318:348,1,198.000006042481
164,318,237150,2,0,P|144:238|191:98,1,198.000006042481
333,317,237497,6,0,B|248:370|248:370|154:312,1,198.000006042481
176,129,237843,2,0,B|261:76|261:76|355:134,1,198.000006042481
203,255,238189,1,0,0:0:0:0:
261,166,238304,1,0,0:0:0:0:
312,254,238420,1,0,0:0:0:0:
108,206,238650,5,0,0:0:0:0:
349,163,238766,2,0,L|337:54,1,107.999996704102
84,188,238997,5,0,0:0:0:0:
325,145,239113,2,0,L|313:36,1,107.999996704102
66,169,239343,5,0,0:0:0:0:
307,126,239459,2,0,L|295:17,1,107.999996704102
42,151,239690,5,0,0:0:0:0:
283,108,239806,2,0,L|271:-1,1,107.999996704102
166,278,240035,1,0,0:0:0:0:
394,77,240150,1,0,0:0:0:0:
412,308,240266,1,0,0:0:0:0:
148,91,240381,1,0,0:0:0:0:
276,222,240497,6,0,P|311:189|210:176,1,225
216,277,241189,1,0,0:0:0:0:
216,277,241247,1,0,0:0:0:0:
216,277,241304,1,0,0:0:0:0:
160,191,241420,1,0,0:0:0:0:
323,267,241535,5,0,0:0:0:0:
322,266,241766,6,0,P|319:132|422:219,1,337.500012874604
