osu file format v14

[General]
AudioFilename: audio.mp3
AudioLeadIn: 0
PreviewTime: 190192
Countdown: 0
SampleSet: Soft
StackLeniency: 0.7
Mode: 3
LetterboxInBreaks: 0
SpecialStyle: 0
WidescreenStoryboard: 0

[Editor]
Bookmarks: 500,7884,17115,31884,46653,68807,85423,100192,114961,137115,151884,162961,166653,174038,190653,212807
DistanceSpacing: 1.9
BeatDivisor: 4
GridSize: 32
TimelineZoom: 3.099999

[Metadata]
Title:Walk This Way!
TitleUnicode:Walk This Way!
Artist:Kano
ArtistUnicode:鹿乃
Creator:Lude
Version:Pathfinder
Source:
Tags:
BeatmapID:1775327
BeatmapSetID:848986

[Difficulty]
HPDrainRate:9.3
CircleSize:4
OverallDifficulty:7.7
ApproachRate:5
SliderMultiplier:1.4
SliderTickRate:1

[Events]
//Background and Video events
0,0,"bg by affirmation.jpg",0,0
//Break Periods
//Storyboard Layer 0 (Background)
//Storyboard Layer 1 (Fail)
//Storyboard Layer 2 (Pass)
//Storyboard Layer 3 (Foreground)
//Storyboard Sound Samples
Sample,95692,0,"soft-hitclap.wav",40

[TimingPoints]
500,230.769230769231,4,2,1,40,1,0
7076,-66.6666666666667,4,2,1,40,0,0
7134,-80,4,2,1,40,0,0
7192,-133.333333333333,4,2,1,40,0,0
7250,-200,4,2,1,40,0,0
7307,-66.6666666666667,4,2,1,40,0,0
7365,-80,4,2,1,40,0,0
7423,-133.333333333333,4,2,1,40,0,0
7481,-200,4,2,1,40,0,0
7538,-100,4,2,1,40,0,0
7653,-66.6666666666667,4,2,1,40,0,0
7711,-80,4,2,1,40,0,0
7769,-133.333333333333,4,2,1,40,0,0
7827,-200,4,2,1,40,0,0
7884,-100,4,2,1,40,0,0
46653,-100,4,2,1,40,0,1
68807,-100,4,2,1,40,0,0
114961,-100,4,2,1,40,0,1
137115,-100,4,2,1,40,0,0
190653,-100,4,2,1,40,0,1
212807,-100,4,2,1,40,0,0

[HitObjects]
64,192,500,5,2,0:0:0:0:
448,192,500,128,0,846:0:0:0:0:
320,192,500,128,4,846:0:0:0:0:
192,192,500,1,2,0:0:0:0:
64,192,730,1,0,0:0:0:0:
192,192,846,1,0,0:0:0:0:
64,192,961,1,0,0:0:0:0:
320,192,961,1,2,0:0:0:0:
448,192,961,1,2,0:0:0:0:
320,192,1076,1,0,0:0:0:0:
192,192,1192,1,0,0:0:0:0:
320,192,1307,1,0,0:0:0:0:
64,192,1423,1,0,0:0:0:0:
320,192,1538,1,0,0:0:0:0:
64,192,1653,1,0,0:0:0:0:
320,192,1769,1,0,0:0:0:0:
192,192,1884,1,2,0:0:0:0:
64,192,1884,1,2,0:0:0:0:
448,192,1884,1,0,0:0:0:0:
320,192,2000,1,0,0:0:0:0:
64,192,2115,1,0,0:0:0:0:
192,192,2230,1,0,0:0:0:0:
320,192,2346,1,0,0:0:0:0:
320,192,2461,1,0,0:0:0:0:
192,192,2576,1,0,0:0:0:0:
320,192,2692,1,0,0:0:0:0:
64,192,2807,1,2,0:0:0:0:
192,192,2807,1,2,0:0:0:0:
448,192,2807,1,0,0:0:0:0:
320,192,2923,1,0,0:0:0:0:
192,192,3038,1,0,0:0:0:0:
320,192,3153,1,0,0:0:0:0:
448,192,3269,1,0,0:0:0:0:
320,192,3384,1,0,0:0:0:0:
64,192,3500,1,0,0:0:0:0:
320,192,3615,1,0,0:0:0:0:
64,192,3730,1,2,0:0:0:0:
448,192,3730,1,0,0:0:0:0:
192,192,3730,128,2,3961:0:0:0:0:
320,192,3961,128,0,4192:0:0:0:0:
448,192,4192,1,4,0:0:0:0:
64,192,4192,128,2,4538:0:0:0:0:
192,192,4192,128,2,4538:0:0:0:0:
448,192,4423,1,0,0:0:0:0:
320,192,4538,1,0,0:0:0:0:
64,192,4653,1,2,0:0:0:0:
192,192,4653,1,2,0:0:0:0:
448,192,4653,1,0,0:0:0:0:
320,192,4769,1,0,0:0:0:0:
64,192,4884,1,0,0:0:0:0:
320,192,5000,1,0,0:0:0:0:
448,192,5115,1,0,0:0:0:0:
320,192,5230,1,0,0:0:0:0:
64,192,5346,1,0,0:0:0:0:
320,192,5461,1,0,0:0:0:0:
192,192,5576,1,2,0:0:0:0:
64,192,5576,1,2,0:0:0:0:
448,192,5576,1,0,0:0:0:0:
192,192,5692,1,0,0:0:0:0:
320,192,5807,1,0,0:0:0:0:
64,192,5923,1,0,0:0:0:0:
192,192,6038,1,0,0:0:0:0:
192,192,6153,1,0,0:0:0:0:
320,192,6269,1,0,0:0:0:0:
64,192,6384,1,0,0:0:0:0:
192,192,6500,1,0,0:0:0:0:
320,192,6500,1,2,0:0:0:0:
448,192,6500,1,2,0:0:0:0:
192,192,6615,1,0,0:0:0:0:
320,192,6730,1,0,0:0:0:0:
192,192,6846,1,0,0:0:0:0:
64,192,6961,1,0,0:0:0:0:
320,192,6961,1,8,0:0:0:0:
448,192,6961,1,8,0:0:0:0:
64,192,7076,1,2,0:0:0:0:
192,192,7076,1,2,0:0:0:0:
448,192,7076,1,0,0:0:0:0:
64,192,7307,1,2,0:0:0:0:
192,192,7307,1,2,0:0:0:0:
448,192,7307,1,0,0:0:0:0:
192,192,7538,1,2,0:0:0:0:
320,192,7538,1,2,0:0:0:0:
320,192,7653,1,8,0:0:0:0:
448,192,7653,1,8,0:0:0:0:
64,192,7653,1,0,0:0:0:0:
192,192,7884,1,2,0:0:0:0:
448,192,7884,1,0,0:0:0:0:
320,192,7884,1,4,0:0:0:0:
64,192,7884,128,2,8115:0:0:0:0:
192,192,8115,128,8,8346:0:0:0:0:
320,192,8115,1,8,0:0:0:0:
448,192,8115,1,0,0:0:0:0:
320,192,8346,128,2,8692:0:0:0:0:
448,192,8346,1,2,0:0:0:0:
64,192,8461,1,2,0:0:0:0:
192,192,8461,1,2,0:0:0:0:
64,192,8576,1,8,0:0:0:0:
192,192,8576,1,8,0:0:0:0:
448,192,8576,1,0,0:0:0:0:
64,192,8692,128,2,9038:0:0:0:0:
192,192,8692,1,2,0:0:0:0:
320,192,8923,1,2,0:0:0:0:
448,192,8923,1,2,0:0:0:0:
192,192,9038,128,0,9269:0:0:0:0:
320,192,9038,1,8,0:0:0:0:
448,192,9038,1,8,0:0:0:0:
320,192,9269,128,2,9615:0:0:0:0:
448,192,9269,1,2,0:0:0:0:
64,192,9384,1,2,0:0:0:0:
192,192,9384,1,2,0:0:0:0:
64,192,9500,1,8,0:0:0:0:
192,192,9500,1,8,0:0:0:0:
448,192,9500,1,0,0:0:0:0:
64,192,9615,128,2,9961:0:0:0:0:
192,192,9615,1,2,0:0:0:0:
320,192,9846,1,2,0:0:0:0:
448,192,9846,1,2,0:0:0:0:
192,192,9961,128,0,10192:0:0:0:0:
320,192,9961,1,8,0:0:0:0:
448,192,9961,1,8,0:0:0:0:
320,192,10192,128,2,10538:0:0:0:0:
448,192,10192,1,2,0:0:0:0:
64,192,10307,1,2,0:0:0:0:
192,192,10307,1,2,0:0:0:0:
64,192,10423,1,8,0:0:0:0:
192,192,10423,1,8,0:0:0:0:
448,192,10423,1,0,0:0:0:0:
448,192,10538,128,2,10884:0:0:0:0:
64,192,10538,1,2,0:0:0:0:
64,192,10769,1,2,0:0:0:0:
192,192,10769,1,2,0:0:0:0:
192,192,10884,128,8,11115:0:0:0:0:
64,192,10884,1,8,0:0:0:0:
320,192,10884,1,0,0:0:0:0:
320,192,11115,128,2,11346:0:0:0:0:
448,192,11115,1,2,0:0:0:0:
64,192,11230,1,2,0:0:0:0:
192,192,11230,1,2,0:0:0:0:
192,192,11346,128,8,11576:0:0:0:0:
64,192,11346,1,8,0:0:0:0:
448,192,11346,1,0,0:0:0:0:
448,192,11576,128,2,11807:0:0:0:0:
64,192,11576,1,4,0:0:0:0:
320,192,11576,1,2,0:0:0:0:
320,192,11807,128,0,12038:0:0:0:0:
64,192,11807,1,8,0:0:0:0:
192,192,11807,1,8,0:0:0:0:
192,192,12038,128,2,12384:0:0:0:0:
64,192,12038,1,2,0:0:0:0:
448,192,12153,1,2,0:0:0:0:
320,192,12153,1,2,0:0:0:0:
320,192,12269,1,8,0:0:0:0:
448,192,12269,1,8,0:0:0:0:
64,192,12269,1,0,0:0:0:0:
448,192,12384,128,2,12730:0:0:0:0:
320,192,12384,1,2,0:0:0:0:
64,192,12615,1,2,0:0:0:0:
192,192,12615,1,2,0:0:0:0:
320,192,12730,128,0,12961:0:0:0:0:
64,192,12730,1,8,0:0:0:0:
192,192,12730,1,8,0:0:0:0:
192,192,12961,128,2,13307:0:0:0:0:
64,192,12961,1,2,0:0:0:0:
320,192,13076,1,2,0:0:0:0:
448,192,13076,1,2,0:0:0:0:
448,192,13192,1,8,0:0:0:0:
320,192,13192,1,8,0:0:0:0:
64,192,13192,1,0,0:0:0:0:
448,192,13307,128,2,13653:0:0:0:0:
320,192,13307,1,2,0:0:0:0:
64,192,13538,1,2,0:0:0:0:
192,192,13538,1,2,0:0:0:0:
320,192,13653,128,0,13884:0:0:0:0:
192,192,13653,1,8,0:0:0:0:
64,192,13653,1,8,0:0:0:0:
192,192,13884,128,2,14230:0:0:0:0:
64,192,13884,1,2,0:0:0:0:
320,192,14000,1,2,0:0:0:0:
448,192,14000,1,2,0:0:0:0:
64,192,14115,1,0,0:0:0:0:
320,192,14115,1,8,0:0:0:0:
448,192,14115,1,8,0:0:0:0:
64,192,14230,128,2,14576:0:0:0:0:
448,192,14230,1,2,0:0:0:0:
320,192,14461,1,2,0:0:0:0:
448,192,14461,1,2,0:0:0:0:
320,192,14576,128,8,14807:0:0:0:0:
448,192,14576,1,8,0:0:0:0:
192,192,14576,1,0,0:0:0:0:
192,192,14807,128,2,15038:0:0:0:0:
64,192,14807,1,2,0:0:0:0:
320,192,14923,1,2,0:0:0:0:
448,192,14923,1,2,0:0:0:0:
320,192,15038,128,8,15269:0:0:0:0:
448,192,15038,1,8,0:0:0:0:
64,192,15038,1,0,0:0:0:0:
64,192,15269,1,8,0:0:0:0:
192,192,15269,1,8,0:0:0:0:
448,192,15269,1,4,0:0:0:0:
64,192,15384,1,2,0:0:0:0:
192,192,15384,1,2,0:0:0:0:
64,192,15500,1,2,0:0:0:0:
192,192,15500,1,2,0:0:0:0:
64,192,15615,1,2,0:0:0:0:
448,192,15615,1,2,0:0:0:0:
320,192,15730,1,2,0:0:0:0:
448,192,15730,1,2,0:0:0:0:
320,192,15846,1,2,0:0:0:0:
448,192,15846,1,2,0:0:0:0:
64,192,15961,1,8,0:0:0:0:
448,192,15961,1,8,0:0:0:0:
192,192,15961,1,0,0:0:0:0:
64,192,16076,1,2,0:0:0:0:
192,192,16076,1,2,0:0:0:0:
64,192,16192,1,2,0:0:0:0:
192,192,16192,1,2,0:0:0:0:
64,192,16307,1,8,0:0:0:0:
448,192,16307,1,8,0:0:0:0:
320,192,16307,1,0,0:0:0:0:
320,192,16423,1,2,0:0:0:0:
448,192,16423,1,2,0:0:0:0:
320,192,16538,1,2,0:0:0:0:
448,192,16538,1,2,0:0:0:0:
64,192,16653,1,8,0:0:0:0:
192,192,16653,1,8,0:0:0:0:
448,192,16653,1,0,0:0:0:0:
64,192,16769,1,2,0:0:0:0:
192,192,16769,1,2,0:0:0:0:
320,192,16884,1,8,0:0:0:0:
448,192,16884,1,8,0:0:0:0:
64,192,16884,1,0,0:0:0:0:
192,192,17115,1,2,0:0:0:0:
64,192,17115,1,2,0:0:0:0:
448,192,17115,1,4,0:0:0:0:
320,192,17230,1,0,0:0:0:0:
448,192,17346,1,0,0:0:0:0:
64,192,17461,1,2,0:0:0:0:
320,192,17461,1,2,0:0:0:0:
192,192,17576,1,8,0:0:0:0:
448,192,17576,1,8,0:0:0:0:
64,192,17692,1,0,0:0:0:0:
320,192,17807,1,0,0:0:0:0:
192,192,17923,128,2,18153:0:0:0:0:
64,192,17923,1,2,0:0:0:0:
448,192,18038,1,0,0:0:0:0:
320,192,18153,1,8,0:0:0:0:
64,192,18153,1,8,0:0:0:0:
192,192,18269,1,2,0:0:0:0:
448,192,18269,1,2,0:0:0:0:
320,192,18384,1,0,0:0:0:0:
192,192,18500,1,8,0:0:0:0:
64,192,18500,1,8,0:0:0:0:
320,192,18730,1,0,0:0:0:0:
448,192,18730,1,0,0:0:0:0:
192,192,18846,1,8,0:0:0:0:
448,192,18961,1,2,0:0:0:0:
320,192,18961,1,2,0:0:0:0:
64,192,19076,1,0,0:0:0:0:
448,192,19192,1,0,0:0:0:0:
64,192,19307,1,2,0:0:0:0:
192,192,19307,1,2,0:0:0:0:
448,192,19423,1,8,0:0:0:0:
320,192,19423,1,8,0:0:0:0:
64,192,19538,1,0,0:0:0:0:
192,192,19653,1,0,0:0:0:0:
320,192,19769,128,2,20000:0:0:0:0:
448,192,19769,1,2,0:0:0:0:
64,192,19884,1,0,0:0:0:0:
192,192,20000,1,8,0:0:0:0:
448,192,20000,1,8,0:0:0:0:
64,192,20115,1,2,0:0:0:0:
320,192,20115,1,2,0:0:0:0:
448,192,20230,1,0,0:0:0:0:
192,192,20346,1,8,0:0:0:0:
64,192,20346,1,8,0:0:0:0:
320,192,20576,1,2,0:0:0:0:
448,192,20576,1,2,0:0:0:0:
192,192,20692,1,8,0:0:0:0:
320,192,20807,1,2,0:0:0:0:
448,192,20807,1,2,0:0:0:0:
64,192,21038,128,2,21153:0:0:0:0:
192,192,21038,128,2,21153:0:0:0:0:
320,192,21153,1,2,0:0:0:0:
448,192,21153,1,2,0:0:0:0:
64,192,21269,128,8,21384:0:0:0:0:
192,192,21269,128,8,21384:0:0:0:0:
448,192,21384,1,0,0:0:0:0:
320,192,21500,1,0,0:0:0:0:
192,192,21615,1,2,0:0:0:0:
64,192,21615,1,2,0:0:0:0:
320,192,21730,128,0,21846:0:0:0:0:
448,192,21730,128,0,21846:0:0:0:0:
64,192,21846,1,8,0:0:0:0:
448,192,21961,128,2,22076:0:0:0:0:
320,192,21961,128,2,22076:0:0:0:0:
64,192,22076,1,0,0:0:0:0:
192,192,22192,1,8,0:0:0:0:
448,192,22192,1,8,0:0:0:0:
64,192,22307,1,0,0:0:0:0:
320,192,22423,128,0,22653:0:0:0:0:
448,192,22423,1,0,0:0:0:0:
192,192,22538,1,8,0:0:0:0:
64,192,22653,1,2,0:0:0:0:
448,192,22653,1,2,0:0:0:0:
192,192,22769,1,0,0:0:0:0:
320,192,22769,1,0,0:0:0:0:
448,192,22884,1,0,0:0:0:0:
64,192,23000,1,2,0:0:0:0:
192,192,23000,1,2,0:0:0:0:
448,192,23115,1,8,0:0:0:0:
320,192,23115,1,8,0:0:0:0:
64,192,23230,1,0,0:0:0:0:
320,192,23346,1,0,0:0:0:0:
448,192,23461,1,2,0:0:0:0:
192,192,23461,1,2,0:0:0:0:
64,192,23576,1,0,0:0:0:0:
192,192,23692,1,8,0:0:0:0:
320,192,23692,1,8,0:0:0:0:
448,192,23807,1,2,0:0:0:0:
64,192,23807,1,2,0:0:0:0:
192,192,23923,1,8,0:0:0:0:
320,192,24038,1,8,0:0:0:0:
448,192,24038,1,8,0:0:0:0:
320,192,24153,1,8,0:0:0:0:
448,192,24153,1,8,0:0:0:0:
64,192,24269,1,2,0:0:0:0:
192,192,24269,1,2,0:0:0:0:
320,192,24384,1,8,0:0:0:0:
448,192,24384,1,8,0:0:0:0:
64,192,24500,1,2,0:0:0:0:
192,192,24500,1,2,0:0:0:0:
320,192,24500,1,4,0:0:0:0:
448,192,24500,1,0,0:0:0:0:
192,192,24615,1,0,0:0:0:0:
64,192,24615,1,0,0:0:0:0:
320,192,24730,1,0,0:0:0:0:
64,192,24846,1,2,0:0:0:0:
448,192,24846,1,2,0:0:0:0:
64,192,24961,1,8,0:0:0:0:
448,192,24961,1,8,0:0:0:0:
192,192,25076,1,0,0:0:0:0:
192,192,25192,128,0,25423:0:0:0:0:
320,192,25307,1,8,0:0:0:0:
64,192,25423,1,2,0:0:0:0:
448,192,25423,1,2,0:0:0:0:
320,192,25538,128,8,25769:0:0:0:0:
192,192,25538,1,8,0:0:0:0:
448,192,25653,1,2,0:0:0:0:
64,192,25769,1,2,0:0:0:0:
192,192,25769,1,2,0:0:0:0:
320,192,25884,1,8,0:0:0:0:
448,192,25884,1,8,0:0:0:0:
192,192,26115,1,0,0:0:0:0:
64,192,26115,1,0,0:0:0:0:
320,192,26230,1,8,0:0:0:0:
64,192,26346,1,2,0:0:0:0:
448,192,26346,1,2,0:0:0:0:
448,192,26461,1,0,0:0:0:0:
64,192,26461,1,0,0:0:0:0:
320,192,26576,1,0,0:0:0:0:
64,192,26692,1,2,0:0:0:0:
192,192,26692,1,2,0:0:0:0:
64,192,26807,1,8,0:0:0:0:
192,192,26807,1,8,0:0:0:0:
320,192,26923,1,0,0:0:0:0:
192,192,27038,1,0,0:0:0:0:
448,192,27153,128,8,27384:0:0:0:0:
320,192,27153,1,8,0:0:0:0:
64,192,27269,1,2,0:0:0:0:
192,192,27269,1,2,0:0:0:0:
320,192,27384,1,8,0:0:0:0:
448,192,27500,1,2,0:0:0:0:
64,192,27615,1,2,0:0:0:0:
192,192,27615,1,2,0:0:0:0:
320,192,27730,1,8,0:0:0:0:
448,192,27730,1,8,0:0:0:0:
192,192,27961,1,0,0:0:0:0:
448,192,27961,1,0,0:0:0:0:
320,192,28076,1,8,0:0:0:0:
64,192,28192,1,2,0:0:0:0:
448,192,28192,1,2,0:0:0:0:
192,192,28423,128,0,28538:0:0:0:0:
64,192,28423,128,0,28538:0:0:0:0:
448,192,28538,1,2,0:0:0:0:
320,192,28538,1,2,0:0:0:0:
64,192,28653,128,8,28769:0:0:0:0:
192,192,28653,128,8,28769:0:0:0:0:
448,192,28769,1,0,0:0:0:0:
320,192,28884,1,0,0:0:0:0:
192,192,29000,1,8,0:0:0:0:
64,192,29000,1,8,0:0:0:0:
320,192,29115,128,2,29230:0:0:0:0:
448,192,29115,128,2,29230:0:0:0:0:
64,192,29230,1,8,0:0:0:0:
320,192,29346,128,2,29461:0:0:0:0:
448,192,29346,128,2,29461:0:0:0:0:
64,192,29461,1,2,0:0:0:0:
192,192,29576,1,8,0:0:0:0:
448,192,29576,1,8,0:0:0:0:
320,192,29692,1,0,0:0:0:0:
192,192,29807,1,0,0:0:0:0:
320,192,29923,1,8,0:0:0:0:
64,192,29923,1,8,0:0:0:0:
448,192,30038,1,2,0:0:0:0:
192,192,30038,1,2,0:0:0:0:
320,192,30153,1,0,0:0:0:0:
192,192,30269,1,0,0:0:0:0:
448,192,30269,1,0,0:0:0:0:
320,192,30384,1,2,0:0:0:0:
64,192,30384,1,2,0:0:0:0:
192,192,30500,1,8,0:0:0:0:
64,192,30500,1,8,0:0:0:0:
448,192,30615,1,0,0:0:0:0:
64,192,30730,1,0,0:0:0:0:
320,192,30846,1,8,0:0:0:0:
448,192,30846,1,8,0:0:0:0:
64,192,30961,1,2,0:0:0:0:
448,192,30961,1,2,0:0:0:0:
192,192,31076,1,2,0:0:0:0:
64,192,31076,1,2,0:0:0:0:
320,192,31192,1,8,0:0:0:0:
448,192,31192,1,8,0:0:0:0:
64,192,31192,1,0,0:0:0:0:
320,192,31307,1,2,0:0:0:0:
448,192,31307,1,2,0:0:0:0:
192,192,31423,1,0,0:0:0:0:
320,192,31423,1,8,0:0:0:0:
64,192,31423,1,8,0:0:0:0:
64,192,31538,1,8,0:0:0:0:
192,192,31538,1,8,0:0:0:0:
192,192,31653,1,8,0:0:0:0:
64,192,31653,1,8,0:0:0:0:
192,192,31769,1,8,0:0:0:0:
64,192,31769,1,8,0:0:0:0:
64,192,31884,1,2,0:0:0:0:
192,192,31884,1,2,0:0:0:0:
320,192,31884,1,4,0:0:0:0:
448,192,31884,1,0,0:0:0:0:
320,192,32000,1,0,0:0:0:0:
64,192,32115,1,8,0:0:0:0:
448,192,32115,1,8,0:0:0:0:
192,192,32230,1,0,0:0:0:0:
64,192,32346,1,2,0:0:0:0:
320,192,32346,1,2,0:0:0:0:
320,192,32461,1,2,0:0:0:0:
448,192,32461,1,2,0:0:0:0:
192,192,32576,1,8,0:0:0:0:
64,192,32576,1,8,0:0:0:0:
192,192,32692,1,0,0:0:0:0:
64,192,32807,1,2,0:0:0:0:
448,192,32807,1,2,0:0:0:0:
320,192,32923,1,0,0:0:0:0:
64,192,33038,1,8,0:0:0:0:
192,192,33038,1,8,0:0:0:0:
192,192,33153,1,0,0:0:0:0:
320,192,33269,1,2,0:0:0:0:
448,192,33269,1,2,0:0:0:0:
192,192,33384,1,2,0:0:0:0:
320,192,33384,1,2,0:0:0:0:
192,192,33500,1,8,0:0:0:0:
64,192,33500,1,8,0:0:0:0:
448,192,33615,1,0,0:0:0:0:
64,192,33730,128,2,33846:0:0:0:0:
192,192,33730,128,2,33846:0:0:0:0:
320,192,33846,1,0,0:0:0:0:
64,192,33961,1,8,0:0:0:0:
448,192,33961,1,8,0:0:0:0:
320,192,34076,1,0,0:0:0:0:
64,192,34192,1,2,0:0:0:0:
192,192,34192,1,2,0:0:0:0:
64,192,34307,1,2,0:0:0:0:
320,192,34307,1,2,0:0:0:0:
192,192,34423,1,8,0:0:0:0:
448,192,34423,1,8,0:0:0:0:
320,192,34538,1,0,0:0:0:0:
64,192,34653,1,2,0:0:0:0:
448,192,34653,1,2,0:0:0:0:
320,192,34769,1,0,0:0:0:0:
192,192,34884,1,8,0:0:0:0:
64,192,34884,1,8,0:0:0:0:
448,192,35000,1,0,0:0:0:0:
64,192,35115,1,2,0:0:0:0:
192,192,35115,1,2,0:0:0:0:
64,192,35230,1,2,0:0:0:0:
320,192,35230,1,2,0:0:0:0:
448,192,35346,1,8,0:0:0:0:
192,192,35346,1,8,0:0:0:0:
320,192,35461,1,0,0:0:0:0:
192,192,35576,128,2,35692:0:0:0:0:
64,192,35576,128,2,35692:0:0:0:0:
320,192,35692,1,0,0:0:0:0:
448,192,35807,1,8,0:0:0:0:
64,192,35807,1,8,0:0:0:0:
320,192,35923,1,0,0:0:0:0:
192,192,36038,1,2,0:0:0:0:
448,192,36038,1,2,0:0:0:0:
64,192,36153,1,2,0:0:0:0:
320,192,36153,1,2,0:0:0:0:
64,192,36269,1,8,0:0:0:0:
192,192,36269,1,8,0:0:0:0:
320,192,36384,1,0,0:0:0:0:
64,192,36500,1,2,0:0:0:0:
448,192,36500,1,2,0:0:0:0:
192,192,36615,1,0,0:0:0:0:
320,192,36730,1,8,0:0:0:0:
448,192,36730,1,0,0:0:0:0:
192,192,36846,1,0,0:0:0:0:
320,192,36961,1,2,0:0:0:0:
448,192,36961,1,2,0:0:0:0:
192,192,37076,1,2,0:0:0:0:
320,192,37076,1,2,0:0:0:0:
192,192,37192,1,8,0:0:0:0:
64,192,37192,1,8,0:0:0:0:
320,192,37307,1,0,0:0:0:0:
192,192,37423,128,2,37538:0:0:0:0:
64,192,37423,128,2,37538:0:0:0:0:
320,192,37538,1,0,0:0:0:0:
192,192,37653,1,8,0:0:0:0:
448,192,37653,1,8,0:0:0:0:
320,192,37769,1,0,0:0:0:0:
448,192,37769,1,0,0:0:0:0:
64,192,37884,1,2,0:0:0:0:
192,192,37884,1,2,0:0:0:0:
448,192,38000,1,2,0:0:0:0:
320,192,38000,1,2,0:0:0:0:
192,192,38115,1,8,0:0:0:0:
64,192,38115,1,8,0:0:0:0:
448,192,38230,1,0,0:0:0:0:
64,192,38346,1,2,0:0:0:0:
320,192,38346,1,2,0:0:0:0:
448,192,38461,1,0,0:0:0:0:
192,192,38576,1,8,0:0:0:0:
64,192,38576,1,8,0:0:0:0:
448,192,38692,1,0,0:0:0:0:
64,192,38807,1,2,0:0:0:0:
192,192,38807,1,2,0:0:0:0:
320,192,38923,1,2,0:0:0:0:
448,192,38923,1,2,0:0:0:0:
192,192,39038,1,8,0:0:0:0:
64,192,39038,1,8,0:0:0:0:
448,192,39153,1,0,0:0:0:0:
64,192,39269,1,2,0:0:0:0:
192,192,39269,1,2,0:0:0:0:
320,192,39269,1,4,0:0:0:0:
448,192,39269,1,0,0:0:0:0:
64,192,39384,1,8,0:0:0:0:
192,192,39384,1,8,0:0:0:0:
192,192,39500,1,8,0:0:0:0:
64,192,39500,1,8,0:0:0:0:
64,192,39615,1,8,0:0:0:0:
192,192,39615,1,8,0:0:0:0:
320,192,39846,1,2,0:0:0:0:
448,192,39846,1,2,0:0:0:0:
64,192,40076,1,2,0:0:0:0:
192,192,40076,1,2,0:0:0:0:
448,192,40076,1,4,0:0:0:0:
320,192,40423,1,8,0:0:0:0:
448,192,40423,1,8,0:0:0:0:
64,192,40538,1,2,0:0:0:0:
320,192,40653,1,2,0:0:0:0:
448,192,40653,1,2,0:0:0:0:
192,192,40769,1,2,0:0:0:0:
64,192,40884,1,8,0:0:0:0:
448,192,40884,1,8,0:0:0:0:
320,192,41000,1,2,0:0:0:0:
64,192,41115,1,2,0:0:0:0:
192,192,41115,1,2,0:0:0:0:
448,192,41115,1,4,0:0:0:0:
64,192,41230,1,8,0:0:0:0:
192,192,41230,1,8,0:0:0:0:
192,192,41346,1,8,0:0:0:0:
64,192,41346,1,8,0:0:0:0:
64,192,41461,1,8,0:0:0:0:
192,192,41461,1,8,0:0:0:0:
320,192,41692,1,2,0:0:0:0:
448,192,41692,1,2,0:0:0:0:
64,192,41923,1,4,0:0:0:0:
320,192,41923,1,2,0:0:0:0:
448,192,41923,1,2,0:0:0:0:
64,192,42269,1,8,0:0:0:0:
192,192,42269,1,8,0:0:0:0:
448,192,42269,1,0,0:0:0:0:
192,192,42500,1,8,0:0:0:0:
320,192,42500,1,8,0:0:0:0:
448,192,42500,1,0,0:0:0:0:
320,192,42615,1,2,0:0:0:0:
448,192,42615,1,2,0:0:0:0:
64,192,42730,1,8,0:0:0:0:
192,192,42730,1,8,0:0:0:0:
448,192,42730,1,0,0:0:0:0:
64,192,42961,1,2,0:0:0:0:
320,192,42961,1,4,0:0:0:0:
448,192,42961,1,0,0:0:0:0:
192,192,42961,1,2,0:0:0:0:
320,192,43192,1,0,0:0:0:0:
192,192,43307,1,2,0:0:0:0:
64,192,43307,1,2,0:0:0:0:
320,192,43423,1,8,0:0:0:0:
448,192,43423,1,8,0:0:0:0:
64,192,43423,1,0,0:0:0:0:
320,192,43538,1,0,0:0:0:0:
64,192,43653,1,0,0:0:0:0:
320,192,43769,128,2,43884:0:0:0:0:
448,192,43769,128,2,43884:0:0:0:0:
64,192,43884,1,0,0:0:0:0:
320,192,44000,128,0,44115:0:0:0:0:
448,192,44000,128,0,44115:0:0:0:0:
64,192,44115,128,0,44230:0:0:0:0:
192,192,44230,128,2,44346:0:0:0:0:
64,192,44346,1,0,0:0:0:0:
320,192,44346,128,8,44461:0:0:0:0:
448,192,44346,128,8,44461:0:0:0:0:
64,192,44576,1,0,0:0:0:0:
320,192,44576,128,2,44692:0:0:0:0:
448,192,44576,128,2,44692:0:0:0:0:
192,192,44692,1,8,0:0:0:0:
64,192,44807,1,4,0:0:0:0:
320,192,44807,1,2,0:0:0:0:
448,192,44807,1,2,0:0:0:0:
64,192,45038,1,0,0:0:0:0:
320,192,45038,1,8,0:0:0:0:
448,192,45038,1,8,0:0:0:0:
64,192,45153,1,2,0:0:0:0:
192,192,45153,1,2,0:0:0:0:
448,192,45153,1,4,0:0:0:0:
192,192,45384,1,8,0:0:0:0:
320,192,45384,1,8,0:0:0:0:
448,192,45384,1,0,0:0:0:0:
64,192,45500,1,2,0:0:0:0:
448,192,45500,1,4,0:0:0:0:
192,192,45500,1,2,0:0:0:0:
64,192,46192,128,0,46307:0:0:0:40:whistle.wav
192,192,46192,128,0,46307:0:0:0:40:whistle.wav
320,192,46192,128,0,46307:0:0:0:0:
448,192,46192,128,0,46307:0:0:0:0:
64,192,46423,128,0,46538:0:0:0:40:whistle.wav
192,192,46423,128,0,46538:0:0:0:40:whistle.wav
320,192,46423,128,0,46538:0:0:0:0:
448,192,46423,128,0,46538:0:0:0:0:
64,192,46653,1,2,0:0:0:0:
192,192,46653,1,2,0:0:0:0:
320,192,46653,1,4,0:0:0:0:
448,192,46653,1,0,0:0:0:0:
192,192,46769,1,0,0:0:0:0:
320,192,46884,1,8,0:0:0:0:
448,192,46884,1,8,0:0:0:0:
64,192,46884,1,0,0:0:0:0:
320,192,47000,1,0,0:0:0:0:
64,192,47115,1,2,0:0:0:0:
192,192,47115,1,2,0:0:0:0:
320,192,47230,1,2,0:0:0:0:
448,192,47230,1,2,0:0:0:0:
64,192,47346,1,8,0:0:0:0:
192,192,47346,1,8,0:0:0:0:
448,192,47346,1,0,0:0:0:0:
64,192,47461,1,0,0:0:0:0:
192,192,47576,1,2,0:0:0:0:
320,192,47576,1,2,0:0:0:0:
448,192,47576,1,0,0:0:0:0:
320,192,47692,1,0,0:0:0:0:
192,192,47807,1,8,0:0:0:0:
64,192,47807,1,8,0:0:0:0:
448,192,47807,1,0,0:0:0:0:
192,192,47923,1,0,0:0:0:0:
64,192,48038,1,2,0:0:0:0:
320,192,48038,1,2,0:0:0:0:
192,192,48153,1,2,0:0:0:0:
448,192,48153,1,2,0:0:0:0:
320,192,48269,1,8,0:0:0:0:
448,192,48269,1,8,0:0:0:0:
64,192,48269,1,0,0:0:0:0:
320,192,48384,1,0,0:0:0:0:
64,192,48500,1,2,0:0:0:0:
192,192,48500,1,2,0:0:0:0:
448,192,48500,1,0,0:0:0:0:
64,192,48615,1,0,0:0:0:0:
192,192,48730,1,8,0:0:0:0:
320,192,48730,1,8,0:0:0:0:
448,192,48730,1,0,0:0:0:0:
448,192,48846,1,0,0:0:0:0:
64,192,48961,1,2,0:0:0:0:
192,192,48961,1,2,0:0:0:0:
320,192,49076,1,2,0:0:0:0:
448,192,49076,1,2,0:0:0:0:
320,192,49192,1,0,0:0:0:0:
192,192,49192,1,8,0:0:0:0:
64,192,49192,1,8,0:0:0:0:
192,192,49307,1,0,0:0:0:0:
64,192,49423,1,0,0:0:0:0:
320,192,49423,1,2,0:0:0:0:
448,192,49423,1,2,0:0:0:0:
320,192,49538,1,0,0:0:0:0:
64,192,49653,1,8,0:0:0:0:
192,192,49653,1,8,0:0:0:0:
448,192,49653,1,0,0:0:0:0:
64,192,49769,1,0,0:0:0:0:
192,192,49884,1,2,0:0:0:0:
448,192,49884,1,2,0:0:0:0:
320,192,50000,1,2,0:0:0:0:
64,192,50000,1,2,0:0:0:0:
192,192,50115,1,8,0:0:0:0:
64,192,50115,1,8,0:0:0:0:
448,192,50115,1,0,0:0:0:0:
320,192,50230,1,0,0:0:0:0:
64,192,50346,128,2,50403:0:0:0:0:
192,192,50346,128,2,50403:0:0:0:0:
448,192,50346,1,0,0:0:0:0:
320,192,50461,1,0,0:0:0:0:
64,192,50576,1,8,0:0:0:0:
192,192,50576,1,8,0:0:0:0:
448,192,50576,1,0,0:0:0:0:
64,192,50692,128,0,50750:0:0:0:0:
192,192,50692,128,0,50750:0:0:0:0:
320,192,50807,1,2,0:0:0:0:
448,192,50807,1,2,0:0:0:0:
64,192,50923,1,2,0:0:0:0:
192,192,50923,1,2,0:0:0:0:
320,192,51038,128,8,51096:0:0:0:0:
448,192,51038,128,8,51096:0:0:0:0:
64,192,51038,1,0,0:0:0:0:
192,192,51153,1,0,0:0:0:0:
64,192,51269,1,0,0:0:0:0:
448,192,51269,1,2,0:0:0:0:
320,192,51269,1,2,0:0:0:0:
320,192,51384,128,0,51442:0:0:0:0:
448,192,51384,128,0,51442:0:0:0:0:
64,192,51500,1,8,0:0:0:0:
192,192,51500,1,8,0:0:0:0:
320,192,51500,1,0,0:0:0:0:
448,192,51615,1,0,0:0:0:0:
64,192,51730,128,2,51788:0:0:0:0:
192,192,51730,128,2,51788:0:0:0:0:
320,192,51730,1,0,0:0:0:0:
64,192,51846,1,2,0:0:0:0:
192,192,51846,1,2,0:0:0:0:
320,192,51961,128,8,52019:0:0:0:0:
448,192,51961,128,0,52019:0:0:0:0:
192,192,51961,1,8,0:0:0:0:
64,192,52076,1,0,0:0:0:0:
64,192,52192,128,2,52250:0:0:0:0:
192,192,52192,128,2,52250:0:0:0:0:
448,192,52192,1,0,0:0:0:0:
320,192,52307,1,0,0:0:0:0:
64,192,52423,1,8,0:0:0:0:
192,192,52423,1,8,0:0:0:0:
448,192,52423,1,0,0:0:0:0:
64,192,52538,128,0,52596:0:0:0:0:
192,192,52538,128,0,52596:0:0:0:0:
320,192,52653,1,2,0:0:0:0:
448,192,52653,1,2,0:0:0:0:
64,192,52769,1,2,0:0:0:0:
192,192,52769,1,2,0:0:0:0:
320,192,52884,128,8,52942:0:0:0:0:
448,192,52884,128,8,52942:0:0:0:0:
64,192,52884,1,0,0:0:0:0:
192,192,53000,1,0,0:0:0:0:
64,192,53115,1,0,0:0:0:0:
320,192,53115,1,2,0:0:0:0:
448,192,53115,1,2,0:0:0:0:
320,192,53230,128,0,53288:0:0:0:0:
448,192,53230,128,0,53288:0:0:0:0:
64,192,53346,1,8,0:0:0:0:
192,192,53346,1,8,0:0:0:0:
320,192,53346,1,0,0:0:0:0:
192,192,53461,1,0,0:0:0:0:
320,192,53576,1,2,0:0:0:0:
448,192,53576,1,2,0:0:0:0:
64,192,53576,1,0,0:0:0:0:
320,192,53692,1,2,0:0:0:0:
448,192,53692,1,2,0:0:0:0:
64,192,53807,128,0,53980:0:0:0:0:
192,192,53807,128,8,53980:0:0:0:0:
320,192,53807,128,8,53980:0:0:0:0:
64,192,54038,1,2,0:0:0:0:
320,192,54038,1,4,0:0:0:0:
448,192,54038,1,0,0:0:0:0:
192,192,54038,1,2,0:0:0:0:
192,192,54153,1,0,0:0:0:0:
64,192,54269,1,0,0:0:0:0:
320,192,54269,1,8,0:0:0:0:
448,192,54269,1,8,0:0:0:0:
320,192,54384,1,0,0:0:0:0:
64,192,54500,1,2,0:0:0:0:
192,192,54500,1,2,0:0:0:0:
320,192,54615,1,2,0:0:0:0:
448,192,54615,1,2,0:0:0:0:
448,192,54730,1,0,0:0:0:0:
192,192,54730,1,8,0:0:0:0:
64,192,54730,1,8,0:0:0:0:
320,192,54846,1,0,0:0:0:0:
64,192,54961,1,2,0:0:0:0:
448,192,54961,1,0,0:0:0:0:
192,192,54961,1,2,0:0:0:0:
192,192,55076,1,0,0:0:0:0:
64,192,55192,1,0,0:0:0:0:
320,192,55192,1,8,0:0:0:0:
448,192,55192,1,8,0:0:0:0:
64,192,55307,1,0,0:0:0:0:
192,192,55423,1,2,0:0:0:0:
320,192,55423,1,2,0:0:0:0:
320,192,55538,1,2,0:0:0:0:
448,192,55538,1,2,0:0:0:0:
64,192,55653,1,8,0:0:0:0:
192,192,55653,1,8,0:0:0:0:
448,192,55653,1,0,0:0:0:0:
192,192,55769,1,0,0:0:0:0:
320,192,55884,1,2,0:0:0:0:
448,192,55884,1,2,0:0:0:0:
64,192,55884,1,0,0:0:0:0:
320,192,56000,1,0,0:0:0:0:
64,192,56115,1,8,0:0:0:0:
192,192,56115,1,8,0:0:0:0:
448,192,56115,1,0,0:0:0:0:
448,192,56230,1,0,0:0:0:0:
64,192,56346,1,2,0:0:0:0:
320,192,56346,1,2,0:0:0:0:
192,192,56461,1,2,0:0:0:0:
448,192,56461,1,2,0:0:0:0:
320,192,56576,1,8,0:0:0:0:
448,192,56576,1,8,0:0:0:0:
64,192,56576,1,0,0:0:0:0:
320,192,56692,1,0,0:0:0:0:
64,192,56807,1,2,0:0:0:0:
192,192,56807,1,2,0:0:0:0:
448,192,56807,1,0,0:0:0:0:
192,192,56923,1,0,0:0:0:0:
64,192,57038,1,0,0:0:0:0:
320,192,57038,1,8,0:0:0:0:
448,192,57038,1,8,0:0:0:0:
64,192,57153,1,0,0:0:0:0:
192,192,57269,1,2,0:0:0:0:
448,192,57269,1,2,0:0:0:0:
320,192,57384,1,2,0:0:0:0:
64,192,57384,1,2,0:0:0:0:
64,192,57500,1,8,0:0:0:0:
192,192,57500,1,8,0:0:0:0:
448,192,57500,1,0,0:0:0:0:
320,192,57615,1,0,0:0:0:0:
64,192,57730,128,2,57788:0:0:0:0:
192,192,57730,128,2,57788:0:0:0:0:
448,192,57730,1,0,0:0:0:0:
320,192,57846,1,0,0:0:0:0:
192,192,57961,1,8,0:0:0:0:
64,192,57961,1,8,0:0:0:0:
448,192,57961,1,0,0:0:0:0:
64,192,58076,128,0,58134:0:0:0:0:
192,192,58076,128,0,58134:0:0:0:0:
320,192,58192,1,2,0:0:0:0:
448,192,58192,1,2,0:0:0:0:
64,192,58307,1,2,0:0:0:0:
192,192,58307,1,2,0:0:0:0:
448,192,58423,128,0,58480:0:0:0:0:
320,192,58423,128,8,58480:0:0:0:0:
192,192,58423,1,8,0:0:0:0:
64,192,58538,1,0,0:0:0:0:
64,192,58653,1,0,0:0:0:0:
448,192,58653,1,2,0:0:0:0:
320,192,58653,1,2,0:0:0:0:
320,192,58769,128,0,58826:0:0:0:0:
448,192,58769,128,0,58826:0:0:0:0:
192,192,58884,1,8,0:0:0:0:
64,192,58884,1,8,0:0:0:0:
448,192,58884,1,0,0:0:0:0:
320,192,59000,1,0,0:0:0:0:
64,192,59115,128,2,59173:0:0:0:0:
192,192,59115,128,2,59173:0:0:0:0:
448,192,59115,1,0,0:0:0:0:
192,192,59230,1,2,0:0:0:0:
64,192,59230,1,2,0:0:0:0:
320,192,59346,128,8,59403:0:0:0:0:
448,192,59346,128,8,59403:0:0:0:0:
64,192,59346,1,0,0:0:0:0:
192,192,59461,1,0,0:0:0:0:
320,192,59576,128,2,59634:0:0:0:0:
448,192,59576,128,2,59634:0:0:0:0:
64,192,59576,1,0,0:0:0:0:
320,192,59692,1,0,0:0:0:0:
192,192,59807,1,8,0:0:0:0:
64,192,59807,1,8,0:0:0:0:
448,192,59807,1,0,0:0:0:0:
320,192,59923,128,0,59980:0:0:0:0:
448,192,59923,128,0,59980:0:0:0:0:
64,192,60038,1,2,0:0:0:0:
192,192,60038,1,2,0:0:0:0:
320,192,60153,1,2,0:0:0:0:
448,192,60153,1,2,0:0:0:0:
64,192,60269,128,8,60326:0:0:0:0:
192,192,60269,128,8,60326:0:0:0:0:
448,192,60269,1,0,0:0:0:0:
320,192,60384,1,0,0:0:0:0:
64,192,60500,1,2,0:0:0:0:
192,192,60500,1,2,0:0:0:0:
448,192,60500,1,0,0:0:0:0:
64,192,60615,128,0,60673:0:0:0:0:
192,192,60615,128,0,60673:0:0:0:0:
320,192,60730,1,8,0:0:0:0:
448,192,60730,1,0,0:0:0:0:
192,192,60730,1,8,0:0:0:0:
320,192,60846,1,0,0:0:0:0:
64,192,60961,1,2,0:0:0:0:
192,192,60961,1,2,0:0:0:0:
192,192,61076,1,0,0:0:0:0:
320,192,61076,1,8,0:0:0:0:
448,192,61076,1,8,0:0:0:0:
448,192,61192,1,8,0:0:0:0:
320,192,61192,1,8,0:0:0:0:
192,192,61192,1,0,0:0:0:0:
64,192,61307,1,2,0:0:0:0:
192,192,61307,1,2,0:0:0:0:
320,192,61365,1,8,0:0:0:0:
448,192,61423,1,4,0:0:0:0:
192,192,61423,1,2,0:0:0:0:
64,192,61423,1,2,0:0:0:0:
320,192,61538,1,0,0:0:0:0:
64,192,61653,1,8,0:0:0:0:
192,192,61653,1,8,0:0:0:0:
448,192,61653,1,0,0:0:0:0:
192,192,61769,1,0,0:0:0:0:
64,192,61884,1,0,0:0:0:0:
320,192,61884,1,2,0:0:0:0:
448,192,61884,1,2,0:0:0:0:
320,192,62000,1,2,0:0:0:0:
448,192,62000,1,2,0:0:0:0:
64,192,62115,1,8,0:0:0:0:
192,192,62115,1,8,0:0:0:0:
448,192,62115,1,0,0:0:0:0:
192,192,62230,1,0,0:0:0:0:
64,192,62346,1,0,0:0:0:0:
320,192,62346,1,2,0:0:0:0:
448,192,62346,1,2,0:0:0:0:
320,192,62461,1,0,0:0:0:0:
64,192,62576,1,8,0:0:0:0:
192,192,62576,1,8,0:0:0:0:
448,192,62576,1,0,0:0:0:0:
192,192,62692,1,0,0:0:0:0:
64,192,62807,1,2,0:0:0:0:
320,192,62807,1,2,0:0:0:0:
448,192,62807,1,0,0:0:0:0:
320,192,62923,1,2,0:0:0:0:
64,192,62923,1,2,0:0:0:0:
64,192,63038,1,8,0:0:0:0:
192,192,63038,1,8,0:0:0:0:
448,192,63038,1,0,0:0:0:0:
320,192,63153,1,0,0:0:0:0:
192,192,63269,1,2,0:0:0:0:
448,192,63269,1,0,0:0:0:0:
64,192,63269,1,2,0:0:0:0:
192,192,63384,1,0,0:0:0:0:
64,192,63500,1,0,0:0:0:0:
320,192,63500,1,8,0:0:0:0:
448,192,63500,1,8,0:0:0:0:
320,192,63615,1,0,0:0:0:0:
64,192,63730,1,2,0:0:0:0:
192,192,63730,1,2,0:0:0:0:
448,192,63730,1,0,0:0:0:0:
192,192,63846,1,2,0:0:0:0:
64,192,63846,1,2,0:0:0:0:
448,192,63961,1,8,0:0:0:0:
64,192,63961,1,0,0:0:0:0:
320,192,63961,1,8,0:0:0:0:
320,192,64076,1,0,0:0:0:0:
64,192,64192,1,2,0:0:0:0:
192,192,64192,1,2,0:0:0:0:
448,192,64192,1,0,0:0:0:0:
64,192,64307,1,0,0:0:0:0:
192,192,64423,1,8,0:0:0:0:
320,192,64423,1,8,0:0:0:0:
448,192,64423,1,0,0:0:0:0:
320,192,64538,1,0,0:0:0:0:
64,192,64653,1,2,0:0:0:0:
192,192,64653,1,2,0:0:0:0:
448,192,64653,1,0,0:0:0:0:
64,192,64769,1,2,0:0:0:0:
192,192,64769,1,2,0:0:0:0:
64,192,64884,1,0,0:0:0:0:
320,192,64884,1,8,0:0:0:0:
448,192,64884,1,8,0:0:0:0:
320,192,65000,1,0,0:0:0:0:
64,192,65115,1,2,0:0:0:0:
192,192,65115,1,2,0:0:0:0:
320,192,65115,1,4,0:0:0:0:
448,192,65115,1,0,0:0:0:0:
64,192,65230,1,0,0:0:0:0:
192,192,65346,1,8,0:0:0:0:
320,192,65346,1,8,0:0:0:0:
448,192,65346,1,0,0:0:0:0:
320,192,65461,1,0,0:0:0:0:
64,192,65576,1,2,0:0:0:0:
448,192,65576,1,0,0:0:0:0:
192,192,65576,1,2,0:0:0:0:
192,192,65692,1,2,0:0:0:0:
64,192,65692,1,2,0:0:0:0:
64,192,65807,1,8,0:0:0:0:
448,192,65807,1,8,0:0:0:0:
320,192,65807,1,0,0:0:0:0:
192,192,65923,1,0,0:0:0:0:
64,192,66038,1,0,0:0:0:0:
320,192,66038,1,2,0:0:0:0:
448,192,66038,1,2,0:0:0:0:
320,192,66153,1,0,0:0:0:0:
192,192,66269,1,8,0:0:0:0:
64,192,66269,1,8,0:0:0:0:
448,192,66269,1,0,0:0:0:0:
64,192,66384,1,0,0:0:0:0:
192,192,66500,1,2,0:0:0:0:
320,192,66500,1,2,0:0:0:0:
448,192,66500,1,0,0:0:0:0:
320,192,66615,1,2,0:0:0:0:
64,192,66615,1,2,0:0:0:0:
64,192,66730,1,8,0:0:0:0:
192,192,66730,1,8,0:0:0:0:
448,192,66730,1,0,0:0:0:0:
320,192,66846,1,0,0:0:0:0:
64,192,66961,1,2,0:0:0:0:
192,192,66961,1,2,0:0:0:0:
448,192,66961,1,0,0:0:0:0:
320,192,67076,1,0,0:0:0:0:
192,192,67192,1,8,0:0:0:0:
64,192,67192,1,8,0:0:0:0:
448,192,67192,1,0,0:0:0:0:
192,192,67307,1,0,0:0:0:0:
320,192,67423,1,2,0:0:0:0:
448,192,67423,1,2,0:0:0:0:
64,192,67423,1,0,0:0:0:0:
320,192,67538,1,2,0:0:0:0:
448,192,67538,1,2,0:0:0:0:
192,192,67653,1,8,0:0:0:0:
320,192,67653,1,0,0:0:0:0:
64,192,67653,1,8,0:0:0:0:
192,192,67769,1,0,0:0:0:0:
64,192,67884,1,4,0:0:0:0:
320,192,67884,1,2,0:0:0:0:
448,192,67884,1,2,0:0:0:0:
64,192,68000,1,8,0:0:0:0:
192,192,68000,1,8,0:0:0:0:
320,192,68000,1,0,0:0:0:0:
320,192,68115,1,0,0:0:0:0:
192,192,68115,1,8,0:0:0:0:
64,192,68115,1,8,0:0:0:0:
64,192,68230,1,8,0:0:0:0:
192,192,68230,1,8,0:0:0:0:
320,192,68230,1,0,0:0:0:0:
320,192,68346,1,2,0:0:0:0:
448,192,68346,1,2,0:0:0:0:
192,192,68461,1,2,0:0:0:0:
448,192,68461,1,2,0:0:0:0:
64,192,68576,1,2,0:0:0:0:
192,192,68576,1,2,0:0:0:0:
320,192,68692,1,2,0:0:0:0:
448,192,68692,1,2,0:0:0:0:
64,192,68807,1,2,0:0:0:0:
192,192,68807,1,2,0:0:0:0:
320,192,68807,1,4,0:0:0:0:
448,192,68807,1,0,0:0:0:0:
64,192,69269,1,2,0:0:0:0:
192,192,69269,1,2,0:0:0:0:
64,192,70192,1,2,0:0:0:0:
192,192,70192,1,2,0:0:0:0:
64,192,71115,5,2,0:0:0:0:
192,192,71115,1,2,0:0:0:0:
64,192,72038,1,2,0:0:0:0:
192,192,72038,1,2,0:0:0:0:
320,192,72269,128,0,72846:0:0:0:0:
64,192,72269,128,0,72384:0:0:0:50:whistle.wav
192,192,72269,128,0,72384:0:0:0:50:whistle.wav
448,192,72269,128,0,72384:0:0:0:0:
448,192,72500,128,0,72846:0:0:0:50:whistle.wav
64,192,72500,128,2,72961:0:0:0:0:
192,192,72500,128,2,72961:0:0:0:0:
320,192,72961,1,2,0:0:0:0:
448,192,72961,1,2,0:0:0:0:
320,192,73884,1,2,0:0:0:0:
448,192,73884,1,2,0:0:0:0:
320,192,74807,5,2,0:0:0:0:
448,192,74807,1,2,0:0:0:0:
64,192,75269,5,8,0:0:0:0:
192,192,75269,1,8,0:0:0:0:
448,192,75269,1,0,0:0:0:0:
64,192,75384,1,0,0:0:0:0:
320,192,75384,1,2,0:0:0:0:
448,192,75384,1,2,0:0:0:0:
64,192,75615,1,0,0:0:0:0:
320,192,75615,1,2,0:0:0:0:
448,192,75615,1,0,0:0:0:0:
64,192,75846,1,0,0:0:0:0:
320,192,75846,1,2,0:0:0:0:
448,192,75846,1,2,0:0:0:0:
64,192,75961,128,8,76134:0:0:0:0:
192,192,75961,128,8,76134:0:0:0:0:
320,192,75961,128,0,76134:0:0:0:0:
448,192,75961,128,0,76134:0:0:0:0:
64,192,76192,1,2,0:0:0:0:
192,192,76192,1,2,0:0:0:0:
448,192,76192,1,0,0:0:0:0:
320,192,76192,128,0,76423:0:0:0:0:
448,192,76423,128,0,76653:0:0:0:0:
64,192,76423,1,8,0:0:0:0:
192,192,76423,1,8,0:0:0:0:
192,192,76653,128,2,77000:0:0:0:0:
64,192,76653,1,2,0:0:0:0:
320,192,76769,1,2,0:0:0:0:
448,192,76769,1,2,0:0:0:0:
64,192,76884,1,0,0:0:0:0:
320,192,76884,1,8,0:0:0:0:
448,192,76884,1,8,0:0:0:0:
320,192,77000,128,2,77346:0:0:0:0:
448,192,77000,1,2,0:0:0:0:
64,192,77230,1,2,0:0:0:0:
192,192,77230,1,2,0:0:0:0:
448,192,77346,128,0,77576:0:0:0:0:
64,192,77346,1,8,0:0:0:0:
192,192,77346,1,8,0:0:0:0:
192,192,77576,128,2,77923:0:0:0:0:
64,192,77576,1,2,0:0:0:0:
320,192,77692,1,2,0:0:0:0:
448,192,77692,1,2,0:0:0:0:
448,192,77807,1,8,0:0:0:0:
320,192,77807,1,8,0:0:0:0:
64,192,77807,1,0,0:0:0:0:
320,192,77923,128,2,78269:0:0:0:0:
448,192,77923,1,2,0:0:0:0:
64,192,78153,1,2,0:0:0:0:
192,192,78153,1,2,0:0:0:0:
448,192,78269,128,0,78500:0:0:0:0:
192,192,78269,1,8,0:0:0:0:
64,192,78269,1,8,0:0:0:0:
192,192,78500,128,2,78846:0:0:0:0:
64,192,78500,1,2,0:0:0:0:
320,192,78615,1,2,0:0:0:0:
448,192,78615,1,2,0:0:0:0:
320,192,78730,1,8,0:0:0:0:
448,192,78730,1,8,0:0:0:0:
64,192,78730,1,0,0:0:0:0:
320,192,78846,128,2,79192:0:0:0:0:
448,192,78846,1,2,0:0:0:0:
64,192,79076,1,2,0:0:0:0:
192,192,79076,1,2,0:0:0:0:
64,192,79192,128,8,79423:0:0:0:0:
192,192,79192,1,8,0:0:0:0:
448,192,79192,1,0,0:0:0:0:
192,192,79423,128,2,79653:0:0:0:0:
320,192,79423,1,2,0:0:0:0:
448,192,79423,1,0,0:0:0:0:
320,192,79538,1,2,0:0:0:0:
448,192,79538,1,2,0:0:0:0:
320,192,79653,128,8,79884:0:0:0:0:
448,192,79653,1,8,0:0:0:0:
64,192,79653,1,0,0:0:0:0:
64,192,79884,128,2,80115:0:0:0:0:
192,192,79884,1,2,0:0:0:0:
448,192,79884,1,4,0:0:0:0:
448,192,80115,128,8,80346:0:0:0:0:
192,192,80115,1,0,0:0:0:0:
320,192,80115,1,8,0:0:0:0:
192,192,80346,128,2,80692:0:0:0:0:
64,192,80346,1,2,0:0:0:0:
320,192,80461,1,2,0:0:0:0:
448,192,80461,1,2,0:0:0:0:
448,192,80576,1,8,0:0:0:0:
320,192,80576,1,8,0:0:0:0:
64,192,80576,1,0,0:0:0:0:
64,192,80692,128,2,81038:0:0:0:0:
320,192,80692,1,2,0:0:0:0:
320,192,80923,1,2,0:0:0:0:
448,192,80923,1,2,0:0:0:0:
448,192,81038,128,8,81269:0:0:0:0:
320,192,81038,1,8,0:0:0:0:
192,192,81038,1,0,0:0:0:0:
192,192,81269,128,2,81615:0:0:0:0:
64,192,81269,1,2,0:0:0:0:
320,192,81384,1,2,0:0:0:0:
448,192,81384,1,2,0:0:0:0:
320,192,81500,1,8,0:0:0:0:
448,192,81500,1,8,0:0:0:0:
64,192,81500,1,0,0:0:0:0:
64,192,81615,128,2,81961:0:0:0:0:
320,192,81615,1,2,0:0:0:0:
320,192,81846,1,2,0:0:0:0:
448,192,81846,1,2,0:0:0:0:
448,192,81961,128,8,82192:0:0:0:0:
320,192,81961,1,8,0:0:0:0:
192,192,81961,1,0,0:0:0:0:
192,192,82192,128,2,82538:0:0:0:0:
64,192,82192,1,2,0:0:0:0:
320,192,82307,1,2,0:0:0:0:
448,192,82307,1,2,0:0:0:0:
448,192,82423,1,8,0:0:0:0:
320,192,82423,1,8,0:0:0:0:
64,192,82423,1,0,0:0:0:0:
320,192,82538,128,2,82884:0:0:0:0:
448,192,82538,1,2,0:0:0:0:
64,192,82769,1,2,0:0:0:0:
192,192,82769,1,2,0:0:0:0:
448,192,82884,128,0,83115:0:0:0:0:
192,192,82884,1,8,0:0:0:0:
64,192,82884,1,8,0:0:0:0:
192,192,83115,128,2,83346:0:0:0:0:
64,192,83115,1,2,0:0:0:0:
64,192,83230,128,2,83346:0:0:0:0:
448,192,83230,1,2,0:0:0:0:
320,192,83346,128,8,83576:0:0:0:0:
448,192,83346,1,8,0:0:0:0:
64,192,83576,1,8,0:0:0:0:
192,192,83576,1,8,0:0:0:0:
448,192,83576,1,4,0:0:0:0:
64,192,83692,1,2,0:0:0:0:
448,192,83692,1,2,0:0:0:0:
448,192,83807,1,2,0:0:0:0:
64,192,83807,1,2,0:0:0:0:
192,192,83923,1,8,0:0:0:0:
320,192,83923,1,8,0:0:0:0:
448,192,83923,1,0,0:0:0:0:
192,192,84038,1,2,0:0:0:0:
320,192,84038,1,2,0:0:0:0:
320,192,84153,1,2,0:0:0:0:
192,192,84153,1,2,0:0:0:0:
192,192,84269,1,8,0:0:0:0:
64,192,84269,1,8,0:0:0:0:
448,192,84269,1,0,0:0:0:0:
64,192,84384,1,2,0:0:0:0:
448,192,84384,1,2,0:0:0:0:
448,192,84500,1,2,0:0:0:0:
64,192,84500,1,2,0:0:0:0:
192,192,84615,1,8,0:0:0:0:
320,192,84615,1,8,0:0:0:0:
64,192,84615,1,0,0:0:0:0:
192,192,84730,1,2,0:0:0:0:
320,192,84730,1,2,0:0:0:0:
320,192,84846,1,2,0:0:0:0:
192,192,84846,1,2,0:0:0:0:
64,192,84961,1,2,0:0:0:0:
448,192,84961,1,2,0:0:0:0:
320,192,85076,1,2,0:0:0:0:
448,192,85076,1,2,0:0:0:0:
64,192,85192,1,8,0:0:0:0:
320,192,85192,1,4,0:0:0:0:
192,192,85192,128,8,85423:0:0:0:0:
64,192,85423,1,4,0:0:0:0:
320,192,85423,1,2,0:0:0:0:
448,192,85423,1,2,0:0:0:0:
320,192,85538,1,0,0:0:0:0:
448,192,85538,1,0,0:0:0:0:
64,192,85653,1,0,0:0:0:0:
192,192,85769,1,2,0:0:0:0:
448,192,85769,1,2,0:0:0:0:
320,192,85884,1,8,0:0:0:0:
64,192,85884,1,8,0:0:0:0:
448,192,86000,1,0,0:0:0:0:
64,192,86115,1,0,0:0:0:0:
192,192,86115,1,0,0:0:0:0:
448,192,86230,1,0,0:0:0:0:
320,192,86230,128,0,86461:0:0:0:0:
64,192,86346,1,2,0:0:0:0:
192,192,86461,1,8,0:0:0:0:
448,192,86461,1,8,0:0:0:0:
64,192,86576,1,2,0:0:0:0:
448,192,86576,1,2,0:0:0:0:
64,192,86692,1,2,0:0:0:0:
192,192,86692,1,2,0:0:0:0:
320,192,86807,1,8,0:0:0:0:
448,192,86807,1,8,0:0:0:0:
64,192,86923,1,0,0:0:0:0:
192,192,87038,1,0,0:0:0:0:
448,192,87038,1,0,0:0:0:0:
320,192,87153,1,0,0:0:0:0:
192,192,87269,1,2,0:0:0:0:
64,192,87269,128,2,87500:0:0:0:0:
320,192,87500,1,0,0:0:0:0:
448,192,87500,1,0,0:0:0:0:
64,192,87615,1,2,0:0:0:0:
192,192,87615,1,2,0:0:0:0:
448,192,87730,1,8,0:0:0:0:
64,192,87730,1,8,0:0:0:0:
320,192,87846,1,0,0:0:0:0:
192,192,87961,1,0,0:0:0:0:
64,192,87961,1,0,0:0:0:0:
320,192,88076,1,0,0:0:0:0:
448,192,88076,1,0,0:0:0:0:
192,192,88192,1,2,0:0:0:0:
320,192,88307,1,8,0:0:0:0:
448,192,88307,1,8,0:0:0:0:
64,192,88423,1,0,0:0:0:0:
320,192,88538,1,0,0:0:0:0:
448,192,88538,1,0,0:0:0:0:
192,192,88653,1,8,0:0:0:0:
64,192,88653,1,8,0:0:0:0:
320,192,88769,1,2,0:0:0:0:
448,192,88769,1,2,0:0:0:0:
448,192,88884,1,2,0:0:0:0:
64,192,88884,1,2,0:0:0:0:
64,192,89000,1,2,0:0:0:0:
192,192,89000,1,2,0:0:0:0:
192,192,89115,1,2,0:0:0:0:
320,192,89115,1,2,0:0:0:0:
448,192,89115,1,4,0:0:0:0:
64,192,90730,1,8,0:0:0:0:
192,192,90730,1,8,0:0:0:0:
192,192,90846,1,8,0:0:0:0:
64,192,90846,1,8,0:0:0:0:
64,192,90961,1,4,0:0:0:0:
320,192,90961,1,8,0:0:0:0:
448,192,90961,1,8,0:0:0:0:
320,192,91076,1,2,0:0:0:0:
448,192,91076,1,2,0:0:0:0:
192,192,91192,1,0,0:0:0:0:
320,192,91307,1,2,0:0:0:0:
448,192,91307,1,2,0:0:0:0:
64,192,91423,1,8,0:0:0:0:
192,192,91423,1,8,0:0:0:0:
192,192,91538,1,2,0:0:0:0:
64,192,91538,1,2,0:0:0:0:
320,192,91653,1,0,0:0:0:0:
64,192,91769,1,2,0:0:0:0:
192,192,91769,1,2,0:0:0:0:
64,192,91884,1,0,0:0:0:0:
320,192,91884,1,8,0:0:0:0:
448,192,91884,1,8,0:0:0:0:
320,192,92000,1,2,0:0:0:0:
448,192,92000,1,2,0:0:0:0:
192,192,92115,1,0,0:0:0:0:
320,192,92230,1,2,0:0:0:0:
448,192,92230,1,2,0:0:0:0:
448,192,92346,1,0,0:0:0:0:
192,192,92346,1,8,0:0:0:0:
64,192,92346,1,8,0:0:0:0:
64,192,92461,1,8,0:0:0:0:
192,192,92461,1,8,0:0:0:0:
320,192,92576,128,2,92750:0:0:0:0:
448,192,92576,128,2,92750:0:0:0:0:
64,192,92807,1,2,0:0:0:0:
192,192,92807,1,2,0:0:0:0:
320,192,92807,1,4,0:0:0:0:
448,192,92807,1,0,0:0:0:0:
64,192,92923,1,0,0:0:0:0:
192,192,92923,1,0,0:0:0:0:
320,192,93038,1,0,0:0:0:0:
64,192,93153,1,0,0:0:0:0:
448,192,93153,1,0,0:0:0:0:
448,192,93269,1,8,0:0:0:0:
64,192,93269,1,8,0:0:0:0:
320,192,93384,1,0,0:0:0:0:
64,192,93500,1,0,0:0:0:0:
192,192,93500,128,0,93730:0:0:0:0:
448,192,93615,1,0,0:0:0:0:
64,192,93730,1,2,0:0:0:0:
320,192,93730,1,2,0:0:0:0:
448,192,93846,1,8,0:0:0:0:
192,192,93846,1,8,0:0:0:0:
64,192,93961,1,0,0:0:0:0:
320,192,94076,1,0,0:0:0:0:
448,192,94076,1,0,0:0:0:0:
192,192,94192,1,8,0:0:0:0:
64,192,94192,1,8,0:0:0:0:
448,192,94307,1,0,0:0:0:0:
64,192,94423,1,0,0:0:0:0:
192,192,94423,1,0,0:0:0:0:
448,192,94538,1,0,0:0:0:0:
64,192,94653,1,2,0:0:0:0:
192,192,94653,1,2,0:0:0:0:
64,192,94769,1,0,0:0:0:0:
192,192,94769,1,0,0:0:0:0:
448,192,94884,1,0,0:0:0:0:
320,192,95000,1,0,0:0:0:0:
192,192,95000,1,0,0:0:0:0:
320,192,95115,1,8,0:0:0:0:
192,192,95115,1,8,0:0:0:0:
64,192,95230,1,0,0:0:0:0:
448,192,95230,1,0,0:0:0:0:
192,192,95346,1,0,0:0:0:0:
448,192,95461,1,0,0:0:0:0:
320,192,95461,128,0,95692:0:0:0:0:
64,192,95576,1,2,0:0:0:0:
192,192,95576,128,2,95692:0:0:0:0:
448,192,95692,1,8,0:0:0:0:
64,192,95807,1,0,0:0:0:0:
320,192,95807,1,0,0:0:0:0:
192,192,95923,1,0,0:0:0:0:
448,192,95923,1,0,0:0:0:0:
64,192,96038,1,8,0:0:0:0:
320,192,96038,1,8,0:0:0:0:
448,192,96153,1,0,0:0:0:0:
192,192,96269,1,0,0:0:0:0:
64,192,96269,1,0,0:0:0:0:
448,192,96384,1,4,0:0:0:0:
320,192,96500,1,4,0:0:0:0:
192,192,96500,1,2,0:0:0:0:
64,192,96500,1,2,0:0:0:0:
448,192,96615,1,0,0:0:0:0:
64,192,96730,1,0,0:0:0:0:
192,192,96730,1,0,0:0:0:0:
192,192,96846,1,0,0:0:0:0:
320,192,96961,1,8,0:0:0:0:
448,192,96961,1,8,0:0:0:0:
64,192,97076,1,0,0:0:0:0:
192,192,97192,1,0,0:0:0:0:
448,192,97192,1,0,0:0:0:0:
320,192,97307,1,0,0:0:0:0:
192,192,97423,1,2,0:0:0:0:
64,192,97423,1,2,0:0:0:0:
192,192,97538,1,0,0:0:0:0:
320,192,97653,1,0,0:0:0:0:
448,192,97653,1,0,0:0:0:0:
64,192,97769,1,0,0:0:0:0:
192,192,97884,1,8,0:0:0:0:
448,192,97884,1,8,0:0:0:0:
320,192,98000,1,0,0:0:0:0:
64,192,98115,1,0,0:0:0:0:
192,192,98115,1,0,0:0:0:0:
320,192,98230,1,0,0:0:0:0:
64,192,98346,1,2,0:0:0:0:
192,192,98346,1,2,0:0:0:0:
192,192,98461,1,0,0:0:0:0:
64,192,98461,1,0,0:0:0:0:
448,192,98576,1,0,0:0:0:0:
320,192,98692,1,0,0:0:0:0:
64,192,98692,1,0,0:0:0:0:
192,192,98807,1,8,0:0:0:0:
448,192,98807,1,8,0:0:0:0:
320,192,98923,1,0,0:0:0:0:
192,192,99038,1,0,0:0:0:0:
64,192,99038,1,0,0:0:0:0:
320,192,99153,1,0,0:0:0:0:
448,192,99153,1,0,0:0:0:0:
64,192,99269,1,2,0:0:0:0:
192,192,99269,1,2,0:0:0:0:
448,192,99384,1,8,0:0:0:0:
320,192,99500,1,2,0:0:0:0:
64,192,99500,1,2,0:0:0:0:
192,192,99615,1,8,0:0:0:0:
320,192,99730,1,8,0:0:0:0:
448,192,99730,1,8,0:0:0:0:
64,192,99730,1,0,0:0:0:0:
320,192,99846,1,8,0:0:0:0:
448,192,99846,1,8,0:0:0:0:
448,192,99961,1,8,0:0:0:0:
320,192,99961,1,8,0:0:0:0:
320,192,100076,1,8,0:0:0:0:
448,192,100076,1,8,0:0:0:0:
448,192,100192,1,0,0:0:0:0:
320,192,100192,1,4,0:0:0:0:
192,192,100192,128,2,100423:0:0:0:0:
64,192,100192,128,2,100423:0:0:0:0:
320,192,100423,1,8,0:0:0:0:
448,192,100423,1,8,0:0:0:0:
320,192,100538,1,0,0:0:0:0:
64,192,100653,1,2,0:0:0:0:
192,192,100653,1,2,0:0:0:0:
320,192,100769,1,2,0:0:0:0:
448,192,100769,1,2,0:0:0:0:
320,192,100884,1,8,0:0:0:0:
192,192,100884,1,8,0:0:0:0:
64,192,101000,1,0,0:0:0:0:
320,192,101115,1,2,0:0:0:0:
448,192,101115,1,0,0:0:0:0:
64,192,101230,1,0,0:0:0:0:
192,192,101346,1,8,0:0:0:0:
448,192,101346,1,8,0:0:0:0:
320,192,101461,1,0,0:0:0:0:
192,192,101576,1,2,0:0:0:0:
64,192,101576,1,2,0:0:0:0:
192,192,101692,1,2,0:0:0:0:
448,192,101692,1,2,0:0:0:0:
320,192,101807,1,8,0:0:0:0:
64,192,101807,1,8,0:0:0:0:
192,192,101923,1,0,0:0:0:0:
320,192,102038,128,2,102269:0:0:0:0:
448,192,102038,128,2,102269:0:0:0:0:
64,192,102269,1,8,0:0:0:0:
192,192,102269,1,8,0:0:0:0:
320,192,102384,1,0,0:0:0:0:
192,192,102500,1,2,0:0:0:0:
448,192,102500,1,2,0:0:0:0:
320,192,102615,1,2,0:0:0:0:
64,192,102615,1,2,0:0:0:0:
64,192,102730,1,8,0:0:0:0:
448,192,102730,1,8,0:0:0:0:
320,192,102846,1,0,0:0:0:0:
64,192,102961,1,2,0:0:0:0:
192,192,102961,1,2,0:0:0:0:
192,192,103076,1,0,0:0:0:0:
448,192,103192,1,8,0:0:0:0:
64,192,103192,1,8,0:0:0:0:
320,192,103307,1,0,0:0:0:0:
192,192,103423,1,0,0:0:0:0:
64,192,103423,1,0,0:0:0:0:
320,192,103538,1,2,0:0:0:0:
64,192,103538,1,2,0:0:0:0:
320,192,103653,1,8,0:0:0:0:
448,192,103653,1,8,0:0:0:0:
192,192,103769,1,0,0:0:0:0:
64,192,103884,128,2,104115:0:0:0:0:
448,192,103884,128,2,104115:0:0:0:0:
320,192,104115,1,8,0:0:0:0:
192,192,104115,1,8,0:0:0:0:
320,192,104230,1,0,0:0:0:0:
64,192,104346,1,2,0:0:0:0:
192,192,104346,1,2,0:0:0:0:
320,192,104461,1,2,0:0:0:0:
64,192,104461,1,2,0:0:0:0:
192,192,104576,1,8,0:0:0:0:
448,192,104576,1,8,0:0:0:0:
320,192,104692,1,0,0:0:0:0:
64,192,104807,1,2,0:0:0:0:
192,192,104807,1,2,0:0:0:0:
192,192,104923,1,0,0:0:0:0:
64,192,105038,1,8,0:0:0:0:
320,192,105038,1,8,0:0:0:0:
448,192,105153,1,0,0:0:0:0:
64,192,105269,1,2,0:0:0:0:
192,192,105269,1,2,0:0:0:0:
320,192,105384,1,2,0:0:0:0:
448,192,105384,1,2,0:0:0:0:
320,192,105500,1,8,0:0:0:0:
64,192,105500,1,8,0:0:0:0:
192,192,105615,1,0,0:0:0:0:
448,192,105730,128,2,105961:0:0:0:0:
320,192,105730,128,2,105961:0:0:0:0:
64,192,105961,1,8,0:0:0:0:
192,192,105961,1,8,0:0:0:0:
192,192,106076,1,0,0:0:0:0:
320,192,106192,1,2,0:0:0:0:
64,192,106192,1,2,0:0:0:0:
192,192,106307,1,2,0:0:0:0:
448,192,106307,1,2,0:0:0:0:
448,192,106423,1,8,0:0:0:0:
64,192,106423,1,8,0:0:0:0:
320,192,106538,1,0,0:0:0:0:
192,192,106653,1,2,0:0:0:0:
64,192,106653,1,2,0:0:0:0:
320,192,106769,1,0,0:0:0:0:
64,192,106884,1,8,0:0:0:0:
448,192,106884,1,8,0:0:0:0:
64,192,107000,1,0,0:0:0:0:
192,192,107115,1,2,0:0:0:0:
448,192,107115,1,2,0:0:0:0:
320,192,107230,1,2,0:0:0:0:
64,192,107230,1,2,0:0:0:0:
64,192,107346,1,8,0:0:0:0:
448,192,107346,1,8,0:0:0:0:
320,192,107461,1,0,0:0:0:0:
192,192,107576,1,2,0:0:0:0:
64,192,107576,1,2,0:0:0:0:
448,192,107576,1,4,0:0:0:0:
192,192,107692,1,8,0:0:0:0:
64,192,107692,1,8,0:0:0:0:
64,192,107807,1,8,0:0:0:0:
192,192,107807,1,8,0:0:0:0:
192,192,107923,1,8,0:0:0:0:
64,192,107923,1,8,0:0:0:0:
192,192,108153,1,2,0:0:0:0:
448,192,108153,1,2,0:0:0:0:
64,192,108384,1,2,0:0:0:0:
192,192,108384,1,2,0:0:0:0:
448,192,108384,1,0,0:0:0:0:
320,192,108384,128,4,108730:0:0:0:0:
64,192,108730,1,8,0:0:0:0:
192,192,108730,1,8,0:0:0:0:
448,192,108730,1,0,0:0:0:0:
320,192,108846,1,2,0:0:0:0:
64,192,108846,1,2,0:0:0:0:
192,192,108961,1,2,0:0:0:0:
448,192,108961,1,2,0:0:0:0:
448,192,109076,1,2,0:0:0:0:
64,192,109076,1,2,0:0:0:0:
320,192,109192,1,8,0:0:0:0:
64,192,109192,1,8,0:0:0:0:
192,192,109307,1,8,0:0:0:0:
448,192,109307,1,8,0:0:0:0:
64,192,109423,1,4,0:0:0:0:
320,192,109423,1,2,0:0:0:0:
448,192,109423,1,2,0:0:0:0:
448,192,109538,1,8,0:0:0:0:
320,192,109538,1,8,0:0:0:0:
320,192,109653,1,8,0:0:0:0:
448,192,109653,1,8,0:0:0:0:
448,192,109769,1,8,0:0:0:0:
320,192,109769,1,8,0:0:0:0:
192,192,110000,1,2,0:0:0:0:
320,192,110000,1,2,0:0:0:0:
64,192,110230,1,2,0:0:0:0:
320,192,110230,1,4,0:0:0:0:
448,192,110230,1,0,0:0:0:0:
192,192,110230,128,2,110576:0:0:0:0:
320,192,110576,1,8,0:0:0:0:
448,192,110576,1,8,0:0:0:0:
64,192,110576,1,0,0:0:0:0:
64,192,110807,1,8,0:0:0:0:
192,192,110807,1,8,0:0:0:0:
448,192,110807,1,0,0:0:0:0:
192,192,110923,1,2,0:0:0:0:
320,192,110923,1,2,0:0:0:0:
320,192,111038,1,8,0:0:0:0:
448,192,111038,1,8,0:0:0:0:
64,192,111038,1,0,0:0:0:0:
64,192,111269,1,2,0:0:0:0:
320,192,111269,1,4,0:0:0:0:
448,192,111269,1,0,0:0:0:0:
192,192,111269,128,2,111500:0:0:0:0:
320,192,111500,1,0,0:0:0:0:
64,192,111615,1,2,0:0:0:0:
192,192,111615,1,2,0:0:0:0:
448,192,111730,1,8,0:0:0:0:
64,192,111730,1,0,0:0:0:0:
320,192,111730,128,8,111961:0:0:0:0:
64,192,111961,1,0,0:0:0:0:
320,192,112076,1,2,0:0:0:0:
448,192,112076,1,2,0:0:0:0:
192,192,112192,1,0,0:0:0:0:
320,192,112307,1,8,0:0:0:0:
448,192,112307,1,8,0:0:0:0:
64,192,112423,1,0,0:0:0:0:
320,192,112538,1,2,0:0:0:0:
448,192,112538,1,2,0:0:0:0:
448,192,112653,1,0,0:0:0:0:
64,192,112653,1,8,0:0:0:0:
192,192,112653,128,8,112884:0:0:0:0:
320,192,112884,128,2,113115:0:0:0:0:
448,192,112884,1,2,0:0:0:0:
64,192,113115,1,2,0:0:0:0:
192,192,113115,1,2,0:0:0:0:
448,192,113115,1,4,0:0:0:0:
64,192,113346,5,8,0:0:0:0:
192,192,113346,1,8,0:0:0:0:
320,192,113346,1,0,0:0:0:0:
64,192,113461,1,4,0:0:0:0:
320,192,113461,1,2,0:0:0:0:
448,192,113461,1,2,0:0:0:0:
64,192,113692,1,8,0:0:0:0:
192,192,113692,1,8,0:0:0:0:
320,192,113692,1,0,0:0:0:0:
448,192,113807,1,4,0:0:0:0:
64,192,113807,1,2,0:0:0:0:
192,192,113807,1,2,0:0:0:0:
448,192,114500,128,0,114615:0:0:0:40:whistle.wav
320,192,114500,128,0,114615:0:0:0:40:whistle.wav
192,192,114500,128,0,114615:0:0:0:0:
64,192,114500,128,0,114615:0:0:0:0:
448,192,114730,128,0,114846:0:0:0:40:whistle.wav
320,192,114730,128,0,114846:0:0:0:40:whistle.wav
192,192,114730,128,0,114846:0:0:0:0:
64,192,114730,128,0,114846:0:0:0:0:
448,192,114961,1,2,0:0:0:0:
320,192,114961,1,2,0:0:0:0:
192,192,114961,1,4,0:0:0:0:
64,192,114961,1,0,0:0:0:0:
320,192,115076,1,0,0:0:0:0:
192,192,115192,1,8,0:0:0:0:
64,192,115192,1,8,0:0:0:0:
448,192,115192,1,0,0:0:0:0:
192,192,115307,1,0,0:0:0:0:
448,192,115423,1,2,0:0:0:0:
64,192,115423,1,2,0:0:0:0:
192,192,115538,1,2,0:0:0:0:
320,192,115538,1,2,0:0:0:0:
448,192,115653,1,8,0:0:0:0:
320,192,115653,1,8,0:0:0:0:
64,192,115653,1,0,0:0:0:0:
64,192,115769,1,0,0:0:0:0:
192,192,115769,1,0,0:0:0:0:
320,192,115884,1,2,0:0:0:0:
192,192,115884,1,2,0:0:0:0:
448,192,115884,1,0,0:0:0:0:
320,192,116000,1,0,0:0:0:0:
448,192,116115,1,8,0:0:0:0:
64,192,116115,128,0,116173:0:0:0:0:
192,192,116115,128,8,116173:0:0:0:0:
320,192,116230,1,0,0:0:0:0:
64,192,116346,128,2,116403:0:0:0:0:
192,192,116346,128,2,116403:0:0:0:0:
320,192,116461,1,2,0:0:0:0:
448,192,116461,1,2,0:0:0:0:
448,192,116576,1,0,0:0:0:0:
64,192,116576,128,8,116634:0:0:0:0:
192,192,116576,128,8,116634:0:0:0:0:
192,192,116692,1,0,0:0:0:0:
448,192,116807,1,2,0:0:0:0:
320,192,116807,1,2,0:0:0:0:
64,192,116807,1,0,0:0:0:0:
448,192,116923,1,0,0:0:0:0:
320,192,117038,1,8,0:0:0:0:
192,192,117038,1,8,0:0:0:0:
64,192,117038,1,0,0:0:0:0:
64,192,117153,1,0,0:0:0:0:
448,192,117269,1,2,0:0:0:0:
320,192,117269,1,2,0:0:0:0:
192,192,117384,1,2,0:0:0:0:
64,192,117384,1,2,0:0:0:0:
64,192,117500,1,0,0:0:0:0:
320,192,117500,1,8,0:0:0:0:
448,192,117500,1,8,0:0:0:0:
192,192,117615,1,0,0:0:0:0:
448,192,117615,1,0,0:0:0:0:
320,192,117730,1,0,0:0:0:0:
192,192,117730,1,2,0:0:0:0:
64,192,117730,1,2,0:0:0:0:
448,192,117846,1,0,0:0:0:0:
320,192,117961,1,8,0:0:0:0:
64,192,117961,128,0,118019:0:0:0:0:
192,192,117961,128,8,118019:0:0:0:0:
448,192,118076,1,0,0:0:0:0:
64,192,118192,128,2,118250:0:0:0:0:
320,192,118192,128,2,118250:0:0:0:0:
192,192,118307,1,2,0:0:0:0:
448,192,118307,1,2,0:0:0:0:
320,192,118423,1,8,0:0:0:0:
64,192,118423,128,0,118480:0:0:0:0:
448,192,118423,128,8,118480:0:0:0:0:
192,192,118538,1,0,0:0:0:0:
448,192,118653,128,2,118711:0:0:0:0:
320,192,118653,128,2,118711:0:0:0:0:
64,192,118653,1,0,0:0:0:0:
192,192,118769,1,0,0:0:0:0:
448,192,118884,1,8,0:0:0:0:
320,192,118884,1,8,0:0:0:0:
64,192,118884,1,0,0:0:0:0:
448,192,119000,128,0,119057:0:0:0:0:
320,192,119000,128,0,119057:0:0:0:0:
192,192,119115,1,2,0:0:0:0:
64,192,119115,1,2,0:0:0:0:
448,192,119230,1,2,0:0:0:0:
320,192,119230,1,2,0:0:0:0:
192,192,119346,128,8,119403:0:0:0:0:
64,192,119346,128,8,119403:0:0:0:0:
448,192,119346,1,0,0:0:0:0:
320,192,119461,1,0,0:0:0:0:
448,192,119576,1,0,0:0:0:0:
64,192,119576,1,2,0:0:0:0:
192,192,119576,1,2,0:0:0:0:
192,192,119692,128,0,119750:0:0:0:0:
64,192,119692,128,0,119750:0:0:0:0:
448,192,119807,1,8,0:0:0:0:
320,192,119807,1,8,0:0:0:0:
192,192,119807,1,0,0:0:0:0:
64,192,119923,1,0,0:0:0:0:
448,192,120038,128,2,120096:0:0:0:0:
320,192,120038,128,2,120096:0:0:0:0:
192,192,120038,1,0,0:0:0:0:
448,192,120153,1,2,0:0:0:0:
320,192,120153,1,2,0:0:0:0:
192,192,120269,128,8,120326:0:0:0:0:
64,192,120269,128,0,120326:0:0:0:0:
320,192,120269,1,8,0:0:0:0:
448,192,120384,1,0,0:0:0:0:
448,192,120500,128,2,120557:0:0:0:0:
320,192,120500,128,2,120557:0:0:0:0:
64,192,120500,1,0,0:0:0:0:
192,192,120615,1,0,0:0:0:0:
448,192,120730,1,8,0:0:0:0:
320,192,120730,1,8,0:0:0:0:
64,192,120730,1,0,0:0:0:0:
448,192,120846,128,0,120903:0:0:0:0:
320,192,120846,128,0,120903:0:0:0:0:
192,192,120961,1,2,0:0:0:0:
64,192,120961,1,2,0:0:0:0:
448,192,121076,1,2,0:0:0:0:
320,192,121076,1,2,0:0:0:0:
192,192,121192,128,8,121250:0:0:0:0:
64,192,121192,128,8,121250:0:0:0:0:
448,192,121192,1,0,0:0:0:0:
320,192,121307,1,0,0:0:0:0:
448,192,121423,1,0,0:0:0:0:
192,192,121423,1,2,0:0:0:0:
64,192,121423,1,2,0:0:0:0:
192,192,121538,128,0,121596:0:0:0:0:
64,192,121538,128,0,121596:0:0:0:0:
448,192,121653,1,8,0:0:0:0:
320,192,121653,1,8,0:0:0:0:
192,192,121653,1,0,0:0:0:0:
320,192,121769,1,0,0:0:0:0:
192,192,121884,1,2,0:0:0:0:
64,192,121884,1,2,0:0:0:0:
448,192,121884,1,0,0:0:0:0:
192,192,122000,1,2,0:0:0:0:
64,192,122000,1,2,0:0:0:0:
64,192,122115,1,0,0:0:0:0:
320,192,122115,1,8,0:0:0:0:
448,192,122115,1,8,0:0:0:0:
320,192,122230,1,2,0:0:0:0:
448,192,122230,1,2,0:0:0:0:
448,192,122346,1,2,0:0:0:0:
192,192,122346,1,4,0:0:0:0:
64,192,122346,1,0,0:0:0:0:
320,192,122346,1,2,0:0:0:0:
192,192,122461,1,0,0:0:0:0:
448,192,122576,1,0,0:0:0:0:
320,192,122576,1,8,0:0:0:0:
64,192,122576,1,8,0:0:0:0:
320,192,122692,1,0,0:0:0:0:
448,192,122807,1,2,0:0:0:0:
192,192,122807,1,2,0:0:0:0:
192,192,122923,1,2,0:0:0:0:
64,192,122923,1,2,0:0:0:0:
64,192,123038,1,0,0:0:0:0:
320,192,123038,1,8,0:0:0:0:
448,192,123038,1,8,0:0:0:0:
192,192,123153,1,0,0:0:0:0:
448,192,123153,1,0,0:0:0:0:
448,192,123269,1,2,0:0:0:0:
64,192,123269,1,0,0:0:0:0:
320,192,123269,1,2,0:0:0:0:
320,192,123384,1,0,0:0:0:0:
448,192,123500,1,0,0:0:0:0:
64,192,123500,128,8,123557:0:0:0:0:
192,192,123500,128,8,123557:0:0:0:0:
448,192,123615,1,0,0:0:0:0:
192,192,123730,128,2,123788:0:0:0:0:
320,192,123730,128,2,123788:0:0:0:0:
192,192,123846,1,2,0:0:0:0:
64,192,123846,1,2,0:0:0:0:
64,192,123961,1,0,0:0:0:0:
320,192,123961,128,8,124019:0:0:0:0:
448,192,123961,128,8,124019:0:0:0:0:
320,192,124076,1,0,0:0:0:0:
192,192,124192,1,2,0:0:0:0:
64,192,124192,1,2,0:0:0:0:
448,192,124192,1,0,0:0:0:0:
192,192,124307,1,0,0:0:0:0:
448,192,124423,1,8,0:0:0:0:
320,192,124423,1,8,0:0:0:0:
64,192,124423,1,0,0:0:0:0:
64,192,124538,1,0,0:0:0:0:
448,192,124653,1,2,0:0:0:0:
192,192,124653,1,2,0:0:0:0:
320,192,124769,1,2,0:0:0:0:
64,192,124769,1,2,0:0:0:0:
192,192,124884,1,8,0:0:0:0:
64,192,124884,1,8,0:0:0:0:
448,192,124884,1,0,0:0:0:0:
192,192,125000,1,0,0:0:0:0:
320,192,125000,1,0,0:0:0:0:
448,192,125115,1,2,0:0:0:0:
320,192,125115,1,2,0:0:0:0:
64,192,125115,1,0,0:0:0:0:
192,192,125230,1,0,0:0:0:0:
64,192,125346,1,8,0:0:0:0:
320,192,125346,128,8,125403:0:0:0:0:
448,192,125346,128,0,125403:0:0:0:0:
448,192,125461,1,0,0:0:0:0:
192,192,125576,128,2,125634:0:0:0:0:
320,192,125576,128,2,125634:0:0:0:0:
64,192,125692,1,2,0:0:0:0:
448,192,125692,1,2,0:0:0:0:
320,192,125807,1,0,0:0:0:0:
192,192,125807,128,8,125865:0:0:0:0:
64,192,125807,128,8,125865:0:0:0:0:
192,192,125923,1,0,0:0:0:0:
448,192,126038,128,2,126096:0:0:0:0:
320,192,126038,128,2,126096:0:0:0:0:
64,192,126038,1,0,0:0:0:0:
192,192,126153,1,0,0:0:0:0:
320,192,126269,1,8,0:0:0:0:
448,192,126269,1,8,0:0:0:0:
64,192,126269,1,0,0:0:0:0:
448,192,126384,128,0,126442:0:0:0:0:
320,192,126384,128,0,126442:0:0:0:0:
192,192,126500,1,2,0:0:0:0:
64,192,126500,1,2,0:0:0:0:
448,192,126615,1,2,0:0:0:0:
320,192,126615,1,2,0:0:0:0:
64,192,126730,128,0,126788:0:0:0:0:
192,192,126730,128,8,126788:0:0:0:0:
320,192,126730,1,8,0:0:0:0:
448,192,126846,1,0,0:0:0:0:
448,192,126961,1,0,0:0:0:0:
64,192,126961,1,2,0:0:0:0:
192,192,126961,1,2,0:0:0:0:
192,192,127076,128,0,127134:0:0:0:0:
64,192,127076,128,0,127134:0:0:0:0:
320,192,127192,1,8,0:0:0:0:
448,192,127192,1,8,0:0:0:0:
64,192,127192,1,0,0:0:0:0:
192,192,127307,1,0,0:0:0:0:
448,192,127423,128,2,127480:0:0:0:0:
320,192,127423,128,2,127480:0:0:0:0:
64,192,127423,1,0,0:0:0:0:
320,192,127538,1,2,0:0:0:0:
448,192,127538,1,2,0:0:0:0:
192,192,127653,128,8,127711:0:0:0:0:
64,192,127653,128,8,127711:0:0:0:0:
448,192,127653,1,0,0:0:0:0:
320,192,127769,1,0,0:0:0:0:
192,192,127884,128,2,127942:0:0:0:0:
64,192,127884,128,2,127942:0:0:0:0:
448,192,127884,1,0,0:0:0:0:
192,192,128000,1,0,0:0:0:0:
320,192,128115,1,8,0:0:0:0:
448,192,128115,1,8,0:0:0:0:
64,192,128115,1,0,0:0:0:0:
192,192,128230,128,0,128288:0:0:0:0:
64,192,128230,128,0,128288:0:0:0:0:
448,192,128346,1,2,0:0:0:0:
320,192,128346,1,2,0:0:0:0:
192,192,128461,1,2,0:0:0:0:
64,192,128461,1,2,0:0:0:0:
448,192,128576,128,8,128634:0:0:0:0:
320,192,128576,128,8,128634:0:0:0:0:
64,192,128576,1,0,0:0:0:0:
192,192,128692,1,0,0:0:0:0:
448,192,128807,1,2,0:0:0:0:
320,192,128807,1,2,0:0:0:0:
64,192,128807,1,0,0:0:0:0:
448,192,128923,128,0,128980:0:0:0:0:
320,192,128923,128,0,128980:0:0:0:0:
192,192,129038,1,8,0:0:0:0:
64,192,129038,1,0,0:0:0:0:
320,192,129038,1,8,0:0:0:0:
192,192,129153,1,0,0:0:0:0:
448,192,129269,1,2,0:0:0:0:
320,192,129269,1,2,0:0:0:0:
320,192,129384,1,0,0:0:0:0:
192,192,129384,1,8,0:0:0:0:
64,192,129384,1,8,0:0:0:0:
64,192,129500,1,8,0:0:0:0:
192,192,129500,1,8,0:0:0:0:
320,192,129500,1,0,0:0:0:0:
448,192,129615,1,2,0:0:0:0:
320,192,129615,1,2,0:0:0:0:
192,192,129673,1,8,0:0:0:0:
64,192,129730,1,4,0:0:0:0:
320,192,129730,1,2,0:0:0:0:
448,192,129730,1,2,0:0:0:0:
192,192,129846,1,0,0:0:0:0:
448,192,129961,1,8,0:0:0:0:
320,192,129961,1,8,0:0:0:0:
64,192,129961,1,0,0:0:0:0:
320,192,130076,1,0,0:0:0:0:
448,192,130192,1,0,0:0:0:0:
192,192,130192,1,2,0:0:0:0:
64,192,130192,1,2,0:0:0:0:
192,192,130307,1,2,0:0:0:0:
64,192,130307,1,2,0:0:0:0:
448,192,130423,1,8,0:0:0:0:
320,192,130423,1,8,0:0:0:0:
64,192,130423,1,0,0:0:0:0:
320,192,130538,1,0,0:0:0:0:
448,192,130653,1,0,0:0:0:0:
192,192,130653,1,2,0:0:0:0:
64,192,130653,1,2,0:0:0:0:
192,192,130769,1,0,0:0:0:0:
448,192,130884,1,8,0:0:0:0:
320,192,130884,1,8,0:0:0:0:
64,192,130884,1,0,0:0:0:0:
320,192,131000,1,0,0:0:0:0:
448,192,131115,1,2,0:0:0:0:
192,192,131115,1,2,0:0:0:0:
64,192,131115,1,0,0:0:0:0:
192,192,131230,1,2,0:0:0:0:
448,192,131230,1,2,0:0:0:0:
448,192,131346,1,8,0:0:0:0:
320,192,131346,1,8,0:0:0:0:
64,192,131346,1,0,0:0:0:0:
192,192,131461,1,0,0:0:0:0:
320,192,131576,1,2,0:0:0:0:
64,192,131576,1,0,0:0:0:0:
448,192,131576,1,2,0:0:0:0:
320,192,131692,1,0,0:0:0:0:
448,192,131807,1,0,0:0:0:0:
192,192,131807,1,8,0:0:0:0:
64,192,131807,1,8,0:0:0:0:
192,192,131923,1,0,0:0:0:0:
448,192,132038,1,2,0:0:0:0:
320,192,132038,1,2,0:0:0:0:
64,192,132038,1,0,0:0:0:0:
320,192,132153,1,2,0:0:0:0:
448,192,132153,1,2,0:0:0:0:
64,192,132269,1,8,0:0:0:0:
448,192,132269,1,0,0:0:0:0:
192,192,132269,1,8,0:0:0:0:
192,192,132384,1,0,0:0:0:0:
448,192,132500,1,2,0:0:0:0:
320,192,132500,1,2,0:0:0:0:
64,192,132500,1,0,0:0:0:0:
448,192,132615,1,0,0:0:0:0:
320,192,132730,1,8,0:0:0:0:
192,192,132730,1,8,0:0:0:0:
64,192,132730,1,0,0:0:0:0:
192,192,132846,1,0,0:0:0:0:
448,192,132961,1,2,0:0:0:0:
320,192,132961,1,2,0:0:0:0:
64,192,132961,1,0,0:0:0:0:
448,192,133076,1,2,0:0:0:0:
320,192,133076,1,2,0:0:0:0:
448,192,133192,1,0,0:0:0:0:
192,192,133192,1,8,0:0:0:0:
64,192,133192,1,8,0:0:0:0:
192,192,133307,1,0,0:0:0:0:
448,192,133423,1,2,0:0:0:0:
320,192,133423,1,2,0:0:0:0:
192,192,133423,1,4,0:0:0:0:
64,192,133423,1,0,0:0:0:0:
448,192,133538,1,0,0:0:0:0:
320,192,133653,1,8,0:0:0:0:
192,192,133653,1,8,0:0:0:0:
64,192,133653,1,0,0:0:0:0:
192,192,133769,1,0,0:0:0:0:
448,192,133884,1,2,0:0:0:0:
64,192,133884,1,0,0:0:0:0:
320,192,133884,1,2,0:0:0:0:
192,192,134000,1,2,0:0:0:0:
64,192,134000,1,2,0:0:0:0:
448,192,134115,1,8,0:0:0:0:
320,192,134115,1,8,0:0:0:0:
192,192,134115,1,0,0:0:0:0:
320,192,134230,1,0,0:0:0:0:
448,192,134346,1,0,0:0:0:0:
192,192,134346,1,2,0:0:0:0:
64,192,134346,1,2,0:0:0:0:
192,192,134461,1,0,0:0:0:0:
320,192,134576,1,8,0:0:0:0:
448,192,134576,1,8,0:0:0:0:
64,192,134576,1,0,0:0:0:0:
448,192,134692,1,0,0:0:0:0:
320,192,134807,1,2,0:0:0:0:
192,192,134807,1,2,0:0:0:0:
64,192,134807,1,0,0:0:0:0:
192,192,134923,1,2,0:0:0:0:
448,192,134923,1,2,0:0:0:0:
448,192,135038,1,8,0:0:0:0:
320,192,135038,1,8,0:0:0:0:
64,192,135038,1,0,0:0:0:0:
192,192,135153,1,0,0:0:0:0:
448,192,135269,1,2,0:0:0:0:
320,192,135269,1,2,0:0:0:0:
64,192,135269,1,0,0:0:0:0:
192,192,135384,1,0,0:0:0:0:
320,192,135500,1,8,0:0:0:0:
448,192,135500,1,8,0:0:0:0:
64,192,135500,1,0,0:0:0:0:
320,192,135615,1,0,0:0:0:0:
192,192,135730,1,2,0:0:0:0:
64,192,135730,1,2,0:0:0:0:
448,192,135730,1,0,0:0:0:0:
192,192,135846,1,2,0:0:0:0:
64,192,135846,1,2,0:0:0:0:
320,192,135961,1,8,0:0:0:0:
192,192,135961,1,0,0:0:0:0:
448,192,135961,1,8,0:0:0:0:
320,192,136076,1,0,0:0:0:0:
448,192,136192,1,4,0:0:0:0:
192,192,136192,1,2,0:0:0:0:
64,192,136192,1,2,0:0:0:0:
448,192,136307,1,8,0:0:0:0:
320,192,136307,1,8,0:0:0:0:
192,192,136307,1,0,0:0:0:0:
192,192,136423,1,0,0:0:0:0:
320,192,136423,1,8,0:0:0:0:
448,192,136423,1,8,0:0:0:0:
448,192,136538,1,8,0:0:0:0:
320,192,136538,1,8,0:0:0:0:
192,192,136538,1,0,0:0:0:0:
192,192,136653,1,2,0:0:0:0:
64,192,136653,1,2,0:0:0:0:
320,192,136769,1,2,0:0:0:0:
448,192,136769,1,2,0:0:0:0:
448,192,136884,1,2,0:0:0:0:
192,192,136884,1,2,0:0:0:0:
320,192,137000,1,2,0:0:0:0:
64,192,137000,1,2,0:0:0:0:
448,192,137115,1,2,0:0:0:0:
320,192,137115,1,2,0:0:0:0:
192,192,137115,1,4,0:0:0:0:
64,192,137115,1,0,0:0:0:0:
192,192,137576,1,2,0:0:0:0:
320,192,137576,1,2,0:0:0:0:
320,192,138500,1,2,0:0:0:0:
192,192,138500,1,2,0:0:0:0:
192,192,139423,1,2,0:0:0:0:
320,192,139423,1,2,0:0:0:0:
192,192,140346,1,2,0:0:0:0:
320,192,140346,1,2,0:0:0:0:
320,192,140576,128,0,141269:0:0:0:0:
64,192,140576,128,0,140692:0:0:0:50:whistle.wav
192,192,140576,128,0,140692:0:0:0:50:whistle.wav
448,192,140576,128,0,140692:0:0:0:0:
192,192,140807,128,2,141269:0:0:0:0:
64,192,140807,128,2,141153:0:0:0:0:
448,192,140807,128,0,141153:0:0:0:50:whistle.wav
64,192,141269,1,2,0:0:0:0:
448,192,141269,1,2,0:0:0:0:
64,192,142192,1,2,0:0:0:0:
448,192,142192,1,2,0:0:0:0:
64,192,143115,1,2,0:0:0:0:
448,192,143115,1,2,0:0:0:0:
64,192,143576,5,8,0:0:0:0:
192,192,143576,1,8,0:0:0:0:
448,192,143576,1,0,0:0:0:0:
320,192,143692,1,2,0:0:0:0:
448,192,143692,1,2,0:0:0:0:
320,192,143923,1,2,0:0:0:0:
448,192,143923,1,2,0:0:0:0:
64,192,144153,128,2,144442:0:0:0:0:
192,192,144153,128,2,144442:0:0:0:0:
320,192,144269,128,8,144442:0:0:0:0:
448,192,144269,128,8,144442:0:0:0:0:
448,192,144500,5,0,0:0:0:0:
192,192,144500,1,2,0:0:0:0:
64,192,144500,1,2,0:0:0:0:
320,192,144500,1,4,0:0:0:0:
448,192,144615,1,2,0:0:0:0:
192,192,144615,1,2,0:0:0:0:
64,192,144730,1,2,0:0:0:0:
192,192,144730,1,2,0:0:0:0:
448,192,144846,1,2,0:0:0:0:
320,192,144846,1,2,0:0:0:0:
192,192,144961,1,8,0:0:0:0:
64,192,144961,1,8,0:0:0:0:
64,192,145076,1,8,0:0:0:0:
192,192,145076,1,8,0:0:0:0:
320,192,145192,1,2,0:0:0:0:
448,192,145192,1,2,0:0:0:0:
192,192,145307,1,2,0:0:0:0:
64,192,145307,1,2,0:0:0:0:
448,192,145423,1,2,0:0:0:0:
64,192,145423,1,2,0:0:0:0:
320,192,145538,1,2,0:0:0:0:
448,192,145538,1,2,0:0:0:0:
192,192,145653,1,2,0:0:0:0:
64,192,145653,1,2,0:0:0:0:
320,192,145769,1,2,0:0:0:0:
448,192,145769,1,2,0:0:0:0:
64,192,145884,1,8,0:0:0:0:
192,192,145884,1,8,0:0:0:0:
192,192,146000,1,8,0:0:0:0:
64,192,146000,1,8,0:0:0:0:
320,192,146115,1,2,0:0:0:0:
448,192,146115,1,2,0:0:0:0:
448,192,146230,1,2,0:0:0:0:
64,192,146230,1,2,0:0:0:0:
64,192,146346,1,2,0:0:0:0:
192,192,146346,1,2,0:0:0:0:
192,192,146461,1,2,0:0:0:0:
448,192,146461,1,2,0:0:0:0:
320,192,146576,1,2,0:0:0:0:
448,192,146576,1,2,0:0:0:0:
192,192,146692,1,2,0:0:0:0:
64,192,146692,1,2,0:0:0:0:
320,192,146807,1,8,0:0:0:0:
448,192,146807,1,8,0:0:0:0:
448,192,146923,1,8,0:0:0:0:
320,192,146923,1,8,0:0:0:0:
64,192,147038,1,2,0:0:0:0:
192,192,147038,1,2,0:0:0:0:
320,192,147153,1,8,0:0:0:0:
448,192,147153,1,8,0:0:0:0:
192,192,147500,128,0,147730:0:0:0:50:whistle.wav
320,192,147730,128,0,148192:0:0:0:50:whistle.wav
64,192,148192,1,2,0:0:0:0:
192,192,148192,1,2,0:0:0:0:
448,192,148192,1,4,0:0:0:0:
320,192,148307,1,2,0:0:0:0:
64,192,148307,1,2,0:0:0:0:
192,192,148423,1,2,0:0:0:0:
448,192,148423,1,2,0:0:0:0:
448,192,148538,1,2,0:0:0:0:
64,192,148538,1,2,0:0:0:0:
192,192,148653,1,8,0:0:0:0:
320,192,148653,1,8,0:0:0:0:
192,192,148769,1,8,0:0:0:0:
320,192,148769,1,8,0:0:0:0:
448,192,148884,1,2,0:0:0:0:
64,192,148884,1,2,0:0:0:0:
320,192,149000,1,2,0:0:0:0:
64,192,149000,1,2,0:0:0:0:
192,192,149115,1,2,0:0:0:0:
448,192,149115,1,2,0:0:0:0:
320,192,149230,1,2,0:0:0:0:
448,192,149230,1,2,0:0:0:0:
192,192,149346,1,2,0:0:0:0:
64,192,149346,1,2,0:0:0:0:
320,192,149461,1,2,0:0:0:0:
448,192,149461,1,2,0:0:0:0:
192,192,149576,1,8,0:0:0:0:
64,192,149576,1,8,0:0:0:0:
64,192,149692,1,8,0:0:0:0:
192,192,149692,1,8,0:0:0:0:
320,192,149807,1,2,0:0:0:0:
448,192,149807,1,2,0:0:0:0:
64,192,149923,1,2,0:0:0:0:
320,192,149923,1,2,0:0:0:0:
192,192,150038,1,2,0:0:0:0:
64,192,150038,1,2,0:0:0:0:
320,192,150153,1,2,0:0:0:0:
448,192,150153,1,2,0:0:0:0:
320,192,150269,1,2,0:0:0:0:
64,192,150269,1,2,0:0:0:0:
192,192,150384,1,2,0:0:0:0:
64,192,150384,1,2,0:0:0:0:
320,192,150500,1,8,0:0:0:0:
448,192,150500,1,8,0:0:0:0:
320,192,150615,1,8,0:0:0:0:
448,192,150615,1,8,0:0:0:0:
64,192,150730,1,2,0:0:0:0:
192,192,150730,1,2,0:0:0:0:
320,192,150846,1,8,0:0:0:0:
448,192,150846,1,8,0:0:0:0:
64,192,151192,1,0,0:0:0:50:whistle.wav
192,192,151192,1,0,0:0:0:50:whistle.wav
64,192,151423,128,0,151826:0:0:0:50:whistle.wav
192,192,151423,128,0,151826:0:0:0:50:whistle.wav
320,192,151423,128,0,151826:0:0:0:0:
448,192,151423,128,0,151826:0:0:0:0:
448,192,151884,1,0,0:0:0:0:
320,192,151884,1,4,0:0:0:0:
192,192,151884,1,2,0:0:0:0:
64,192,151884,128,2,152115:0:0:0:0:
192,192,152115,128,8,152346:0:0:0:0:
320,192,152115,1,8,0:0:0:0:
448,192,152115,1,0,0:0:0:0:
448,192,152346,128,2,152692:0:0:0:0:
320,192,152346,1,2,0:0:0:0:
64,192,152346,1,0,0:0:0:0:
64,192,152461,1,2,0:0:0:0:
192,192,152461,1,2,0:0:0:0:
192,192,152576,1,8,0:0:0:0:
320,192,152576,1,8,0:0:0:0:
64,192,152692,128,2,153038:0:0:0:0:
320,192,152692,1,2,0:0:0:0:
192,192,152807,1,0,0:0:0:0:
448,192,152923,128,2,153038:0:0:0:0:
320,192,152923,1,2,0:0:0:0:
192,192,153038,128,8,153269:0:0:0:0:
320,192,153038,1,8,0:0:0:0:
320,192,153269,128,2,153615:0:0:0:0:
448,192,153269,1,2,0:0:0:0:
192,192,153384,1,2,0:0:0:0:
64,192,153384,1,2,0:0:0:0:
64,192,153500,1,8,0:0:0:0:
192,192,153500,1,8,0:0:0:0:
64,192,153615,128,2,153961:0:0:0:0:
448,192,153615,1,2,0:0:0:0:
192,192,153730,1,0,0:0:0:0:
320,192,153846,1,2,0:0:0:0:
448,192,153846,1,2,0:0:0:0:
192,192,153961,128,0,154192:0:0:0:0:
320,192,153961,1,8,0:0:0:0:
448,192,153961,1,8,0:0:0:0:
320,192,154192,128,2,154538:0:0:0:0:
448,192,154192,1,2,0:0:0:0:
192,192,154307,1,2,0:0:0:0:
64,192,154307,1,2,0:0:0:0:
64,192,154423,1,8,0:0:0:0:
192,192,154423,1,8,0:0:0:0:
192,192,154538,128,2,155115:0:0:0:0:
448,192,154538,1,0,0:0:0:0:
64,192,154538,1,2,0:0:0:0:
320,192,154769,1,2,0:0:0:0:
448,192,154769,1,2,0:0:0:0:
320,192,154884,1,8,0:0:0:0:
448,192,154884,1,8,0:0:0:0:
64,192,154884,1,0,0:0:0:0:
64,192,155115,1,0,0:0:0:0:
320,192,155115,1,2,0:0:0:0:
448,192,155115,1,2,0:0:0:0:
320,192,155230,1,2,0:0:0:0:
448,192,155230,1,2,0:0:0:0:
64,192,155346,1,8,0:0:0:0:
192,192,155346,1,8,0:0:0:0:
448,192,155346,1,0,0:0:0:0:
320,192,155576,128,4,155807:0:0:0:0:
64,192,155576,1,2,0:0:0:0:
192,192,155576,1,2,0:0:0:0:
448,192,155576,1,0,0:0:0:0:
192,192,155807,128,8,156038:0:0:0:0:
64,192,155807,1,8,0:0:0:0:
448,192,155807,1,0,0:0:0:0:
448,192,156038,128,2,156269:0:0:0:0:
64,192,156038,1,2,0:0:0:0:
320,192,156153,128,2,156269:0:0:0:0:
192,192,156153,1,2,0:0:0:0:
192,192,156269,128,8,156384:0:0:0:0:
64,192,156269,1,8,0:0:0:0:
64,192,156384,128,2,156615:0:0:0:0:
448,192,156384,1,2,0:0:0:0:
320,192,156500,1,0,0:0:0:0:
192,192,156615,128,2,156730:0:0:0:0:
448,192,156615,1,2,0:0:0:0:
448,192,156730,128,8,156961:0:0:0:0:
64,192,156730,1,0,0:0:0:0:
320,192,156730,1,8,0:0:0:0:
192,192,156961,128,2,157192:0:0:0:0:
64,192,156961,1,2,0:0:0:0:
320,192,157076,1,2,0:0:0:0:
448,192,157076,1,2,0:0:0:0:
64,192,157192,128,0,157538:0:0:0:0:
320,192,157192,1,8,0:0:0:0:
448,192,157192,1,8,0:0:0:0:
192,192,157307,128,2,157538:0:0:0:0:
320,192,157307,1,2,0:0:0:0:
448,192,157423,1,0,0:0:0:0:
448,192,157538,128,2,157769:0:0:0:0:
320,192,157538,1,2,0:0:0:0:
320,192,157653,128,0,157769:0:0:0:0:
64,192,157653,1,8,0:0:0:0:
192,192,157653,1,8,0:0:0:0:
64,192,157769,128,0,158000:0:0:0:0:
192,192,157884,128,2,158000:0:0:0:0:
448,192,157884,1,2,0:0:0:0:
448,192,158000,128,2,158230:0:0:0:0:
320,192,158000,1,2,0:0:0:0:
320,192,158115,128,0,158230:0:0:0:0:
64,192,158115,1,8,0:0:0:0:
192,192,158115,1,8,0:0:0:0:
64,192,158230,128,2,158576:0:0:0:0:
320,192,158346,1,0,0:0:0:0:
192,192,158461,128,2,158576:0:0:0:0:
448,192,158461,1,2,0:0:0:0:
320,192,158576,1,8,0:0:0:0:
448,192,158576,1,8,0:0:0:0:
64,192,158807,1,8,0:0:0:0:
192,192,158807,1,8,0:0:0:0:
448,192,158807,1,4,0:0:0:0:
64,192,158923,1,2,0:0:0:0:
192,192,158923,1,2,0:0:0:0:
448,192,159038,1,4,0:0:0:0:
192,192,159038,1,8,0:0:0:0:
320,192,159038,1,8,0:0:0:0:
64,192,159269,1,2,0:0:0:0:
192,192,159269,1,2,0:0:0:0:
320,192,159269,1,4,0:0:0:0:
448,192,159269,1,0,0:0:0:0:
192,192,159384,1,0,0:0:0:0:
448,192,159500,1,8,0:0:0:0:
320,192,159500,1,8,0:0:0:0:
64,192,159500,1,0,0:0:0:0:
320,192,159615,1,0,0:0:0:0:
192,192,159730,1,2,0:0:0:0:
64,192,159730,1,2,0:0:0:0:
320,192,159846,1,2,0:0:0:0:
448,192,159846,1,2,0:0:0:0:
192,192,159961,1,8,0:0:0:0:
64,192,159961,1,8,0:0:0:0:
320,192,159961,1,0,0:0:0:0:
192,192,160076,1,2,0:0:0:0:
448,192,160076,1,2,0:0:0:0:
320,192,160192,1,0,0:0:0:0:
192,192,160307,1,2,0:0:0:0:
64,192,160307,1,2,0:0:0:0:
64,192,160423,1,0,0:0:0:0:
320,192,160423,1,8,0:0:0:0:
448,192,160423,1,8,0:0:0:0:
192,192,160538,1,0,0:0:0:0:
320,192,160653,1,2,0:0:0:0:
448,192,160653,1,2,0:0:0:0:
64,192,160769,1,2,0:0:0:0:
192,192,160769,1,2,0:0:0:0:
64,192,160884,1,0,0:0:0:0:
320,192,160884,1,8,0:0:0:0:
448,192,160884,1,8,0:0:0:0:
320,192,161000,1,2,0:0:0:0:
448,192,161000,1,2,0:0:0:0:
192,192,161115,1,0,0:0:0:0:
64,192,161230,1,2,0:0:0:0:
320,192,161230,1,2,0:0:0:0:
192,192,161346,1,8,0:0:0:0:
64,192,161346,1,8,0:0:0:0:
448,192,161346,1,0,0:0:0:0:
320,192,161461,1,0,0:0:0:0:
64,192,161576,1,2,0:0:0:0:
192,192,161576,1,2,0:0:0:0:
320,192,161692,1,2,0:0:0:0:
448,192,161692,1,2,0:0:0:0:
448,192,161807,1,0,0:0:0:0:
192,192,161807,1,8,0:0:0:0:
64,192,161807,1,8,0:0:0:0:
192,192,161923,1,2,0:0:0:0:
64,192,161923,1,2,0:0:0:0:
320,192,162038,1,0,0:0:0:0:
192,192,162153,1,2,0:0:0:0:
64,192,162153,1,2,0:0:0:0:
320,192,162269,1,8,0:0:0:0:
448,192,162269,1,0,0:0:0:0:
192,192,162269,1,8,0:0:0:0:
320,192,162384,1,0,0:0:0:0:
64,192,162500,1,2,0:0:0:0:
192,192,162500,1,2,0:0:0:0:
320,192,162615,1,2,0:0:0:0:
448,192,162615,1,2,0:0:0:0:
64,192,162730,1,8,0:0:0:0:
192,192,162730,1,8,0:0:0:0:
448,192,162730,1,0,0:0:0:0:
320,192,162846,1,0,0:0:0:0:
64,192,162961,5,2,0:0:0:0:
192,192,162961,1,4,0:0:0:0:
448,192,163019,1,0,0:0:0:0:
320,192,163076,1,0,0:0:0:0:
64,192,163134,1,0,0:0:0:0:
448,192,163192,1,8,0:0:0:0:
192,192,163192,1,8,0:0:0:0:
320,192,163250,1,0,0:0:0:0:
64,192,163307,1,0,0:0:0:0:
320,192,163365,1,0,0:0:0:0:
64,192,163423,1,2,0:0:0:0:
192,192,163423,1,2,0:0:0:0:
448,192,163480,1,0,0:0:0:0:
320,192,163538,1,2,0:0:0:0:
64,192,163538,1,2,0:0:0:0:
192,192,163596,1,0,0:0:0:0:
320,192,163653,1,8,0:0:0:0:
448,192,163653,1,8,0:0:0:0:
64,192,163711,1,0,0:0:0:0:
192,192,163769,1,2,0:0:0:0:
448,192,163769,1,2,0:0:0:0:
320,192,163826,1,0,0:0:0:0:
192,192,163884,1,0,0:0:0:0:
64,192,163884,1,0,0:0:0:0:
448,192,163942,1,0,0:0:0:0:
320,192,164000,1,2,0:0:0:0:
64,192,164000,1,2,0:0:0:0:
192,192,164057,1,0,0:0:0:0:
320,192,164115,1,8,0:0:0:0:
448,192,164115,1,8,0:0:0:0:
64,192,164173,1,0,0:0:0:0:
448,192,164230,1,0,0:0:0:0:
320,192,164288,1,0,0:0:0:0:
64,192,164346,1,2,0:0:0:0:
192,192,164346,1,2,0:0:0:0:
448,192,164403,1,0,0:0:0:0:
320,192,164461,1,2,0:0:0:0:
64,192,164461,1,2,0:0:0:0:
192,192,164519,1,0,0:0:0:0:
320,192,164576,1,8,0:0:0:0:
448,192,164576,1,8,0:0:0:0:
64,192,164634,1,0,0:0:0:0:
192,192,164692,1,0,0:0:0:0:
320,192,164750,1,0,0:0:0:0:
64,192,164807,1,2,0:0:0:0:
448,192,164807,1,4,0:0:0:0:
192,192,164865,1,0,0:0:0:0:
320,192,164923,1,0,0:0:0:0:
448,192,164980,1,0,0:0:0:0:
192,192,165038,1,8,0:0:0:0:
64,192,165038,1,8,0:0:0:0:
448,192,165096,1,0,0:0:0:0:
320,192,165153,1,0,0:0:0:0:
192,192,165211,1,0,0:0:0:0:
64,192,165269,1,2,0:0:0:0:
448,192,165269,1,2,0:0:0:0:
320,192,165326,1,0,0:0:0:0:
192,192,165384,1,2,0:0:0:0:
64,192,165384,1,2,0:0:0:0:
448,192,165442,1,0,0:0:0:0:
320,192,165500,1,8,0:0:0:0:
192,192,165500,1,8,0:0:0:0:
64,192,165557,1,0,0:0:0:0:
448,192,165615,1,4,0:0:0:0:
320,192,165615,1,2,0:0:0:0:
192,192,165673,1,0,0:0:0:0:
64,192,165730,1,0,0:0:0:0:
448,192,165788,1,0,0:0:0:0:
320,192,165846,1,2,0:0:0:0:
192,192,165846,1,2,0:0:0:0:
64,192,165903,1,0,0:0:0:0:
320,192,165961,1,8,0:0:0:0:
448,192,165961,1,8,0:0:0:0:
64,192,166076,1,8,0:0:0:0:
192,192,166076,1,8,0:0:0:0:
320,192,166192,1,2,0:0:0:0:
448,192,166192,1,2,0:0:0:0:
64,192,166307,1,2,0:0:0:0:
448,192,166307,1,2,0:0:0:0:
192,192,166423,1,2,0:0:0:0:
64,192,166423,1,2,0:0:0:0:
320,192,166538,1,2,0:0:0:0:
448,192,166538,1,2,0:0:0:0:
64,192,166653,1,2,0:0:0:0:
192,192,166653,1,2,0:0:0:0:
320,192,166653,1,4,0:0:0:0:
448,192,166653,1,0,0:0:0:0:
192,192,166769,1,0,0:0:0:0:
320,192,166884,1,2,0:0:0:0:
448,192,166884,1,2,0:0:0:0:
64,192,167000,1,8,0:0:0:0:
192,192,167000,1,8,0:0:0:0:
448,192,167000,1,0,0:0:0:0:
64,192,167115,1,2,0:0:0:0:
192,192,167115,1,2,0:0:0:0:
320,192,167230,1,0,0:0:0:0:
64,192,167346,1,8,0:0:0:0:
192,192,167346,1,8,0:0:0:0:
448,192,167346,1,0,0:0:0:0:
192,192,167461,1,0,0:0:0:0:
320,192,167576,1,2,0:0:0:0:
448,192,167576,1,2,0:0:0:0:
448,192,167692,1,0,0:0:0:0:
192,192,167692,1,8,0:0:0:0:
64,192,167692,1,8,0:0:0:0:
192,192,167807,1,2,0:0:0:0:
64,192,167807,1,2,0:0:0:0:
320,192,167923,1,0,0:0:0:0:
64,192,168038,1,8,0:0:0:0:
192,192,168038,1,8,0:0:0:0:
448,192,168038,1,0,0:0:0:0:
192,192,168153,1,0,0:0:0:0:
320,192,168269,1,8,0:0:0:0:
448,192,168269,1,8,0:0:0:0:
64,192,168269,1,0,0:0:0:0:
320,192,168384,1,0,0:0:0:0:
64,192,168500,1,8,0:0:0:0:
192,192,168500,1,8,0:0:0:0:
448,192,168500,1,0,0:0:0:0:
192,192,168615,1,0,0:0:0:0:
320,192,168730,1,2,0:0:0:0:
448,192,168730,1,2,0:0:0:0:
64,192,168846,1,8,0:0:0:0:
192,192,168846,1,8,0:0:0:0:
320,192,168846,1,0,0:0:0:0:
192,192,168961,1,2,0:0:0:0:
64,192,168961,1,2,0:0:0:0:
320,192,169076,1,0,0:0:0:0:
192,192,169192,1,8,0:0:0:0:
64,192,169192,1,8,0:0:0:0:
448,192,169192,1,0,0:0:0:0:
192,192,169307,1,0,0:0:0:0:
448,192,169423,1,2,0:0:0:0:
320,192,169423,1,2,0:0:0:0:
320,192,169538,1,0,0:0:0:0:
192,192,169538,1,8,0:0:0:0:
64,192,169538,1,8,0:0:0:0:
192,192,169653,1,2,0:0:0:0:
64,192,169653,1,2,0:0:0:0:
320,192,169769,1,0,0:0:0:0:
448,192,169884,1,0,0:0:0:0:
192,192,169884,1,8,0:0:0:0:
64,192,169884,1,8,0:0:0:0:
64,192,170000,1,0,0:0:0:0:
192,192,170115,1,8,0:0:0:0:
320,192,170115,1,8,0:0:0:0:
448,192,170115,1,0,0:0:0:0:
320,192,170230,1,0,0:0:0:0:
64,192,170346,1,8,0:0:0:0:
192,192,170346,1,8,0:0:0:0:
448,192,170346,1,0,0:0:0:0:
320,192,170346,1,4,0:0:0:0:
192,192,170461,1,0,0:0:0:0:
320,192,170576,1,2,0:0:0:0:
448,192,170576,1,2,0:0:0:0:
64,192,170692,1,8,0:0:0:0:
192,192,170692,1,8,0:0:0:0:
448,192,170692,1,0,0:0:0:0:
64,192,170807,1,2,0:0:0:0:
192,192,170807,1,2,0:0:0:0:
320,192,170923,1,0,0:0:0:0:
64,192,171038,1,8,0:0:0:0:
192,192,171038,1,8,0:0:0:0:
448,192,171038,1,0,0:0:0:0:
192,192,171153,1,0,0:0:0:0:
320,192,171269,1,2,0:0:0:0:
448,192,171269,1,2,0:0:0:0:
448,192,171384,1,0,0:0:0:0:
192,192,171384,1,8,0:0:0:0:
64,192,171384,1,8,0:0:0:0:
192,192,171500,1,2,0:0:0:0:
64,192,171500,1,2,0:0:0:0:
320,192,171615,1,0,0:0:0:0:
64,192,171730,1,8,0:0:0:0:
192,192,171730,1,8,0:0:0:0:
448,192,171730,1,0,0:0:0:0:
192,192,171846,1,0,0:0:0:0:
320,192,171961,1,8,0:0:0:0:
448,192,171961,1,8,0:0:0:0:
64,192,171961,1,0,0:0:0:0:
320,192,172076,1,0,0:0:0:0:
64,192,172192,1,8,0:0:0:0:
192,192,172192,1,8,0:0:0:0:
448,192,172192,1,0,0:0:0:0:
192,192,172307,1,0,0:0:0:0:
320,192,172423,1,2,0:0:0:0:
448,192,172423,1,2,0:0:0:0:
64,192,172538,1,8,0:0:0:0:
192,192,172538,1,8,0:0:0:0:
320,192,172538,1,0,0:0:0:0:
192,192,172653,1,2,0:0:0:0:
448,192,172653,1,2,0:0:0:0:
320,192,172769,1,0,0:0:0:0:
192,192,172884,1,8,0:0:0:0:
64,192,172884,1,8,0:0:0:0:
448,192,172884,1,0,0:0:0:0:
64,192,173000,1,8,0:0:0:0:
192,192,173000,1,8,0:0:0:0:
448,192,173115,1,0,0:0:0:0:
320,192,173115,1,4,0:0:0:0:
64,192,173115,1,2,0:0:0:0:
192,192,173115,1,2,0:0:0:0:
320,192,174038,1,4,0:0:0:0:
192,192,174038,128,2,174211:0:0:0:0:
64,192,174038,128,2,174211:0:0:0:0:
448,192,174038,128,0,174211:0:0:0:0:
320,192,174269,1,8,0:0:0:0:
448,192,174269,1,8,0:0:0:0:
64,192,174269,1,0,0:0:0:0:
320,192,174384,1,0,0:0:0:0:
64,192,174500,1,2,0:0:0:0:
192,192,174500,1,2,0:0:0:0:
320,192,174615,1,2,0:0:0:0:
448,192,174615,1,2,0:0:0:0:
448,192,174730,1,8,0:0:0:0:
64,192,174730,1,8,0:0:0:0:
192,192,174846,1,0,0:0:0:0:
320,192,174961,1,2,0:0:0:0:
448,192,174961,1,2,0:0:0:0:
64,192,175076,1,0,0:0:0:0:
192,192,175192,1,8,0:0:0:0:
448,192,175192,1,8,0:0:0:0:
320,192,175307,1,0,0:0:0:0:
192,192,175423,1,2,0:0:0:0:
64,192,175423,1,2,0:0:0:0:
320,192,175538,1,2,0:0:0:0:
448,192,175538,1,2,0:0:0:0:
448,192,175653,1,8,0:0:0:0:
64,192,175653,1,8,0:0:0:0:
192,192,175769,1,0,0:0:0:0:
320,192,175884,128,2,176057:0:0:0:0:
448,192,175884,128,2,176057:0:0:0:0:
64,192,175884,128,0,176057:0:0:0:0:
64,192,176115,1,8,0:0:0:0:
192,192,176115,1,8,0:0:0:0:
448,192,176115,1,0,0:0:0:0:
320,192,176230,1,0,0:0:0:0:
64,192,176346,1,2,0:0:0:0:
448,192,176346,1,2,0:0:0:0:
320,192,176461,1,2,0:0:0:0:
192,192,176461,1,2,0:0:0:0:
64,192,176576,1,8,0:0:0:0:
320,192,176576,1,8,0:0:0:0:
448,192,176692,1,0,0:0:0:0:
64,192,176807,1,2,0:0:0:0:
192,192,176807,1,2,0:0:0:0:
192,192,176923,1,0,0:0:0:0:
448,192,177038,1,8,0:0:0:0:
64,192,177038,1,8,0:0:0:0:
192,192,177153,1,0,0:0:0:0:
448,192,177269,1,0,0:0:0:0:
64,192,177269,1,0,0:0:0:0:
320,192,177384,1,2,0:0:0:0:
192,192,177384,1,2,0:0:0:0:
64,192,177500,1,8,0:0:0:0:
320,192,177500,1,8,0:0:0:0:
192,192,177615,1,0,0:0:0:0:
64,192,177730,128,2,177903:0:0:0:0:
320,192,177730,128,0,177903:0:0:0:0:
448,192,177730,128,2,177903:0:0:0:0:
320,192,177961,1,8,0:0:0:0:
192,192,177961,1,8,0:0:0:0:
64,192,177961,1,0,0:0:0:0:
320,192,178076,1,0,0:0:0:0:
64,192,178192,1,2,0:0:0:0:
192,192,178192,1,2,0:0:0:0:
320,192,178307,1,2,0:0:0:0:
448,192,178307,1,2,0:0:0:0:
320,192,178423,1,8,0:0:0:0:
192,192,178423,1,8,0:0:0:0:
64,192,178538,1,0,0:0:0:0:
448,192,178653,1,2,0:0:0:0:
192,192,178653,1,2,0:0:0:0:
320,192,178769,1,0,0:0:0:0:
64,192,178884,1,8,0:0:0:0:
192,192,178884,1,8,0:0:0:0:
448,192,179000,1,0,0:0:0:0:
64,192,179115,1,2,0:0:0:0:
192,192,179115,1,2,0:0:0:0:
320,192,179230,1,2,0:0:0:0:
448,192,179230,1,2,0:0:0:0:
320,192,179346,1,8,0:0:0:0:
64,192,179346,1,8,0:0:0:0:
192,192,179461,1,0,0:0:0:0:
448,192,179576,128,2,179750:0:0:0:0:
320,192,179576,128,2,179750:0:0:0:0:
64,192,179576,128,0,179750:0:0:0:0:
64,192,179807,1,8,0:0:0:0:
192,192,179807,1,8,0:0:0:0:
448,192,179807,1,0,0:0:0:0:
192,192,179923,1,0,0:0:0:0:
448,192,180038,1,2,0:0:0:0:
64,192,180038,1,2,0:0:0:0:
192,192,180153,1,2,0:0:0:0:
320,192,180153,1,2,0:0:0:0:
448,192,180269,1,8,0:0:0:0:
64,192,180269,1,8,0:0:0:0:
320,192,180384,1,0,0:0:0:0:
192,192,180500,1,2,0:0:0:0:
64,192,180500,1,2,0:0:0:0:
320,192,180615,1,0,0:0:0:0:
64,192,180730,1,8,0:0:0:0:
448,192,180730,1,8,0:0:0:0:
64,192,180846,1,0,0:0:0:0:
192,192,180961,1,2,0:0:0:0:
448,192,180961,1,2,0:0:0:0:
320,192,181076,1,2,0:0:0:0:
64,192,181076,1,2,0:0:0:0:
192,192,181192,1,8,0:0:0:0:
448,192,181192,1,8,0:0:0:0:
320,192,181307,1,0,0:0:0:0:
192,192,181423,1,2,0:0:0:0:
64,192,181423,1,2,0:0:0:0:
448,192,181423,1,4,0:0:0:0:
192,192,181538,1,8,0:0:0:0:
64,192,181538,1,8,0:0:0:0:
64,192,181653,1,8,0:0:0:0:
192,192,181653,1,8,0:0:0:0:
192,192,181769,1,8,0:0:0:0:
64,192,181769,1,8,0:0:0:0:
192,192,182000,1,2,0:0:0:0:
448,192,182000,1,2,0:0:0:0:
64,192,182230,1,2,0:0:0:0:
192,192,182230,1,2,0:0:0:0:
448,192,182230,1,0,0:0:0:0:
320,192,182230,128,4,182576:0:0:0:0:
64,192,182576,1,8,0:0:0:0:
192,192,182576,1,8,0:0:0:0:
448,192,182576,1,0,0:0:0:0:
320,192,182692,1,2,0:0:0:0:
64,192,182692,1,2,0:0:0:0:
192,192,182807,1,2,0:0:0:0:
448,192,182807,1,2,0:0:0:0:
320,192,182923,1,2,0:0:0:0:
64,192,182923,1,2,0:0:0:0:
320,192,183038,1,8,0:0:0:0:
448,192,183038,1,8,0:0:0:0:
192,192,183153,1,8,0:0:0:0:
64,192,183153,1,8,0:0:0:0:
64,192,183269,1,4,0:0:0:0:
320,192,183269,1,2,0:0:0:0:
448,192,183269,1,2,0:0:0:0:
448,192,183384,1,8,0:0:0:0:
320,192,183384,1,8,0:0:0:0:
320,192,183500,1,8,0:0:0:0:
448,192,183500,1,8,0:0:0:0:
448,192,183615,1,8,0:0:0:0:
320,192,183615,1,8,0:0:0:0:
192,192,183846,1,2,0:0:0:0:
320,192,183846,1,2,0:0:0:0:
448,192,184076,1,2,0:0:0:0:
192,192,184076,1,4,0:0:0:0:
64,192,184076,1,0,0:0:0:0:
320,192,184076,128,2,184423:0:0:0:0:
192,192,184423,1,8,0:0:0:0:
64,192,184423,1,8,0:0:0:0:
448,192,184423,1,0,0:0:0:0:
448,192,184653,1,8,0:0:0:0:
320,192,184653,1,8,0:0:0:0:
64,192,184653,1,0,0:0:0:0:
320,192,184769,1,2,0:0:0:0:
192,192,184769,1,2,0:0:0:0:
192,192,184884,1,8,0:0:0:0:
64,192,184884,1,8,0:0:0:0:
448,192,184884,1,0,0:0:0:0:
448,192,185115,1,2,0:0:0:0:
192,192,185115,1,4,0:0:0:0:
64,192,185115,1,0,0:0:0:0:
320,192,185115,128,2,185346:0:0:0:0:
192,192,185346,1,0,0:0:0:0:
448,192,185461,1,2,0:0:0:0:
320,192,185461,1,2,0:0:0:0:
64,192,185576,1,8,0:0:0:0:
448,192,185576,1,0,0:0:0:0:
192,192,185576,128,8,185807:0:0:0:0:
448,192,185807,1,0,0:0:0:0:
192,192,185923,1,2,0:0:0:0:
64,192,185923,1,2,0:0:0:0:
320,192,186038,1,0,0:0:0:0:
192,192,186153,1,8,0:0:0:0:
64,192,186153,1,8,0:0:0:0:
448,192,186269,1,0,0:0:0:0:
192,192,186384,1,2,0:0:0:0:
64,192,186384,1,2,0:0:0:0:
64,192,186500,1,0,0:0:0:0:
448,192,186500,1,8,0:0:0:0:
320,192,186500,128,8,186730:0:0:0:0:
192,192,186730,128,2,186961:0:0:0:0:
64,192,186730,1,2,0:0:0:0:
448,192,186961,1,2,0:0:0:0:
320,192,186961,1,2,0:0:0:0:
64,192,186961,1,4,0:0:0:0:
448,192,187192,5,8,0:0:0:0:
320,192,187192,1,8,0:0:0:0:
192,192,187192,1,0,0:0:0:0:
448,192,187307,1,4,0:0:0:0:
192,192,187307,1,2,0:0:0:0:
64,192,187307,1,2,0:0:0:0:
448,192,187538,1,8,0:0:0:0:
320,192,187538,1,8,0:0:0:0:
192,192,187538,1,0,0:0:0:0:
64,192,187653,5,4,0:0:0:0:
448,192,187653,1,2,0:0:0:0:
320,192,187653,128,0,188115:0:0:0:0:
64,192,188115,1,2,0:0:0:0:
192,192,188115,1,2,0:0:0:0:
64,192,188230,1,2,0:0:0:0:
192,192,188230,1,2,0:0:0:0:
64,192,188346,1,0,0:0:0:0:
320,192,188346,1,8,0:0:0:0:
448,192,188346,1,8,0:0:0:0:
64,192,188807,5,8,0:0:0:0:
192,192,188807,1,8,0:0:0:0:
320,192,188807,1,0,0:0:0:0:
448,192,188807,1,0,0:0:0:0:
64,192,188923,1,2,0:0:0:0:
192,192,188923,1,2,0:0:0:0:
320,192,189038,1,2,0:0:0:0:
448,192,189038,1,2,0:0:0:0:
320,192,189153,1,2,0:0:0:0:
448,192,189153,1,2,0:0:0:0:
64,192,189269,1,2,0:0:0:0:
192,192,189269,1,2,0:0:0:0:
448,192,189269,1,0,0:0:0:0:
192,192,189384,1,8,0:0:0:0:
320,192,189384,1,8,0:0:0:0:
320,192,189500,1,8,0:0:0:0:
448,192,189500,1,8,0:0:0:0:
192,192,189615,1,2,0:0:0:0:
64,192,189615,1,2,0:0:0:0:
448,192,189615,1,4,0:0:0:0:
192,192,190192,128,0,190307:0:0:0:0:
64,192,190192,128,0,190307:0:0:0:70:chi.wav
320,192,190192,128,0,190307:0:0:0:0:
448,192,190192,128,0,190307:0:0:0:70:whistle.wav
64,192,190423,128,0,190538:0:0:0:70:chi.wav
192,192,190423,128,0,190538:0:0:0:0:
320,192,190423,128,0,190538:0:0:0:0:
448,192,190423,128,0,190538:0:0:0:70:whistle.wav
192,192,190653,1,2,0:0:0:0:
320,192,190653,1,4,0:0:0:0:
448,192,190653,1,0,0:0:0:0:
64,192,190653,128,2,190769:0:0:0:0:
192,192,190769,128,0,190884:0:0:0:0:
448,192,190884,128,8,191000:0:0:0:0:
64,192,190884,1,0,0:0:0:0:
320,192,190884,1,8,0:0:0:0:
192,192,191000,128,0,191115:0:0:0:0:
320,192,191115,128,2,191230:0:0:0:0:
448,192,191115,1,2,0:0:0:0:
64,192,191230,128,2,191346:0:0:0:0:
192,192,191230,1,2,0:0:0:0:
448,192,191346,128,0,191461:0:0:0:0:
320,192,191346,1,8,0:0:0:0:
192,192,191346,1,8,0:0:0:0:
320,192,191461,128,0,191576:0:0:0:0:
64,192,191576,128,2,191692:0:0:0:0:
192,192,191576,1,2,0:0:0:0:
448,192,191576,1,0,0:0:0:0:
448,192,191692,128,0,191807:0:0:0:0:
64,192,191807,128,8,191923:0:0:0:0:
320,192,191807,1,0,0:0:0:0:
192,192,191807,128,8,191923:0:0:0:0:
448,192,191923,128,0,192038:0:0:0:0:
192,192,192038,128,2,192153:0:0:0:0:
64,192,192038,128,2,192153:0:0:0:0:
320,192,192153,128,2,192269:0:0:0:0:
448,192,192153,1,2,0:0:0:0:
192,192,192269,128,8,192384:0:0:0:0:
448,192,192269,1,0,0:0:0:0:
64,192,192269,128,8,192384:0:0:0:0:
320,192,192384,128,0,192500:0:0:0:0:
64,192,192500,128,2,192615:0:0:0:0:
192,192,192500,1,2,0:0:0:0:
448,192,192500,1,0,0:0:0:0:
320,192,192615,128,0,192730:0:0:0:0:
64,192,192730,128,8,192846:0:0:0:0:
192,192,192730,1,8,0:0:0:0:
448,192,192730,1,0,0:0:0:0:
192,192,192846,128,0,192961:0:0:0:0:
448,192,192961,128,2,193076:0:0:0:0:
320,192,192961,1,2,0:0:0:0:
64,192,193076,128,2,193192:0:0:0:0:
192,192,193076,1,2,0:0:0:0:
320,192,193192,128,8,193307:0:0:0:0:
192,192,193192,1,8,0:0:0:0:
448,192,193192,1,0,0:0:0:0:
64,192,193307,128,0,193423:0:0:0:0:
192,192,193423,128,2,193538:0:0:0:0:
448,192,193423,1,0,0:0:0:0:
320,192,193423,1,2,0:0:0:0:
320,192,193538,128,0,193653:0:0:0:0:
192,192,193653,128,8,193769:0:0:0:0:
448,192,193653,1,0,0:0:0:0:
64,192,193653,128,8,193769:0:0:0:0:
320,192,193769,128,0,193884:0:0:0:0:
64,192,193884,128,2,194000:0:0:0:0:
192,192,193884,128,2,194000:0:0:0:0:
320,192,194000,128,2,194115:0:0:0:0:
448,192,194000,1,2,0:0:0:0:
192,192,194115,128,8,194230:0:0:0:0:
448,192,194115,1,0,0:0:0:0:
64,192,194115,128,8,194230:0:0:0:0:
320,192,194230,128,0,194346:0:0:0:0:
64,192,194346,128,2,194461:0:0:0:0:
192,192,194346,1,2,0:0:0:0:
448,192,194346,1,0,0:0:0:0:
192,192,194461,128,0,194576:0:0:0:0:
320,192,194576,128,8,194692:0:0:0:0:
448,192,194576,1,8,0:0:0:0:
64,192,194576,1,0,0:0:0:0:
64,192,194692,128,0,194807:0:0:0:0:
192,192,194807,128,2,194923:0:0:0:0:
448,192,194807,1,2,0:0:0:0:
320,192,194923,128,2,195038:0:0:0:0:
64,192,194923,1,2,0:0:0:0:
448,192,195038,128,0,195153:0:0:0:0:
64,192,195038,1,8,0:0:0:0:
192,192,195038,1,8,0:0:0:0:
320,192,195153,128,0,195269:0:0:0:0:
192,192,195269,128,2,195384:0:0:0:0:
64,192,195269,1,2,0:0:0:0:
448,192,195269,1,0,0:0:0:0:
448,192,195384,128,0,195500:0:0:0:0:
320,192,195500,128,0,195615:0:0:0:0:
64,192,195500,1,8,0:0:0:0:
192,192,195500,1,8,0:0:0:0:
192,192,195615,128,0,195730:0:0:0:0:
64,192,195730,128,0,195846:0:0:0:0:
320,192,195730,128,2,195788:0:0:0:0:
448,192,195730,128,2,195788:0:0:0:0:
320,192,195846,1,2,0:0:0:0:
448,192,195846,1,2,0:0:0:0:
64,192,195961,128,0,196076:0:0:0:0:
320,192,195961,128,8,196019:0:0:0:0:
448,192,195961,128,8,196019:0:0:0:0:
320,192,196076,1,0,0:0:0:0:
448,192,196076,1,0,0:0:0:0:
64,192,196192,128,2,196307:0:0:0:0:
192,192,196192,1,2,0:0:0:0:
448,192,196192,1,0,0:0:0:0:
320,192,196307,128,0,196423:0:0:0:0:
192,192,196423,128,8,196538:0:0:0:0:
64,192,196423,1,8,0:0:0:0:
448,192,196423,1,0,0:0:0:0:
448,192,196538,128,0,196653:0:0:0:0:
64,192,196653,128,2,196769:0:0:0:0:
192,192,196653,1,2,0:0:0:0:
320,192,196769,128,2,196884:0:0:0:0:
448,192,196769,1,2,0:0:0:0:
192,192,196884,128,8,197000:0:0:0:0:
64,192,196884,1,8,0:0:0:0:
448,192,196884,1,0,0:0:0:0:
320,192,197000,128,0,197115:0:0:0:0:
64,192,197115,128,2,197230:0:0:0:0:
192,192,197115,1,2,0:0:0:0:
448,192,197115,1,0,0:0:0:0:
320,192,197230,128,0,197346:0:0:0:0:
192,192,197346,128,8,197461:0:0:0:0:
448,192,197346,1,0,0:0:0:0:
64,192,197346,1,8,0:0:0:0:
64,192,197461,128,0,197576:0:0:0:0:
320,192,197576,128,2,197692:0:0:0:0:
192,192,197576,1,2,0:0:0:0:
448,192,197692,128,2,197807:0:0:0:0:
64,192,197692,1,2,0:0:0:0:
192,192,197807,128,8,197923:0:0:0:0:
64,192,197807,1,8,0:0:0:0:
320,192,197807,1,0,0:0:0:0:
320,192,197923,128,8,198038:0:0:0:0:
448,192,197923,1,8,0:0:0:0:
448,192,198038,1,4,0:0:0:0:
64,192,198038,128,2,198153:0:0:0:0:
192,192,198038,1,2,0:0:0:0:
320,192,198153,128,0,198269:0:0:0:0:
64,192,198269,128,8,198384:0:0:0:0:
192,192,198269,1,8,0:0:0:0:
448,192,198269,1,0,0:0:0:0:
448,192,198384,128,0,198500:0:0:0:0:
192,192,198500,128,2,198615:0:0:0:0:
64,192,198500,1,2,0:0:0:0:
64,192,198615,128,2,198730:0:0:0:0:
320,192,198615,1,2,0:0:0:0:
320,192,198730,128,8,198846:0:0:0:0:
192,192,198730,1,8,0:0:0:0:
448,192,198730,1,0,0:0:0:0:
192,192,198846,128,0,198961:0:0:0:0:
448,192,198961,128,2,199076:0:0:0:0:
64,192,198961,1,0,0:0:0:0:
320,192,198961,1,2,0:0:0:0:
64,192,199076,128,0,199192:0:0:0:0:
448,192,199192,128,8,199307:0:0:0:0:
192,192,199192,1,0,0:0:0:0:
320,192,199192,128,8,199307:0:0:0:0:
64,192,199307,128,0,199423:0:0:0:0:
320,192,199423,128,2,199538:0:0:0:0:
448,192,199423,128,2,199538:0:0:0:0:
192,192,199538,128,2,199653:0:0:0:0:
64,192,199538,1,2,0:0:0:0:
320,192,199653,128,8,199769:0:0:0:0:
64,192,199653,1,0,0:0:0:0:
448,192,199653,128,8,199769:0:0:0:0:
192,192,199769,128,0,199884:0:0:0:0:
448,192,199884,128,2,200000:0:0:0:0:
64,192,199884,1,0,0:0:0:0:
320,192,199884,1,2,0:0:0:0:
192,192,200000,128,0,200115:0:0:0:0:
448,192,200115,128,8,200230:0:0:0:0:
64,192,200115,1,0,0:0:0:0:
320,192,200115,1,8,0:0:0:0:
320,192,200230,128,0,200346:0:0:0:0:
64,192,200346,128,2,200461:0:0:0:0:
192,192,200346,1,2,0:0:0:0:
448,192,200461,128,2,200576:0:0:0:0:
320,192,200461,1,2,0:0:0:0:
192,192,200576,128,8,200692:0:0:0:0:
64,192,200576,1,8,0:0:0:0:
320,192,200576,1,0,0:0:0:0:
448,192,200692,128,0,200807:0:0:0:0:
320,192,200807,128,2,200923:0:0:0:0:
64,192,200807,1,0,0:0:0:0:
192,192,200807,1,2,0:0:0:0:
192,192,200923,128,0,201038:0:0:0:0:
320,192,201038,128,8,201153:0:0:0:0:
64,192,201038,1,0,0:0:0:0:
448,192,201038,128,8,201153:0:0:0:0:
64,192,201153,128,0,201269:0:0:0:0:
448,192,201269,128,2,201384:0:0:0:0:
320,192,201269,128,2,201384:0:0:0:0:
192,192,201384,128,2,201500:0:0:0:0:
64,192,201384,1,2,0:0:0:0:
320,192,201500,128,8,201615:0:0:0:0:
64,192,201500,1,0,0:0:0:0:
448,192,201500,128,8,201615:0:0:0:0:
192,192,201615,128,0,201730:0:0:0:0:
448,192,201730,128,2,201846:0:0:0:0:
64,192,201730,1,0,0:0:0:0:
320,192,201730,1,2,0:0:0:0:
320,192,201846,128,0,201961:0:0:0:0:
192,192,201961,128,8,202076:0:0:0:0:
64,192,201961,1,8,0:0:0:0:
448,192,201961,1,0,0:0:0:0:
448,192,202076,128,0,202192:0:0:0:0:
320,192,202192,128,2,202307:0:0:0:0:
64,192,202192,1,2,0:0:0:0:
192,192,202307,128,2,202423:0:0:0:0:
448,192,202307,1,2,0:0:0:0:
64,192,202423,128,0,202538:0:0:0:0:
320,192,202423,1,8,0:0:0:0:
448,192,202423,1,8,0:0:0:0:
192,192,202538,128,0,202653:0:0:0:0:
320,192,202653,128,2,202769:0:0:0:0:
64,192,202653,1,0,0:0:0:0:
448,192,202653,1,2,0:0:0:0:
64,192,202769,128,0,202884:0:0:0:0:
192,192,202884,128,0,203000:0:0:0:0:
320,192,202884,1,8,0:0:0:0:
448,192,202884,1,8,0:0:0:0:
320,192,203000,128,0,203115:0:0:0:0:
448,192,203115,128,0,203173:0:0:0:0:
192,192,203115,128,2,203173:0:0:0:0:
64,192,203115,128,2,203173:0:0:0:0:
64,192,203230,1,2,0:0:0:0:
192,192,203230,1,2,0:0:0:0:
448,192,203346,128,0,203403:0:0:0:0:
192,192,203346,128,8,203403:0:0:0:0:
64,192,203346,128,8,203403:0:0:0:0:
192,192,203461,1,0,0:0:0:0:
64,192,203461,1,0,0:0:0:0:
448,192,203576,128,2,203692:0:0:0:0:
64,192,203576,1,0,0:0:0:0:
320,192,203576,1,2,0:0:0:0:
192,192,203692,128,0,203807:0:0:0:0:
320,192,203807,128,8,203923:0:0:0:0:
448,192,203807,1,8,0:0:0:0:
64,192,203807,1,0,0:0:0:0:
64,192,203923,128,0,204038:0:0:0:0:
448,192,204038,128,2,204153:0:0:0:0:
320,192,204038,1,2,0:0:0:0:
192,192,204153,128,2,204269:0:0:0:0:
64,192,204153,1,2,0:0:0:0:
320,192,204269,128,8,204384:0:0:0:0:
64,192,204269,1,0,0:0:0:0:
448,192,204269,1,8,0:0:0:0:
64,192,204384,128,0,204500:0:0:0:0:
448,192,204500,128,2,204615:0:0:0:0:
320,192,204500,1,2,0:0:0:0:
192,192,204615,128,0,204730:0:0:0:0:
320,192,204730,128,8,204846:0:0:0:0:
448,192,204730,1,8,0:0:0:0:
64,192,204730,1,0,0:0:0:0:
448,192,204846,128,0,204961:0:0:0:0:
192,192,204961,128,2,205076:0:0:0:0:
64,192,204961,1,2,0:0:0:0:
64,192,205076,128,0,205192:0:0:0:0:
320,192,205076,1,8,0:0:0:0:
448,192,205076,1,8,0:0:0:0:
320,192,205192,128,8,205307:0:0:0:0:
192,192,205192,1,0,0:0:0:0:
448,192,205192,1,8,0:0:0:0:
192,192,205307,128,8,205423:0:0:0:0:
64,192,205307,1,8,0:0:0:0:
64,192,205423,1,4,0:0:0:0:
320,192,205423,1,2,0:0:0:0:
448,192,205423,1,2,0:0:0:0:
192,192,205538,1,0,0:0:0:0:
64,192,205653,1,0,0:0:0:0:
192,192,205653,1,0,0:0:0:0:
320,192,205653,1,8,0:0:0:0:
448,192,205653,1,8,0:0:0:0:
320,192,205769,1,0,0:0:0:0:
64,192,205884,1,2,0:0:0:0:
192,192,205884,1,2,0:0:0:0:
448,192,205884,1,0,0:0:0:0:
64,192,206000,1,2,0:0:0:0:
192,192,206000,1,2,0:0:0:0:
64,192,206115,1,0,0:0:0:0:
320,192,206115,1,8,0:0:0:0:
448,192,206115,1,8,0:0:0:0:
192,192,206115,1,0,0:0:0:0:
320,192,206230,1,0,0:0:0:0:
64,192,206346,1,2,0:0:0:0:
192,192,206346,1,2,0:0:0:0:
448,192,206346,1,0,0:0:0:0:
192,192,206461,1,0,0:0:0:0:
64,192,206576,1,0,0:0:0:0:
192,192,206576,1,0,0:0:0:0:
320,192,206576,1,8,0:0:0:0:
448,192,206576,1,0,0:0:0:0:
320,192,206692,1,0,0:0:0:0:
64,192,206807,1,2,0:0:0:0:
192,192,206807,1,2,0:0:0:0:
448,192,206807,1,0,0:0:0:0:
320,192,206923,1,2,0:0:0:0:
64,192,206923,1,2,0:0:0:0:
64,192,207038,1,0,0:0:0:0:
192,192,207038,1,0,0:0:0:0:
320,192,207038,1,8,0:0:0:0:
448,192,207038,1,8,0:0:0:0:
192,192,207153,1,0,0:0:0:0:
320,192,207269,1,2,0:0:0:0:
448,192,207269,1,2,0:0:0:0:
64,192,207269,1,0,0:0:0:0:
320,192,207384,1,0,0:0:0:0:
64,192,207500,1,8,0:0:0:0:
192,192,207500,1,8,0:0:0:0:
448,192,207500,1,0,0:0:0:0:
320,192,207500,1,0,0:0:0:0:
64,192,207615,1,0,0:0:0:0:
192,192,207730,1,2,0:0:0:0:
320,192,207730,1,2,0:0:0:0:
448,192,207730,1,0,0:0:0:0:
320,192,207846,1,2,0:0:0:0:
64,192,207846,1,2,0:0:0:0:
64,192,207961,1,8,0:0:0:0:
192,192,207961,1,8,0:0:0:0:
320,192,207961,1,0,0:0:0:0:
448,192,207961,1,0,0:0:0:0:
192,192,208076,1,0,0:0:0:0:
64,192,208192,1,0,0:0:0:0:
320,192,208192,1,2,0:0:0:0:
448,192,208192,1,2,0:0:0:0:
320,192,208307,1,0,0:0:0:0:
192,192,208423,1,8,0:0:0:0:
64,192,208423,1,8,0:0:0:0:
320,192,208423,1,0,0:0:0:0:
448,192,208423,1,0,0:0:0:0:
64,192,208538,1,0,0:0:0:0:
192,192,208653,1,2,0:0:0:0:
320,192,208653,1,2,0:0:0:0:
448,192,208653,1,0,0:0:0:0:
320,192,208769,1,2,0:0:0:0:
64,192,208769,1,2,0:0:0:0:
64,192,208884,1,8,0:0:0:0:
192,192,208884,1,8,0:0:0:0:
320,192,208884,1,0,0:0:0:0:
448,192,208884,1,0,0:0:0:0:
192,192,209000,1,0,0:0:0:0:
192,192,209115,1,2,0:0:0:0:
64,192,209115,1,2,0:0:0:0:
320,192,209115,1,4,0:0:0:0:
448,192,209115,1,0,0:0:0:0:
320,192,209230,1,0,0:0:0:0:
64,192,209346,1,8,0:0:0:0:
448,192,209346,1,0,0:0:0:0:
192,192,209346,1,8,0:0:0:0:
64,192,209461,1,0,0:0:0:0:
192,192,209576,1,0,0:0:0:0:
320,192,209576,1,2,0:0:0:0:
448,192,209576,1,2,0:0:0:0:
320,192,209692,1,2,0:0:0:0:
448,192,209692,1,2,0:0:0:0:
448,192,209807,1,0,0:0:0:0:
320,192,209807,1,0,0:0:0:0:
192,192,209807,1,8,0:0:0:0:
64,192,209807,1,8,0:0:0:0:
64,192,209923,1,0,0:0:0:0:
192,192,210038,1,2,0:0:0:0:
320,192,210038,1,2,0:0:0:0:
448,192,210038,1,0,0:0:0:0:
320,192,210153,1,0,0:0:0:0:
64,192,210269,1,8,0:0:0:0:
192,192,210269,1,8,0:0:0:0:
448,192,210269,1,0,0:0:0:0:
320,192,210269,1,0,0:0:0:0:
192,192,210384,1,0,0:0:0:0:
64,192,210500,1,0,0:0:0:0:
448,192,210500,1,2,0:0:0:0:
320,192,210500,1,2,0:0:0:0:
192,192,210615,1,2,0:0:0:0:
320,192,210615,1,2,0:0:0:0:
192,192,210730,1,8,0:0:0:0:
64,192,210730,1,8,0:0:0:0:
320,192,210730,1,0,0:0:0:0:
448,192,210730,1,0,0:0:0:0:
64,192,210846,1,0,0:0:0:0:
192,192,210961,1,2,0:0:0:0:
320,192,210961,1,2,0:0:0:0:
448,192,210961,1,0,0:0:0:0:
320,192,211076,1,0,0:0:0:0:
64,192,211192,1,8,0:0:0:0:
192,192,211192,1,8,0:0:0:0:
320,192,211192,1,0,0:0:0:0:
448,192,211192,1,0,0:0:0:0:
192,192,211307,1,0,0:0:0:0:
64,192,211423,1,0,0:0:0:0:
320,192,211423,1,2,0:0:0:0:
448,192,211423,1,2,0:0:0:0:
192,192,211538,1,2,0:0:0:0:
64,192,211538,1,2,0:0:0:0:
64,192,211653,1,8,0:0:0:0:
448,192,211653,1,0,0:0:0:0:
320,192,211653,1,0,0:0:0:0:
192,192,211653,1,8,0:0:0:0:
320,192,211769,1,0,0:0:0:0:
64,192,211884,1,2,0:0:0:0:
192,192,211884,1,2,0:0:0:0:
320,192,211884,1,4,0:0:0:0:
448,192,211884,1,0,0:0:0:0:
64,192,212000,1,8,0:0:0:0:
192,192,212000,1,8,0:0:0:0:
448,192,212000,1,0,0:0:0:0:
448,192,212115,1,0,0:0:0:0:
192,192,212115,1,8,0:0:0:0:
64,192,212115,1,8,0:0:0:0:
64,192,212230,1,8,0:0:0:0:
192,192,212230,1,8,0:0:0:0:
448,192,212230,1,0,0:0:0:0:
320,192,212346,1,2,0:0:0:0:
448,192,212346,1,2,0:0:0:0:
64,192,212461,1,2,0:0:0:0:
192,192,212461,1,2,0:0:0:0:
64,192,212576,1,0,0:0:0:0:
320,192,212576,1,2,0:0:0:0:
448,192,212576,1,2,0:0:0:0:
192,192,212692,1,2,0:0:0:0:
320,192,212692,1,2,0:0:0:0:
64,192,212807,1,2,0:0:0:0:
192,192,212807,1,2,0:0:0:0:
320,192,212807,1,4,0:0:0:0:
448,192,212807,1,0,0:0:0:0:
64,192,213269,1,2,0:0:0:0:
448,192,213269,1,2,0:0:0:0:
64,192,214192,1,2,0:0:0:0:
448,192,214192,1,2,0:0:0:0:
64,192,215115,1,2,0:0:0:0:
448,192,215115,1,2,0:0:0:0:
64,192,216038,1,2,0:0:0:0:
448,192,216038,1,2,0:0:0:0:
192,192,216269,128,0,216903:0:0:0:0:
320,192,216269,128,0,216903:0:0:0:0:
64,192,216500,128,2,216903:0:0:0:0:
448,192,216500,128,2,216903:0:0:0:0:
64,192,216961,1,2,0:0:0:0:
448,192,216961,1,2,0:0:0:0:
64,192,217884,1,2,0:0:0:0:
448,192,217884,1,2,0:0:0:0:
64,192,218807,1,2,0:0:0:0:
448,192,218807,1,2,0:0:0:0:
64,192,219269,1,8,0:0:0:0:
192,192,219269,1,8,0:0:0:0:
320,192,219269,1,0,0:0:0:0:
448,192,219269,1,0,0:0:0:0:
64,192,219384,1,2,0:0:0:0:
192,192,219384,1,2,0:0:0:0:
64,192,219615,1,2,0:0:0:0:
192,192,219615,1,2,0:0:0:0:
64,192,219846,1,2,0:0:0:0:
192,192,219846,1,2,0:0:0:0:
64,192,219961,1,8,0:0:0:0:
320,192,219961,1,0,0:0:0:0:
448,192,219961,1,0,0:0:0:0:
192,192,219961,1,8,0:0:0:0:
64,192,220192,1,2,0:0:0:0:
192,192,220192,1,2,0:0:0:0:
320,192,220192,1,4,0:0:0:0:
448,192,220192,1,0,0:0:0:0:
320,192,220307,1,0,0:0:0:0:
448,192,220423,1,0,0:0:0:0:
192,192,220423,1,8,0:0:0:0:
64,192,220423,1,8,0:0:0:0:
192,192,220538,1,0,0:0:0:0:
320,192,220653,1,2,0:0:0:0:
448,192,220653,1,2,0:0:0:0:
320,192,220769,1,2,0:0:0:0:
448,192,220769,1,2,0:0:0:0:
64,192,220884,1,8,0:0:0:0:
192,192,220884,1,8,0:0:0:0:
448,192,220884,1,0,0:0:0:0:
64,192,221000,1,2,0:0:0:0:
192,192,221000,1,2,0:0:0:0:
320,192,221115,1,0,0:0:0:0:
448,192,221230,1,2,0:0:0:0:
64,192,221230,1,2,0:0:0:0:
64,192,221346,1,8,0:0:0:0:
192,192,221346,1,8,0:0:0:0:
448,192,221346,1,0,0:0:0:0:
320,192,221461,1,0,0:0:0:0:
64,192,221576,1,2,0:0:0:0:
192,192,221576,1,2,0:0:0:0:
192,192,221692,1,2,0:0:0:0:
64,192,221692,1,2,0:0:0:0:
64,192,221807,1,0,0:0:0:0:
320,192,221807,1,8,0:0:0:0:
448,192,221807,1,8,0:0:0:0:
320,192,221923,1,2,0:0:0:0:
448,192,221923,1,2,0:0:0:0:
192,192,222038,1,0,0:0:0:0:
320,192,222153,1,2,0:0:0:0:
64,192,222153,1,2,0:0:0:0:
64,192,222269,1,8,0:0:0:0:
192,192,222269,1,8,0:0:0:0:
448,192,222269,1,0,0:0:0:0:
320,192,222384,1,0,0:0:0:0:
192,192,222500,1,2,0:0:0:0:
448,192,222500,1,2,0:0:0:0:
192,192,222615,1,2,0:0:0:0:
448,192,222615,1,2,0:0:0:0:
448,192,222730,1,8,0:0:0:0:
64,192,222730,1,0,0:0:0:0:
320,192,222730,1,8,0:0:0:0:
192,192,222846,1,2,0:0:0:0:
64,192,222846,1,2,0:0:0:0:
320,192,222961,1,0,0:0:0:0:
64,192,223076,1,2,0:0:0:0:
192,192,223076,1,2,0:0:0:0:
64,192,223192,1,0,0:0:0:0:
320,192,223192,1,8,0:0:0:0:
448,192,223192,1,8,0:0:0:0:
320,192,223307,1,0,0:0:0:0:
192,192,223423,1,2,0:0:0:0:
64,192,223423,1,2,0:0:0:0:
192,192,223538,1,2,0:0:0:0:
64,192,223538,1,2,0:0:0:0:
64,192,223653,1,0,0:0:0:0:
320,192,223653,1,8,0:0:0:0:
448,192,223653,1,8,0:0:0:0:
320,192,223769,1,0,0:0:0:0:
64,192,223884,1,2,0:0:0:0:
192,192,223884,1,2,0:0:0:0:
320,192,223884,1,4,0:0:0:0:
448,192,223884,1,0,0:0:0:0:
192,192,224000,1,0,0:0:0:0:
64,192,224115,1,0,0:0:0:0:
320,192,224115,1,8,0:0:0:0:
448,192,224115,1,8,0:0:0:0:
320,192,224230,1,0,0:0:0:0:
64,192,224346,1,2,0:0:0:0:
192,192,224346,1,2,0:0:0:0:
192,192,224461,1,2,0:0:0:0:
64,192,224461,1,2,0:0:0:0:
320,192,224576,1,8,0:0:0:0:
448,192,224576,1,8,0:0:0:0:
64,192,224576,1,0,0:0:0:0:
320,192,224692,1,2,0:0:0:0:
448,192,224692,1,2,0:0:0:0:
192,192,224807,1,0,0:0:0:0:
320,192,224923,1,2,0:0:0:0:
448,192,224923,1,2,0:0:0:0:
192,192,225038,1,8,0:0:0:0:
64,192,225038,1,8,0:0:0:0:
448,192,225038,1,0,0:0:0:0:
320,192,225153,1,0,0:0:0:0:
64,192,225269,1,2,0:0:0:0:
192,192,225269,1,2,0:0:0:0:
192,192,225384,1,2,0:0:0:0:
64,192,225384,1,2,0:0:0:0:
64,192,225500,1,0,0:0:0:0:
320,192,225500,1,8,0:0:0:0:
448,192,225500,1,8,0:0:0:0:
448,192,225615,1,2,0:0:0:0:
320,192,225615,1,2,0:0:0:0:
192,192,225730,1,0,0:0:0:0:
320,192,225846,1,2,0:0:0:0:
64,192,225846,1,2,0:0:0:0:
64,192,225961,1,8,0:0:0:0:
192,192,225961,1,8,0:0:0:0:
448,192,225961,1,0,0:0:0:0:
320,192,226076,1,0,0:0:0:0:
192,192,226192,1,2,0:0:0:0:
448,192,226192,1,2,0:0:0:0:
448,192,226307,1,2,0:0:0:0:
192,192,226307,1,2,0:0:0:0:
64,192,226423,1,0,0:0:0:0:
320,192,226423,1,8,0:0:0:0:
448,192,226423,1,8,0:0:0:0:
192,192,226538,1,2,0:0:0:0:
64,192,226538,1,2,0:0:0:0:
320,192,226653,1,0,0:0:0:0:
64,192,226769,1,2,0:0:0:0:
192,192,226769,1,2,0:0:0:0:
320,192,226884,1,8,0:0:0:0:
448,192,226884,1,8,0:0:0:0:
64,192,226884,1,0,0:0:0:0:
320,192,227000,1,2,0:0:0:0:
192,192,227000,1,2,0:0:0:0:
192,192,227115,1,8,0:0:0:0:
64,192,227115,1,8,0:0:0:0:
448,192,227173,1,2,0:0:0:0:
320,192,227173,1,2,0:0:0:0:
192,192,227230,1,2,0:0:0:0:
64,192,227230,1,2,0:0:0:0:
64,192,227346,1,0,0:0:0:0:
320,192,227346,1,8,0:0:0:0:
448,192,227346,1,8,0:0:0:0:
64,192,227576,5,2,0:0:0:0:
192,192,227576,1,2,0:0:0:0:
320,192,227576,1,4,0:0:0:0:
448,192,227576,1,0,0:0:0:0:
64,192,227807,1,8,0:0:0:0:
192,192,227807,1,8,0:0:0:0:
448,192,227807,1,0,0:0:0:0:
320,192,227807,1,0,0:0:0:0:
64,192,228038,1,8,0:0:0:0:
192,192,228038,1,8,0:0:0:0:
448,192,228038,1,0,0:0:0:0:
192,192,228153,1,2,0:0:0:0:
64,192,228153,1,2,0:0:0:0:
64,192,228269,1,0,0:0:0:0:
320,192,228269,1,8,0:0:0:0:
448,192,228269,1,8,0:0:0:0:
320,192,228384,1,2,0:0:0:0:
448,192,228384,1,2,0:0:0:0:
192,192,228500,1,8,0:0:0:0:
64,192,228500,1,8,0:0:0:0:
448,192,228500,1,0,0:0:0:0:
64,192,228615,1,2,0:0:0:0:
320,192,228615,1,2,0:0:0:0:
64,192,228730,1,8,0:0:0:0:
448,192,228730,1,0,0:0:0:0:
192,192,228730,1,8,0:0:0:0:
64,192,228961,1,8,0:0:0:0:
192,192,228961,1,8,0:0:0:0:
448,192,228961,1,0,0:0:0:0:
192,192,229076,1,2,0:0:0:0:
320,192,229076,1,2,0:0:0:0:
64,192,229192,1,0,0:0:0:0:
320,192,229192,1,8,0:0:0:0:
448,192,229192,1,8,0:0:0:0:
192,192,229307,1,2,0:0:0:0:
64,192,229307,1,2,0:0:0:0:
192,192,229423,1,8,0:0:0:0:
320,192,229423,1,8,0:0:0:0:
448,192,229423,1,0,0:0:0:0:
320,192,229538,1,2,0:0:0:0:
64,192,229538,1,2,0:0:0:0:
64,192,229653,1,8,0:0:0:0:
192,192,229653,1,8,0:0:0:0:
448,192,229653,1,0,0:0:0:0:
192,192,229884,1,8,0:0:0:0:
320,192,229884,1,8,0:0:0:0:
448,192,229884,1,0,0:0:0:0:
320,192,230000,1,2,0:0:0:0:
64,192,230000,1,2,0:0:0:0:
64,192,230115,1,8,0:0:0:0:
192,192,230115,1,8,0:0:0:0:
448,192,230115,1,0,0:0:0:0:
320,192,230230,1,2,0:0:0:0:
448,192,230230,1,2,0:0:0:0:
320,192,230346,1,0,0:0:0:0:
192,192,230346,1,8,0:0:0:0:
64,192,230346,1,8,0:0:0:0:
192,192,230461,1,2,0:0:0:0:
448,192,230461,1,2,0:0:0:0:
320,192,230576,1,8,0:0:0:0:
448,192,230576,1,8,0:0:0:0:
64,192,230576,1,0,0:0:0:0:
64,192,230807,1,8,0:0:0:0:
192,192,230807,1,8,0:0:0:0:
448,192,230807,1,0,0:0:0:0:
192,192,230923,1,2,0:0:0:0:
320,192,230923,1,2,0:0:0:0:
64,192,231038,1,0,0:0:0:0:
320,192,231038,1,8,0:0:0:0:
448,192,231038,1,8,0:0:0:0:
192,192,231153,1,2,0:0:0:0:
320,192,231153,1,2,0:0:0:0:
192,192,231269,1,4,0:0:0:0:
64,192,231269,1,0,0:0:0:0:
320,192,231269,1,8,0:0:0:0:
448,192,231269,1,8,0:0:0:0:
64,192,231500,1,8,0:0:0:0:
192,192,231500,1,8,0:0:0:0:
448,192,231500,1,0,0:0:0:0:
64,192,231730,1,0,0:0:0:0:
320,192,231730,1,8,0:0:0:0:
448,192,231730,1,8,0:0:0:0:
192,192,231846,1,2,0:0:0:0:
64,192,231846,1,2,0:0:0:0:
320,192,231961,1,8,0:0:0:0:
448,192,231961,1,0,0:0:0:0:
192,192,231961,1,8,0:0:0:0:
320,192,232076,1,2,0:0:0:0:
64,192,232076,1,2,0:0:0:0:
64,192,232192,1,8,0:0:0:0:
192,192,232192,1,8,0:0:0:0:
448,192,232192,1,0,0:0:0:0:
320,192,232307,1,2,0:0:0:0:
448,192,232307,1,2,0:0:0:0:
192,192,232423,1,8,0:0:0:0:
64,192,232423,1,8,0:0:0:0:
320,192,232423,1,0,0:0:0:0:
64,192,232653,1,8,0:0:0:0:
192,192,232653,1,8,0:0:0:0:
448,192,232653,1,0,0:0:0:0:
320,192,232769,1,2,0:0:0:0:
192,192,232769,1,2,0:0:0:0:
320,192,232884,1,8,0:0:0:0:
448,192,232884,1,8,0:0:0:0:
64,192,232884,1,0,0:0:0:0:
192,192,233000,1,2,0:0:0:0:
64,192,233000,1,2,0:0:0:0:
192,192,233115,1,8,0:0:0:0:
320,192,233115,1,8,0:0:0:0:
448,192,233115,1,0,0:0:0:0:
320,192,233230,1,2,0:0:0:0:
64,192,233230,1,2,0:0:0:0:
64,192,233346,1,8,0:0:0:0:
192,192,233346,1,8,0:0:0:0:
448,192,233346,1,0,0:0:0:0:
320,192,233461,1,2,0:0:0:0:
448,192,233461,1,2,0:0:0:0:
320,192,233576,1,0,0:0:0:0:
192,192,233576,1,8,0:0:0:0:
64,192,233576,1,8,0:0:0:0:
192,192,233692,1,2,0:0:0:0:
448,192,233692,1,2,0:0:0:0:
320,192,233807,1,8,0:0:0:0:
448,192,233807,1,8,0:0:0:0:
64,192,233807,1,0,0:0:0:0:
192,192,233923,1,2,0:0:0:0:
64,192,233923,1,2,0:0:0:0:
192,192,234038,1,0,0:0:0:0:
320,192,234038,1,8,0:0:0:0:
448,192,234038,1,8,0:0:0:0:
320,192,234153,1,2,0:0:0:0:
64,192,234153,1,2,0:0:0:0:
192,192,234269,1,8,0:0:0:0:
64,192,234269,1,8,0:0:0:0:
448,192,234269,1,0,0:0:0:0:
64,192,234384,1,8,0:0:0:0:
192,192,234384,1,8,0:0:0:0:
448,192,234384,1,0,0:0:0:0:
320,192,234500,1,8,0:0:0:0:
192,192,234500,1,8,0:0:0:0:
320,192,234615,1,8,0:0:0:0:
192,192,234615,1,8,0:0:0:0:
192,192,234730,1,8,0:0:0:0:
320,192,234730,1,8,0:0:0:0:
320,192,234846,1,8,0:0:0:0:
192,192,234846,1,8,0:0:0:0:
448,192,234961,1,0,0:0:0:0:
64,192,234961,1,2,0:0:0:0:
320,192,234961,1,4,0:0:0:0:
192,192,234961,128,2,235192:0:0:0:0:
320,192,235192,1,8,0:0:0:0:
448,192,235192,1,8,0:0:0:0:
64,192,235192,1,0,0:0:0:0:
192,192,235307,1,2,0:0:0:0:
448,192,235307,1,0,0:0:0:0:
64,192,235307,128,2,235538:0:0:0:0:
320,192,235307,1,4,0:0:0:0:
192,192,235538,1,0,0:0:0:0:
320,192,235538,1,8,0:0:0:0:
448,192,235538,1,8,0:0:0:0:
448,192,235653,1,2,0:0:0:0:
64,192,235653,1,0,0:0:0:0:
320,192,235653,128,2,235884:0:0:0:0:
192,192,235653,1,4,0:0:0:0:
64,192,235884,1,8,0:0:0:0:
192,192,235884,1,8,0:0:0:0:
448,192,235884,1,0,0:0:0:0:
320,192,236000,1,2,0:0:0:0:
64,192,236000,1,0,0:0:0:0:
192,192,236000,1,4,0:0:0:0:
448,192,236000,128,2,236230:0:0:0:0:
320,192,236230,1,0,0:0:0:0:
192,192,236230,1,8,0:0:0:0:
64,192,236230,1,8,0:0:0:0:
320,192,236346,1,2,0:0:0:0:
448,192,236346,1,2,0:0:0:0:
192,192,236461,1,2,0:0:0:0:
64,192,236461,1,2,0:0:0:0:
448,192,236576,1,8,0:0:0:0:
64,192,236576,1,4,0:0:0:0:
320,192,236576,128,8,236807:0:0:0:0:
192,192,236807,1,2,0:0:0:0:
448,192,236807,1,4,0:0:0:0:
64,192,236807,128,2,237038:0:0:0:0:
192,192,237038,1,0,0:0:0:0:
320,192,237038,1,8,0:0:0:0:
448,192,237038,1,8,0:0:0:0:
64,192,237153,1,0,0:0:0:0:
192,192,237153,1,4,0:0:0:0:
448,192,237153,1,2,0:0:0:0:
320,192,237153,128,2,237384:0:0:0:0:
64,192,237384,1,8,0:0:0:0:
448,192,237384,1,0,0:0:0:0:
192,192,237384,1,8,0:0:0:0:
192,192,237500,128,2,237730:0:0:0:0:
64,192,237500,1,2,0:0:0:0:
320,192,237500,1,4,0:0:0:0:
448,192,237500,1,0,0:0:0:0:
64,192,237730,1,0,0:0:0:0:
320,192,237730,1,8,0:0:0:0:
448,192,237730,1,8,0:0:0:0:
320,192,237846,128,2,238076:0:0:0:0:
448,192,237846,1,2,0:0:0:0:
192,192,237846,1,4,0:0:0:0:
64,192,237846,1,0,0:0:0:0:
64,192,238076,1,8,0:0:0:0:
192,192,238076,1,8,0:0:0:0:
448,192,238076,1,0,0:0:0:0:
320,192,238192,1,2,0:0:0:0:
448,192,238192,1,2,0:0:0:0:
64,192,238307,1,2,0:0:0:0:
192,192,238307,1,2,0:0:0:0:
192,192,238423,1,8,0:0:0:0:
64,192,238423,1,8,0:0:0:0:
448,192,238423,1,4,0:0:0:0:
320,192,238538,1,2,0:0:0:0:
192,192,238538,1,2,0:0:0:0:
64,192,238653,1,4,0:0:0:0:
448,192,238653,1,8,0:0:0:0:
320,192,238653,1,8,0:0:0:0:
320,192,238769,1,2,0:0:0:0:
448,192,238769,1,2,0:0:0:0:
320,192,238884,1,2,0:0:0:0:
448,192,238884,1,2,0:0:0:0:
192,192,239000,1,8,0:0:0:0:
64,192,239000,1,8,0:0:0:0:
448,192,239000,1,0,0:0:0:0:
192,192,239115,1,2,0:0:0:0:
64,192,239115,1,2,0:0:0:0:
192,192,239230,1,2,0:0:0:0:
64,192,239230,1,2,0:0:0:0:
64,192,239346,1,0,0:0:0:0:
320,192,239346,1,8,0:0:0:0:
448,192,239346,1,8,0:0:0:0:
320,192,239461,1,2,0:0:0:0:
448,192,239461,1,2,0:0:0:0:
320,192,239576,1,2,0:0:0:0:
448,192,239576,1,2,0:0:0:0:
448,192,239692,1,0,0:0:0:0:
192,192,239692,1,8,0:0:0:0:
64,192,239692,1,8,0:0:0:0:
192,192,239807,1,2,0:0:0:0:
64,192,239807,1,2,0:0:0:0:
64,192,239923,1,2,0:0:0:0:
192,192,239923,1,2,0:0:0:0:
320,192,240038,1,2,0:0:0:0:
448,192,240038,1,2,0:0:0:0:
320,192,240153,1,2,0:0:0:0:
448,192,240153,1,2,0:0:0:0:
64,192,240269,1,8,0:0:0:0:
192,192,240269,1,8,0:0:0:0:
448,192,240269,1,0,0:0:0:0:
320,192,240384,1,2,0:0:0:0:
192,192,240384,1,2,0:0:0:0:
64,192,240500,128,4,241192:0:0:0:0:
320,192,240500,128,2,241134:0:0:0:0:
448,192,240500,128,2,241134:0:0:0:0:
320,192,241192,1,2,0:0:0:0:
448,192,241192,1,2,0:0:0:0:
192,192,241250,1,2,0:0:0:0:
64,192,241250,1,2,0:0:0:0:
320,192,241307,1,2,0:0:0:0:
448,192,241307,1,2,0:0:0:0:
64,192,241423,1,8,0:0:0:0:
192,192,241423,1,8,0:0:0:0:
448,192,241423,1,0,0:0:0:0:
64,192,241538,128,2,241711:0:0:0:0:
192,192,241538,128,2,241711:0:0:0:0:
320,192,241538,128,4,241711:0:0:0:0:
448,192,241538,128,0,241711:0:0:0:0:
64,192,241769,1,2,0:0:0:0:
192,192,241769,1,2,0:0:0:0:
320,192,241769,1,4,0:0:0:0:
448,192,241769,1,0,0:0:0:0:
