osu file format v14

[General]
AudioFilename: audio.mp3
AudioLeadIn: 0
PreviewTime: 46242
Countdown: 0
SampleSet: Normal
StackLeniency: 0.7
Mode: 1
LetterboxInBreaks: 0
WidescreenStoryboard: 0

[Editor]
DistanceSpacing: 1.1
BeatDivisor: 4
GridSize: 32
TimelineZoom: 2.5

[Metadata]
Title:Walk This Way! (Cut Ver.)
TitleUnicode:Walk This Way! (Cut Ver.)
Artist:Kano
ArtistUnicode:鹿乃
Creator:Emre1504
Version:Oni!
Source:
Tags:ikin5050 hivie callmelyra yasuho capu vocalist j-pop japanese pop samfree stella-rium rock jrock j-rock jpop
BeatmapID:2777594
BeatmapSetID:1340827

[Difficulty]
HPDrainRate:5.5
CircleSize:5
OverallDifficulty:6
ApproachRate:5
SliderMultiplier:1.3
SliderTickRate:1

[Events]
//Background and Video events
0,0,"bg.jpg",0,-80
//Break Periods
//Storyboard Layer 0 (Background)
//Storyboard Layer 1 (Fail)
//Storyboard Layer 2 (Pass)
//Storyboard Layer 3 (Foreground)
//Storyboard Layer 4 (Overlay)
//Storyboard Sound Samples

[TimingPoints]
550,230.769230769231,4,1,0,50,1,0
550,-100,4,1,0,50,0,0
7011,-100,4,1,0,65,0,0
17165,-100,4,1,0,50,0,0
31934,-100,4,1,0,60,0,0
46703,-100,4,1,0,80,0,1
68857,-100,4,1,0,50,0,0
75319,-100,4,1,0,65,0,0
83626,-100,4,1,0,70,0,1
91011,-100,4,1,0,70,0,0

[HitObjects]
256,192,550,5,4,0:0:0:0:
256,192,1011,1,8,0:0:0:0:
256,192,1126,1,8,0:0:0:0:
256,192,1357,1,8,0:0:0:0:
256,192,1588,1,8,0:0:0:0:
256,192,1934,1,0,0:0:0:0:
256,192,2165,1,0,0:0:0:0:
256,192,2396,1,8,0:0:0:0:
256,192,2857,1,8,0:0:0:0:
256,192,2973,1,8,0:0:0:0:
256,192,3203,1,8,0:0:0:0:
256,192,3434,1,8,0:0:0:0:
256,192,3780,1,8,0:0:0:0:
256,192,4011,1,4,0:0:0:0:
256,192,4242,1,4,0:0:0:0:
256,192,4703,1,8,0:0:0:0:
256,192,4819,1,8,0:0:0:0:
256,192,5050,1,8,0:0:0:0:
256,192,5280,1,8,0:0:0:0:
256,192,5626,1,0,0:0:0:0:
256,192,5857,1,0,0:0:0:0:
256,192,6088,1,8,0:0:0:0:
256,192,6550,1,8,0:0:0:0:
256,192,6665,1,8,0:0:0:0:
256,192,7011,1,12,0:0:0:0:
256,192,7357,1,8,0:0:0:0:
256,192,7588,1,0,0:0:0:0:
256,192,7703,1,8,0:0:0:0:
256,192,7934,1,12,0:0:0:0:
256,192,8165,1,0,0:0:0:0:
256,192,8280,1,0,0:0:0:0:
256,192,8396,1,8,0:0:0:0:
256,192,8626,1,8,0:0:0:0:
256,192,8742,1,0,0:0:0:0:
256,192,8973,1,0,0:0:0:0:
256,192,9088,1,8,0:0:0:0:
256,192,9319,1,0,0:0:0:0:
256,192,9550,1,8,0:0:0:0:
256,192,9665,1,0,0:0:0:0:
256,192,9896,1,0,0:0:0:0:
256,192,10011,1,8,0:0:0:0:
256,192,10126,1,0,0:0:0:0:
256,192,10242,1,0,0:0:0:0:
256,192,10473,1,8,0:0:0:0:
256,192,10588,1,0,0:0:0:0:
256,192,10819,1,0,0:0:0:0:
256,192,10934,1,8,0:0:0:0:
256,192,10992,1,8,0:0:0:0:
256,192,11050,1,0,0:0:0:0:
256,192,11165,1,8,0:0:0:0:
256,192,11396,1,0,0:0:0:0:
256,192,11626,1,12,0:0:0:0:
256,192,11857,1,0,0:0:0:0:
256,192,11973,1,0,0:0:0:0:
256,192,12088,1,8,0:0:0:0:
256,192,12319,1,8,0:0:0:0:
256,192,12434,1,0,0:0:0:0:
256,192,12665,1,0,0:0:0:0:
256,192,12780,1,8,0:0:0:0:
256,192,13011,1,8,0:0:0:0:
256,192,13242,1,8,0:0:0:0:
256,192,13357,1,0,0:0:0:0:
256,192,13588,1,0,0:0:0:0:
256,192,13703,1,8,0:0:0:0:
256,192,13819,1,0,0:0:0:0:
256,192,13934,1,8,0:0:0:0:
256,192,14165,1,8,0:0:0:0:
256,192,14280,1,0,0:0:0:0:
256,192,14511,1,0,0:0:0:0:
256,192,14626,1,8,0:0:0:0:
256,192,14742,1,0,0:0:0:0:
256,192,14857,1,8,0:0:0:0:
256,192,14915,1,8,0:0:0:0:
256,192,14973,1,8,0:0:0:0:
256,192,15088,1,0,0:0:0:0:
256,192,15319,1,4,0:0:0:0:
256,192,15665,1,4,0:0:0:0:
256,192,16011,1,4,0:0:0:0:
256,192,16357,1,4,0:0:0:0:
256,192,16703,1,4,0:0:0:0:
256,192,16934,1,8,0:0:0:0:
256,192,17165,1,12,0:0:0:0:
256,192,17396,1,0,0:0:0:0:
256,192,17511,1,0,0:0:0:0:
256,192,17626,1,8,0:0:0:0:
256,192,17857,1,0,0:0:0:0:
256,192,17973,1,8,0:0:0:0:
256,192,18203,1,8,0:0:0:0:
256,192,18319,1,0,0:0:0:0:
256,192,18550,1,0,0:0:0:0:
256,192,18780,1,8,0:0:0:0:
256,192,19011,1,8,0:0:0:0:
256,192,19242,1,0,0:0:0:0:
256,192,19357,1,0,0:0:0:0:
256,192,19473,1,8,0:0:0:0:
256,192,19703,1,0,0:0:0:0:
256,192,19819,1,8,0:0:0:0:
256,192,20050,1,0,0:0:0:0:
256,192,20165,1,0,0:0:0:0:
256,192,20396,1,8,0:0:0:0:
256,192,20626,1,0,0:0:0:0:
256,192,20857,1,0,0:0:0:0:
256,192,21088,1,8,0:0:0:0:
256,192,21319,1,0,0:0:0:0:
256,192,21780,1,8,0:0:0:0:
256,192,22011,1,0,0:0:0:0:
256,192,22473,1,0,0:0:0:0:
256,192,22703,1,8,0:0:0:0:
256,192,22819,1,0,0:0:0:0:
256,192,22934,1,0,0:0:0:0:
256,192,23050,1,0,0:0:0:0:
256,192,23165,1,8,0:0:0:0:
256,192,23396,1,8,0:0:0:0:
256,192,23511,1,0,0:0:0:0:
256,192,23742,1,8,0:0:0:0:
256,192,23857,1,8,0:0:0:0:
256,192,23973,1,0,0:0:0:0:
256,192,24088,1,8,0:0:0:0:
256,192,24319,1,0,0:0:0:0:
256,192,24550,1,12,0:0:0:0:
256,192,24665,1,0,0:0:0:0:
256,192,24896,1,8,0:0:0:0:
256,192,25011,1,0,0:0:0:0:
256,192,25242,1,0,0:0:0:0:
256,192,25357,1,0,0:0:0:0:
256,192,25588,1,8,0:0:0:0:
256,192,25819,1,8,0:0:0:0:
256,192,25934,1,0,0:0:0:0:
256,192,26165,1,0,0:0:0:0:
256,192,26396,1,8,0:0:0:0:
256,192,26511,1,0,0:0:0:0:
256,192,26742,1,8,0:0:0:0:
256,192,26857,1,0,0:0:0:0:
256,192,26973,1,0,0:0:0:0:
256,192,27088,1,8,0:0:0:0:
256,192,27203,1,8,0:0:0:0:
256,192,27434,1,0,0:0:0:0:
256,192,27550,1,8,0:0:0:0:
256,192,27665,1,8,0:0:0:0:
256,192,27780,1,8,0:0:0:0:
256,192,28011,1,0,0:0:0:0:
256,192,28242,1,0,0:0:0:0:
256,192,28473,1,0,0:0:0:0:
256,192,28703,1,8,0:0:0:0:
256,192,29165,1,0,0:0:0:0:
256,192,29396,1,8,0:0:0:0:
256,192,29857,1,0,0:0:0:0:
256,192,30088,1,8,0:0:0:0:
256,192,30319,1,0,0:0:0:0:
256,192,30434,1,8,0:0:0:0:
256,192,30550,1,8,0:0:0:0:
256,192,30780,1,8,0:0:0:0:
256,192,30896,1,0,0:0:0:0:
256,192,31011,1,0,0:0:0:0:
256,192,31242,1,8,0:0:0:0:
256,192,31357,1,0,0:0:0:0:
256,192,31473,1,8,0:0:0:0:
256,192,31703,1,8,0:0:0:0:
256,192,31819,1,8,0:0:0:0:
256,192,31934,1,4,0:0:0:0:
256,192,32165,1,0,0:0:0:0:
256,192,32396,1,8,0:0:0:0:
256,192,32511,1,0,0:0:0:0:
256,192,32626,1,0,0:0:0:0:
256,192,32742,1,8,0:0:0:0:
256,192,32973,1,0,0:0:0:0:
256,192,33088,1,8,0:0:0:0:
256,192,33319,1,8,0:0:0:0:
256,192,33434,1,8,0:0:0:0:
256,192,33550,1,0,0:0:0:0:
256,192,33780,1,0,0:0:0:0:
256,192,34011,1,0,0:0:0:0:
256,192,34126,1,8,0:0:0:0:
256,192,34473,1,8,0:0:0:0:
256,192,34703,1,0,0:0:0:0:
256,192,34934,1,8,0:0:0:0:
256,192,35050,1,0,0:0:0:0:
256,192,35165,1,8,0:0:0:0:
256,192,35280,1,8,0:0:0:0:
256,192,35396,1,0,0:0:0:0:
256,192,35626,1,0,0:0:0:0:
256,192,35857,1,8,0:0:0:0:
256,192,36088,1,8,0:0:0:0:
256,192,36203,1,8,0:0:0:0:
256,192,36319,1,0,0:0:0:0:
256,192,36434,1,8,0:0:0:0:
256,192,36780,1,8,0:0:0:0:
256,192,37011,1,8,0:0:0:0:
256,192,37126,1,0,0:0:0:0:
256,192,37242,1,8,0:0:0:0:
256,192,37473,1,8,0:0:0:0:
256,192,37588,1,8,0:0:0:0:
256,192,37703,1,0,0:0:0:0:
256,192,37819,1,8,0:0:0:0:
256,192,38050,1,0,0:0:0:0:
256,192,38165,1,8,0:0:0:0:
256,192,38626,1,8,0:0:0:0:
256,192,38857,1,0,0:0:0:0:
256,192,39319,1,12,0:0:0:0:
256,192,39434,1,12,0:0:0:0:
256,192,39550,1,12,0:0:0:0:
256,192,39665,1,4,0:0:0:0:
256,192,39896,1,0,0:0:0:0:
256,192,40126,1,12,0:0:0:0:
256,192,41165,1,4,0:0:0:0:
256,192,41280,1,4,0:0:0:0:
256,192,41396,1,4,0:0:0:0:
256,192,41511,1,12,0:0:0:0:
256,192,41742,1,8,0:0:0:0:
256,192,41973,1,4,0:0:0:0:
256,192,42319,1,0,0:0:0:0:
256,192,42550,1,8,0:0:0:0:
256,192,42780,1,8,0:0:0:0:
256,192,43011,1,12,0:0:0:0:
256,192,43242,1,0,0:0:0:0:
256,192,43357,1,0,0:0:0:0:
256,192,43473,1,8,0:0:0:0:
256,192,43703,1,0,0:0:0:0:
256,192,43819,1,8,0:0:0:0:
256,192,44165,1,8,0:0:0:0:
256,192,44280,1,0,0:0:0:0:
256,192,44396,1,8,0:0:0:0:
256,192,44626,1,0,0:0:0:0:
256,192,44857,1,12,0:0:0:0:
256,192,45088,1,0,0:0:0:0:
256,192,45203,1,12,0:0:0:0:
256,192,45434,1,8,0:0:0:0:
256,192,45550,1,4,0:0:0:0:
256,192,46242,1,0,0:0:0:0:
256,192,46473,1,8,0:0:0:0:
256,192,46703,1,12,0:0:0:0:
256,192,46934,1,0,0:0:0:0:
256,192,47050,1,0,0:0:0:0:
256,192,47165,1,8,0:0:0:0:
256,192,47223,1,8,0:0:0:0:
256,192,47280,1,0,0:0:0:0:
256,192,47396,1,0,0:0:0:0:
256,192,47511,1,8,0:0:0:0:
256,192,47626,1,0,0:0:0:0:
256,192,47857,1,8,0:0:0:0:
256,192,47973,1,0,0:0:0:0:
256,192,48088,1,8,0:0:0:0:
256,192,48203,1,8,0:0:0:0:
256,192,48319,1,0,0:0:0:0:
256,192,48550,1,8,0:0:0:0:
256,192,48780,1,8,0:0:0:0:
256,192,48896,1,0,0:0:0:0:
256,192,49011,1,0,0:0:0:0:
256,192,49069,1,0,0:0:0:0:
256,192,49126,1,0,0:0:0:0:
256,192,49242,1,8,0:0:0:0:
256,192,49357,1,8,0:0:0:0:
256,192,49473,1,0,0:0:0:0:
256,192,49703,1,8,0:0:0:0:
256,192,49934,1,8,0:0:0:0:
256,192,50050,1,0,0:0:0:0:
256,192,50165,1,8,0:0:0:0:
256,192,50396,1,8,0:0:0:0:
256,192,50453,1,8,0:0:0:0:
256,192,50511,1,8,0:0:0:0:
256,192,50626,1,0,0:0:0:0:
256,192,50742,1,8,0:0:0:0:
256,192,50857,1,0,0:0:0:0:
256,192,51088,1,8,0:0:0:0:
256,192,51146,1,8,0:0:0:0:
256,192,51203,1,8,0:0:0:0:
256,192,51319,1,0,0:0:0:0:
256,192,51434,1,8,0:0:0:0:
256,192,51550,1,8,0:0:0:0:
256,192,51780,1,8,0:0:0:0:
256,192,51896,1,0,0:0:0:0:
256,192,52011,1,8,0:0:0:0:
256,192,52242,1,8,0:0:0:0:
256,192,52300,1,8,0:0:0:0:
256,192,52357,1,8,0:0:0:0:
256,192,52473,1,0,0:0:0:0:
256,192,52588,1,8,0:0:0:0:
256,192,52703,1,0,0:0:0:0:
256,192,52934,1,8,0:0:0:0:
256,192,52992,1,8,0:0:0:0:
256,192,53050,1,8,0:0:0:0:
256,192,53165,1,0,0:0:0:0:
256,192,53280,1,8,0:0:0:0:
256,192,53396,1,8,0:0:0:0:
256,192,53626,1,8,0:0:0:0:
256,192,53742,1,0,0:0:0:0:
256,192,53857,1,8,0:0:0:0:
256,192,54088,1,12,0:0:0:0:
256,192,54319,1,8,0:0:0:0:
256,192,54434,1,0,0:0:0:0:
256,192,54550,1,8,0:0:0:0:
256,192,54608,1,8,0:0:0:0:
256,192,54665,1,0,0:0:0:0:
256,192,54780,1,0,0:0:0:0:
256,192,54896,1,8,0:0:0:0:
256,192,55011,1,0,0:0:0:0:
256,192,55242,1,8,0:0:0:0:
256,192,55357,1,0,0:0:0:0:
256,192,55473,1,8,0:0:0:0:
256,192,55530,1,8,0:0:0:0:
256,192,55588,1,8,0:0:0:0:
256,192,55703,1,0,0:0:0:0:
256,192,55934,1,8,0:0:0:0:
256,192,56165,1,8,0:0:0:0:
256,192,56280,1,0,0:0:0:0:
256,192,56396,1,8,0:0:0:0:
256,192,56453,1,8,0:0:0:0:
256,192,56511,1,0,0:0:0:0:
256,192,56626,1,0,0:0:0:0:
256,192,56742,1,8,0:0:0:0:
256,192,56857,1,0,0:0:0:0:
256,192,57088,1,8,0:0:0:0:
256,192,57203,1,0,0:0:0:0:
256,192,57319,1,0,0:0:0:0:
256,192,57376,1,0,0:0:0:0:
256,192,57434,1,0,0:0:0:0:
256,192,57550,1,8,0:0:0:0:
256,192,57780,1,0,0:0:0:0:
256,192,57838,1,0,0:0:0:0:
256,192,57896,1,0,0:0:0:0:
256,192,58011,1,8,0:0:0:0:
256,192,58126,1,0,0:0:0:0:
256,192,58242,1,0,0:0:0:0:
256,192,58473,1,8,0:0:0:0:
256,192,58530,1,8,0:0:0:0:
256,192,58588,1,8,0:0:0:0:
256,192,58703,1,0,0:0:0:0:
256,192,58819,1,8,0:0:0:0:
256,192,58934,1,8,0:0:0:0:
256,192,59165,1,8,0:0:0:0:
256,192,59396,1,0,0:0:0:0:
256,192,59626,1,0,0:0:0:0:
261,192,59684,1,0,0:0:0:0:
256,192,59742,1,0,0:0:0:0:
256,192,59857,1,8,0:0:0:0:
256,192,59973,1,0,0:0:0:0:
256,192,60088,1,0,0:0:0:0:
256,192,60319,1,8,0:0:0:0:
256,192,60376,1,8,0:0:0:0:
256,192,60434,1,8,0:0:0:0:
256,192,60550,1,0,0:0:0:0:
256,192,60665,1,8,0:0:0:0:
256,192,60780,1,8,0:0:0:0:
256,192,61011,1,8,0:0:0:0:
256,192,61126,1,0,0:0:0:0:
256,192,61242,1,8,0:0:0:0:
256,192,61473,1,4,0:0:0:0:
256,192,61588,1,8,0:0:0:0:
256,192,61703,1,0,0:0:0:0:
256,192,61819,1,8,0:0:0:0:
260,190,61876,1,8,0:0:0:0:
256,192,61934,1,0,0:0:0:0:
256,192,62050,1,0,0:0:0:0:
256,192,62280,1,8,0:0:0:0:
256,192,62511,1,8,0:0:0:0:
256,192,62742,1,0,0:0:0:0:
256,192,62800,1,0,0:0:0:0:
256,192,62857,1,8,0:0:0:0:
256,192,62973,1,0,0:0:0:0:
256,192,63088,1,8,0:0:0:0:
256,192,63319,1,8,0:0:0:0:
256,192,63434,1,0,0:0:0:0:
256,192,63492,1,0,0:0:0:0:
256,192,63550,1,0,0:0:0:0:
256,192,63665,1,8,0:0:0:0:
256,192,63896,1,0,0:0:0:0:
256,192,64126,1,8,0:0:0:0:
256,192,64242,1,0,0:0:0:0:
256,192,64357,1,0,0:0:0:0:
256,192,64473,1,8,0:0:0:0:
256,192,64530,1,8,0:0:0:0:
256,192,64588,1,8,0:0:0:0:
256,192,64703,1,0,0:0:0:0:
256,192,64934,1,0,0:0:0:0:
256,192,65165,1,12,0:0:0:0:
256,192,65396,1,0,0:0:0:0:
256,192,65626,1,8,0:0:0:0:
256,192,65742,1,8,0:0:0:0:
256,192,65857,1,0,0:0:0:0:
256,192,65973,1,8,0:0:0:0:
256,192,66203,1,0,0:0:0:0:
256,192,66319,1,8,0:0:0:0:
256,192,66550,1,8,0:0:0:0:
256,192,66665,1,0,0:0:0:0:
256,192,66780,1,8,0:0:0:0:
256,192,66896,1,8,0:0:0:0:
256,192,67011,1,0,0:0:0:0:
256,192,67242,1,8,0:0:0:0:
256,192,67357,1,0,0:0:0:0:
256,192,67588,1,0,0:0:0:0:
256,192,67703,1,8,0:0:0:0:
256,192,67934,1,8,0:0:0:0:
256,192,67992,1,8,0:0:0:0:
256,192,68050,1,8,0:0:0:0:
256,192,68165,1,0,0:0:0:0:
256,192,68280,1,0,0:0:0:0:
256,192,68396,1,8,0:0:0:0:
256,192,68511,1,0,0:0:0:0:
256,192,68626,1,8,0:0:0:0:
256,192,68684,1,8,0:0:0:0:
256,192,68742,1,8,0:0:0:0:
256,192,68800,1,8,0:0:0:0:
256,192,68857,1,0,0:0:0:0:
256,192,69319,1,8,0:0:0:0:
256,192,69780,1,8,0:0:0:0:
256,192,69896,1,0,0:0:0:0:
256,192,70126,1,0,0:0:0:0:
256,192,70703,1,8,0:0:0:0:
256,192,70934,1,8,0:0:0:0:
256,192,71165,1,8,0:0:0:0:
256,192,71396,1,0,0:0:0:0:
256,192,71626,1,8,0:0:0:0:
256,192,71742,1,8,0:0:0:0:
256,192,71973,1,0,0:0:0:0:
256,192,72319,1,0,0:0:0:0:
256,192,72550,1,8,0:0:0:0:
256,192,73011,1,8,0:0:0:0:
256,192,73473,1,0,0:0:0:0:
256,192,73588,1,8,0:0:0:0:
256,192,73819,1,0,0:0:0:0:
256,192,74396,1,0,0:0:0:0:
256,192,74626,1,0,0:0:0:0:
256,192,74857,1,0,0:0:0:0:
256,192,75088,1,8,0:0:0:0:
256,192,75319,1,4,0:0:0:0:
256,192,75434,1,8,0:0:0:0:
256,192,75665,1,8,0:0:0:0:
256,192,75896,1,0,0:0:0:0:
256,192,76011,1,12,0:0:0:0:
256,192,76242,1,4,0:0:0:0:
256,192,76473,1,0,0:0:0:0:
256,192,76588,1,0,0:0:0:0:
256,192,76703,1,8,0:0:0:0:
256,192,76934,1,8,0:0:0:0:
256,192,77050,1,0,0:0:0:0:
256,192,77280,1,0,0:0:0:0:
256,192,77396,1,8,0:0:0:0:
256,192,77626,1,8,0:0:0:0:
256,192,77857,1,8,0:0:0:0:
256,192,77973,1,0,0:0:0:0:
256,192,78203,1,0,0:0:0:0:
256,192,78319,1,8,0:0:0:0:
256,192,78434,1,0,0:0:0:0:
256,192,78550,1,8,0:0:0:0:
256,192,78780,1,8,0:0:0:0:
256,192,78896,1,0,0:0:0:0:
256,192,79126,1,0,0:0:0:0:
256,192,79242,1,8,0:0:0:0:
256,192,79357,1,0,0:0:0:0:
256,192,79473,1,8,0:0:0:0:
256,192,79530,1,8,0:0:0:0:
256,192,79588,1,8,0:0:0:0:
256,192,79703,1,0,0:0:0:0:
256,192,79934,1,12,0:0:0:0:
256,192,80165,1,8,0:0:0:0:
256,192,80280,1,0,0:0:0:0:
256,192,80396,1,8,0:0:0:0:
256,192,80626,1,8,0:0:0:0:
256,192,80742,1,0,0:0:0:0:
256,192,80973,1,0,0:0:0:0:
256,192,81088,1,8,0:0:0:0:
256,192,81203,1,0,0:0:0:0:
256,192,81319,1,8,0:0:0:0:
256,192,81550,1,8,0:0:0:0:
256,192,81665,1,0,0:0:0:0:
256,192,81896,1,0,0:0:0:0:
256,192,82011,1,8,0:0:0:0:
256,192,82242,1,8,0:0:0:0:
256,192,82357,1,8,0:0:0:0:
256,192,82473,1,0,0:0:0:0:
256,192,82588,1,8,0:0:0:0:
256,192,82819,1,0,0:0:0:0:
256,192,82934,1,8,0:0:0:0:
256,192,83050,1,0,0:0:0:0:
256,192,83165,1,8,0:0:0:0:
256,192,83223,1,8,0:0:0:0:
256,192,83280,1,0,0:0:0:0:
256,192,83396,1,0,0:0:0:0:
256,192,83626,1,4,0:0:0:0:
256,192,83857,1,8,0:0:0:0:
256,192,84088,1,8,0:0:0:0:
256,192,84146,1,8,0:0:0:0:
256,192,84203,1,0,0:0:0:0:
256,192,84319,1,8,0:0:0:0:
256,192,84434,1,0,0:0:0:0:
256,192,84665,1,0,0:0:0:0:
256,192,84780,1,8,0:0:0:0:
256,192,84896,1,0,0:0:0:0:
256,192,85011,1,8,0:0:0:0:
256,192,85069,1,8,0:0:0:0:
256,192,85126,1,8,0:0:0:0:
256,192,85242,1,8,0:0:0:0:
256,192,85357,1,0,0:0:0:0:
256,192,85588,1,0,0:0:0:0:
256,192,85703,1,8,0:0:0:0:
256,192,85934,1,8,0:0:0:0:
256,192,85992,1,8,0:0:0:0:
256,192,86050,1,8,0:0:0:0:
256,192,86165,1,8,0:0:0:0:
256,192,86280,1,0,0:0:0:0:
256,192,86511,1,0,0:0:0:0:
256,192,86626,1,8,0:0:0:0:
256,192,86742,1,0,0:0:0:0:
256,192,86857,1,8,0:0:0:0:
256,192,86915,1,8,0:0:0:0:
256,192,86973,1,8,0:0:0:0:
256,192,87088,1,0,0:0:0:0:
256,192,87319,1,12,0:0:0:0:
256,192,87550,1,8,0:0:0:0:
256,192,87665,1,0,0:0:0:0:
256,192,87780,1,8,0:0:0:0:
261,189,87838,1,8,0:0:0:0:
256,192,87896,1,0,0:0:0:0:
256,192,88011,1,8,0:0:0:0:
256,192,88126,1,0,0:0:0:0:
256,192,88357,1,0,0:0:0:0:
256,192,88473,1,8,0:0:0:0:
256,192,88703,1,8,0:0:0:0:
256,192,88761,1,8,0:0:0:0:
256,192,88819,1,8,0:0:0:0:
256,192,88934,1,8,0:0:0:0:
256,192,89050,1,0,0:0:0:0:
256,192,89280,1,0,0:0:0:0:
256,192,89396,1,8,0:0:0:0:
256,192,89626,1,8,0:0:0:0:
256,192,89684,1,8,0:0:0:0:
256,192,89742,1,8,0:0:0:0:
256,192,89857,1,0,0:0:0:0:
256,192,89973,1,8,0:0:0:0:
256,192,90203,1,0,0:0:0:0:
256,192,90319,1,8,0:0:0:0:
256,192,90434,1,0,0:0:0:0:
256,192,90550,1,8,0:0:0:0:
256,192,90607,1,8,0:0:0:0:
256,192,90665,1,0,0:0:0:0:
256,192,90723,1,0,0:0:0:0:
256,192,90780,1,8,0:0:0:0:
256,192,90896,1,0,0:0:0:0:
256,192,91011,1,12,0:0:0:0:
256,192,91242,1,0,0:0:0:0:
256,192,91357,1,12,0:0:0:0:
256,192,91588,1,0,0:0:0:0:
256,192,91703,1,12,0:0:0:0:
256,192,91934,1,0,0:0:0:0:
256,192,92050,1,12,0:0:0:0:
256,192,92280,1,0,0:0:0:0:
256,192,92396,1,0,0:0:0:0:
256,192,92626,1,8,0:0:0:0:
256,192,92857,1,12,0:0:0:0:
256,192,93088,1,0,0:0:0:0:
256,192,93203,1,12,0:0:0:0:
256,192,93434,1,0,0:0:0:0:
256,192,93550,1,12,0:0:0:0:
256,192,93780,1,0,0:0:0:0:
256,192,93896,1,12,0:0:0:0:
256,192,94126,1,8,0:0:0:0:
256,192,94242,1,0,0:0:0:0:
256,192,94473,1,8,0:0:0:0:
256,192,94703,1,8,0:0:0:0:
256,192,94819,1,0,0:0:0:0:
256,192,94934,1,0,0:0:0:0:
256,192,95050,1,8,0:0:0:0:
256,192,95280,1,0,0:0:0:0:
256,192,95396,1,8,0:0:0:0:
256,192,95626,1,0,0:0:0:0:
256,192,95742,1,8,0:0:0:0:
256,192,95857,1,0,0:0:0:0:
256,192,95973,1,0,0:0:0:0:
256,192,96088,1,8,0:0:0:0:
256,192,96203,1,8,0:0:0:0:
256,192,96319,1,0,0:0:0:0:
256,192,96550,1,12,0:0:0:0:
256,192,97242,1,0,0:0:0:0:
256,192,97300,1,0,0:0:0:0:
256,192,97357,1,8,0:0:0:0:
256,192,97473,1,0,0:0:0:0:
256,192,97588,1,12,0:0:0:0:
256,192,97819,1,12,0:0:0:0:
