osu file format v14

[General]
AudioFilename: audio.mp3
AudioLeadIn: 0
PreviewTime: 46242
Countdown: 0
SampleSet: Normal
StackLeniency: 0.7
Mode: 1
LetterboxInBreaks: 0
WidescreenStoryboard: 1

[Editor]
DistanceSpacing: 1.1
BeatDivisor: 4
GridSize: 32
TimelineZoom: 0.8999999

[Metadata]
Title:Walk This Way! (Cut Ver.)
TitleUnicode:Walk This Way! (Cut Ver.)
Artist:Kano
ArtistUnicode:鹿乃
Creator:Emre1504
Version:Lyra's Kantan!
Source:
Tags:ikin5050 hivie callmelyra yasuho capu vocalist j-pop japanese pop samfree stella-rium rock jrock j-rock jpop
BeatmapID:2920849
BeatmapSetID:1340827

[Difficulty]
HPDrainRate:8
CircleSize:7
OverallDifficulty:3
ApproachRate:10
SliderMultiplier:1.4
SliderTickRate:1

[Events]
//Background and Video events
0,0,"bg.jpg",0,-80
//Break Periods
//Storyboard Layer 0 (Background)
//Storyboard Layer 1 (Fail)
//Storyboard Layer 2 (Pass)
//Storyboard Layer 3 (Foreground)
//Storyboard Layer 4 (Overlay)
//Storyboard Sound Samples

[TimingPoints]
550,230.769230769231,4,1,0,50,1,0
550,-166.666666666667,4,1,0,50,0,0
7011,-166.666666666667,4,1,0,65,0,0
17165,-166.666666666667,4,1,0,50,0,0
31934,-166.666666666667,4,1,0,60,0,0
46703,-166.666666666667,4,1,0,80,0,1
68857,-166.666666666667,4,1,0,50,0,0
75319,-166.666666666667,4,1,0,65,0,0
83626,-166.666666666667,4,1,0,70,0,1
91011,-166.666666666667,4,1,0,70,0,0

[HitObjects]
196,206,550,5,12,0:0:0:0:
151,205,1011,1,0,0:0:0:0:
151,205,1934,1,0,0:0:0:0:
151,204,2857,1,0,0:0:0:0:
181,191,3780,1,8,0:0:0:0:
176,179,4242,1,12,0:0:0:0:
172,177,4703,1,0,0:0:0:0:
171,173,5626,1,0,0:0:0:0:
191,84,6550,1,0,0:0:0:0:
197,137,7011,1,12,0:0:0:0:
191,208,7357,1,0,0:0:0:0:
168,189,7934,1,4,0:0:0:0:
95,167,8742,1,0,0:0:0:0:
160,177,9319,1,8,0:0:0:0:
95,167,9665,1,0,0:0:0:0:
160,177,10242,1,8,0:0:0:0:
181,193,10588,1,0,0:0:0:0:
166,167,11165,1,0,0:0:0:0:
134,197,11626,1,12,0:0:0:0:
95,167,12434,1,0,0:0:0:0:
191,137,13011,1,8,0:0:0:0:
95,167,13357,1,0,0:0:0:0:
160,177,13934,1,8,0:0:0:0:
181,193,14280,1,0,0:0:0:0:
166,167,14857,1,8,0:0:0:0:
170,206,15319,1,8,0:0:0:0:
110,167,16357,1,0,0:0:0:0:
132,114,16703,1,0,0:0:0:0:
195,178,17165,1,12,0:0:0:0:
197,269,17626,1,8,0:0:0:0:
180,242,18319,1,0,0:0:0:0:
180,240,18550,1,8,0:0:0:0:
180,240,19011,1,0,0:0:0:0:
181,240,19473,1,8,0:0:0:0:
181,240,20165,1,0,0:0:0:0:
157,202,20396,1,8,0:0:0:0:
160,173,21319,1,8,0:0:0:0:
160,173,22011,1,8,0:0:0:0:
153,172,22703,1,0,0:0:0:0:
152,172,23165,1,8,0:0:0:0:
151,171,23626,1,0,0:0:0:0:
150,171,24088,1,0,0:0:0:0:
149,171,24550,1,12,0:0:0:0:
197,269,25011,1,8,0:0:0:0:
180,242,25703,1,0,0:0:0:0:
180,240,25935,1,8,0:0:0:0:
180,240,26396,1,0,0:0:0:0:
181,240,26858,1,8,0:0:0:0:
181,240,27319,1,0,0:0:0:0:
157,202,27781,1,0,0:0:0:0:
160,173,28704,1,8,0:0:0:0:
160,173,29396,1,8,0:0:0:0:
185,230,30088,1,0,0:0:0:0:
143,235,30550,1,8,0:0:0:0:
151,223,31011,1,0,0:0:0:0:
154,224,31473,1,8,0:0:0:0:
155,225,31934,1,0,0:0:0:0:
220,210,32396,1,0,0:0:0:0:
220,210,32742,1,8,0:0:0:0:
223,209,33319,1,8,0:0:0:0:
162,182,33780,1,8,0:0:0:0:
158,51,34126,1,0,0:0:0:0:
186,163,34473,1,8,0:0:0:0:
142,188,35165,1,8,0:0:0:0:
147,132,36088,1,0,0:0:0:0:
163,194,36434,1,8,0:0:0:0:
173,193,37011,1,8,0:0:0:0:
186,183,37473,1,0,0:0:0:0:
200,47,37819,1,0,0:0:0:0:
174,193,38165,1,8,0:0:0:0:
69,176,38857,1,0,0:0:0:0:
69,176,39319,1,12,0:0:0:0:
187,167,40126,1,12,0:0:0:0:
208,182,41165,1,12,0:0:0:0:
121,148,41973,1,0,0:0:0:0:
206,226,42550,1,0,0:0:0:0:
148,208,43011,1,12,0:0:0:0:
182,243,43357,1,8,0:0:0:0:
189,222,44165,1,0,0:0:0:0:
188,100,44396,1,8,0:0:0:0:
208,169,44857,1,12,0:0:0:0:
211,170,45203,1,12,0:0:0:0:
108,175,45550,1,4,0:0:0:0:
123,170,46703,1,12,0:0:0:0:
144,78,47511,5,8,0:0:0:0:
149,167,47857,1,0,0:0:0:0:
164,127,48088,1,0,0:0:0:0:
152,168,48550,1,8,0:0:0:0:
146,74,49357,1,8,0:0:0:0:
168,132,49703,1,8,0:0:0:0:
174,126,49934,1,0,0:0:0:0:
129,201,50396,1,8,0:0:0:0:
139,170,50742,1,0,0:0:0:0:
159,153,51088,1,8,0:0:0:0:
171,200,51434,1,0,0:0:0:0:
186,251,52242,1,8,0:0:0:0:
199,234,52588,1,0,0:0:0:0:
199,234,52934,1,8,0:0:0:0:
186,207,53280,1,0,0:0:0:0:
192,205,54088,1,12,0:0:0:0:
206,211,54896,1,8,0:0:0:0:
93,156,55242,1,0,0:0:0:0:
103,163,55473,1,0,0:0:0:0:
106,164,55934,1,8,0:0:0:0:
75,171,56742,1,8,0:0:0:0:
232,217,57088,1,8,0:0:0:0:
234,219,57319,1,0,0:0:0:0:
207,167,57780,1,0,0:0:0:0:
171,59,58126,1,8,0:0:0:0:
143,155,58473,1,0,0:0:0:0:
234,219,58819,5,8,0:0:0:0:
232,92,59626,1,0,0:0:0:0:
277,175,59972,1,8,0:0:0:0:
190,90,60318,1,0,0:0:0:0:
208,209,60665,1,8,0:0:0:0:
167,189,61473,1,0,0:0:0:0:
151,102,62280,1,8,0:0:0:0:
164,127,62511,1,0,0:0:0:0:
92,179,62857,1,0,0:0:0:0:
179,200,63319,1,8,0:0:0:0:
235,91,64126,1,0,0:0:0:0:
234,233,64473,1,8,0:0:0:0:
234,233,64703,1,0,0:0:0:0:
36,245,65165,1,8,0:0:0:0:
96,229,65973,1,0,0:0:0:0:
96,229,66550,1,8,0:0:0:0:
97,221,67011,1,0,0:0:0:0:
96,222,67703,1,0,0:0:0:0:
96,222,67934,1,8,0:0:0:0:
190,203,68396,1,8,0:0:0:0:
188,198,68857,1,4,0:0:0:0:
208,254,69319,1,0,0:0:0:0:
208,252,70242,1,0,0:0:0:0:
208,252,71165,1,0,0:0:0:0:
134,166,72088,1,0,0:0:0:0:
147,127,72550,1,4,0:0:0:0:
124,184,73011,1,0,0:0:0:0:
117,157,73934,1,0,0:0:0:0:
135,160,74857,1,0,0:0:0:0:
135,160,75319,1,12,0:0:0:0:
168,189,76242,1,4,0:0:0:0:
95,167,77050,1,0,0:0:0:0:
160,177,77627,1,8,0:0:0:0:
95,167,77973,1,0,0:0:0:0:
160,177,78550,1,8,0:0:0:0:
181,193,78896,1,0,0:0:0:0:
166,167,79473,1,0,0:0:0:0:
134,197,79934,1,12,0:0:0:0:
95,167,80742,1,0,0:0:0:0:
191,137,81319,1,8,0:0:0:0:
95,167,81665,1,0,0:0:0:0:
160,177,82242,1,8,0:0:0:0:
181,193,82588,1,0,0:0:0:0:
166,167,83165,1,8,0:0:0:0:
170,206,83627,1,12,0:0:0:0:
95,167,84550,1,0,0:0:0:0:
160,177,85011,1,8,0:0:0:0:
95,167,85473,1,0,0:0:0:0:
160,177,85934,1,8,0:0:0:0:
95,167,86396,1,0,0:0:0:0:
166,167,86857,1,0,0:0:0:0:
166,167,87088,1,0,0:0:0:0:
134,197,87318,1,12,0:0:0:0:
95,167,88242,1,0,0:0:0:0:
160,177,88703,1,8,0:0:0:0:
95,167,89165,1,0,0:0:0:0:
160,177,89626,1,8,0:0:0:0:
95,167,90088,1,0,0:0:0:0:
95,167,90319,1,0,0:0:0:0:
95,167,90550,1,0,0:0:0:0:
170,206,91011,1,8,0:0:0:0:
181,193,91357,1,0,0:0:0:0:
181,193,91703,1,0,0:0:0:0:
181,193,92050,1,0,0:0:0:0:
170,206,92857,1,8,0:0:0:0:
181,193,93203,1,0,0:0:0:0:
181,193,93549,1,0,0:0:0:0:
181,193,93896,1,0,0:0:0:0:
170,206,94703,1,8,0:0:0:0:
181,193,95049,1,0,0:0:0:0:
181,193,95395,1,8,0:0:0:0:
181,193,95742,1,8,0:0:0:0:
181,193,96088,1,0,0:0:0:0:
181,193,96319,1,0,0:0:0:0:
181,193,96550,1,12,0:0:0:0:
170,206,97588,5,12,0:0:0:0:
170,206,97819,5,12,0:0:0:0:
