osu file format v14

[General]
AudioFilename: audio.mp3
AudioLeadIn: 0
PreviewTime: 46242
Countdown: 0
SampleSet: Soft
StackLeniency: 0.7
Mode: 3
LetterboxInBreaks: 0
SpecialStyle: 0
WidescreenStoryboard: 1

[Editor]
Bookmarks: 7934,17165,31934,45780,56396,68857,76242,83626,91011
DistanceSpacing: 0.5
BeatDivisor: 4
GridSize: 4
TimelineZoom: 2.2

[Metadata]
Title:Walk This Way! (Cut Ver.)
TitleUnicode:Walk This Way! (Cut Ver.)
Artist:Kano
ArtistUnicode:鹿乃
Creator:DenYi
Version:Hyper!
Source:
Tags:Drum-Hitnormal dudehacker Lami- stella-rium niconico samfree hatsune miku vocaloid Nowhere japanese vocalist jrock j-rock rock jpop j-pop pop female vocals 初音ミク cut version
BeatmapID:3494088
BeatmapSetID:1709954

[Difficulty]
HPDrainRate:7.5
CircleSize:4
OverallDifficulty:7.5
ApproachRate:5
SliderMultiplier:1.4
SliderTickRate:1

[Events]
//Background and Video events
0,0,"hd.jpg",0,0
//Break Periods
//Storyboard Layer 0 (Background)
//Storyboard Layer 1 (Fail)
//Storyboard Layer 2 (Pass)
//Storyboard Layer 3 (Foreground)
//Storyboard Layer 4 (Overlay)
//Storyboard Sound Samples
Sample,94357,0,"Tom 3.wav",70

[TimingPoints]
550,230.769230769231,4,2,1,50,1,0
46703,-100,4,2,1,50,0,1
68857,-100,4,2,1,50,0,0

[HitObjects]
192,192,550,5,4,0:0:0:0:
320,192,550,128,2,780:0:0:0:0:
448,192,550,128,0,1011:0:0:0:0:
64,192,1011,128,2,1126:0:0:0:0:
192,192,1011,1,0,0:0:0:0:
320,192,1126,128,0,1242:0:0:0:0:
448,192,1242,1,0,0:0:0:0:
192,192,1357,128,0,1473:0:0:0:0:
320,192,1473,1,0,0:0:0:0:
192,192,1588,128,0,1703:0:0:0:0:
64,192,1703,1,0,0:0:0:0:
320,192,1819,1,0,0:0:0:0:
192,192,1934,1,2,0:0:0:0:
448,192,1934,128,0,2165:0:0:0:0:
64,192,2050,1,0,0:0:0:0:
320,192,2165,128,0,2396:0:0:0:0:
192,192,2280,1,0,0:0:0:0:
64,192,2396,128,0,2511:0:0:0:0:
448,192,2511,128,0,2626:0:0:0:0:
320,192,2626,1,0,0:0:0:0:
64,192,2742,1,0,0:0:0:0:
192,192,2857,1,2,0:0:0:0:
448,192,2857,128,0,2973:0:0:0:0:
64,192,2973,128,0,3088:0:0:0:0:
320,192,3088,1,0,0:0:0:0:
192,192,3203,128,0,3319:0:0:0:0:
448,192,3319,1,0,0:0:0:0:
192,192,3434,128,0,3550:0:0:0:0:
64,192,3550,1,0,0:0:0:0:
320,192,3665,1,0,0:0:0:0:
64,192,3780,128,2,4242:0:0:0:0:
448,192,3780,1,0,0:0:0:0:
192,192,4011,128,0,4242:0:0:0:0:
320,192,4242,128,2,4473:0:0:0:0:
448,192,4242,128,0,4703:0:0:0:0:
64,192,4703,128,2,4819:0:0:0:0:
192,192,4703,1,0,0:0:0:0:
320,192,4819,128,0,4934:0:0:0:0:
448,192,4934,1,0,0:0:0:0:
192,192,5050,128,0,5165:0:0:0:0:
320,192,5165,1,0,0:0:0:0:
192,192,5280,128,0,5396:0:0:0:0:
448,192,5396,1,0,0:0:0:0:
64,192,5511,1,0,0:0:0:0:
192,192,5626,1,2,0:0:0:0:
448,192,5626,128,0,5857:0:0:0:0:
320,192,5742,1,0,0:0:0:0:
64,192,5857,128,0,6088:0:0:0:0:
192,192,5973,1,0,0:0:0:0:
320,192,6088,128,0,6203:0:0:0:0:
192,192,6203,128,0,6319:0:0:0:0:
64,192,6319,1,0,0:0:0:0:
448,192,6434,1,0,0:0:0:0:
64,192,6550,128,2,6665:0:0:0:0:
192,192,6550,1,0,0:0:0:0:
448,192,6665,128,0,6780:0:0:0:0:
320,192,6780,1,0,0:0:0:0:
192,192,6896,1,0,0:0:0:0:
64,192,7011,1,8,0:0:0:0:
448,192,7011,1,0,0:0:0:0:
320,192,7126,1,2,0:0:0:0:
64,192,7357,1,2,0:0:0:0:
448,192,7357,1,0,0:0:0:0:
192,192,7588,1,2,0:0:0:0:
64,192,7703,1,8,0:0:0:0:
320,192,7703,1,4,0:0:0:0:
448,192,7703,1,0,0:0:0:0:
64,192,7934,1,2,0:0:0:0:
192,192,7934,128,4,8165:0:0:0:0:
448,192,7934,1,0,0:0:0:0:
320,192,8165,1,8,0:0:0:0:
448,192,8165,128,0,8396:0:0:0:0:
64,192,8396,1,2,0:0:0:0:
320,192,8396,1,0,0:0:0:0:
192,192,8511,1,2,0:0:0:0:
320,192,8626,1,8,0:0:0:0:
448,192,8626,1,0,0:0:0:0:
64,192,8742,128,2,9088:0:0:0:0:
192,192,8742,1,0,0:0:0:0:
320,192,8973,1,2,0:0:0:0:
192,192,9088,1,8,0:0:0:0:
448,192,9088,128,0,9319:0:0:0:0:
64,192,9319,1,2,0:0:0:0:
192,192,9319,1,0,0:0:0:0:
320,192,9434,1,2,0:0:0:0:
64,192,9550,1,8,0:0:0:0:
448,192,9550,1,0,0:0:0:0:
192,192,9665,1,2,0:0:0:0:
320,192,9665,128,0,10011:0:0:0:0:
448,192,9896,1,2,0:0:0:0:
64,192,10011,128,8,10242:0:0:0:0:
192,192,10011,1,0,0:0:0:0:
320,192,10242,1,2,0:0:0:0:
448,192,10242,1,0,0:0:0:0:
192,192,10357,1,2,0:0:0:0:
64,192,10473,1,8,0:0:0:0:
320,192,10473,1,0,0:0:0:0:
192,192,10588,1,2,0:0:0:0:
448,192,10588,128,0,10934:0:0:0:0:
320,192,10819,1,2,0:0:0:0:
64,192,10934,128,8,11165:0:0:0:0:
192,192,10934,1,0,0:0:0:0:
192,192,11165,128,2,11396:0:0:0:0:
320,192,11165,1,0,0:0:0:0:
448,192,11280,1,2,0:0:0:0:
64,192,11396,1,8,0:0:0:0:
320,192,11396,128,0,11626:0:0:0:0:
64,192,11626,128,4,11857:0:0:0:0:
192,192,11626,1,2,0:0:0:0:
448,192,11626,1,0,0:0:0:0:
192,192,11857,128,8,12088:0:0:0:0:
320,192,11857,1,0,0:0:0:0:
64,192,12088,1,2,0:0:0:0:
448,192,12088,1,0,0:0:0:0:
320,192,12203,1,2,0:0:0:0:
64,192,12319,1,8,0:0:0:0:
192,192,12319,1,0,0:0:0:0:
320,192,12434,1,2,0:0:0:0:
448,192,12434,128,0,12780:0:0:0:0:
192,192,12665,1,2,0:0:0:0:
64,192,12780,1,8,0:0:0:0:
320,192,12780,128,0,13011:0:0:0:0:
192,192,13011,1,2,0:0:0:0:
448,192,13011,1,0,0:0:0:0:
64,192,13126,1,2,0:0:0:0:
320,192,13242,1,8,0:0:0:0:
448,192,13242,1,0,0:0:0:0:
64,192,13357,1,2,0:0:0:0:
192,192,13357,128,0,13703:0:0:0:0:
320,192,13588,1,2,0:0:0:0:
64,192,13703,128,8,13934:0:0:0:0:
448,192,13703,1,0,0:0:0:0:
192,192,13934,1,2,0:0:0:0:
320,192,13934,1,0,0:0:0:0:
448,192,14050,1,2,0:0:0:0:
64,192,14165,1,8,0:0:0:0:
320,192,14165,1,0,0:0:0:0:
192,192,14280,1,2,0:0:0:0:
448,192,14280,128,0,14626:0:0:0:0:
320,192,14511,1,2,0:0:0:0:
64,192,14626,128,8,14857:0:0:0:0:
192,192,14626,1,0,0:0:0:0:
192,192,14857,128,2,14973:0:0:0:0:
448,192,14857,1,0,0:0:0:0:
320,192,14973,128,2,15088:0:0:0:0:
64,192,15088,1,8,0:0:0:0:
448,192,15088,128,0,15319:0:0:0:0:
64,192,15319,1,8,0:0:0:0:
192,192,15319,1,0,0:0:0:0:
320,192,15434,1,2,0:0:0:0:
192,192,15550,1,2,0:0:0:0:
64,192,15665,1,0,0:0:0:70:Tom 1.wav
448,192,15665,1,0,0:0:0:0:
320,192,15780,1,2,0:0:0:0:
192,192,15896,1,2,0:0:0:0:
320,192,16011,1,0,0:0:0:70:Tom 2.wav
448,192,16011,1,0,0:0:0:0:
192,192,16126,1,2,0:0:0:0:
320,192,16242,1,2,0:0:0:0:
64,192,16357,1,0,0:0:0:70:Tom 1.wav
448,192,16357,1,0,0:0:0:0:
192,192,16473,1,2,0:0:0:0:
320,192,16588,1,2,0:0:0:0:
64,192,16703,1,0,0:0:0:70:Tom 3.wav
192,192,16703,1,0,0:0:0:0:
320,192,16819,1,2,0:0:0:0:
64,192,16934,1,8,0:0:0:0:
448,192,16934,1,0,0:0:0:0:
192,192,17165,1,4,0:0:0:0:
320,192,17165,1,2,0:0:0:0:
448,192,17165,128,0,17626:0:0:0:0:
64,192,17280,1,0,0:0:0:0:
320,192,17396,1,0,0:0:0:0:
192,192,17511,1,2,0:0:0:0:
64,192,17626,1,8,0:0:0:0:
320,192,17626,1,0,0:0:0:0:
320,192,17857,1,0,0:0:0:0:
192,192,17973,1,2,0:0:0:0:
448,192,17973,1,0,0:0:0:0:
64,192,18203,1,0,0:0:0:0:
192,192,18319,1,2,0:0:0:0:
448,192,18319,1,0,0:0:0:0:
320,192,18434,1,0,0:0:0:0:
64,192,18550,1,8,0:0:0:0:
192,192,18550,1,0,0:0:0:0:
192,192,18780,1,0,0:0:0:0:
64,192,19011,128,2,19473:0:0:0:0:
448,192,19011,1,0,0:0:0:0:
320,192,19126,1,0,0:0:0:0:
448,192,19242,1,0,0:0:0:0:
192,192,19357,1,2,0:0:0:0:
320,192,19473,1,8,0:0:0:0:
448,192,19473,1,0,0:0:0:0:
320,192,19703,1,0,0:0:0:0:
64,192,19819,1,2,0:0:0:0:
192,192,19819,1,0,0:0:0:0:
448,192,19934,128,0,20396:0:0:0:0:
192,192,20050,1,0,0:0:0:0:
320,192,20165,1,2,0:0:0:0:
64,192,20280,1,0,0:0:0:0:
192,192,20396,1,8,0:0:0:0:
320,192,20396,128,0,20857:0:0:0:0:
64,192,20626,1,2,0:0:0:0:
64,192,20857,128,2,21319:0:0:0:0:
448,192,20857,1,0,0:0:0:0:
320,192,21088,128,0,21203:0:0:0:0:
192,192,21203,1,2,0:0:0:0:
320,192,21319,128,8,21550:0:0:0:0:
448,192,21319,1,0,0:0:0:0:
192,192,21550,1,0,0:0:0:0:
64,192,21665,1,2,0:0:0:0:
448,192,21665,1,0,0:0:0:0:
192,192,21780,128,0,21896:0:0:0:0:
448,192,21896,1,0,0:0:0:0:
192,192,22011,128,2,22242:0:0:0:0:
320,192,22011,1,0,0:0:0:0:
64,192,22242,1,8,0:0:0:0:
448,192,22242,1,0,0:0:0:0:
192,192,22473,1,0,0:0:0:0:
64,192,22703,128,2,23165:0:0:0:0:
320,192,22703,1,0,0:0:0:0:
192,192,22819,1,0,0:0:0:0:
448,192,22934,1,0,0:0:0:0:
320,192,23050,1,2,0:0:0:0:
192,192,23165,1,8,0:0:0:0:
448,192,23165,1,0,0:0:0:0:
192,192,23396,1,0,0:0:0:0:
64,192,23511,1,2,0:0:0:0:
320,192,23511,1,0,0:0:0:0:
448,192,23626,128,0,24088:0:0:0:0:
64,192,23742,1,0,0:0:0:0:
192,192,23857,1,2,0:0:0:0:
320,192,23973,1,8,0:0:0:0:
64,192,24088,1,8,0:0:0:0:
192,192,24088,1,0,0:0:0:0:
320,192,24203,1,8,0:0:0:0:
448,192,24203,1,0,0:0:0:0:
64,192,24319,1,2,0:0:0:0:
192,192,24434,1,8,0:0:0:0:
64,192,24550,128,2,25011:0:0:0:0:
320,192,24550,1,4,0:0:0:0:
448,192,24550,1,0,0:0:0:0:
192,192,24665,1,0,0:0:0:0:
448,192,24780,1,0,0:0:0:0:
320,192,24896,1,2,0:0:0:0:
192,192,25011,1,8,0:0:0:0:
448,192,25011,1,0,0:0:0:0:
320,192,25126,1,0,0:0:0:0:
64,192,25242,1,0,0:0:0:0:
448,192,25357,1,0,0:0:0:0:
64,192,25473,1,2,0:0:0:0:
320,192,25473,1,0,0:0:0:0:
192,192,25588,1,0,0:0:0:0:
64,192,25819,1,2,0:0:0:0:
320,192,25819,1,0,0:0:0:0:
192,192,25934,1,8,0:0:0:0:
448,192,25934,1,0,0:0:0:0:
192,192,26165,1,0,0:0:0:0:
64,192,26396,1,2,0:0:0:0:
448,192,26396,128,0,26857:0:0:0:0:
320,192,26511,1,0,0:0:0:0:
192,192,26626,1,0,0:0:0:0:
64,192,26742,1,2,0:0:0:0:
192,192,26857,1,8,0:0:0:0:
320,192,26857,1,0,0:0:0:0:
64,192,26973,1,0,0:0:0:0:
448,192,27088,1,0,0:0:0:0:
320,192,27203,1,0,0:0:0:0:
64,192,27319,1,2,0:0:0:0:
192,192,27319,128,0,27780:0:0:0:0:
448,192,27434,1,0,0:0:0:0:
320,192,27550,1,0,0:0:0:0:
64,192,27665,1,2,0:0:0:0:
320,192,27780,128,8,28242:0:0:0:0:
448,192,27780,1,0,0:0:0:0:
192,192,28011,1,0,0:0:0:0:
64,192,28242,128,2,28703:0:0:0:0:
448,192,28242,1,0,0:0:0:0:
448,192,28473,128,0,28588:0:0:0:0:
320,192,28588,1,2,0:0:0:0:
192,192,28703,1,8,0:0:0:0:
448,192,28703,128,0,28934:0:0:0:0:
320,192,28934,1,0,0:0:0:0:
192,192,29165,128,2,29280:0:0:0:0:
448,192,29165,1,0,0:0:0:0:
64,192,29280,1,0,0:0:0:0:
192,192,29396,128,0,29626:0:0:0:0:
320,192,29511,1,2,0:0:0:0:
64,192,29626,1,8,0:0:0:0:
448,192,29626,1,0,0:0:0:0:
192,192,29857,1,0,0:0:0:0:
64,192,30088,1,2,0:0:0:0:
320,192,30088,128,0,30550:0:0:0:0:
448,192,30319,1,0,0:0:0:0:
192,192,30434,1,2,0:0:0:0:
64,192,30550,1,8,0:0:0:0:
448,192,30550,1,0,0:0:0:0:
320,192,30665,1,0,0:0:0:0:
192,192,30780,1,0,0:0:0:0:
448,192,30896,1,0,0:0:0:0:
64,192,31011,1,2,0:0:0:0:
320,192,31011,1,0,0:0:0:0:
192,192,31126,1,0,0:0:0:70:Tom 1.wav
320,192,31242,1,10,0:0:0:0:
448,192,31242,1,0,0:0:0:70:Tom 2.wav
192,192,31357,1,0,0:0:0:70:Tom 3.wav
64,192,31473,1,8,0:0:0:0:
448,192,31473,1,2,0:0:0:0:
320,192,31588,1,8,0:0:0:0:
64,192,31703,1,8,0:0:0:0:
192,192,31703,1,2,0:0:0:0:
320,192,31819,1,8,0:0:0:0:
64,192,31934,1,2,0:0:0:0:
192,192,31934,1,4,0:0:0:0:
448,192,31934,1,0,0:0:0:0:
192,192,32165,1,8,0:0:0:0:
320,192,32165,1,0,0:0:0:0:
64,192,32396,1,2,0:0:0:0:
448,192,32396,1,0,0:0:0:0:
192,192,32511,1,2,0:0:0:0:
320,192,32626,1,8,0:0:0:0:
448,192,32626,1,0,0:0:0:0:
64,192,32857,1,2,0:0:0:0:
192,192,32857,1,0,0:0:0:0:
64,192,33088,1,8,0:0:0:0:
448,192,33088,1,0,0:0:0:0:
320,192,33319,1,2,0:0:0:0:
448,192,33319,1,0,0:0:0:0:
192,192,33434,1,2,0:0:0:0:
64,192,33550,1,8,0:0:0:0:
448,192,33550,1,0,0:0:0:0:
192,192,33780,1,2,0:0:0:0:
320,192,33780,1,0,0:0:0:0:
192,192,34011,1,8,0:0:0:0:
448,192,34011,1,0,0:0:0:0:
64,192,34242,1,2,0:0:0:0:
320,192,34242,1,0,0:0:0:0:
192,192,34357,1,2,0:0:0:0:
320,192,34473,1,8,0:0:0:0:
448,192,34473,1,0,0:0:0:0:
64,192,34703,1,2,0:0:0:0:
192,192,34703,1,0,0:0:0:0:
64,192,34934,1,8,0:0:0:0:
320,192,34934,1,0,0:0:0:0:
192,192,35165,1,2,0:0:0:0:
448,192,35165,1,0,0:0:0:0:
320,192,35280,1,2,0:0:0:0:
64,192,35396,1,8,0:0:0:0:
192,192,35396,1,0,0:0:0:0:
320,192,35626,1,2,0:0:0:0:
448,192,35626,1,0,0:0:0:0:
192,192,35857,1,8,0:0:0:0:
448,192,35857,1,0,0:0:0:0:
64,192,36088,1,2,0:0:0:0:
320,192,36088,1,0,0:0:0:0:
192,192,36203,1,2,0:0:0:0:
320,192,36319,1,8,0:0:0:0:
448,192,36319,1,0,0:0:0:0:
64,192,36550,1,2,0:0:0:0:
192,192,36550,1,0,0:0:0:0:
64,192,36780,1,8,0:0:0:0:
448,192,36780,1,0,0:0:0:0:
192,192,37011,1,2,0:0:0:0:
320,192,37011,1,0,0:0:0:0:
64,192,37126,1,2,0:0:0:0:
320,192,37242,1,8,0:0:0:0:
448,192,37242,1,0,0:0:0:0:
64,192,37473,1,2,0:0:0:0:
192,192,37473,1,0,0:0:0:0:
64,192,37703,1,8,0:0:0:0:
448,192,37703,1,0,0:0:0:0:
192,192,37934,1,2,0:0:0:0:
320,192,37934,1,0,0:0:0:0:
448,192,38050,1,2,0:0:0:0:
64,192,38165,1,8,0:0:0:0:
192,192,38165,1,0,0:0:0:0:
320,192,38396,1,2,0:0:0:0:
448,192,38396,1,0,0:0:0:0:
64,192,38626,1,8,0:0:0:0:
320,192,38626,1,0,0:0:0:0:
192,192,38857,1,2,0:0:0:0:
448,192,38857,1,0,0:0:0:0:
320,192,38973,1,2,0:0:0:0:
64,192,39088,1,8,0:0:0:0:
192,192,39088,1,0,0:0:0:0:
64,192,39319,1,2,0:0:0:0:
320,192,39319,1,4,0:0:0:0:
448,192,39319,1,0,0:0:0:0:
192,192,39434,1,8,0:0:0:0:
320,192,39550,1,8,0:0:0:0:
64,192,39665,128,8,39780:0:0:0:0:
192,192,39665,128,0,39780:0:0:0:0:
192,192,39896,128,2,40011:0:0:0:0:
320,192,39896,128,0,40011:0:0:0:0:
64,192,40126,1,2,0:0:0:0:
192,192,40126,1,4,0:0:0:0:
448,192,40126,128,0,40703:0:0:0:0:
64,192,40473,1,8,0:0:0:0:
320,192,40473,1,0,0:0:0:0:
192,192,40588,1,0,0:0:0:70:Tom 1.wav
320,192,40819,1,0,0:0:0:70:Tom 3.wav
448,192,40819,1,0,0:0:0:0:
64,192,40934,1,0,0:0:0:50:Tom 5.wav
192,192,40934,1,0,0:0:0:0:
64,192,41165,1,2,0:0:0:0:
320,192,41165,1,4,0:0:0:0:
448,192,41165,1,0,0:0:0:0:
192,192,41280,1,8,0:0:0:0:
64,192,41396,1,8,0:0:0:0:
320,192,41511,128,8,41626:0:0:0:0:
448,192,41511,128,0,41626:0:0:0:0:
192,192,41742,128,2,41857:0:0:0:0:
320,192,41742,128,0,41857:0:0:0:0:
64,192,41973,1,2,0:0:0:0:
320,192,41973,128,4,42319:0:0:0:0:
448,192,41973,1,0,0:0:0:0:
64,192,42319,128,8,42434:0:0:0:0:
192,192,42319,128,0,42434:0:0:0:0:
192,192,42550,128,8,42665:0:0:0:0:
320,192,42550,128,0,42665:0:0:0:0:
64,192,42665,1,2,0:0:0:0:
320,192,42780,128,8,42896:0:0:0:0:
448,192,42780,128,0,42896:0:0:0:0:
64,192,43011,128,2,43242:0:0:0:0:
320,192,43011,1,4,0:0:0:0:
448,192,43011,1,0,0:0:0:0:
192,192,43242,1,0,0:0:0:0:
320,192,43357,128,2,43819:0:0:0:0:
64,192,43473,1,8,0:0:0:0:
448,192,43473,1,0,0:0:0:0:
64,192,43819,1,2,0:0:0:0:
192,192,43819,128,0,43934:0:0:0:0:
192,192,44050,128,0,44165:0:0:0:0:
448,192,44165,128,0,44396:0:0:0:0:
64,192,44280,1,2,0:0:0:0:
192,192,44396,1,8,0:0:0:0:
320,192,44396,128,0,44626:0:0:0:0:
192,192,44626,128,2,44857:0:0:0:0:
64,192,44857,1,2,0:0:0:0:
320,192,44857,128,4,45088:0:0:0:0:
448,192,44857,128,0,45088:0:0:0:0:
192,192,45088,1,8,0:0:0:0:
64,192,45203,128,2,45434:0:0:0:0:
320,192,45203,1,4,0:0:0:0:
448,192,45203,128,0,45434:0:0:0:0:
320,192,45434,1,8,0:0:0:0:
64,192,45550,128,2,45780:0:0:0:0:
192,192,45550,128,4,45780:0:0:0:0:
448,192,45550,1,0,0:0:0:0:
448,192,46242,128,0,46473:0:0:0:0:
192,192,46473,128,0,46703:0:0:0:0:
64,192,46703,1,2,0:0:0:0:
320,192,46703,128,4,46819:0:0:0:0:
448,192,46703,1,0,0:0:0:0:
64,192,46934,1,8,0:0:0:0:
320,192,46934,128,0,47050:0:0:0:0:
192,192,47165,128,2,47396:0:0:0:0:
448,192,47165,1,0,0:0:0:0:
64,192,47280,1,2,0:0:0:0:
448,192,47396,128,8,47626:0:0:0:0:
320,192,47396,1,0,0:0:0:0:
64,192,47511,128,0,47857:0:0:0:0:
192,192,47626,1,2,0:0:0:0:
320,192,47857,128,8,48088:0:0:0:0:
448,192,47857,1,0,0:0:0:0:
64,192,48088,1,2,0:0:0:0:
192,192,48088,128,0,48319:0:0:0:0:
320,192,48203,1,2,0:0:0:0:
64,192,48319,1,8,0:0:0:0:
448,192,48319,128,0,48550:0:0:0:0:
64,192,48550,128,2,48665:0:0:0:0:
320,192,48550,1,0,0:0:0:0:
64,192,48780,128,8,48896:0:0:0:0:
192,192,48780,1,0,0:0:0:0:
448,192,49011,1,2,0:0:0:0:
320,192,49011,128,0,49242:0:0:0:0:
192,192,49126,1,2,0:0:0:0:
64,192,49242,128,8,49473:0:0:0:0:
448,192,49357,128,0,49703:0:0:0:0:
192,192,49473,1,2,0:0:0:0:
64,192,49703,1,8,0:0:0:0:
320,192,49703,128,0,49934:0:0:0:0:
64,192,49934,128,2,50165:0:0:0:0:
448,192,49934,1,0,0:0:0:0:
320,192,50050,1,2,0:0:0:0:
192,192,50165,128,8,50396:0:0:0:0:
448,192,50165,1,0,0:0:0:0:
64,192,50396,1,2,0:0:0:0:
448,192,50396,128,0,50626:0:0:0:0:
64,192,50626,128,8,50857:0:0:0:0:
320,192,50626,1,0,0:0:0:0:
192,192,50742,128,0,50857:0:0:0:0:
320,192,50857,128,2,50973:0:0:0:0:
448,192,50857,1,0,0:0:0:0:
192,192,50973,1,2,0:0:0:0:
64,192,51088,128,8,51319:0:0:0:0:
448,192,51088,1,0,0:0:0:0:
192,192,51319,1,2,0:0:0:0:
448,192,51319,128,0,51550:0:0:0:0:
320,192,51434,128,0,51550:0:0:0:0:
64,192,51550,1,8,0:0:0:0:
192,192,51550,128,0,51665:0:0:0:0:
320,192,51780,128,2,51896:0:0:0:0:
448,192,51780,128,0,52126:0:0:0:0:
64,192,51896,1,2,0:0:0:0:
192,192,52011,128,8,52126:0:0:0:0:
320,192,52011,128,0,52126:0:0:0:0:
64,192,52242,128,2,52473:0:0:0:0:
448,192,52242,1,0,0:0:0:0:
192,192,52473,1,8,0:0:0:0:
448,192,52473,128,0,52703:0:0:0:0:
320,192,52588,128,0,52703:0:0:0:0:
64,192,52703,1,2,0:0:0:0:
192,192,52703,128,0,52819:0:0:0:0:
320,192,52819,1,2,0:0:0:0:
192,192,52934,1,8,0:0:0:0:
448,192,52934,128,0,53165:0:0:0:0:
64,192,53165,128,2,53396:0:0:0:0:
320,192,53165,1,0,0:0:0:0:
192,192,53280,128,0,53396:0:0:0:0:
320,192,53396,128,8,53511:0:0:0:0:
448,192,53396,1,0,0:0:0:0:
64,192,53626,128,2,53857:0:0:0:0:
192,192,53626,1,0,0:0:0:0:
320,192,53742,1,2,0:0:0:0:
192,192,53857,128,8,54088:0:0:0:0:
448,192,53857,1,0,0:0:0:0:
64,192,54088,1,2,0:0:0:0:
320,192,54088,1,4,0:0:0:0:
448,192,54088,128,0,54203:0:0:0:0:
192,192,54319,1,8,0:0:0:0:
448,192,54319,128,0,54434:0:0:0:0:
320,192,54550,128,2,54780:0:0:0:0:
64,192,54550,1,0,0:0:0:0:
448,192,54665,1,2,0:0:0:0:
64,192,54780,128,8,55011:0:0:0:0:
192,192,54780,1,0,0:0:0:0:
448,192,54896,128,0,55242:0:0:0:0:
320,192,55011,1,2,0:0:0:0:
192,192,55242,128,8,55473:0:0:0:0:
64,192,55242,1,0,0:0:0:0:
448,192,55473,1,2,0:0:0:0:
320,192,55473,128,0,55588:0:0:0:0:
192,192,55588,1,2,0:0:0:0:
64,192,55703,1,8,0:0:0:0:
320,192,55703,128,0,55934:0:0:0:0:
64,192,55934,128,2,56050:0:0:0:0:
448,192,55934,1,0,0:0:0:0:
64,192,56165,128,8,56280:0:0:0:0:
320,192,56165,1,0,0:0:0:0:
192,192,56396,128,2,56626:0:0:0:0:
448,192,56396,1,0,0:0:0:0:
64,192,56511,1,2,0:0:0:0:
448,192,56626,128,8,56857:0:0:0:0:
320,192,56626,1,0,0:0:0:0:
64,192,56742,128,0,57088:0:0:0:0:
192,192,56857,1,2,0:0:0:0:
320,192,57088,128,8,57319:0:0:0:0:
448,192,57088,1,0,0:0:0:0:
64,192,57319,1,2,0:0:0:0:
192,192,57319,128,0,57550:0:0:0:0:
320,192,57434,1,2,0:0:0:0:
448,192,57550,128,0,57780:0:0:0:0:
64,192,57550,1,8,0:0:0:0:
320,192,57780,1,2,0:0:0:0:
64,192,57780,128,0,58011:0:0:0:0:
192,192,58011,1,0,0:0:0:0:
448,192,58011,128,8,58242:0:0:0:0:
320,192,58126,128,0,58242:0:0:0:0:
192,192,58242,128,2,58357:0:0:0:0:
64,192,58242,1,0,0:0:0:0:
320,192,58357,1,2,0:0:0:0:
448,192,58473,128,8,58703:0:0:0:0:
64,192,58473,1,0,0:0:0:0:
320,192,58703,1,2,0:0:0:0:
64,192,58703,128,0,58934:0:0:0:0:
192,192,58819,128,0,58934:0:0:0:0:
448,192,58934,1,8,0:0:0:0:
320,192,58934,128,0,59050:0:0:0:0:
192,192,59165,128,2,59280:0:0:0:0:
64,192,59165,128,0,59511:0:0:0:0:
448,192,59280,1,2,0:0:0:0:
320,192,59396,128,8,59511:0:0:0:0:
192,192,59396,128,0,59511:0:0:0:0:
448,192,59626,128,2,59857:0:0:0:0:
64,192,59626,1,0,0:0:0:0:
320,192,59857,1,8,0:0:0:0:
64,192,59857,128,0,60088:0:0:0:0:
192,192,59973,128,0,60088:0:0:0:0:
448,192,60088,1,2,0:0:0:0:
320,192,60088,128,0,60203:0:0:0:0:
192,192,60203,1,2,0:0:0:0:
448,192,60319,1,8,0:0:0:0:
64,192,60319,128,0,60550:0:0:0:0:
448,192,60550,128,2,60780:0:0:0:0:
192,192,60550,1,0,0:0:0:0:
320,192,60665,128,0,60780:0:0:0:0:
192,192,60780,128,8,60896:0:0:0:0:
64,192,60780,1,0,0:0:0:0:
448,192,61011,1,2,0:0:0:0:
320,192,61011,1,0,0:0:0:0:
192,192,61126,1,8,0:0:0:0:
448,192,61242,1,8,0:0:0:0:
64,192,61242,1,0,0:0:0:0:
320,192,61357,1,8,0:0:0:0:
64,192,61473,1,2,0:0:0:0:
192,192,61473,1,4,0:0:0:0:
448,192,61473,1,0,0:0:0:0:
320,192,61588,128,0,61703:0:0:0:0:
448,192,61703,128,8,61819:0:0:0:0:
64,192,61703,1,0,0:0:0:0:
192,192,61819,128,0,61934:0:0:0:0:
448,192,61934,1,2,0:0:0:0:
320,192,61934,1,0,0:0:0:0:
192,192,62050,128,2,62165:0:0:0:0:
64,192,62165,1,8,0:0:0:0:
448,192,62165,1,0,0:0:0:0:
320,192,62280,128,0,62396:0:0:0:0:
64,192,62396,1,2,0:0:0:0:
192,192,62396,1,0,0:0:0:0:
320,192,62511,128,0,62626:0:0:0:0:
192,192,62626,1,8,0:0:0:0:
448,192,62626,1,0,0:0:0:0:
64,192,62742,128,0,62857:0:0:0:0:
192,192,62857,128,2,63088:0:0:0:0:
448,192,62857,1,0,0:0:0:0:
320,192,62973,1,2,0:0:0:0:
64,192,63088,1,8,0:0:0:0:
448,192,63088,128,0,63319:0:0:0:0:
64,192,63319,1,2,0:0:0:0:
192,192,63319,1,0,0:0:0:0:
320,192,63434,128,0,63550:0:0:0:0:
192,192,63550,1,8,0:0:0:0:
448,192,63550,1,0,0:0:0:0:
64,192,63665,128,0,63780:0:0:0:0:
320,192,63780,1,2,0:0:0:0:
448,192,63780,1,0,0:0:0:0:
64,192,63896,128,2,64011:0:0:0:0:
192,192,64011,1,8,0:0:0:0:
320,192,64011,1,0,0:0:0:0:
448,192,64126,128,0,64242:0:0:0:0:
64,192,64242,1,2,0:0:0:0:
320,192,64242,1,0,0:0:0:0:
192,192,64357,128,0,64473:0:0:0:0:
64,192,64473,128,8,64588:0:0:0:0:
448,192,64473,1,0,0:0:0:0:
320,192,64588,128,0,64703:0:0:0:0:
192,192,64703,1,2,0:0:0:0:
448,192,64703,128,0,64934:0:0:0:0:
64,192,64819,1,2,0:0:0:0:
192,192,64934,1,8,0:0:0:0:
320,192,64934,1,0,0:0:0:0:
64,192,65165,128,2,65857:0:0:0:0:
192,192,65165,1,4,0:0:0:0:
448,192,65165,1,0,0:0:0:0:
320,192,65396,1,8,0:0:0:0:
448,192,65396,1,0,0:0:0:0:
192,192,65626,1,2,0:0:0:0:
448,192,65742,1,2,0:0:0:0:
192,192,65857,128,8,65973:0:0:0:0:
320,192,65857,1,0,0:0:0:0:
448,192,65973,128,0,66550:0:0:0:0:
64,192,66088,1,2,0:0:0:0:
192,192,66319,1,8,0:0:0:0:
320,192,66319,1,0,0:0:0:0:
64,192,66550,128,2,66780:0:0:0:0:
192,192,66550,1,0,0:0:0:0:
320,192,66665,1,2,0:0:0:0:
192,192,66780,128,8,67011:0:0:0:0:
448,192,66780,1,0,0:0:0:0:
320,192,67011,1,2,0:0:0:0:
448,192,67011,128,0,67703:0:0:0:0:
64,192,67242,1,8,0:0:0:0:
192,192,67242,1,0,0:0:0:0:
320,192,67473,1,2,0:0:0:0:
64,192,67588,1,2,0:0:0:0:
192,192,67703,128,8,67934:0:0:0:0:
320,192,67703,1,0,0:0:0:0:
64,192,67934,1,4,0:0:0:0:
320,192,67934,1,2,0:0:0:0:
448,192,67934,1,0,0:0:0:0:
192,192,68050,1,8,0:0:0:0:
64,192,68165,1,8,0:0:0:0:
448,192,68165,1,2,0:0:0:0:
320,192,68280,1,8,0:0:0:0:
64,192,68396,1,2,0:0:0:0:
192,192,68396,1,0,0:0:0:70:Tom 1.wav
320,192,68511,1,0,0:0:0:70:Tom 2.wav
64,192,68626,1,2,0:0:0:0:
448,192,68626,1,0,0:0:0:70:Tom 3.wav
192,192,68742,1,0,0:0:0:50:Tom 4.wav
64,192,68857,128,2,69203:0:0:0:0:
320,192,68857,128,4,69088:0:0:0:0:
448,192,68857,1,0,0:0:0:0:
320,192,69319,1,2,0:0:0:0:
448,192,69319,128,0,69780:0:0:0:0:
64,192,69550,1,0,0:0:0:0:
192,192,69780,128,0,70011:0:0:0:0:
64,192,69896,128,0,70011:0:0:0:0:
320,192,70011,1,0,0:0:0:0:
64,192,70126,128,0,70473:0:0:0:0:
192,192,70242,1,2,0:0:0:0:
448,192,70242,1,0,0:0:0:0:
320,192,70473,1,0,0:0:0:0:
192,192,70703,128,0,70934:0:0:0:0:
320,192,70934,128,0,71165:0:0:0:0:
64,192,71165,1,2,0:0:0:0:
448,192,71165,128,0,71280:0:0:0:0:
192,192,71280,128,0,71511:0:0:0:0:
64,192,71396,128,0,71511:0:0:0:0:
448,192,71511,1,0,0:0:0:0:
320,192,71626,128,0,71857:0:0:0:0:
448,192,71742,128,0,71857:0:0:0:0:
192,192,71857,1,0,0:0:0:0:
448,192,71973,128,0,72319:0:0:0:0:
64,192,72088,1,2,0:0:0:0:
320,192,72088,1,0,0:0:0:0:
64,192,72319,128,0,72550:0:0:0:0:
192,192,72319,128,0,72550:0:0:0:0:
320,192,72550,128,2,72780:0:0:0:0:
448,192,72550,128,0,72896:0:0:0:0:
192,192,72780,1,0,0:0:0:0:
64,192,73011,128,2,73473:0:0:0:0:
320,192,73011,1,0,0:0:0:0:
192,192,73242,128,0,73473:0:0:0:0:
320,192,73473,128,0,73588:0:0:0:0:
448,192,73588,128,0,73819:0:0:0:0:
192,192,73703,128,0,73819:0:0:0:0:
64,192,73819,128,0,74165:0:0:0:0:
320,192,73934,1,2,0:0:0:0:
448,192,73934,1,0,0:0:0:0:
192,192,74165,1,0,0:0:0:0:
448,192,74396,128,0,74626:0:0:0:0:
320,192,74626,128,0,74857:0:0:0:0:
64,192,74857,128,2,75088:0:0:0:0:
448,192,74857,1,0,0:0:0:0:
192,192,75088,128,0,75319:0:0:0:0:
64,192,75319,1,8,0:0:0:0:
448,192,75319,1,0,0:0:0:0:
320,192,75434,1,2,0:0:0:0:
64,192,75665,1,2,0:0:0:0:
448,192,75665,1,0,0:0:0:0:
192,192,75896,1,2,0:0:0:0:
64,192,76011,1,8,0:0:0:0:
320,192,76011,1,4,0:0:0:0:
448,192,76011,1,0,0:0:0:0:
192,192,76242,1,2,0:0:0:0:
320,192,76242,128,4,76473:0:0:0:0:
448,192,76242,1,0,0:0:0:0:
64,192,76473,1,8,0:0:0:0:
192,192,76473,128,0,76703:0:0:0:0:
320,192,76703,1,2,0:0:0:0:
448,192,76703,1,0,0:0:0:0:
64,192,76819,1,2,0:0:0:0:
192,192,76934,1,8,0:0:0:0:
320,192,76934,1,0,0:0:0:0:
64,192,77050,1,2,0:0:0:0:
448,192,77050,128,0,77396:0:0:0:0:
192,192,77280,1,2,0:0:0:0:
64,192,77396,128,8,77626:0:0:0:0:
320,192,77396,1,0,0:0:0:0:
192,192,77626,1,2,0:0:0:0:
448,192,77626,1,0,0:0:0:0:
320,192,77742,1,2,0:0:0:0:
64,192,77857,1,8,0:0:0:0:
448,192,77857,1,0,0:0:0:0:
192,192,77973,1,2,0:0:0:0:
320,192,77973,128,0,78319:0:0:0:0:
64,192,78203,1,2,0:0:0:0:
192,192,78319,1,8,0:0:0:0:
448,192,78319,128,0,78550:0:0:0:0:
64,192,78550,1,2,0:0:0:0:
320,192,78550,1,0,0:0:0:0:
192,192,78665,1,2,0:0:0:0:
64,192,78780,1,8,0:0:0:0:
448,192,78780,1,0,0:0:0:0:
192,192,78896,1,2,0:0:0:0:
320,192,78896,128,0,79242:0:0:0:0:
448,192,79126,1,2,0:0:0:0:
64,192,79242,128,8,79473:0:0:0:0:
192,192,79242,1,0,0:0:0:0:
192,192,79473,128,2,79703:0:0:0:0:
448,192,79473,1,0,0:0:0:0:
64,192,79588,1,2,0:0:0:0:
320,192,79703,128,8,79934:0:0:0:0:
448,192,79703,1,0,0:0:0:0:
64,192,79934,128,2,80165:0:0:0:0:
192,192,79934,1,4,0:0:0:0:
448,192,79934,1,0,0:0:0:0:
320,192,80165,1,8,0:0:0:0:
448,192,80165,128,0,80396:0:0:0:0:
64,192,80396,1,2,0:0:0:0:
192,192,80396,1,0,0:0:0:0:
320,192,80511,1,2,0:0:0:0:
64,192,80626,1,8,0:0:0:0:
448,192,80626,1,0,0:0:0:0:
192,192,80742,1,2,0:0:0:0:
320,192,80742,128,0,81088:0:0:0:0:
448,192,80973,1,2,0:0:0:0:
64,192,81088,1,8,0:0:0:0:
192,192,81088,128,0,81319:0:0:0:0:
320,192,81319,1,2,0:0:0:0:
448,192,81319,1,0,0:0:0:0:
64,192,81434,1,2,0:0:0:0:
192,192,81550,1,8,0:0:0:0:
448,192,81550,1,0,0:0:0:0:
64,192,81665,128,2,82011:0:0:0:0:
320,192,81665,1,0,0:0:0:0:
192,192,81896,1,2,0:0:0:0:
320,192,82011,128,8,82242:0:0:0:0:
448,192,82011,1,0,0:0:0:0:
64,192,82242,1,2,0:0:0:0:
192,192,82242,1,0,0:0:0:0:
448,192,82357,1,2,0:0:0:0:
64,192,82473,1,8,0:0:0:0:
320,192,82473,1,0,0:0:0:0:
192,192,82588,1,2,0:0:0:0:
448,192,82588,128,0,82934:0:0:0:0:
320,192,82819,1,2,0:0:0:0:
64,192,82934,128,8,83165:0:0:0:0:
192,192,82934,1,0,0:0:0:0:
320,192,83050,1,2,0:0:0:0:
192,192,83165,128,8,83280:0:0:0:0:
448,192,83165,1,0,0:0:0:70:Tom 5.wav
320,192,83280,128,2,83396:0:0:0:0:
64,192,83396,1,8,0:0:0:0:
448,192,83396,128,4,83626:0:0:0:0:
64,192,83626,128,2,83857:0:0:0:0:
192,192,83626,1,4,0:0:0:0:
320,192,83626,1,0,0:0:0:0:
192,192,83857,128,8,84088:0:0:0:0:
448,192,83857,1,0,0:0:0:0:
320,192,84088,1,8,0:0:0:0:
448,192,84088,128,0,84319:0:0:0:0:
64,192,84203,1,2,0:0:0:0:
192,192,84319,1,8,0:0:0:0:
320,192,84319,1,0,0:0:0:0:
64,192,84434,128,2,84780:0:0:0:0:
192,192,84550,1,8,0:0:0:0:
448,192,84550,1,0,0:0:0:0:
320,192,84665,1,2,0:0:0:0:
192,192,84780,128,8,85011:0:0:0:0:
448,192,84780,1,0,0:0:0:0:
64,192,85011,1,8,0:0:0:0:
448,192,85011,128,0,85242:0:0:0:0:
320,192,85126,1,2,0:0:0:0:
64,192,85242,1,8,0:0:0:0:
192,192,85242,1,0,0:0:0:0:
320,192,85357,128,2,85703:0:0:0:0:
192,192,85473,1,8,0:0:0:0:
448,192,85473,1,0,0:0:0:0:
64,192,85588,1,2,0:0:0:0:
192,192,85703,128,8,85934:0:0:0:0:
448,192,85703,1,0,0:0:0:0:
64,192,85934,128,8,86165:0:0:0:0:
320,192,85934,1,0,0:0:0:0:
448,192,86050,1,2,0:0:0:0:
192,192,86165,1,8,0:0:0:0:
320,192,86165,1,0,0:0:0:0:
448,192,86280,128,2,86626:0:0:0:0:
64,192,86396,1,8,0:0:0:0:
320,192,86396,1,0,0:0:0:0:
192,192,86511,1,2,0:0:0:0:
64,192,86626,1,8,0:0:0:0:
320,192,86626,128,0,86857:0:0:0:0:
192,192,86857,128,8,87088:0:0:0:0:
448,192,86857,1,0,0:0:0:0:
320,192,86973,1,2,0:0:0:0:
64,192,87088,128,8,87203:0:0:0:0:
448,192,87088,1,0,0:0:0:0:
192,192,87203,1,2,0:0:0:0:
64,192,87319,1,2,0:0:0:0:
320,192,87319,128,4,87550:0:0:0:0:
448,192,87319,1,0,0:0:0:0:
192,192,87550,1,8,0:0:0:0:
448,192,87550,128,0,87780:0:0:0:0:
64,192,87780,128,8,88011:0:0:0:0:
320,192,87780,1,0,0:0:0:0:
192,192,87896,1,2,0:0:0:0:
320,192,88011,1,8,0:0:0:0:
448,192,88011,1,0,0:0:0:0:
192,192,88126,128,2,88473:0:0:0:0:
64,192,88242,1,8,0:0:0:0:
448,192,88242,1,0,0:0:0:0:
320,192,88357,1,2,0:0:0:0:
64,192,88473,1,8,0:0:0:0:
448,192,88473,128,0,88703:0:0:0:0:
192,192,88703,1,8,0:0:0:0:
320,192,88703,128,0,88934:0:0:0:0:
64,192,88819,1,2,0:0:0:0:
192,192,88934,1,8,0:0:0:0:
448,192,88934,1,0,0:0:0:0:
64,192,89050,128,2,89396:0:0:0:0:
192,192,89165,1,8,0:0:0:0:
320,192,89165,1,0,0:0:0:0:
448,192,89280,1,2,0:0:0:0:
192,192,89396,128,8,89626:0:0:0:0:
320,192,89396,1,0,0:0:0:0:
320,192,89626,128,8,89857:0:0:0:0:
448,192,89626,1,0,0:0:0:0:
64,192,89742,1,2,0:0:0:0:
192,192,89857,1,8,0:0:0:0:
448,192,89857,1,0,0:0:0:0:
64,192,89973,128,2,90203:0:0:0:0:
192,192,90088,1,8,0:0:0:0:
448,192,90088,1,0,0:0:0:0:
320,192,90203,1,2,0:0:0:0:
64,192,90319,1,8,0:0:0:0:
192,192,90319,1,0,0:0:0:0:
320,192,90434,1,8,0:0:0:0:
64,192,90550,1,8,0:0:0:0:
448,192,90550,1,0,0:0:0:0:
192,192,90665,1,8,0:0:0:0:
320,192,90780,1,8,0:0:0:0:
448,192,90780,1,0,0:0:0:0:
192,192,90896,1,8,0:0:0:0:
64,192,91011,1,2,0:0:0:0:
320,192,91011,1,4,0:0:0:0:
448,192,91011,1,0,0:0:0:0:
64,192,91242,1,8,0:0:0:0:
192,192,91357,1,2,0:0:0:0:
320,192,91357,1,4,0:0:0:0:
448,192,91357,1,0,0:0:0:0:
448,192,91588,1,8,0:0:0:0:
64,192,91703,1,2,0:0:0:0:
192,192,91703,1,4,0:0:0:0:
320,192,91703,1,0,0:0:0:0:
192,192,91934,1,8,0:0:0:0:
64,192,92050,1,2,0:0:0:0:
320,192,92050,1,4,0:0:0:0:
448,192,92050,1,0,0:0:0:0:
64,192,92280,1,8,0:0:0:0:
320,192,92280,1,0,0:0:0:0:
192,192,92396,1,0,0:0:0:50:Tom 5.wav
320,192,92511,1,2,0:0:0:0:
64,192,92626,1,8,0:0:0:0:
192,192,92626,1,4,0:0:0:0:
448,192,92626,1,0,0:0:0:0:
192,192,92857,1,2,0:0:0:0:
320,192,92857,1,4,0:0:0:0:
448,192,92857,1,0,0:0:0:0:
320,192,93088,1,8,0:0:0:0:
64,192,93203,1,2,0:0:0:0:
192,192,93203,1,4,0:0:0:0:
448,192,93203,1,0,0:0:0:0:
64,192,93434,1,8,0:0:0:0:
192,192,93550,1,2,0:0:0:0:
320,192,93550,1,4,0:0:0:0:
448,192,93550,1,0,0:0:0:0:
320,192,93780,1,8,0:0:0:0:
64,192,93896,1,2,0:0:0:0:
192,192,93896,1,4,0:0:0:0:
448,192,93896,1,0,0:0:0:0:
192,192,94126,1,8,0:0:0:0:
320,192,94126,1,0,0:0:0:0:
64,192,94242,1,0,0:0:0:50:Tom 4.wav
192,192,94357,1,2,0:0:0:0:
64,192,94473,1,8,0:0:0:0:
320,192,94473,1,4,0:0:0:0:
448,192,94473,1,0,0:0:0:70:Tom 2.wav
64,192,94703,1,8,0:0:0:0:
192,192,94703,1,4,0:0:0:0:
448,192,94703,1,0,0:0:0:0:
320,192,94819,1,2,0:0:0:0:
192,192,94934,1,2,0:0:0:0:
64,192,95050,1,0,0:0:0:50:Tom 4.wav
448,192,95050,1,0,0:0:0:0:
320,192,95165,1,2,0:0:0:0:
192,192,95280,1,2,0:0:0:0:
320,192,95396,1,0,0:0:0:70:Tom 1.wav
448,192,95396,1,0,0:0:0:0:
192,192,95511,1,2,0:0:0:0:
320,192,95626,1,2,0:0:0:0:
64,192,95742,1,0,0:0:0:50:Tom 4.wav
448,192,95742,1,0,0:0:0:0:
192,192,95857,1,2,0:0:0:0:
320,192,95973,1,2,0:0:0:0:
64,192,96088,1,0,0:0:0:50:Tom 5.wav
192,192,96088,1,0,0:0:0:0:
320,192,96203,1,2,0:0:0:0:
64,192,96319,128,8,96434:0:0:0:0:
192,192,96319,128,4,96434:0:0:0:0:
448,192,96319,128,0,96434:0:0:0:0:
64,192,96550,128,2,97242:0:0:0:0:
320,192,96550,128,4,97126:0:0:0:0:
448,192,96550,128,0,97126:0:0:0:0:
448,192,97242,1,0,0:0:0:50:Tom 4.wav
320,192,97300,1,0,0:0:0:50:Tom 5.wav
192,192,97357,1,2,0:0:0:0:
320,192,97473,1,8,0:0:0:0:
448,192,97473,1,0,0:0:0:0:
64,192,97588,128,2,97703:0:0:0:0:
192,192,97588,128,4,97703:0:0:0:0:
448,192,97588,128,0,97703:0:0:0:0:
64,192,97819,128,4,98396:0:0:0:0:
192,192,97819,128,2,98396:0:0:0:0:
448,192,97819,128,0,98396:0:0:0:0:
