osu file format v14

[General]
AudioFilename: audio.mp3
AudioLeadIn: 0
PreviewTime: 46242
Countdown: 0
SampleSet: Soft
StackLeniency: 0.7
Mode: 3
LetterboxInBreaks: 0
SpecialStyle: 0
WidescreenStoryboard: 1

[Editor]
Bookmarks: 7934,15319,17165,24550,31934,39319,45780,54088,68857,76242,83626,91011,98396
DistanceSpacing: 0.5
BeatDivisor: 2
GridSize: 4
TimelineZoom: 1.5

[Metadata]
Title:Walk This Way! (Cut Ver.)
TitleUnicode:Walk This Way! (Cut Ver.)
Artist:Kano
ArtistUnicode:鹿乃
Creator:DenYi
Version:DH's Intermediate!
Source:
Tags:Drum-Hitnormal dudehacker Lami- stella-rium niconico samfree hatsune miku vocaloid Nowhere japanese vocalist jrock j-rock rock jpop j-pop pop female vocals 初音ミク cut version
BeatmapID:3494091
BeatmapSetID:1709954

[Difficulty]
HPDrainRate:6.5
CircleSize:4
OverallDifficulty:6.5
ApproachRate:5
SliderMultiplier:1.4
SliderTickRate:1

[Events]
//Background and Video events
0,0,"ez.jpg",0,0
//Break Periods
//Storyboard Layer 0 (Background)
//Storyboard Layer 1 (Fail)
//Storyboard Layer 2 (Pass)
//Storyboard Layer 3 (Foreground)
//Storyboard Layer 4 (Overlay)
//Storyboard Sound Samples
Sample,31242,0,"Tom 2.wav",70
Sample,68396,0,"Tom 1.wav",70
Sample,83165,0,"Tom 5.wav",70
Sample,94473,0,"Tom 2.wav",70

[TimingPoints]
550,230.769230769231,4,2,1,50,1,0
46703,-100,4,2,1,50,0,1
68857,-100,4,2,1,50,0,0

[HitObjects]
64,192,550,5,4,0:0:0:0:
448,192,550,128,2,1011:0:0:0:0:
192,192,1011,1,2,0:0:0:0:
192,192,1934,1,2,0:0:0:0:
320,192,2857,1,2,0:0:0:0:
320,192,3780,1,2,0:0:0:0:
192,192,4011,1,0,0:0:0:0:
64,192,4242,128,2,4703:0:0:0:0:
448,192,4703,1,2,0:0:0:0:
448,192,5626,1,2,0:0:0:0:
192,192,6550,1,2,0:0:0:0:
448,192,7011,1,8,0:0:0:0:
320,192,7357,1,2,0:0:0:0:
192,192,7703,1,12,0:0:0:0:
320,192,7934,1,2,0:0:0:0:
448,192,7934,1,4,0:0:0:0:
64,192,8165,1,8,0:0:0:0:
320,192,8396,1,2,0:0:0:0:
192,192,8742,1,2,0:0:0:0:
448,192,9088,1,8,0:0:0:0:
64,192,9319,1,2,0:0:0:0:
320,192,9665,1,2,0:0:0:0:
192,192,10011,1,8,0:0:0:0:
448,192,10242,1,2,0:0:0:0:
320,192,10588,1,2,0:0:0:0:
64,192,10934,1,8,0:0:0:0:
448,192,11165,1,2,0:0:0:0:
192,192,11396,1,8,0:0:0:0:
320,192,11626,1,4,0:0:0:0:
448,192,11626,1,2,0:0:0:0:
192,192,11857,1,8,0:0:0:0:
64,192,12088,1,2,0:0:0:0:
448,192,12434,1,2,0:0:0:0:
320,192,12780,1,8,0:0:0:0:
192,192,13011,1,2,0:0:0:0:
448,192,13357,1,2,0:0:0:0:
64,192,13703,1,8,0:0:0:0:
192,192,13934,1,2,0:0:0:0:
320,192,14280,1,2,0:0:0:0:
64,192,14626,1,8,0:0:0:0:
448,192,14857,1,2,0:0:0:0:
192,192,15088,1,8,0:0:0:0:
448,192,15319,1,8,0:0:0:0:
320,192,15665,1,0,0:0:0:70:Tom 1.wav
192,192,16011,1,0,0:0:0:70:Tom 2.wav
64,192,16357,1,0,0:0:0:70:Tom 1.wav
192,192,16703,1,0,0:0:0:70:Tom 3.wav
448,192,16934,1,8,0:0:0:0:
64,192,17165,1,4,0:0:0:0:
192,192,17165,1,2,0:0:0:0:
320,192,17626,1,8,0:0:0:0:
192,192,17973,1,2,0:0:0:0:
448,192,18319,1,2,0:0:0:0:
64,192,18550,1,8,0:0:0:0:
192,192,19011,1,2,0:0:0:0:
448,192,19473,1,8,0:0:0:0:
192,192,19819,1,2,0:0:0:0:
320,192,20165,1,2,0:0:0:0:
64,192,20396,1,8,0:0:0:0:
448,192,20626,1,2,0:0:0:0:
192,192,20857,1,2,0:0:0:0:
320,192,21319,1,8,0:0:0:0:
192,192,21665,1,2,0:0:0:0:
448,192,22011,1,2,0:0:0:0:
64,192,22242,1,8,0:0:0:0:
320,192,22703,1,2,0:0:0:0:
448,192,23165,1,8,0:0:0:0:
192,192,23511,1,2,0:0:0:0:
320,192,23857,1,2,0:0:0:0:
64,192,24088,1,8,0:0:0:0:
192,192,24319,1,2,0:0:0:0:
320,192,24550,1,2,0:0:0:0:
448,192,24550,1,4,0:0:0:0:
64,192,25011,1,8,0:0:0:0:
320,192,25473,1,2,0:0:0:0:
448,192,25934,1,8,0:0:0:0:
192,192,26396,1,2,0:0:0:0:
320,192,26857,1,8,0:0:0:0:
192,192,27319,1,2,0:0:0:0:
64,192,27780,1,8,0:0:0:0:
448,192,28242,1,2,0:0:0:0:
192,192,28703,1,8,0:0:0:0:
320,192,29165,1,2,0:0:0:0:
64,192,29626,1,8,0:0:0:0:
192,192,30088,1,2,0:0:0:0:
448,192,30550,1,8,0:0:0:0:
64,192,31011,1,2,0:0:0:0:
192,192,31242,1,10,0:0:0:0:
448,192,31473,1,10,0:0:0:0:
320,192,31703,1,10,0:0:0:0:
64,192,31934,1,2,0:0:0:0:
192,192,31934,1,4,0:0:0:0:
448,192,32165,1,8,0:0:0:0:
320,192,32396,1,2,0:0:0:0:
64,192,32742,1,0,0:0:0:0:
448,192,33088,1,8,0:0:0:0:
192,192,33319,1,2,0:0:0:0:
320,192,33550,1,8,0:0:0:0:
64,192,33780,1,2,0:0:0:0:
448,192,34126,1,0,0:0:0:0:
192,192,34473,128,8,34934:0:0:0:0:
320,192,34934,1,8,0:0:0:0:
64,192,35165,128,2,35626:0:0:0:0:
192,192,35857,1,8,0:0:0:0:
320,192,36088,1,2,0:0:0:0:
64,192,36319,1,8,0:0:0:0:
448,192,36550,1,2,0:0:0:0:
192,192,36780,1,8,0:0:0:0:
320,192,37011,1,2,0:0:0:0:
448,192,37242,1,8,0:0:0:0:
64,192,37473,1,2,0:0:0:0:
320,192,37819,1,0,0:0:0:0:
192,192,38165,128,8,38626:0:0:0:0:
448,192,38626,1,8,0:0:0:0:
64,192,38857,128,2,39319:0:0:0:0:
320,192,39319,1,2,0:0:0:0:
448,192,39319,1,4,0:0:0:0:
192,192,39665,1,8,0:0:0:0:
320,192,39896,1,2,0:0:0:0:
64,192,40126,1,2,0:0:0:0:
448,192,40126,1,4,0:0:0:0:
320,192,40473,1,8,0:0:0:0:
192,192,40819,1,0,0:0:0:70:Tom 3.wav
320,192,41165,1,2,0:0:0:0:
448,192,41165,1,4,0:0:0:0:
64,192,41511,1,8,0:0:0:0:
320,192,41742,1,2,0:0:0:0:
64,192,41973,1,2,0:0:0:0:
192,192,41973,1,4,0:0:0:0:
448,192,42319,1,8,0:0:0:0:
192,192,42550,1,8,0:0:0:0:
320,192,42780,1,8,0:0:0:0:
64,192,43011,1,2,0:0:0:0:
192,192,43011,1,4,0:0:0:0:
448,192,43473,1,8,0:0:0:0:
64,192,43819,1,2,0:0:0:0:
192,192,44396,1,8,0:0:0:0:
320,192,44626,1,2,0:0:0:0:
64,192,44857,1,2,0:0:0:0:
448,192,44857,1,4,0:0:0:0:
64,192,45203,1,2,0:0:0:0:
192,192,45203,1,4,0:0:0:0:
320,192,45550,1,2,0:0:0:0:
448,192,45550,1,4,0:0:0:0:
64,192,46703,1,2,0:0:0:0:
448,192,46703,1,4,0:0:0:0:
192,192,46934,1,8,0:0:0:0:
320,192,47396,1,8,0:0:0:0:
64,192,47857,1,8,0:0:0:0:
448,192,48088,1,2,0:0:0:0:
192,192,48319,1,8,0:0:0:0:
320,192,48550,1,2,0:0:0:0:
64,192,48780,1,8,0:0:0:0:
192,192,49242,1,8,0:0:0:0:
448,192,49703,1,8,0:0:0:0:
320,192,49934,1,2,0:0:0:0:
192,192,50165,1,8,0:0:0:0:
64,192,50396,128,2,50742:0:0:0:0:
320,192,50742,1,0,0:0:0:0:
448,192,51088,128,8,51434:0:0:0:0:
192,192,51434,1,0,0:0:0:0:
64,192,51780,1,2,0:0:0:0:
320,192,52011,1,8,0:0:0:0:
192,192,52242,128,2,52588:0:0:0:0:
448,192,52588,1,0,0:0:0:0:
320,192,52934,128,8,53280:0:0:0:0:
64,192,53280,1,0,0:0:0:0:
192,192,53626,1,2,0:0:0:0:
320,192,53857,1,8,0:0:0:0:
64,192,54088,1,2,0:0:0:0:
448,192,54088,1,4,0:0:0:0:
192,192,54319,1,8,0:0:0:0:
320,192,54780,1,8,0:0:0:0:
64,192,55242,1,8,0:0:0:0:
448,192,55473,1,2,0:0:0:0:
192,192,55703,1,8,0:0:0:0:
320,192,55934,1,2,0:0:0:0:
64,192,56165,1,8,0:0:0:0:
192,192,56626,1,8,0:0:0:0:
448,192,57088,1,8,0:0:0:0:
320,192,57319,1,2,0:0:0:0:
192,192,57550,1,8,0:0:0:0:
64,192,57780,128,2,58126:0:0:0:0:
320,192,58126,1,0,0:0:0:0:
448,192,58473,128,8,58819:0:0:0:0:
192,192,58819,1,0,0:0:0:0:
64,192,59165,1,2,0:0:0:0:
320,192,59396,1,8,0:0:0:0:
192,192,59626,128,2,59973:0:0:0:0:
448,192,59973,1,0,0:0:0:0:
320,192,60319,128,8,60665:0:0:0:0:
64,192,60665,1,0,0:0:0:0:
192,192,61011,1,2,0:0:0:0:
320,192,61242,1,8,0:0:0:0:
64,192,61473,1,2,0:0:0:0:
448,192,61473,128,4,62396:0:0:0:0:
192,192,61703,1,8,0:0:0:0:
320,192,62165,1,8,0:0:0:0:
64,192,62396,128,2,63319:0:0:0:0:
192,192,62626,1,8,0:0:0:0:
448,192,63088,1,8,0:0:0:0:
192,192,63319,128,2,64242:0:0:0:0:
320,192,63550,1,8,0:0:0:0:
64,192,64011,1,8,0:0:0:0:
320,192,64242,128,2,65165:0:0:0:0:
448,192,64473,1,8,0:0:0:0:
192,192,64934,1,8,0:0:0:0:
64,192,65165,128,2,66088:0:0:0:0:
448,192,65165,1,4,0:0:0:0:
320,192,65396,1,8,0:0:0:0:
192,192,65857,1,8,0:0:0:0:
320,192,66088,128,2,67011:0:0:0:0:
448,192,66319,1,8,0:0:0:0:
192,192,66780,1,8,0:0:0:0:
64,192,67011,128,2,67934:0:0:0:0:
448,192,67242,1,8,0:0:0:0:
320,192,67703,1,8,0:0:0:0:
192,192,67934,128,4,68396:0:0:0:0:
448,192,67934,1,2,0:0:0:0:
320,192,68396,128,2,68857:0:0:0:0:
64,192,68857,1,2,0:0:0:0:
448,192,68857,128,4,69319:0:0:0:0:
192,192,69319,1,2,0:0:0:0:
192,192,70242,1,2,0:0:0:0:
320,192,71165,1,2,0:0:0:0:
320,192,72088,1,2,0:0:0:0:
192,192,72319,1,0,0:0:0:0:
64,192,72550,128,2,73011:0:0:0:0:
448,192,73011,1,2,0:0:0:0:
448,192,73934,1,2,0:0:0:0:
64,192,74857,1,2,0:0:0:0:
448,192,75319,1,8,0:0:0:0:
320,192,75665,1,2,0:0:0:0:
192,192,76011,1,12,0:0:0:0:
320,192,76242,1,2,0:0:0:0:
448,192,76242,1,4,0:0:0:0:
64,192,76473,1,8,0:0:0:0:
320,192,76703,1,2,0:0:0:0:
192,192,77050,1,2,0:0:0:0:
448,192,77396,1,8,0:0:0:0:
64,192,77626,1,2,0:0:0:0:
320,192,77973,1,2,0:0:0:0:
192,192,78319,1,8,0:0:0:0:
448,192,78550,1,2,0:0:0:0:
320,192,78896,1,2,0:0:0:0:
64,192,79242,1,8,0:0:0:0:
448,192,79473,1,2,0:0:0:0:
192,192,79703,1,8,0:0:0:0:
320,192,79934,1,2,0:0:0:0:
448,192,79934,1,4,0:0:0:0:
192,192,80165,1,8,0:0:0:0:
64,192,80396,1,2,0:0:0:0:
448,192,80742,1,2,0:0:0:0:
320,192,81088,1,8,0:0:0:0:
192,192,81319,1,2,0:0:0:0:
448,192,81665,1,2,0:0:0:0:
64,192,82011,1,8,0:0:0:0:
192,192,82242,1,2,0:0:0:0:
320,192,82588,1,2,0:0:0:0:
64,192,82934,1,8,0:0:0:0:
448,192,83165,1,8,0:0:0:0:
192,192,83396,1,12,0:0:0:0:
320,192,83626,1,2,0:0:0:0:
448,192,83626,1,4,0:0:0:0:
320,192,84088,1,8,0:0:0:0:
64,192,84550,1,8,0:0:0:0:
64,192,85011,1,8,0:0:0:0:
448,192,85473,1,8,0:0:0:0:
448,192,85934,1,8,0:0:0:0:
192,192,86396,1,8,0:0:0:0:
192,192,86857,1,8,0:0:0:0:
320,192,87319,1,2,0:0:0:0:
448,192,87319,1,4,0:0:0:0:
320,192,87780,1,8,0:0:0:0:
64,192,88242,1,8,0:0:0:0:
64,192,88703,1,8,0:0:0:0:
448,192,89165,1,8,0:0:0:0:
448,192,89626,1,8,0:0:0:0:
64,192,90088,1,8,0:0:0:0:
192,192,90319,1,8,0:0:0:0:
320,192,90550,128,8,91011:0:0:0:0:
64,192,91011,1,2,0:0:0:0:
448,192,91011,1,4,0:0:0:0:
192,192,91357,1,6,0:0:0:0:
320,192,91703,1,2,0:0:0:0:
448,192,91703,1,4,0:0:0:0:
64,192,92050,1,6,0:0:0:0:
192,192,92396,1,0,0:0:0:50:Tom 5.wav
448,192,92626,1,12,0:0:0:0:
64,192,92857,1,2,0:0:0:0:
192,192,92857,1,4,0:0:0:0:
320,192,93203,1,6,0:0:0:0:
64,192,93550,1,2,0:0:0:0:
448,192,93550,1,4,0:0:0:0:
192,192,93896,1,6,0:0:0:0:
320,192,94242,1,0,0:0:0:50:Tom 4.wav
192,192,94473,1,12,0:0:0:0:
64,192,94703,1,8,0:0:0:0:
448,192,94703,1,4,0:0:0:0:
320,192,95050,1,0,0:0:0:50:Tom 4.wav
192,192,95396,1,0,0:0:0:70:Tom 1.wav
448,192,95742,1,0,0:0:0:50:Tom 4.wav
64,192,96088,1,0,0:0:0:50:Tom 5.wav
192,192,96319,1,12,0:0:0:0:
320,192,96550,128,2,97242:0:0:0:0:
448,192,96550,1,4,0:0:0:0:
192,192,97242,1,0,0:0:0:50:Tom 4.wav
64,192,97473,1,8,0:0:0:0:
448,192,97588,1,6,0:0:0:0:
192,192,97819,128,2,98396:0:0:0:0:
320,192,97819,1,4,0:0:0:0:
