osu file format v14

[General]
AudioFilename: Toy-toi.mp3
AudioLeadIn: 0
PreviewTime: 43433
Countdown: 0
SampleSet: Soft
StackLeniency: 0.7
Mode: 0
LetterboxInBreaks: 0
WidescreenStoryboard: 0

[Editor]
DistanceSpacing: 1.1
BeatDivisor: 3
GridSize: 4
TimelineZoom: 2.6

[Metadata]
Title:Toy-toi
TitleUnicode:Toy-toi
Artist:Kano
ArtistUnicode:鹿乃
Creator:Fycho
Version:Advanced
Source:
Tags:dear brave scop awashima yf_bmp
BeatmapID:930443
BeatmapSetID:389777

[Difficulty]
HPDrainRate:4
CircleSize:3.5
OverallDifficulty:4
ApproachRate:5
SliderMultiplier:1.1
SliderTickRate:1

[Events]
//Background and Video events
0,0,"tt.jpg",0,0
Video,-800,"5114538-1.avi"
//Break Periods
2,125592,143986
//Storyboard Layer 0 (Background)
//Storyboard Layer 1 (Fail)
//Storyboard Layer 2 (Pass)
//Storyboard Layer 3 (Foreground)
//Storyboard Sound Samples

[TimingPoints]
444,309.278350515464,4,2,1,30,1,0
2299,-100,4,2,1,50,0,0
2918,-100,4,2,1,60,0,0
32608,-100,4,2,1,50,0,0
40031,-100,4,2,1,60,0,0
43742,-100,4,2,1,70,0,1
48691,-100,4,2,1,70,0,1
53639,-100,4,2,1,70,0,1
58588,-100,4,2,1,70,0,1
63536,-100,4,2,1,60,0,0
73433,-100,4,2,1,40,0,0
74670,-100,4,2,1,50,0,0
84567,-100,4,2,1,60,0,0
94464,-100,4,2,1,50,0,0
105598,-100,4,2,1,70,0,1
110547,-100,4,2,1,70,0,1
115495,-100,4,2,1,70,0,1
120444,-100,4,2,1,70,0,1
125392,-100,4,2,1,60,0,0
167454,-100,4,2,1,70,0,1
187248,-100,4,2,1,60,0,0
207041,-100,4,2,1,40,0,0

[Colours]
Combo1 : 0,210,89
Combo2 : 4,198,188
Combo3 : 238,250,22

[HitObjects]
270,183,444,6,0,L|505:171,2,220,4|4|4,0:0|0:0|0:0,0:0:0:0:
190,92,1990,2,0,P|238:25|221:-23,1,110,4|8,0:0|0:0,0:0:0:0:
114,8,2608,1,4,0:3:0:0:
31,96,2918,6,0,L|10:223,1,110,4|8,0:0|0:0,0:0:0:0:
47,320,3536,2,0,P|79:362|148:361,1,110,2|8,0:0|0:0,0:0:0:0:
213,356,4052,2,0,L|370:333,1,146.666666666667,2|8,0:0|0:0,0:0:0:0:
471,376,4773,1,2,0:0:0:0:
432,260,5083,1,8,0:0:0:0:
487,152,5392,6,0,P|503:83|472:41,1,110,4|8,0:0|0:0,0:0:0:0:
371,9,6011,2,0,L|250:32,1,110,2|8,0:0|0:0,0:0:0:0:
191,67,6526,2,0,P|106:77|55:36,1,146.666666666667,2|8,0:0|0:0,0:0:0:0:
33,161,7248,1,2,0:0:0:0:
33,161,7557,1,8,0:0:0:0:
35,281,7866,6,0,P|27:329|62:383,1,110,4|8,0:0|0:0,0:0:0:0:
155,307,8485,1,2,0:0:0:0:
236,217,8794,1,8,0:0:0:0:
292,323,9103,2,0,L|427:340,1,110,2|8,0:0|0:0,0:0:0:0:
491,255,9722,2,0,P|473:209|473:176,1,73.3333333333333,2|0,0:0|0:0,0:0:0:0:
467,145,10031,2,0,P|478:89|472:53,1,73.3333333333333,8|0,0:0|0:0,0:0:0:0:
468,33,10340,6,0,L|334:60,1,110,4|8,0:0|0:0,0:0:0:0:
238,50,10959,2,0,L|107:34,1,110,2|8,0:0|0:0,0:0:0:0:
57,135,11578,2,0,L|104:139,2,36.6666666666667,2|2|0,0:0|0:0|0:0,0:0:0:0:
33,167,11887,2,0,P|13:237|25:288,1,110,8|8,0:0|0:0,0:0:0:0:
95,365,12505,1,8,0:0:0:0:
200,305,12815,6,0,L|319:279,1,110,4|8,0:0|0:0,0:0:0:0:
414,337,13433,2,0,P|449:250|406:175,1,183.333333333333,0|0,0:0|0:0,0:0:0:0:
383,144,14052,2,0,P|378:81|393:37,1,110,0|8,0:0|0:0,0:0:0:0:
313,21,14567,2,0,P|225:23|166:81,1,146.666666666667,0|8,0:0|0:0,0:0:0:0:
64,21,15289,5,0,0:0:0:0:
55,141,15598,2,0,P|44:226|49:259,1,110,8|0,0:0|0:0,0:0:0:0:
129,338,16217,1,8,0:0:0:0:
236,283,16526,2,0,L|311:298,1,73.3333333333333,0|0,0:0|0:0,0:0:0:0:
345,313,16835,2,0,L|434:295,1,73.3333333333333,8|0,0:0|0:0,0:0:0:0:
456,306,17145,2,0,L|474:164,2,110,0|8|4,0:0|0:0|0:0,0:0:0:0:
342,348,18072,6,0,P|277:329|222:344,1,110,8|0,0:0|0:0,0:0:0:0:
115,340,18691,1,8,0:0:0:0:
67,275,18897,2,0,L|86:222,1,36.6666666666667,0|0,0:0|0:0,0:0:0:0:
132,179,19206,2,0,L|118:131,1,36.6666666666667,0|8,0:0|0:0,0:0:0:0:
143,65,19516,2,0,P|208:42|300:75,1,146.666666666667,0|8,0:0|0:0,0:0:0:0:
347,161,20237,6,0,L|468:140,1,110,0|8,0:0|0:0,0:0:0:0:
453,263,20856,2,0,L|344:281,1,110,0|8,0:0|0:0,0:0:0:0:
269,309,21371,2,0,P|208:327|132:276,1,146.666666666667,0|8,0:0|0:0,0:0:0:0:
70,188,22093,1,8,0:0:0:0:
179,135,22402,1,8,0:0:0:0:
82,61,22712,6,0,L|219:29,1,110,4|8,0:0|0:0,0:0:0:0:
300,83,23330,2,0,L|437:51,1,110,0|8,0:0|0:0,0:0:0:0:
472,160,23949,2,0,P|488:225|468:268,1,110,0|8,0:0|0:0,0:0:0:0:
416,320,24464,2,0,L|255:309,1,146.666666666667,0|8,0:0|0:0,0:0:0:0:
152,279,25186,5,0,0:0:0:0:
47,340,25495,1,8,0:0:0:0:
66,220,25804,1,0,0:0:0:0:
1,117,26114,1,8,0:0:0:0:
118,145,26423,2,0,P|177:134|220:101,1,110,0|8,0:0|0:0,0:0:0:0:
264,40,26938,2,0,P|246:98|291:169,1,146.666666666667,0|8,0:0|0:0,0:0:0:0:
292,248,27557,6,0,L|433:204,1,146.666666666667,0|8,0:0|0:0,0:0:0:0:
479,315,28279,1,0,0:0:0:0:
432,204,28588,1,8,0:0:0:0:
334,132,28897,2,0,P|324:67|341:25,1,110,0|8,0:0|0:0,0:0:0:0:
260,10,29413,2,0,L|94:47,1,146.666666666667,0|8,0:0|0:0,0:0:0:0:
212,116,30134,6,0,P|229:171|193:242,1,110,4|8,0:0|0:0,0:0:0:0:
138,249,30650,2,0,P|87:216|73:150,2,110,4|4|4,0:0|0:0|0:0,0:0:0:0:
287,187,31681,5,8,0:0:0:0:
389,250,31990,1,8,0:0:0:0:
490,184,32299,1,8,0:0:0:0:
419,85,32608,6,0,L|276:84,1,110,4|0,0:0|0:0,0:0:0:0:
228,84,33124,1,2,0:0:0:0:
108,101,33433,2,0,L|61:96,1,36.6666666666667,0|8,0:0|0:0,0:0:0:0:
25,209,33846,6,0,L|152:194,1,110,2|0,0:0|0:0,0:0:0:0:
200,242,34361,2,0,L|323:268,1,110,2|0,0:0|0:0,0:0:0:0:
347,267,34773,2,0,P|375:211|358:146,1,110,8|2,0:0|0:0,0:0:0:0:
428,60,35392,1,0,0:0:0:0:
477,123,35598,2,0,L|505:238,2,110,2|0|0,0:0|0:0|0:0,0:0:0:0:
442,144,36320,6,0,P|346:159|289:98,1,183.333333333333,2|2,0:0|0:0,0:0:0:0:
179,138,37145,2,0,L|161:194,1,36.6666666666667,0|8,0:0|0:0,0:0:0:0:
113,272,37557,6,0,P|25:272|-5:193,1,183.333333333333,4|2,0:0|0:0,0:0:0:0:
66,95,38382,2,0,L|88:28,1,36.6666666666667,0|8,0:0|0:0,0:0:0:0:
196,81,38794,2,0,P|349:65|365:82,1,183.333333333333,2|2,0:0|0:0,0:0:0:0:
378,233,39722,1,8,0:0:0:0:
260,260,40031,6,0,L|143:236,1,110,12|8,0:0|0:0,0:0:0:0:
149,116,40650,2,0,L|256:138,1,110,8|8,0:0|0:0,0:0:0:0:
366,188,41268,2,0,P|426:133|407:35,1,183.333333333333,4|0,0:0|0:0,0:0:0:0:
378,15,41887,2,0,L|250:49,1,110,4|0,0:0|0:0,0:0:0:0:
155,75,42505,5,4,0:0:0:0:
48,16,42815,1,8,0:0:0:0:
74,134,43124,1,8,0:0:0:0:
43,251,43433,1,10,0:0:0:0:
132,332,43742,6,0,L|165:208,1,110,4|8,0:0|0:0,0:0:0:0:
242,136,44361,1,2,0:0:0:0:
275,252,44670,2,0,P|312:291|339:293,1,73.3333333333333,8|0,0:0|0:0,0:0:0:0:
368,302,44980,2,0,P|439:253|449:217,1,110,2|8,0:0|0:0,0:0:0:0:
362,146,45598,1,2,0:0:0:0:
449,62,45907,1,8,0:0:0:0:
336,16,46217,6,0,L|216:41,1,110,2|8,0:0|0:0,0:0:0:0:
125,101,46835,2,0,P|70:108|20:89,1,110,2|8,0:0|0:0,0:0:0:0:
76,196,47454,1,2,0:0:0:0:
63,316,47763,1,8,0:0:0:0:
174,269,48072,1,2,0:0:0:0:
292,293,48382,2,0,L|368:323,1,73.3333333333333,8|8,0:0|0:0,0:0:0:0:
396,337,48691,6,0,P|403:282|418:229,1,110,4|8,0:0|0:0,0:0:0:0:
455,114,49309,1,2,0:0:0:0:
364,33,49619,1,8,0:0:0:0:
259,93,49928,2,0,P|188:186|209:250,1,183.333333333333,2|0,0:0|0:0,0:0:0:0:
212,281,50547,2,0,L|93:266,1,110,2|8,0:0|0:0,0:0:0:0:
47,159,51165,5,2,0:0:0:0:
165,136,51474,1,8,0:0:0:0:
78,51,51784,1,2,0:0:0:0:
195,23,52093,1,8,0:0:0:0:
279,109,52402,2,0,L|383:64,1,110,4|8,0:0|0:0,0:0:0:0:
459,156,53021,2,0,P|476:223|452:277,1,110,8|8,0:0|0:0,0:0:0:0:
360,322,53639,6,0,L|310:193,1,110,4|8,0:0|0:0,0:0:0:0:
242,312,54258,1,2,0:0:0:0:
162,221,54567,2,0,P|127:232|107:262,1,73.3333333333333,8|0,0:0|0:0,0:0:0:0:
99,302,54877,2,0,P|70:255|20:234,1,110,2|8,0:0|0:0,0:0:0:0:
97,140,55495,1,2,0:0:0:0:
2,64,55804,1,8,0:0:0:0:
117,28,56114,6,0,L|224:50,1,110,2|8,0:0|0:0,0:0:0:0:
342,77,56732,2,0,P|392:57|446:65,1,110,2|8,0:0|0:0,0:0:0:0:
483,180,57351,1,2,0:0:0:0:
470,300,57660,1,8,0:0:0:0:
352,327,57969,1,2,0:0:0:0:
232,303,58279,2,0,L|163:329,1,73.3333333333333,8|8,0:0|0:0,0:0:0:0:
123,331,58588,6,0,P|108:278|101:223,1,110,4|8,0:0|0:0,0:0:0:0:
203,159,59206,1,2,0:0:0:0:
297,235,59516,1,8,0:0:0:0:
406,182,59825,2,0,P|380:128|408:78,1,110,2|8,0:0|0:0,0:0:0:0:
294,24,60444,2,0,L|175:39,1,110,2|8,0:0|0:0,0:0:0:0:
64,27,61062,5,2,0:0:0:0:
0,117,61371,1,8,0:0:0:0:
18,236,61681,1,2,0:0:0:0:
116,306,61990,1,8,0:0:0:0:
230,267,62299,6,0,L|324:304,1,73.3333333333333,4|0,0:0|0:0,0:0:0:0:
338,289,62608,2,0,L|424:279,1,73.3333333333333,8|8,0:0|0:0,0:0:0:0:
450,270,62918,2,0,P|467:203|443:149,1,110,8|8,0:0|0:0,0:0:0:0:
335,149,63536,5,4,0:0:0:0:
256,55,63846,1,8,0:0:0:0:
135,58,64155,2,0,P|98:105|96:175,1,110,2|8,0:0|0:0,0:0:0:0:
161,192,64670,2,0,L|125:311,2,110,2|2|2,0:0|0:0|0:0,0:0:0:0:
276,154,65598,2,0,P|329:211|323:288,1,146.666666666667,2|4,0:0|0:0,0:0:0:0:
240,360,66320,5,8,0:0:0:0:
359,376,66629,2,0,L|472:346,1,110,2|8,0:0|0:0,0:0:0:0:
504,276,67145,2,0,P|503:222|447:180,2,110,2|2|2,0:0|0:0|0:0,0:0:0:0:
383,282,68072,2,0,L|268:313,1,110,2|0,0:0|0:0,0:0:0:0:
236,312,68485,6,0,L|120:279,1,110,4|8,0:0|0:0,0:0:0:0:
62,181,69103,2,0,P|156:182|213:109,1,183.333333333333,2|2,0:0|0:0,0:0:0:0:
321,69,69928,2,0,L|376:166,2,110,2|2|2,0:0|0:0|0:0,0:0:0:0:
217,6,70856,2,0,L|198:58,1,36.6666666666667,2|4,0:0|0:0,0:0:0:0:
162,153,71268,5,8,0:0:0:0:
137,271,71578,2,0,P|170:311|255:308,1,110,2|8,0:0|0:0,0:0:0:0:
295,281,72093,2,0,L|426:260,1,110,2|2,0:0|0:0,0:0:0:0:
439,245,72505,2,0,P|457:192|436:155,1,73.3333333333333,8|8,0:0|0:0,0:0:0:0:
433,141,72815,2,0,L|419:16,2,110,8|8|2,0:0|0:0|0:0,0:0:0:0:
350,229,73742,5,2,0:0:0:0:
256,152,74052,1,2,0:0:0:0:
166,233,74361,1,2,0:0:0:0:
83,144,74670,6,0,L|97:19,2,110,4|8|0,0:0|0:0|0:0,0:0:0:0:
0,236,75598,1,8,0:0:0:0:
66,337,75907,2,0,P|129:342|173:327,1,110,0|8,0:0|0:0,0:0:0:0:
223,264,76422,2,0,P|311:266|370:324,1,146.666666666667,0|8,0:0|0:0,0:0:0:0:
467,347,77144,5,0,0:0:0:0:
471,226,77453,2,0,P|474:171|463:117,1,110,8|0,0:0|0:0,0:0:0:0:
356,59,78072,1,8,0:0:0:0:
281,153,78381,2,0,L|206:168,1,73.3333333333333,0|0,0:0|0:0,0:0:0:0:
180,196,78690,2,0,L|91:178,1,73.3333333333333,8|0,0:0|0:0,0:0:0:0:
67,186,79000,2,0,L|49:44,2,110,0|8|4,0:0|0:0|0:0,0:0:0:0:
42,304,79927,6,0,P|107:285|162:300,1,110,8|0,0:0|0:0,0:0:0:0:
250,356,80546,1,8,0:0:0:0:
324,325,80752,2,0,L|358:278,1,36.6666666666667,0|0,0:0|0:0,0:0:0:0:
296,231,81061,2,0,L|274:176,1,36.6666666666667,0|8,0:0|0:0,0:0:0:0:
286,116,81371,2,0,L|429:80,1,146.666666666667,0|8,0:0|0:0,0:0:0:0:
472,192,82092,6,0,P|483:230|456:294,1,110,0|8,0:0|0:0,0:0:0:0:
352,353,82711,2,0,L|243:335,1,110,0|8,0:0|0:0,0:0:0:0:
177,288,83226,2,0,P|116:325|47:308,1,146.666666666667,0|8,0:0|0:0,0:0:0:0:
17,191,83948,1,8,0:0:0:0:
137,192,84257,1,8,0:0:0:0:
106,74,84567,6,0,L|-31:42,2,110,4|8|0,0:0|0:0|0:0,0:0:0:0:
225,95,85495,1,8,0:0:0:0:
147,188,85804,2,0,P|131:253|151:296,1,110,0|8,0:0|0:0,0:0:0:0:
154,370,86319,2,0,L|315:359,1,146.666666666667,0|8,0:0|0:0,0:0:0:0:
385,274,87041,5,0,0:0:0:0:
486,339,87350,1,8,0:0:0:0:
485,218,87659,1,0,0:0:0:0:
379,158,87969,1,8,0:0:0:0:
270,211,88278,2,0,P|211:200|168:167,1,110,0|8,0:0|0:0,0:0:0:0:
119,232,88793,2,0,P|137:290|92:361,1,146.666666666667,0|8,0:0|0:0,0:0:0:0:
21,323,89412,6,0,L|30:171,1,146.666666666667,0|8,0:0|0:0,0:0:0:0:
85,69,90134,1,0,0:0:0:0:
147,172,90443,1,8,0:0:0:0:
259,126,90752,2,0,P|269:61|252:19,1,110,0|8,0:0|0:0,0:0:0:0:
334,23,91268,2,0,L|500:60,1,146.666666666667,0|8,0:0|0:0,0:0:0:0:
394,142,91989,6,0,P|377:197|413:268,1,110,0|8,0:0|0:0,0:0:0:0:
406,325,92505,2,0,P|457:292|471:226,2,110,4|4|4,0:0|0:0|0:0,0:0:0:0:
270,236,93536,5,8,0:0:0:0:
153,202,93845,1,8,0:0:0:0:
47,260,94154,1,8,0:0:0:0:
12,144,94464,6,0,L|49:10,1,110,4|2,0:0|0:0,0:0:0:0:
118,63,94979,1,2,0:0:0:0:
234,95,95288,2,0,L|281:90,1,36.6666666666667,0|8,0:0|0:0,0:0:0:0:
390,105,95701,6,0,P|418:161|400:228,1,110,2|2,0:0|0:0,0:0:0:0:
353,261,96216,2,0,L|230:287,1,110,2|0,0:0|0:0,0:0:0:0:
205,280,96628,2,0,P|177:224|194:159,1,110,8|2,0:0|0:0,0:0:0:0:
232,68,97247,1,2,0:0:0:0:
151,61,97453,2,0,L|43:84,2,110,2|2|2,0:0|0:0|0:0,0:0:0:0:
156,101,98175,6,0,P|182:199|130:270,1,183.333333333333,2|2,0:0|0:0,0:0:0:0:
233,340,99000,2,0,L|280:338,1,36.6666666666667,2|8,0:0|0:0,0:0:0:0:
389,322,99412,6,0,P|477:322|507:243,1,183.333333333333,4|2,0:0|0:0,0:0:0:0:
454,133,100237,2,0,L|432:66,1,36.6666666666667,0|8,0:0|0:0,0:0:0:0:
323,75,100649,2,0,P|170:59|154:76,1,183.333333333333,2|2,0:0|0:0,0:0:0:0:
46,180,101577,1,8,0:0:0:0:
149,242,101886,6,0,L|164:369,1,110,12|8,0:0|0:0,0:0:0:0:
272,301,102505,2,0,L|282:185,1,110,8|8,0:0|0:0,0:0:0:0:
166,153,103123,2,0,P|106:98|125:0,1,183.333333333333,4|8,0:0|0:0,0:0:0:0:
161,7,103742,2,0,L|289:41,1,110,4|0,0:0|0:0,0:0:0:0:
385,60,104360,5,4,0:0:0:0:
295,141,104670,1,8,0:0:0:0:
416,155,104979,1,8,0:0:0:0:
340,249,105288,1,4,0:0:0:0:
460,263,105598,6,0,L|504:389,1,110,4|8,0:0|0:0,0:0:0:0:
375,382,106217,1,2,0:0:0:0:
274,314,106526,2,0,P|233:298|202:297,1,73.3333333333333,8|0,0:0|0:0,0:0:0:0:
169,317,106836,2,0,P|90:340|67:333,1,110,2|8,0:0|0:0,0:0:0:0:
18,221,107454,1,2,0:0:0:0:
72,112,107763,1,8,0:0:0:0:
193,118,108073,6,0,L|232:234,1,110,2|8,0:0|0:0,0:0:0:0:
245,341,108691,2,0,P|300:334|350:353,1,110,2|10,0:0|0:0,0:0:0:0:
466,323,109310,1,2,0:0:0:0:
450,203,109619,1,8,0:0:0:0:
330,221,109928,1,2,0:0:0:0:
335,99,110238,2,0,L|259:69,1,73.3333333333333,8|8,0:0|0:0,0:0:0:0:
232,50,110547,6,0,P|225:105|210:158,1,110,4|8,0:0|0:0,0:0:0:0:
98,110,111165,1,2,0:0:0:0:
44,218,111475,1,8,0:0:0:0:
102,323,111784,2,0,P|218:327|259:273,1,183.333333333333,2|0,0:0|0:0,0:0:0:0:
257,242,112403,2,0,L|376:257,1,110,2|8,0:0|0:0,0:0:0:0:
475,307,113021,5,2,0:0:0:0:
463,186,113330,1,8,0:0:0:0:
366,255,113640,1,2,0:0:0:0:
352,134,113949,1,8,0:0:0:0:
251,200,114258,2,0,L|147:245,1,110,4|8,0:0|0:0,0:0:0:0:
55,166,114877,2,0,P|38:99|62:45,1,110,8|8,0:0|0:0,0:0:0:0:
154,0,115495,6,0,L|204:129,1,110,4|8,0:0|0:0,0:0:0:0:
302,49,116114,1,2,0:0:0:0:
404,113,116423,2,0,L|375:184,1,73.3333333333333,8|0,0:0|0:0,0:0:0:0:
383,220,116733,2,0,P|392:278|372:331,1,110,2|8,0:0|0:0,0:0:0:0:
265,276,117351,1,2,0:0:0:0:
172,353,117660,1,8,0:0:0:0:
80,273,117970,6,0,L|116:162,1,110,2|8,0:0|0:0,0:0:0:0:
124,47,118588,2,0,P|88:33|10:60,1,110,2|8,0:0|0:0,0:0:0:0:
4,170,119207,1,2,0:0:0:0:
124,167,119516,1,8,0:0:0:0:
69,274,119825,1,2,0:0:0:0:
189,262,120135,2,0,L|258:236,1,73.3333333333333,8|8,0:0|0:0,0:0:0:0:
297,240,120444,6,0,P|312:293|319:348,1,110,4|8,0:0|0:0,0:0:0:0:
438,327,121062,1,2,0:0:0:0:
468,209,121372,1,8,0:0:0:0:
378,127,121681,2,0,P|366:84|370:20,1,110,2|8,0:0|0:0,0:0:0:0:
249,13,122300,2,0,L|145:53,1,110,2|8,0:0|0:0,0:0:0:0:
32,93,122918,5,2,0:0:0:0:
14,212,123227,1,8,0:0:0:0:
130,179,123537,1,2,0:0:0:0:
108,297,123846,1,8,0:0:0:0:
226,272,124155,6,0,L|294:298,1,73.3333333333333,4|0,0:0|0:0,0:0:0:0:
334,304,124464,2,0,L|406:295,1,73.3333333333333,8|8,0:0|0:0,0:0:0:0:
444,278,124774,2,0,P|431:225|448:173,2,110,8|8|4,0:0|0:0|0:0,0:0:0:0:
125,98,145186,6,0,L|97:236,1,110,4|0,0:0|0:0,0:0:0:0:
222,189,145804,2,0,L|230:326,1,110,2|0,0:0|0:0,0:0:0:0:
329,365,146423,1,2,0:0:0:0:
439,315,146732,1,0,0:0:0:0:
456,195,147041,1,2,0:0:0:0:
354,128,147351,1,0,0:0:0:0:
233,142,147660,6,0,P|166:136|105:109,1,110,2|0,0:0|0:0,0:0:0:0:
30,196,148279,2,0,P|45:249|34:315,1,110,2|0,0:0|0:0,0:0:0:0:
159,306,148897,2,0,P|260:295|364:366,1,220,2|2,0:0|0:0,0:0:0:0:
419,251,149825,1,0,0:0:0:0:
326,172,150134,6,0,L|361:48,1,110,2|0,0:0|0:0,0:0:0:0:
244,18,150753,1,2,0:0:0:0:
146,89,151062,1,0,0:0:0:0:
188,202,151371,2,0,P|196:262|146:317,1,110,2|0,0:0|0:0,0:0:0:0:
52,329,151990,1,2,0:0:0:0:
8,216,152299,1,0,0:0:0:0:
36,98,152608,5,2,0:0:0:0:
256,192,152712,12,0,154464,0:0:0:0:
160,103,155083,6,0,L|127:211,1,110,4|2,0:0|0:0,0:0:0:0:
246,186,155701,2,0,L|280:67,1,110,2|2,0:0|0:0,0:0:0:0:
395,60,156320,1,2,0:0:0:0:
465,158,156629,1,2,0:0:0:0:
346,182,156938,1,2,0:0:0:0:
413,283,157248,1,2,0:0:0:0:
305,338,157557,6,0,P|160:338|112:276,1,220,2|2,0:0|0:0,0:0:0:0:
185,188,158485,1,2,0:0:0:0:
75,137,158794,2,0,P|58:69|78:28,1,110,4|8,0:0|0:0,0:0:0:0:
184,82,159413,1,8,0:0:0:0:
284,14,159722,1,8,0:0:0:0:
392,66,160031,6,0,L|437:280,1,183.333333333333,4|0,0:0|0:0,0:0:0:0:
432,286,160650,2,0,P|373:326|308:316,1,110,2|8,0:0|0:0,0:0:0:0:
257,234,161268,2,0,P|194:213|65:240,1,183.333333333333,2|0,0:0|0:0,0:0:0:0:
55,263,161887,2,0,L|92:140,1,110,2|8,0:0|0:0,0:0:0:0:
140,49,162505,5,12,0:0:0:0:
140,49,162815,1,8,0:0:0:0:
24,84,163124,1,8,0:0:0:0:
24,84,163433,1,8,0:0:0:0:
31,204,163742,2,0,B|13:268|41:308|41:308|81:276|163:288,2,220,4|8|4,0:0|0:0|0:0,0:0:0:0:
133,139,165289,5,4,0:0:0:0:
241,85,165598,1,8,0:0:0:0:
353,129,165907,1,8,0:0:0:0:
377,247,166217,5,4,0:0:0:0:
263,205,166526,1,8,0:0:0:0:
152,255,166835,1,8,0:0:0:0:
48,192,167145,2,0,L|78:109,1,73.3333333333333,8|8,0:0|0:0,0:0:0:0:
70,82,167454,6,0,L|186:69,1,110,4|8,0:0|0:0,0:0:0:0:
299,51,168073,1,2,0:0:0:0:
419,63,168382,2,0,P|453:74|473:104,1,73.3333333333333,8|0,0:0|0:0,0:0:0:0:
483,144,168692,2,0,P|434:215|398:225,1,110,2|8,0:0|0:0,0:0:0:0:
300,184,169310,1,2,0:0:0:0:
367,284,169619,1,8,0:0:0:0:
263,346,169929,6,0,L|143:321,1,110,2|8,0:0|0:0,0:0:0:0:
54,256,170547,2,0,P|61:201|42:151,1,110,2|8,0:0|0:0,0:0:0:0:
108,49,171166,1,2,0:0:0:0:
179,146,171475,1,8,0:0:0:0:
256,53,171784,1,2,0:0:0:0:
312,160,172094,2,0,L|285:242,1,73.3333333333333,8|8,0:0|0:0,0:0:0:0:
302,267,172403,6,0,P|309:322|324:375,1,110,4|8,0:0|0:0,0:0:0:0:
421,303,173021,1,2,0:0:0:0:
412,182,173331,1,8,0:0:0:0:
291,168,173640,2,0,P|220:75|241:11,1,183.333333333333,2|0,0:0|0:0,0:0:0:0:
195,28,174259,2,0,L|76:43,1,110,2|8,0:0|0:0,0:0:0:0:
2,128,174877,5,2,0:0:0:0:
38,243,175186,1,8,0:0:0:0:
125,159,175496,1,2,0:0:0:0:
177,267,175805,1,8,0:0:0:0:
270,189,176114,2,0,L|311:82,1,110,4|8,0:0|0:0,0:0:0:0:
426,53,176733,2,0,P|438:105|421:157,1,110,8|8,0:0|0:0,0:0:0:0:
372,268,177351,6,0,L|257:298,1,110,4|8,0:0|0:0,0:0:0:0:
163,230,177970,1,2,0:0:0:0:
93,328,178279,1,8,0:0:0:0:
23,228,178589,2,0,L|46:150,1,73.3333333333333,2|0,0:0|0:0,0:0:0:0:
62,122,178897,2,0,L|43:43,1,73.3333333333333,8|0,0:0|0:0,0:0:0:0:
51,10,179206,2,0,L|185:29,1,110,2|8,0:0|0:0,0:0:0:0:
230,124,179826,6,0,L|337:102,1,110,4|0,0:0|0:0,0:0:0:0:
319,221,180444,2,0,L|439:193,1,110,4|0,0:0|0:0,0:0:0:0:
497,98,181063,1,4,0:0:0:0:
406,17,181372,1,8,0:0:0:0:
323,105,181681,1,8,0:0:0:0:
213,53,181991,2,0,L|144:27,1,73.3333333333333,8|8,0:0|0:0,0:0:0:0:
104,27,182300,6,0,P|89:80|82:135,1,110,4|8,0:0|0:0,0:0:0:0:
38,247,182918,1,2,0:0:0:0:
144,189,183228,1,8,0:0:0:0:
264,198,183537,2,0,P|273:253|262:333,1,110,2|8,0:0|0:0,0:0:0:0:
365,380,184156,2,0,L|489:339,1,110,2|8,0:0|0:0,0:0:0:0:
469,224,184774,5,2,0:0:0:0:
363,164,185083,1,8,0:0:0:0:
316,276,185393,1,2,0:0:0:0:
205,226,185702,1,8,0:0:0:0:
88,257,186011,6,0,L|112:166,1,73.3333333333333,4|0,0:0|0:0,0:0:0:0:
114,146,186320,2,0,L|97:75,1,73.3333333333333,8|8,0:0|0:0,0:0:0:0:
111,36,186630,2,0,P|163:48|215:31,1,110,8|8,0:0|0:0,0:0:0:0:
331,64,187248,5,4,0:0:0:0:
280,174,187558,2,0,P|288:227|326:265,1,110,8|2,0:0|0:0,0:0:0:0:
395,166,188176,1,8,0:0:0:0:
468,134,188382,2,0,L|432:15,2,110,2|2|2,0:0|0:0|0:0,0:0:0:0:
502,250,189310,2,0,P|500:321|449:372,1,146.666666666667,2|4,0:0|0:0,0:0:0:0:
342,315,190032,5,8,0:0:0:0:
225,347,190341,2,0,L|118:318,1,110,2|8,0:0|0:0,0:0:0:0:
56,267,190857,2,0,P|94:229|95:175,2,110,2|2|2,0:0|0:0|0:0,0:0:0:0:
7,156,191784,2,0,L|25:40,1,110,2|8,0:0|0:0,0:0:0:0:
63,40,192197,6,0,L|175:78,1,110,4|8,0:0|0:0,0:0:0:0:
279,120,192815,2,0,P|373:119|430:192,1,183.333333333333,2|2,0:0|0:0,0:0:0:0:
489,286,193640,2,0,L|434:381,2,110,2|2|2,0:0|0:0|0:0,0:0:0:0:
367,288,194568,2,0,L|348:236,1,36.6666666666667,2|4,0:0|0:0,0:0:0:0:
262,175,194980,5,8,0:0:0:0:
182,83,195290,2,0,P|131:56|57:67,1,110,2|8,0:0|0:0,0:0:0:0:
32,122,195804,1,2,0:0:0:0:
79,233,196114,2,0,L|150:220,1,36.6666666666667,2|8,0:0|0:0,0:0:0:0:
183,183,196423,2,0,L|239:198,1,36.6666666666667,8|8,0:0|0:0,0:0:0:0:
282,143,196732,2,0,L|337:130,1,36.6666666666667,8|8,0:0|0:0,0:0:0:0:
433,170,197145,6,0,P|438:275|423:302,1,110,4|8,0:0|0:0,0:0:0:0:
349,359,197763,2,0,L|236:334,1,110,2|8,0:0|0:0,0:0:0:0:
161,320,198279,2,0,P|81:334|42:329,1,110,2|2,0:0|0:0,0:0:0:0:
44,209,198897,2,0,P|124:195|163:200,1,110,2|2,0:0|0:0,0:0:0:0:
190,211,199309,1,8,0:0:0:0:
305,174,199619,6,0,L|324:44,1,110,4|8,0:0|0:0,0:0:0:0:
205,28,200237,2,0,P|154:86|161:131,1,110,2|8,0:0|0:0,0:0:0:0:
156,195,200753,2,0,P|157:268|122:305,1,110,2|2,0:0|0:0,0:0:0:0:
18,266,201371,2,0,P|17:193|52:156,1,110,2|2,0:0|0:0,0:0:0:0:
76,153,201784,1,8,0:0:0:0:
142,52,202093,6,0,L|30:30,2,110,4|8|2,0:0|0:0|0:0,0:0:0:0:
258,86,203021,1,8,0:0:0:0:
332,116,203227,2,0,P|375:191|371:228,1,110,2|2,0:0|0:0,0:0:0:0:
263,260,203846,2,0,P|220:185|224:148,1,110,2|0,0:0|0:0,0:0:0:0:
245,132,204258,1,8,0:0:0:0:
140,70,204567,6,0,L|30:86,2,110,4|8|2,0:0|0:0|0:0,0:0:0:0:
86,178,205495,1,8,0:0:0:0:
51,250,205701,2,0,P|66:311|109:341,1,110,2|2,0:0|0:0,0:0:0:0:
212,290,206320,2,0,P|197:229|154:199,1,110,8|8,0:0|0:0,0:0:0:0:
121,195,206732,1,8,0:0:0:0:
76,127,206938,6,0,L|84:80,1,36.6666666666667,0|2,0:0|0:0,0:0:0:0:
174,11,207351,1,2,0:0:0:0:
285,57,207660,1,2,0:0:0:0:
401,23,207969,1,2,0:0:0:0:
440,93,208175,1,4,0:0:0:0:
