osu file format v14

[General]
AudioFilename: audio.mp3
AudioLeadIn: 0
PreviewTime: 146299
Countdown: 0
SampleSet: Normal
StackLeniency: 0.7
Mode: 0
LetterboxInBreaks: 0
WidescreenStoryboard: 0

[Editor]
DistanceSpacing: 1
BeatDivisor: 4
GridSize: 4
TimelineZoom: 4.199999

[Metadata]
Title:The Hanged Girl in the Haunted House
TitleUnicode:The Hanged Girl in the Haunted House
Artist:Kano
ArtistUnicode:Kano
Creator:KeRLi_
Version:Anata mo atashi ga mienai no?
Source:
Tags:
BeatmapID:1904487
BeatmapSetID:911831

[Difficulty]
HPDrainRate:5
CircleSize:4
OverallDifficulty:8.8
ApproachRate:9.3
SliderMultiplier:1.5
SliderTickRate:1

[Events]
//Background and Video events
0,0,"bg.jpg",0,0
//Break Periods
//Storyboard Layer 0 (Background)
//Storyboard Layer 1 (Fail)
//Storyboard Layer 2 (Pass)
//Storyboard Layer 3 (Foreground)
//Storyboard Sound Samples

[TimingPoints]
800,333.333333333333,4,1,1,50,1,0
10133,-133.333333333333,4,1,1,50,0,0
10549,-133.333333333333,4,1,1,5,0,0
10633,-133.333333333333,4,1,1,50,0,0
11049,-133.333333333333,4,1,1,5,0,0
11133,-133.333333333333,4,1,1,50,0,0
11383,-133.333333333333,4,1,1,5,0,0
11466,-100,4,1,1,70,0,0
32799,-100,4,1,1,5,0,0
32966,-133.333333333333,4,1,2,20,0,0
40466,-133.333333333333,4,1,2,30,0,0
40799,-117.647058823529,4,1,1,50,0,0
45883,-117.647058823529,4,1,1,5,0,0
45966,-117.647058823529,4,1,1,50,0,0
50299,-133.333333333333,4,1,1,40,0,0
51049,-133.333333333333,4,1,1,5,0,0
51133,-117.647058823529,4,1,1,60,0,0
51383,-117.647058823529,4,1,1,5,0,0
51466,-117.647058823529,4,1,1,60,0,0
61383,-117.647058823529,4,1,1,5,0,0
61466,-117.647058823529,4,1,1,60,0,0
62133,-117.647058823529,4,1,1,50,0,0
71133,-117.647058823529,4,1,2,50,0,0
71466,-117.647058823529,4,1,1,70,0,0
72799,-83.3333333333333,4,1,1,80,0,1
88799,-83.3333333333333,4,1,1,70,0,0
91466,-200,4,1,1,70,0,0
92049,-200,4,1,1,5,0,0
92133,-200,4,1,1,25,0,0
93133,-200,4,1,2,25,0,0
93466,-200,4,1,1,70,0,0
94133,-100,4,1,1,70,0,0
114799,-200,4,1,1,60,0,0
115299,-200,4,1,1,50,0,0
115466,-133.333333333333,4,1,1,50,0,0
125133,-117.647058823529,4,1,1,60,0,0
126133,-117.647058823529,4,1,1,65,0,0
135133,-117.647058823529,4,1,1,60,0,0
136133,333.333333333333,4,1,1,50,1,0
136133,-117.647058823529,4,1,1,50,0,0
143466,-117.647058823529,4,1,1,60,0,0
144133,-117.647058823529,4,1,1,70,0,0
145466,-117.647058823529,4,1,1,80,0,0
146799,-83.3333333333333,4,1,1,80,0,1
162799,-100,4,1,1,80,0,0
165466,-200,4,1,1,80,0,0
165882,-200,4,1,1,5,0,0
165966,-200,4,1,1,50,0,0
166216,-200,4,1,1,5,0,0
166299,-200,4,1,1,50,0,0
166966,-200,4,1,1,60,0,0
168049,-200,4,1,1,5,0,0
168132,-200,4,1,1,60,0,0
168716,-200,4,1,1,5,0,0
168799,-200,4,1,2,60,0,0
170716,-200,4,1,2,5,0,0
170799,-200,4,1,1,60,0,0
171466,-200,4,1,2,60,0,0
172799,-200,4,1,1,60,0,0
173466,-133.333333333333,4,1,1,60,0,0
181799,-100,4,1,1,70,0,0
184132,-90.9090909090909,4,1,1,70,0,0
192799,-80,4,1,1,70,0,0
193299,-90.9090909090909,4,1,1,70,0,0
194799,-133.333333333333,4,1,1,50,0,0
206799,-117.647058823529,4,1,1,60,0,0
209799,-100,4,1,1,60,0,0
211132,597.014925373134,4,1,1,5,1,0
211719,389.61038961039,4,1,1,35,1,0
212108,-100,4,1,1,35,0,0
212303,405.405405405405,4,1,1,35,1,0
212708,363.636363636364,4,1,1,35,1,0
213071,400,4,1,1,35,1,0
213271,394.736842105263,4,1,1,35,1,0
213665,370.37037037037,4,1,1,35,1,0
213850,405.405405405405,4,1,1,35,1,0
214630,400,4,1,1,35,1,0
214830,389.61038961039,4,1,1,35,1,0
215219,377.358490566038,4,1,1,35,1,0
216049,521.739130434783,4,1,1,35,1,0
216380,352.941176470588,4,1,1,35,1,0
216556,400,4,1,1,35,1,0
216856,-100,4,1,1,5,0,0
216937,400,4,1,1,35,1,0
217337,419.58041958042,4,1,1,35,1,0
217922,338.983050847458,4,1,1,35,1,0
218162,600,4,1,1,35,1,0
218495,400,4,1,1,35,1,0
218695,375,4,1,1,35,1,0
218882,394.736842105263,4,1,1,35,1,0
219474,375,4,1,1,40,1,0
220273,348.837209302326,4,1,1,35,1,0
220534,-100,4,1,1,5,0,0
220621,387.096774193548,4,1,1,50,1,0
221008,370.37037037037,4,1,1,50,1,0
221285,-100,4,1,1,5,0,0
221378,419.58041958042,4,1,1,50,1,0
221587,400,4,1,1,50,1,0
221805,333.333333333333,4,1,1,50,1,0
222305,387.096774193548,4,1,1,50,1,0
222500,324.324324324324,4,1,1,50,1,0
222743,-100,4,1,1,5,0,0
222824,-100,4,1,1,70,0,0
223341,315.789473684211,4,1,1,70,1,0
223341,-100,4,1,1,70,0,0
223814,333.333333333333,4,1,1,70,1,0
224147,413.793103448276,4,1,1,70,1,0
224560,375,4,1,1,70,1,0
225632,333.333333333333,4,1,1,80,1,0
225798,-83.3333333333333,4,1,1,80,0,1
239298,-100,4,1,1,70,0,0
244632,-100,4,1,1,60,0,0
264298,-100,4,1,1,55,0,0
264965,-100,4,1,1,50,0,0
265631,-100,4,1,1,40,0,0
266298,-100,4,1,1,30,0,0
266965,-100,4,1,1,20,0,0
267631,-100,4,1,1,10,0,0
268298,-100,4,1,1,5,0,0

[Colours]
Combo1 : 88,88,88
Combo2 : 255,255,255

[HitObjects]
136,264,10133,6,0,B|190:218|190:218|269:244,1,140.625005364418,2|0,0:0|0:0,0:0:0:0:
256,239,10633,2,0,L|400:227,1,140.625005364418,2|0,0:0|0:0,0:0:0:0:
396,227,11133,2,0,B|368:263|368:263|328:267,1,84.3750032186509,2|0,0:0|0:0,0:0:0:0:
310,270,11466,5,4,0:0:0:0:
392,140,11633,1,0,0:0:0:0:
512,280,11799,2,0,P|472:296|424:296,1,75,0|0,0:0|0:0,0:0:0:0:
272,168,12133,1,8,0:0:0:0:
272,168,12299,2,0,L|280:72,1,75
180,228,12633,2,0,L|172:132,1,75
84,288,12966,2,0,L|92:192,1,75,8|0,0:0|0:0,0:0:0:0:
276,204,13299,5,0,0:0:0:0:
196,384,13466,1,8,0:0:0:0:
380,356,13633,1,0,0:0:0:0:
208,292,13799,1,8,0:0:0:0:
408,360,13966,1,8,0:0:0:0:
408,360,14049,1,8,0:0:0:0:
408,360,14133,5,12,0:0:0:0:
324,168,14299,1,0,0:0:0:0:
208,292,14466,2,0,P|184:260|168:216,1,75
306,77,14799,1,8,0:0:0:0:
306,77,14966,2,0,L|298:173,1,75
398,17,15299,2,0,L|406:113,1,75,0|0,0:0|0:0,0:0:0:0:
480,232,15633,2,0,L|488:136,1,75,8|0,0:0|0:0,0:0:0:0:
300,152,15966,5,0,0:0:0:0:
369,326,16133,1,8,0:0:0:0:
185,298,16300,1,0,0:0:0:0:
357,234,16466,1,8,0:0:0:0:
157,302,16633,1,0,0:0:0:0:
200,104,16800,5,4,0:0:0:0:
240,216,16966,1,0,0:0:0:0:
96,136,17133,2,0,P|96:88|108:40,1,75,0|0,0:0|0:0,0:0:0:0:
296,132,17466,1,8,0:0:0:0:
296,132,17632,2,0,L|288:36,1,75
388,192,17966,2,0,L|396:96,1,75,0|0,0:0|0:0,0:0:0:0:
208,224,18299,2,0,L|200:128,1,75,8|0,0:0|0:0,0:0:0:0:
416,196,18632,5,0,0:0:0:0:
232,124,18799,1,8,0:0:0:0:
260,308,18966,1,0,0:0:0:0:
324,136,19132,1,8,0:0:0:0:
256,336,19299,1,8,0:0:0:0:
256,336,19382,1,8,0:0:0:0:
256,336,19466,5,12,0:0:0:0:
464,252,19632,1,0,0:0:0:0:
316,152,19799,2,0,P|304:204|304:240,1,75
456,100,20132,1,8,0:0:0:0:
456,100,20299,2,0,L|464:196,1,75
364,40,20633,2,0,L|356:136,1,75,0|0,0:0|0:0,0:0:0:0:
252,0,20966,2,0,L|260:96,1,75,8|0,0:0|0:0,0:0:0:0:
420,180,21299,5,0,0:0:0:0:
409,30,21466,5,8,0:0:0:0:
412,79,21577,5,8,0:0:0:0:
416,129,21688,5,8,0:0:0:0:
419,179,21799,6,0,L|500:140,1,75,8|0,0:0|0:0,0:0:0:0:
260,164,22133,5,4,0:0:0:0:
332,260,22299,1,0,0:0:0:0:
328,108,22466,2,0,P|316:64|300:32,1,75,0|0,0:0|0:0,0:0:0:0:
148,144,22799,1,8,0:0:0:0:
148,144,22966,2,0,L|156:48,1,75
56,204,23299,2,0,L|48:108,1,75,0|0,0:0|0:0,0:0:0:0:
144,320,23633,2,0,L|152:224,1,75,8|0,0:0|0:0,0:0:0:0:
56,204,23966,5,0,0:0:0:0:
124,356,24133,1,8,0:0:0:0:
180,164,24299,1,0,0:0:0:0:
256,352,24466,1,8,0:0:0:0:
176,136,24633,1,8,0:0:0:0:
176,136,24716,1,8,0:0:0:0:
176,136,24799,5,12,0:0:0:0:
344,164,24966,1,0,0:0:0:0:
108,196,25133,2,0,P|92:144|92:112,1,75,0|0,0:0|0:0,0:0:0:0:
256,60,25466,1,8,0:0:0:0:
256,60,25633,2,0,L|248:156,1,75,0|0,0:0|0:0,0:0:0:0:
348,0,25966,2,0,L|356:96,1,75
428,200,26299,2,0,L|436:104,1,75,8|0,0:0|0:0,0:0:0:0:
276,48,26633,5,0,0:0:0:0:
268,248,26799,1,8,0:0:0:0:
136,96,26966,1,0,0:0:0:0:
136,288,27133,1,8,0:0:0:0:
128,72,27299,1,8,0:0:0:0:
128,72,27383,1,8,0:0:0:0:
128,72,27466,5,12,0:0:0:0:
16,168,27633,1,0,0:0:0:0:
208,192,27799,2,0,P|217:140|213:110,1,75,0|0,0:0|0:0,0:0:0:0:
92,296,28133,1,8,0:0:0:0:
92,296,28300,2,0,L|84:200,1,75
184,356,28633,2,0,L|192:260,1,75
308,112,28966,2,0,L|314:186,1,75,8|0,0:0|0:0,0:0:0:0:
268,292,29299,5,0,0:0:0:0:
432,212,29466,1,8,0:0:0:0:
216,200,29633,1,0,0:0:0:0:
269,377,29799,1,8,0:0:0:0:
188,180,29966,1,8,0:0:0:0:
188,180,30049,1,8,0:0:0:0:
188,180,30133,5,12,0:0:0:0:
360,268,30299,1,0,0:0:0:0:
160,320,30466,2,0,P|140:264|140:236,1,75
280,72,30799,1,8,0:0:0:0:
280,72,30966,2,0,L|272:168,1,75
372,12,31299,2,0,L|380:108,1,75,0|0,0:0|0:0,0:0:0:0:
440,216,31633,2,0,L|446:141,1,75,8|0,0:0|0:0,0:0:0:0:
304,104,31966,5,0,0:0:0:0:
216,284,32133,5,8,0:0:0:0:
261,265,32244,5,8,0:0:0:0:
307,282,32355,5,8,0:0:0:0:
351,297,32466,5,8,0:0:0:0:
398,280,32577,6,0,L|400:227,2,50,8|8|0,0:0|0:0|0:0,0:0:0:0:
488,348,32966,6,0,L|490:291,1,56.2500021457673,0|8,0:0|0:0,0:0:0:0:
496,203,33299,1,0,0:0:0:0:
409,197,33466,1,8,0:0:0:0:
404,286,33633,1,0,0:0:0:0:
496,203,33799,2,8,B|499:145|499:145|480:92,1,112.500004291535,8|8,0:0|0:0,0:0:0:0:
324,156,34466,6,0,L|400:160,1,56.2500021457673,8|0,0:0|0:0,0:0:0:0:
256,76,34799,2,0,L|332:72,1,56.2500021457673,8|0,0:0|0:0,0:0:0:0:
216,180,35133,1,8,0:0:0:0:
164,80,35299,1,0,0:0:0:0:
100,201,35466,6,0,L|96:125,1,56.2500021457673,8|0,0:0|0:0,0:0:0:0:
192,264,35799,2,0,L|196:188,1,56.2500021457673,8|0,0:0|0:0,0:0:0:0:
108,308,36133,1,8,0:0:0:0:
188,376,36299,1,0,0:0:0:0:
268,308,36466,1,8,0:0:0:0:
348,376,36633,1,0,0:0:0:0:
428,308,36799,6,0,L|432:376,1,56.2500021457673,8|0,0:0|0:0,0:0:0:0:
512,216,37133,2,0,L|508:284,1,56.2500021457673,8|0,0:0|0:0,0:0:0:0:
368,136,37466,2,0,L|372:204,1,56.2500021457673,8|0,0:0|0:0,0:0:0:0:
456,52,37799,2,0,L|457:80,2,28.1250010728836,8|0|0,0:0|0:0|0:0,0:0:0:0:
356,12,38133,2,8,L|244:18,1,112.500004291535,8|8,0:0|0:0,0:0:0:0:
180,104,38633,1,0,0:0:0:0:
120,32,38799,2,0,L|118:4,2,28.1250010728836,8|0|0,0:0|0:0|0:0,0:0:0:0:
129,133,39133,1,8,0:0:0:0:
140,236,39299,1,0,0:0:0:0:
55,131,39466,6,0,P|75:83|135:207,1,337.500012874604,8|4,0:0|0:0,0:0:0:0:
135,206,40799,6,0,P|167:199|211:207,1,63.7500012159348,0|0,0:0|0:0,0:0:0:0:
272,328,41133,1,8,0:0:0:0:
196,348,41299,2,0,L|200:276,1,63.7500012159348,0|0,0:0|0:0,0:0:0:0:
344,284,41633,2,0,L|347:347,1,63.7500012159348,0|0,0:0|0:0,0:0:0:0:
272,184,41966,2,0,P|316:172|348:176,1,63.7500012159348,8|0,0:0|0:0,0:0:0:0:
452,264,42299,1,8,2:0:0:0:
452,264,42383,1,8,2:0:0:0:
452,264,42466,6,0,P|419:231|407:202,1,63.7500012159348,8|0,0:0|0:0,0:0:0:0:
432,69,42799,2,0,P|420:113|400:138,1,63.7500012159348,0|0,0:0|0:0,0:0:0:0:
304,152,43133,2,0,L|232:148,1,63.7500012159348,8|0,0:0|0:0,0:0:0:0:
144,68,43466,2,0,L|216:64,1,63.7500012159348
140,176,43799,1,8,0:0:0:0:
56,148,43966,5,0,0:0:0:0:
56,148,44133,2,0,L|128:152,1,63.7500012159348
116,312,44466,1,8,0:0:0:0:
32,308,44633,1,0,0:0:0:0:
32,308,44799,6,0,P|76:296|108:296,1,63.7500012159348,2|2,0:0|0:0,0:0:0:0:
116,312,45049,1,2,0:0:0:0:
116,312,45133,1,10,0:0:0:0:
224,316,45299,1,2,0:0:0:0:
224,316,45383,1,2,0:0:0:0:
224,316,45466,1,2,0:0:0:0:
175,223,45633,2,0,P|213:210|279:226,1,95.6250018239022,8|8,0:0|0:0,0:0:0:0:
267,219,45966,1,8,0:0:0:0:
380,372,46133,5,4,0:0:0:0:
260,312,46299,1,0,0:0:0:0:
388,292,46466,1,8,0:0:0:0:
268,332,46633,5,0,0:0:0:0:
268,332,46799,2,0,P|260:288|264:256,1,63.7500012159348
344,216,47133,1,0,0:0:0:0:
344,216,47299,2,0,P|352:172|348:140,1,63.7500012159348,8|0,0:0|0:0,0:0:0:0:
212,112,47633,1,2,0:0:0:0:
212,112,47716,1,2,0:0:0:0:
212,112,47799,2,0,P|211:143|218:174,1,63.7500012159348,10|0,0:0|0:0,0:0:0:0:
284,40,48133,2,0,L|226:14,1,63.7500012159348,0|0,0:0|0:0,0:0:0:0:
144,72,48466,2,0,L|85:94,1,63.7500012159348,2|0,0:0|0:0,0:0:0:0:
36,216,48799,5,0,0:0:0:0:
132,216,48966,1,0,0:0:0:0:
16,192,49133,1,0,0:0:0:0:
16,192,49299,2,0,P|20:256|47:322,1,127.50000243187
160,304,49799,1,8,0:0:0:0:
228,216,49966,2,0,L|316:208,1,63.7500012159348,0|0,0:0|0:0,0:0:0:0:
379,329,50299,6,0,B|356:272|389:220|389:220|371:195|371:195|400:135|367:80,1,253.125009655953,0|0,0:0|0:0,0:0:0:0:
374,92,51133,2,0,P|328:68|284:76,1,95.6250018239022,8|0,0:0|0:0,0:0:0:0:
286,74,51466,6,0,P|215:99|165:72,1,127.50000243187,4|8,0:0|0:0,0:0:0:0:
120,12,51966,1,2,0:0:0:0:
112,16,52049,1,2,0:0:0:0:
104,20,52133,2,0,P|84:60|84:96,1,63.7500012159348,2|0,0:0|0:0,0:0:0:0:
184,172,52466,1,0,0:0:0:0:
184,172,52633,2,0,P|178:140|162:113,1,63.7500012159348,8|0,0:0|0:0,0:0:0:0:
136,252,52966,1,2,2:0:0:0:
136,252,53049,1,2,2:0:0:0:
136,252,53133,6,0,P|165:262|197:262,1,63.7500012159348,8|0,0:0|0:0,0:0:0:0:
264,188,53466,2,0,P|293:177|325:177,1,63.7500012159348,0|0,0:0|0:0,0:0:0:0:
400,252,53799,2,0,L|404:176,1,63.7500012159348,8|0,0:0|0:0,0:0:0:0:
504,136,54133,2,0,L|500:212,1,63.7500012159348,0|0,0:0|0:0,0:0:0:0:
344,120,54466,5,8,0:0:0:0:
432,40,54633,1,2,0:0:0:0:
441,36,54716,1,2,0:0:0:0:
449,33,54799,2,0,P|491:47|516:72,1,63.7500012159348,2|0,0:0|0:0,0:0:0:0:
288,60,55133,2,0,P|314:41|344:34,1,63.7500012159348,8|0,0:0|0:0,0:0:0:0:
284,152,55466,1,0,0:0:0:0:
208,104,55633,1,2,2:0:0:0:
208,104,55716,1,2,2:0:0:0:
208,104,55799,2,0,P|176:109|149:125,1,63.7500012159348,8|0,0:0|0:0,0:0:0:0:
156,244,56133,5,0,0:0:0:0:
156,244,56299,2,0,L|226:217,1,63.7500012159348,8|0,0:0|0:0,0:0:0:0:
88,180,56633,1,0,0:0:0:0:
104,352,56799,5,4,0:0:0:0:
144,256,56966,1,0,0:0:0:0:
244,348,57133,1,8,0:0:0:0:
328,256,57299,1,2,0:0:0:0:
324,248,57382,1,2,0:0:0:0:
320,240,57466,2,0,P|280:220|244:220,1,63.7500012159348,2|0,0:0|0:0,0:0:0:0:
340,344,57799,1,0,0:0:0:0:
340,344,57966,2,0,P|371:338|398:322,1,63.7500012159348,8|0,0:0|0:0,0:0:0:0:
452,248,58299,1,2,0:2:0:0:
452,248,58383,1,2,0:2:0:0:
452,248,58466,2,0,L|460:164,1,63.7500012159348,8|0,0:0|0:0,0:0:0:0:
408,84,58799,5,0,0:0:0:0:
480,164,58966,1,0,0:0:0:0:
296,168,59133,2,0,L|288:84,1,63.7500012159348,8|0,0:0|0:0,0:0:0:0:
316,16,59466,2,0,P|284:16|240:24,1,63.7500012159348,0|0,0:0|0:0,0:0:0:0:
176,112,59799,2,0,P|144:112|100:104,1,63.7500012159348,8|2,0:0|0:0,0:0:0:0:
92,88,60049,1,2,0:0:0:0:
92,88,60133,1,2,0:0:0:0:
152,16,60299,1,0,0:0:0:0:
176,200,60466,1,8,0:0:0:0:
248,80,60633,6,0,P|319:69|392:69,1,127.50000243187,4|0,0:0|0:0,0:0:0:0:
460,116,61133,2,0,P|414:84|383:122,1,95.6250018239022,0|0,0:0|0:0,0:0:0:0:
388,103,61466,1,2,0:0:0:0:
372,183,61632,1,2,0:0:0:0:
468,268,61799,1,2,0:0:0:0:
452,193,61965,1,2,0:0:0:0:
396,316,62133,6,0,P|433:347|515:341,1,127.50000243187,4|0,0:0|0:0,0:0:0:0:
356,248,62633,1,0,0:0:0:0:
356,248,62799,2,0,P|328:244|276:252,1,63.7500012159348,8|0,0:0|0:0,0:0:0:0:
220,332,63133,1,8,0:0:0:0:
172,216,63299,2,0,P|165:167|178:76,1,127.50000243187,4|2,0:0|0:0,0:0:0:0:
196,72,63716,1,2,0:0:0:0:
196,72,63799,5,2,0:0:0:0:
272,156,63966,1,2,0:0:0:0:
80,168,64133,1,10,0:0:0:0:
80,168,64299,2,0,P|72:128|76:100,1,63.7500012159348,8|0,0:0|0:0,0:0:0:0:
192,232,64633,1,0,0:0:0:0:
20,248,64799,5,4,0:0:0:0:
204,148,64966,2,0,P|244:164|280:192,1,63.7500012159348
292,264,65299,1,0,0:0:0:0:
96,236,65466,1,8,0:0:0:0:
192,128,65633,1,0,0:0:0:0:
232,340,65799,1,8,0:0:0:0:
72,256,65966,2,0,P|116:224|192:240,2,127.50000243187,4|8|0,0:0|0:0|0:0,0:0:0:0:
140,316,66799,5,8,0:0:0:0:
168,148,66966,2,0,P|136:176|120:204,1,63.7500012159348,8|0,0:0|0:0,0:0:0:0:
264,196,67299,1,0,0:0:0:0:
364,120,67466,6,0,P|328:84|244:76,1,127.50000243187,4|0,0:0|0:0,0:0:0:0:
264,196,67966,1,0,0:0:0:0:
368,208,68133,2,0,P|417:189|452:124,1,127.50000243187,8|0,0:0|0:0,0:0:0:0:
264,196,68633,6,0,P|306:238|340:181,1,127.50000243187,4|8,0:0|0:0,0:0:0:0:
168,200,69133,1,0,0:0:0:0:
304,320,69299,1,0,0:0:0:0:
304,320,69383,1,0,0:0:0:0:
304,320,69466,1,8,0:0:0:0:
256,116,69633,1,0,0:0:0:0:
180,316,69799,1,0,0:0:0:0:
368,188,69966,1,0,0:0:0:0:
136,180,70133,5,8,0:0:0:0:
400,280,70299,1,8,0:0:0:0:
436,128,70466,6,0,B|408:108|408:108|308:100,1,127.50000243187,0|0,0:0|0:0,0:0:0:0:
160,156,70966,1,0,0:0:0:0:
240,240,71133,2,0,L|328:247,1,63.7500012159348,4|0,0:0|0:0,0:0:0:0:
504,260,71466,5,8,0:0:0:0:
285,111,71716,5,8,0:0:0:0:
267,376,71966,5,8,0:0:0:0:
120,104,72799,6,0,B|156:80|200:100|200:100|248:128|292:100,1,179.999994506836,4|8,0:0|0:0,0:0:0:0:
36,112,73299,2,0,P|52:160|92:188,1,89.9999972534181
224,200,73633,1,0,0:0:0:0:
156,64,73799,1,8,0:0:0:0:
180,280,73966,2,0,P|260:284|324:200,1,179.999994506836,0|0,0:0|0:0,0:0:0:0:
304,72,74466,6,0,P|248:92|224:124,1,89.9999972534181,8|0,0:0|0:0,0:0:0:0:
436,108,74799,2,0,P|446:49|430:12,1,89.9999972534181,0|0,0:0|0:0,0:0:0:0:
312,160,75133,1,8,0:0:0:0:
512,208,75299,1,0,0:0:0:0:
344,64,75466,5,4,0:0:0:0:
344,64,75633,2,0,B|297:56|297:56|254:64,1,89.9999972534181,0|8,0:0|0:0,0:0:0:0:
160,248,75966,2,0,P|180:204|184:160,1,89.9999972534181,0|0,0:0|0:0,0:0:0:0:
88,88,76299,1,0,0:0:0:0:
68,272,76466,1,8,0:0:0:0:
280,184,76633,1,0,0:0:0:0:
92,184,76799,6,0,P|43:188|3:207,1,89.9999972534181,0|0,0:0|0:0,0:0:0:0:
184,316,77133,1,8,0:0:0:0:
280,184,77299,2,0,P|275:135|256:95,1,89.9999972534181,0|0,0:0|0:0,0:0:0:0:
280,372,77633,2,0,P|328:367|368:348,1,89.9999972534181,0|8,0:0|0:0,0:0:0:0:
280,184,77966,1,0,0:0:0:0:
124,288,78133,6,0,B|172:312|212:288|212:288|260:264|304:284,1,179.999994506836,4|8,0:0|0:0,0:0:0:0:
64,352,78633,1,0,0:0:0:0:
116,144,78799,2,0,P|156:180|168:224,1,89.9999972534181,0|0,0:0|0:0,0:0:0:0:
32,240,79133,1,8,0:0:0:0:
76,36,79299,1,0,0:0:0:0:
184,152,79466,1,0,0:0:0:0:
0,128,79633,1,0,0:0:0:0:
192,0,79799,1,8,0:0:0:0:
288,160,79966,6,0,P|232:172|192:164,1,89.9999972534181,0|0,0:0|0:0,0:0:0:0:
304,32,80299,2,0,P|360:20|400:28,1,89.9999972534181,0|8,0:0|0:0,0:0:0:0:
352,228,80633,1,0,0:0:0:0:
200,188,80799,6,0,B|171:102|171:102|194:6,1,179.999994506836,4|8,0:0|0:0,0:0:0:0:
344,208,81299,1,0,0:0:0:0:
232,356,81466,1,0,0:0:0:0:
220,180,81633,1,0,0:0:0:0:
348,336,81799,1,8,0:0:0:0:
124,336,81966,6,0,P|101:288|104:245,1,89.9999972534181,0|0,0:0|0:0,0:0:0:0:
236,272,82299,1,0,0:0:0:0:
16,272,82466,1,8,0:0:0:0:
128,104,82633,2,0,P|149:143|149:187,1,89.9999972534181,0|0,0:0|0:0,0:0:0:0:
44,168,82966,1,0,0:0:0:0:
208,56,83133,1,8,0:0:0:0:
140,296,83299,1,0,0:0:0:0:
40,88,83466,6,0,P|91:24|193:46,1,179.999994506836,4|8,0:0|0:0,0:0:0:0:
212,252,83966,1,0,0:0:0:0:
128,104,84133,1,0,0:0:0:0:
348,144,84299,1,0,0:0:0:0:
96,208,84466,1,8,0:0:0:0:
204,40,84633,2,0,P|268:24|376:64,1,179.999994506836,0|0,0:0|0:0,0:0:0:0:
284,256,85133,6,0,P|268:204|272:164,1,89.9999972534181,8|0,0:0|0:0,0:0:0:0:
480,228,85466,2,0,P|481:272|466:314,1,89.9999972534181,0|0,0:0|0:0,0:0:0:0:
240,224,85799,1,8,0:0:0:0:
396,144,85966,1,0,0:0:0:0:
388,344,86133,5,4,0:0:0:0:
388,344,86299,2,0,B|338:356|338:356|288:344,1,89.9999972534181,0|8,0:0|0:0,0:0:0:0:
272,144,86633,6,0,P|280:204|272:240,1,89.9999972534181
128,260,86966,1,0,0:0:0:0:
188,88,87133,2,0,P|235:51|271:39,1,89.9999972534181,8|0,0:0|0:0,0:0:0:0:
182,189,87466,2,0,P|79:146|29:100,1,179.999994506836,0|8,0:0|0:0,0:0:0:0:
164,52,87966,1,0,0:0:0:0:
232,260,88133,2,0,P|176:272|132:260,1,89.9999972534181,8|0,0:0|0:0,0:0:0:0:
280,168,88466,1,8,0:0:0:0:
272,352,88633,1,8,0:0:0:0:
56,316,88799,6,0,B|36:264|56:228|56:228|76:192|52:140,1,179.999994506836,4|0,0:0|0:0,0:0:0:0:
204,268,89466,6,0,P|264:248|288:228,1,89.9999972534181,0|0,0:0|0:0,0:0:0:0:
320,116,89799,1,8,0:0:0:0:
136,216,89966,2,0,P|124:300|200:356,1,179.999994506836,8|8,0:0|0:0,0:0:0:0:
360,284,90466,5,0,0:0:0:0:
204,268,90633,1,0,0:0:0:0:
364,152,90799,1,8,0:0:0:0:
268,360,90966,1,0,0:0:0:0:
264,116,91133,1,8,0:0:0:0:
360,324,91300,1,8,0:0:0:0:
360,324,91383,1,8,0:0:0:0:
360,324,91466,6,0,P|364:292|288:300,1,131.25,12|0,0:0|0:0,0:0:0:0:
289,291,92133,2,0,P|217:335|196:230,1,225,0|4,0:0|0:0,0:0:0:0:
92,384,93466,5,8,0:0:0:0:
128,108,93633,1,8,0:0:0:0:
148,96,94133,5,4,0:0:0:0:
276,164,94300,1,0,0:0:0:0:
138,298,94466,2,0,P|122:258|122:210,1,75,0|0,0:0|0:0,0:0:0:0:
376,128,94799,1,8,0:0:0:0:
376,128,94966,2,0,L|384:224,1,75
284,68,95299,2,0,L|276:164,1,75
178,7,95633,2,0,L|185:82,1,75,8|0,0:0|0:0,0:0:0:0:
140,168,95966,5,0,0:0:0:0:
320,248,96133,1,8,0:0:0:0:
292,64,96300,1,0,0:0:0:0:
228,236,96466,1,8,0:0:0:0:
296,36,96633,1,8,0:0:0:0:
296,36,96716,1,8,0:0:0:0:
296,36,96800,5,12,0:0:0:0:
104,120,96966,1,0,0:0:0:0:
248,212,97133,2,0,P|236:172|216:144,1,75,0|0,0:0|0:0,0:0:0:0:
104,308,97466,1,8,0:0:0:0:
104,308,97632,2,0,L|112:212,1,75
12,368,97966,2,0,L|4:272,1,75,0|0,0:0|0:0,0:0:0:0:
200,364,98299,2,0,L|208:268,1,75,8|0,0:0|0:0,0:0:0:0:
88,304,98633,5,0,0:0:0:0:
220,160,98799,1,8,0:0:0:0:
320,336,98966,1,0,0:0:0:0:
224,136,99133,1,8,0:0:0:0:
208,280,99299,1,0,0:0:0:0:
392,116,99466,5,4,0:0:0:0:
404,256,99632,1,0,0:0:0:0:
464,60,99799,2,0,P|428:36|392:28,1,75,0|0,0:0|0:0,0:0:0:0:
144,120,100133,1,8,0:0:0:0:
144,120,100299,2,0,L|136:216,1,75
236,60,100633,2,0,L|244:156,1,75
304,304,100966,2,0,L|312:208,1,75,8|0,0:0|0:0,0:0:0:0:
384,152,101299,5,0,0:0:0:0:
200,224,101466,1,8,0:0:0:0:
228,40,101633,1,0,0:0:0:0:
292,212,101799,1,8,0:0:0:0:
224,12,101966,1,8,0:0:0:0:
224,12,102049,1,8,0:0:0:0:
224,12,102133,5,12,0:0:0:0:
416,96,102299,1,0,0:0:0:0:
212,152,102466,2,0,P|244:120|288:104,1,75,0|0,0:0|0:0,0:0:0:0:
312,324,102799,1,8,0:0:0:0:
312,324,102966,2,0,L|320:228,1,75,0|0,0:0|0:0,0:0:0:0:
220,384,103299,2,0,L|212:288,1,75
168,152,103633,2,0,L|161:226,1,75,8|0,0:0|0:0,0:0:0:0:
136,316,103966,5,0,0:0:0:0:
48,200,104133,6,2,L|40:152,1,37.5,2|0,0:0|0:0,0:0:0:0:
188,32,104383,6,2,L|194:68,1,37.5,2|0,0:0|0:0,0:0:0:0:
328,200,104633,6,2,L|334:163,1,37.5,2|0,0:0|0:0,0:0:0:0:
480,108,104799,5,4,0:0:0:0:
412,236,104966,1,0,0:0:0:0:
278,98,105132,2,0,P|318:82|366:82,1,75,0|0,0:0|0:0,0:0:0:0:
244,280,105466,1,8,0:0:0:0:
244,280,105632,2,0,L|236:376,1,75
336,220,105966,2,0,L|344:316,1,75,0|0,0:0|0:0,0:0:0:0:
444,368,106299,2,0,L|450:293,1,75,8|0,0:0|0:0,0:0:0:0:
336,220,106633,5,0,0:0:0:0:
512,168,106799,1,8,0:0:0:0:
312,92,106966,1,0,0:0:0:0:
432,268,107133,1,8,0:0:0:0:
288,76,107299,1,8,0:0:0:0:
288,76,107383,1,8,0:0:0:0:
288,76,107466,5,12,0:0:0:0:
220,256,107633,1,0,0:0:0:0:
164,96,107799,2,0,P|168:48|184:16,1,75,0|0,0:0|0:0,0:0:0:0:
252,244,108133,1,8,0:0:0:0:
252,244,108299,2,0,L|260:148,1,75
160,304,108633,2,0,L|152:208,1,75,0|0,0:0|0:0,0:0:0:0:
60,248,108966,2,0,L|66:173,1,75,8|0,0:0|0:0,0:0:0:0:
234,237,109299,5,0,0:0:0:0:
148,384,109466,1,8,0:0:0:0:
148,168,109633,1,0,0:0:0:0:
4,332,109799,1,8,0:0:0:0:
164,136,109966,1,8,0:0:0:0:
164,136,110049,1,8,0:0:0:0:
164,136,110133,5,12,0:0:0:0:
212,268,110299,1,0,0:0:0:0:
52,168,110466,2,0,P|52:128|60:92,1,75,0|0,0:0|0:0,0:0:0:0:
260,60,110799,1,8,0:0:0:0:
260,60,110966,2,0,L|252:156,1,75
352,0,111299,2,0,L|360:96,1,75,0|0,0:0|0:0,0:0:0:0:
444,196,111633,2,0,L|452:100,1,75,8|0,0:0|0:0,0:0:0:0:
352,92,111966,5,0,0:0:0:0:
272,304,112133,1,8,0:0:0:0:
168,116,112299,1,0,0:0:0:0:
144,332,112466,1,8,0:0:0:0:
162,87,112633,1,8,0:0:0:0:
162,87,112716,1,8,0:0:0:0:
162,87,112799,5,12,0:0:0:0:
328,108,112966,1,0,0:0:0:0:
152,240,113133,2,0,P|108:228|76:208,1,75,0|0,0:0|0:0,0:0:0:0:
260,200,113466,1,8,0:0:0:0:
260,200,113632,2,0,L|252:104,1,75,0|0,0:0|0:0,0:0:0:0:
352,260,113966,2,0,L|360:164,1,75
252,372,114299,2,0,L|244:276,1,75,8|0,0:0|0:0,0:0:0:0:
344,344,114633,5,0,0:0:0:0:
156,368,114799,2,0,P|112:368|112:304,1,112.5,8|0,0:0|0:0,0:0:0:0:
168,236,115466,6,0,P|210:275|228:336,1,112.500004291535,4|0,0:0|0:0,0:0:0:0:
364,192,115966,1,0,0:0:0:0:
364,192,116133,2,0,P|321:231|304:292,1,112.500004291535,8|0,0:0|0:0,0:0:0:0:
460,204,116633,1,0,0:0:0:0:
460,204,116800,2,0,P|446:147|403:102,1,112.500004291535,8|0,0:0|0:0,0:0:0:0:
401,281,117299,1,0,0:0:0:0:
401,281,117466,2,0,P|456:297|517:282,1,112.500004291535,8|0,0:0|0:0,0:0:0:0:
364,192,117966,5,8,0:0:0:0:
364,192,118133,2,0,P|308:175|247:190,1,112.500004291535,8|0,0:0|0:0,0:0:0:0:
240,368,118633,1,0,0:0:0:0:
240,368,118800,2,0,P|282:328|300:268,1,112.500004291535,8|0,0:0|0:0,0:0:0:0:
149,172,119299,1,0,0:0:0:0:
149,172,119466,5,8,0:0:0:0:
240,368,119716,5,8,0:0:0:0:
364,191,119966,5,8,0:0:0:0:
364,191,120133,1,2,0:0:0:0:
288,148,120299,1,2,0:0:0:0:
288,235,120466,1,2,0:0:0:0:
363,104,120633,5,8,0:0:0:0:
363,104,120799,2,0,P|316:76|248:76,1,112.500004291535,4|0,0:0|0:0,0:0:0:0:
128,52,121299,1,0,0:0:0:0:
128,52,121466,2,0,P|127:106|161:165,1,112.500004291535,8|0,0:0|0:0,0:0:0:0:
200,281,121966,1,0,0:0:0:0:
200,281,122133,2,0,P|247:254|281:195,1,112.500004291535,8|0,0:0|0:0,0:0:0:0:
52,272,122633,1,0,0:0:0:0:
52,272,122799,2,0,P|82:318|130:346,1,112.500004291535,8|0,0:0|0:0,0:0:0:0:
184,184,123299,5,8,0:0:0:0:
184,184,123466,2,0,P|209:134|209:78,1,112.500004291535,8|0,0:0|0:0,0:0:0:0:
52,60,123966,1,0,0:0:0:0:
52,60,124133,2,0,P|71:90|103:108,1,56.2500021457673,8|0,0:0|0:0,0:0:0:0:
272,28,124466,1,8,0:0:0:0:
272,28,124633,2,0,P|216:0|164:4,1,112.500004291535,0|0,0:0|0:0,0:0:0:0:
304,168,125133,5,8,0:0:0:0:
344,76,125299,1,0,0:0:0:0:
443,248,125466,1,8,0:0:0:0:
403,156,125632,1,0,0:0:0:0:
264,260,125799,1,8,0:0:0:0:
264,260,125882,1,0,0:0:0:0:
264,260,125966,1,0,0:0:0:0:
372,332,126133,5,4,0:0:0:0:
164,336,126299,1,0,0:0:0:0:
176,244,126466,1,0,0:0:0:0:
284,352,126633,6,0,B|223:369|223:369|159:352,1,127.50000243187,0|0,0:0|0:0,0:0:0:0:
92,292,127133,1,8,0:0:0:0:
160,160,127299,2,0,B|220:142|220:142|286:160,1,127.50000243187,4|0,0:0|0:0,0:0:0:0:
256,280,127799,1,8,0:0:0:0:
251,266,127883,1,0,0:0:0:0:
246,252,127966,5,0,0:0:0:0:
180,64,128133,1,8,0:0:0:0:
77,278,128299,1,0,0:0:0:0:
21,119,128466,1,4,0:0:0:0:
235,222,128633,1,0,0:0:0:0:
284,92,128799,1,0,0:0:0:0:
428,284,128966,6,0,B|448:268|448:268|452:148,1,127.50000243187,4|0,0:0|0:0,0:0:0:0:
456,32,129466,1,8,0:0:0:0:
292,116,129633,2,0,B|272:132|272:132|268:252,1,127.50000243187,4|0,0:0|0:0,0:0:0:0:
340,368,130133,5,8,0:0:0:0:
152,232,130299,1,0,0:0:0:0:
400,228,130466,1,8,0:0:0:0:
204,360,130633,1,8,0:0:0:0:
204,360,130716,1,8,0:0:0:0:
204,360,130799,1,8,0:0:0:0:
256,52,131133,5,4,0:0:0:0:
276,228,131299,1,0,0:0:0:0:
176,184,131466,1,0,0:0:0:0:
404,128,131633,6,0,B|424:192|424:192|423:260,1,127.50000243187,4|0,0:0|0:0,0:0:0:0:
352,332,132133,1,8,0:0:0:0:
200,196,132299,2,0,B|180:260|180:260|180:328,1,127.50000243187,4|0,0:0|0:0,0:0:0:0:
300,208,132799,1,8,0:0:0:0:
295,194,132883,1,0,0:0:0:0:
290,180,132966,5,0,0:0:0:0:
240,0,133133,1,8,0:0:0:0:
92,200,133299,1,0,0:0:0:0:
42,20,133466,1,4,0:0:0:0:
192,120,133633,1,0,0:0:0:0:
240,20,133799,1,0,0:0:0:0:
332,96,133966,6,0,B|344:128|344:128|332:224,1,127.50000243187,4|0,0:0|0:0,0:0:0:0:
316,316,134466,1,8,0:0:0:0:
432,104,134633,2,0,B|444:136|444:136|432:232,1,127.50000243187,4|0,0:0|0:0,0:0:0:0:
408,380,135133,5,8,0:0:0:0:
352,296,135299,1,0,0:0:0:0:
502,285,135466,1,8,0:0:0:0:
408,380,135633,1,0,0:0:0:0:
314,285,135799,1,0,0:0:0:0:
220,380,135966,1,0,0:0:0:0:
168,196,136133,6,0,P|229:176|288:200,1,127.50000243187,4|0,0:0|0:0,0:0:0:0:
112,280,136633,1,0,0:0:0:0:
112,280,136799,2,0,P|76:252|60:224,1,63.7500012159348,8|0,0:0|0:0,0:0:0:0:
56,124,137133,1,8,0:0:0:0:
168,196,137299,2,0,P|215:206|299:181,1,127.50000243187,4|2,0:0|0:0,0:0:0:0:
312,156,137716,1,2,0:0:0:0:
312,156,137799,5,2,0:0:0:0:
224,80,137966,1,2,0:0:0:0:
244,304,138133,1,10,0:0:0:0:
244,304,138299,2,0,P|292:296|324:284,1,63.7500012159348,8|0,0:0|0:0,0:0:0:0:
204,216,138633,1,0,0:0:0:0:
292,384,138799,1,4,0:0:0:0:
360,136,138966,6,0,P|312:144|280:156,1,63.7500012159348,0|8,0:0|0:0,0:0:0:0:
352,248,139299,1,0,0:0:0:0:
456,164,139466,2,0,P|460:112|452:84,1,63.7500012159348,8|0,0:0|0:0,0:0:0:0:
267,136,139799,1,8,0:0:0:0:
400,296,139966,2,0,P|368:264|272:292,2,127.50000243187,4|0|0,0:0|0:0|0:0,0:0:0:0:
328,364,140799,5,8,0:0:0:0:
332,172,140966,2,0,P|356:204|364:232,1,63.7500012159348,8|0,0:0|0:0,0:0:0:0:
180,232,141299,1,0,0:0:0:0:
276,76,141466,6,0,P|340:56|400:88,1,127.50000243187,4|0,0:0|0:0,0:0:0:0:
332,172,141966,1,0,0:0:0:0:
208,144,142133,2,0,P|158:98|156:30,1,127.50000243187,8|0,0:0|0:0,0:0:0:0:
304,180,142633,6,0,P|304:239|239:223,1,127.50000243187,4|0,0:0|0:0,0:0:0:0:
208,144,143133,1,0,0:0:0:0:
392,148,143299,1,0,0:0:0:0:
392,148,143383,1,0,0:0:0:0:
392,148,143466,1,0,0:0:0:0:
344,320,143633,1,0,0:0:0:0:
216,196,143799,1,0,0:0:0:0:
428,252,143966,1,0,0:0:0:0:
204,324,144133,5,4,0:0:0:0:
276,84,144299,1,0,0:0:0:0:
344,320,144466,1,8,0:0:0:0:
276,64,144633,1,0,0:0:0:0:
380,156,144799,1,0,0:0:0:0:
248,200,144966,1,8,0:0:0:0:
384,32,145133,1,0,0:0:0:0:
432,268,145299,1,8,0:0:0:0:
280,52,145466,5,4,0:0:0:0:
324,306,145633,1,0,0:0:0:0:
324,306,145716,1,8,0:0:0:0:
324,306,145799,1,0,0:0:0:0:
276,84,145966,1,8,0:0:0:0:
166,282,146133,1,8,0:0:0:0:
116,56,146299,5,8,0:0:0:0:
151,44,146382,1,8,0:0:0:0:
188,45,146465,1,8,0:0:0:0:
222,60,146549,1,8,0:0:0:0:
256,74,146632,1,8,0:0:0:0:
293,76,146715,1,8,0:0:0:0:
328,64,146799,6,0,B|364:40|408:60|408:60|456:88|500:60,1,179.999994506836,12|8,0:0|0:0,0:0:0:0:
222,60,147299,2,0,P|235:103|259:140,1,89.9999972534181,0|0,0:0|0:0,0:0:0:0:
388,228,147633,1,0,0:0:0:0:
328,64,147799,1,8,0:0:0:0:
184,232,147966,2,0,P|224:253|288:164,1,179.999994506836,0|0,0:0|0:0,0:0:0:0:
92,184,148466,6,0,P|80:228|88:276,1,89.9999972534181,8|0,0:0|0:0,0:0:0:0:
252,376,148799,2,0,P|258:331|246:288,1,89.9999972534181,0|0,0:0|0:0,0:0:0:0:
124,340,149133,1,8,0:0:0:0:
360,376,149299,1,0,0:0:0:0:
284,148,149466,6,0,B|244:172|244:172|212:316,1,179.999994506836,4|8,0:0|0:0,0:0:0:0:
372,188,149966,2,0,P|380:132|372:96,1,89.9999972534181,0|0,0:0|0:0,0:0:0:0:
220,148,150299,1,0,0:0:0:0:
420,272,150466,1,8,0:0:0:0:
444,28,150632,1,0,0:0:0:0:
310,124,150799,6,0,P|343:169|375:189,1,89.9999972534181,0|0,0:0|0:0,0:0:0:0:
328,28,151132,1,8,0:0:0:0:
200,172,151299,2,0,P|192:227|199:263,1,89.9999972534181,0|0,0:0|0:0,0:0:0:0:
88,128,151632,2,0,P|42:161|22:193,1,89.9999972534181,0|8,0:0|0:0,0:0:0:0:
52,288,151966,1,0,0:0:0:0:
180,148,152132,6,0,P|168:76|60:48,1,179.999994506836,4|8,0:0|0:0,0:0:0:0:
120,228,152632,1,0,0:0:0:0:
260,180,152799,2,0,P|268:128|264:80,1,89.9999972534181,0|0,0:0|0:0,0:0:0:0:
104,128,153132,1,8,0:0:0:0:
228,336,153299,1,0,0:0:0:0:
184,132,153466,1,0,0:0:0:0:
128,360,153632,1,0,0:0:0:0:
184,152,153799,1,8,0:0:0:0:
332,328,153966,6,0,P|340:280|332:236,1,89.9999972534181,0|0,0:0|0:0,0:0:0:0:
56,296,154299,2,0,P|93:326|135:342,1,89.9999972534181,0|8,0:0|0:0,0:0:0:0:
220,288,154632,1,0,0:0:0:0:
132,136,154799,6,0,P|52:136|28:248,1,179.999994506836,4|8,0:0|0:0,0:0:0:0:
276,196,155299,2,0,P|280:144|268:100,1,89.9999972534181,0|0,0:0|0:0,0:0:0:0:
156,160,155632,1,0,0:0:0:0:
284,312,155799,1,8,0:0:0:0:
352,68,155966,2,0,P|280:24|192:60,1,179.999994506836,0|0,0:0|0:0,0:0:0:0:
256,232,156466,5,8,0:0:0:0:
416,136,156632,2,0,P|443:84|435:24,1,89.9999972534181,0|0,0:0|0:0,0:0:0:0:
264,128,156966,1,0,0:0:0:0:
372,288,157132,1,8,0:0:0:0:
320,56,157299,1,0,0:0:0:0:
168,264,157466,6,0,P|209:225|255:222,1,89.9999972534181,4|0,0:0|0:0,0:0:0:0:
344,260,157799,1,8,0:0:0:0:
92,300,157966,2,0,P|84:244|108:204,1,89.9999972534181
208,360,158299,1,0,0:0:0:0:
0,288,158466,1,8,0:0:0:0:
152,116,158632,2,0,P|208:156|180:260,1,179.999994506836,0|0,0:0|0:0,0:0:0:0:
52,128,159132,5,8,0:0:0:0:
300,96,159299,1,0,0:0:0:0:
200,284,159466,1,0,0:0:0:0:
164,32,159632,1,0,0:0:0:0:
412,120,159799,1,8,0:0:0:0:
288,236,159966,1,0,0:0:0:0:
248,28,160132,5,4,0:0:0:0:
248,28,160299,2,0,B|267:19|267:19|349:23,1,89.9999972534181,0|8,0:0|0:0,0:0:0:0:
136,92,160632,2,0,P|124:44|132:-4,1,89.9999972534181,0|0,0:0|0:0,0:0:0:0:
296,168,160966,2,0,P|300:212|289:255,1,89.9999972534181,0|8,0:0|0:0,0:0:0:0:
156,348,161299,1,0,0:0:0:0:
80,192,161466,2,0,P|124:187|167:198,1,89.9999972534181,0|0,0:0|0:0,0:0:0:0:
44,304,161799,5,8,0:0:0:0:
16,112,161966,2,0,P|44:77|82:54,1,89.9999972534181,0|8,0:0|0:0,0:0:0:0:
88,216,162299,2,0,P|132:211|175:222,1,89.9999972534181,0|8,0:0|0:0,0:0:0:0:
116,344,162632,1,8,0:0:0:0:
16,136,162799,6,0,P|36:96|144:100,1,150,4|0,0:0|0:0,0:0:0:0:
176,284,163466,2,0,P|136:252|120:228,1,75,0|0,0:0|0:0,0:0:0:0:
140,112,163799,1,8,0:0:0:0:
272,272,163966,2,0,P|264:336|192:380,2,150,0|8|0,0:0|0:0|0:0,0:0:0:0:
176,284,164799,5,8,0:0:0:0:
352,372,164966,1,0,0:0:0:0:
336,148,165132,1,8,0:0:0:0:
272,272,165299,1,8,0:0:0:0:
272,272,165382,1,8,0:0:0:0:
272,272,165466,6,0,P|232:232|216:184,1,93.75,12|0,0:0|0:0,0:0:0:0:
218,198,165966,2,0,P|202:238|186:262,1,56.25,8|0,0:0|0:0,0:0:0:0:
195,249,166299,2,0,P|150:274|110:194,1,150
176,168,167132,5,0,0:0:0:0:
124,284,167299,1,0,0:0:0:0:
92,112,167466,1,8,0:0:0:0:
280,256,167632,1,8,0:0:0:0:
304,164,167799,2,0,B|316:144|316:144|312:104,1,56.25,0|0,0:0|0:0,0:0:0:0:
312,111,168132,6,0,P|288:76|208:108,1,131.25,4|0,0:0|0:0,0:0:0:0:
212,96,168799,1,4,0:0:0:0:
212,96,170132,6,0,L|72:84,1,131.25,4|0,0:0|0:0,0:0:0:0:
81,84,170799,1,4,0:0:0:0:
128,204,170966,1,0,0:0:0:0:
128,204,171466,1,4,0:0:0:0:
128,204,172799,5,8,0:0:0:0:
232,384,172966,1,0,0:0:0:0:
232,144,173132,1,8,0:0:0:0:
128,324,173299,1,0,0:0:0:0:
128,84,173466,6,0,L|132:56,2,28.1250010728836,0|0|0,0:0|0:0|0:0,0:0:0:0:
116,164,173799,2,0,L|53:155,1,56.2500021457673,0|0,0:0|0:0,0:0:0:0:
276,180,174132,1,8,0:0:0:0:
368,168,174299,2,0,L|433:158,1,56.2500021457673,0|0,0:0|0:0,0:0:0:0:
444,236,174632,2,0,L|499:228,1,56.2500021457673,0|0,0:0|0:0,0:0:0:0:
276,264,174966,1,8,0:0:0:0:
184,252,175132,2,0,L|188:224,2,28.1250010728836,0|0|0,0:0|0:0|0:0,0:0:0:0:
444,236,175466,6,0,L|499:228,1,56.2500021457673,8|0,0:0|0:0,0:0:0:0:
400,312,175799,2,0,L|455:319,1,56.2500021457673,0|0,0:0|0:0,0:0:0:0:
264,328,176132,2,0,L|319:335,1,56.2500021457673,0|0,0:0|0:0,0:0:0:0:
252,216,176466,2,0,L|223:251,2,28.1250010728836,0|0|0,0:0|0:0|0:0,0:0:0:0:
328,120,176799,1,8,0:0:0:0:
424,148,176966,2,0,L|403:95,1,56.2500021457673,0|0,0:0|0:0,0:0:0:0:
328,120,177299,2,0,L|307:67,1,56.2500021457673,0|0,0:0|0:0,0:0:0:0:
384,268,177632,1,8,0:0:0:0:
304,300,177799,6,0,L|266:315,2,28.1250010728836,0|0|0,0:0|0:0|0:0,0:0:0:0:
492,224,178132,1,8,0:0:0:0:
312,208,178299,1,8,0:0:0:0:
304,300,178466,2,0,L|356:279,1,56.2500021457673,0|0,0:0|0:0,0:0:0:0:
356,76,178799,6,0,L|320:48,2,28.1250010728836,4|0|0,0:0|0:0|0:0,0:0:0:0:
424,128,179132,2,0,L|488:124,1,56.2500021457673,0|0,0:0|0:0,0:0:0:0:
224,140,179466,1,8,0:0:0:0:
172,64,179632,2,0,L|136:10,1,56.2500021457673,0|0,0:0|0:0,0:0:0:0:
133,148,179966,2,0,L|97:94,1,56.2500021457673,0|0,0:0|0:0,0:0:0:0:
228,280,180299,1,8,0:0:0:0:
316,256,180466,2,0,L|348:248,2,28.1250010728836,0|0|0,0:0|0:0|0:0,0:0:0:0:
84,272,180799,6,0,L|28:264,1,56.2500021457673,8|0,0:0|0:0,0:0:0:0:
240,368,181132,1,12,0:0:0:0:
224,152,181299,1,8,0:0:0:0:
112,269,181466,2,0,L|84:272,2,28.1250010728836,4|0|0,0:0|0:0|0:0,0:0:0:0:
24,156,181799,2,0,L|99:162,1,75,8|0,0:0|0:0,0:0:0:0:
304,80,182132,2,0,L|228:73,1,75,8|0,0:0|0:0,0:0:0:0:
140,64,182466,5,0,0:0:0:0:
296,184,182632,1,8,0:0:0:0:
392,92,182799,1,0,0:0:0:0:
404,248,182966,1,8,0:0:0:0:
352,328,183132,5,8,0:0:0:0:
319,346,183215,1,8,0:0:0:0:
283,354,183298,1,8,0:0:0:0:
246,349,183382,1,8,0:0:0:0:
212,333,183466,1,10,0:0:0:0:
196,172,183632,1,2,0:0:0:0:
174,335,183799,5,2,0:0:0:0:
152,364,183882,1,2,0:0:0:0:
120,348,183966,1,2,0:0:0:0:
84,360,184049,1,2,0:0:0:0:
48,348,184132,6,0,P|34:305|54:226,1,123.75000377655,6|0,0:0|0:0,0:0:0:0:
51,230,184466,1,0,0:0:0:0:
272,212,184632,2,0,P|230:258|121:289,1,165.000005035401
32,208,185132,1,8,0:0:0:0:
164,100,185299,6,0,B|201:79|243:95|243:95|280:116|326:91,1,165.000005035401,4|0,0:0|0:0,0:0:0:0:
184,4,185799,2,0,P|139:-1|95:6,1,82.5000025177003
24,88,186049,1,8,0:0:0:0:
24,88,186132,2,0,P|42:128|70:162,1,82.5000025177003,8|0,0:0|0:0,0:0:0:0:
228,196,186466,2,0,P|182:190|138:198,1,82.5000025177003
52,284,186799,6,0,P|69:258|79:231,3,41.2500012588501
164,335,187132,2,0,P|150:306|145:278,3,41.2500012588501,8|0|0|0,0:0|0:0|0:0|0:0,0:0:0:0:
255,381,187466,2,0,P|272:355|282:328,3,41.2500012588501
240,228,187799,1,8,0:0:0:0:
40,372,187966,6,0,P|12:304|35:208,1,165.000005035401,4|0,0:0|0:0,0:0:0:0:
184,208,188466,2,0,P|158:240|105:256,1,82.5000025177003,8|0,0:0|0:0,0:0:0:0:
48,136,188716,1,8,0:0:0:0:
48,136,188799,2,0,P|73:139|97:162,1,41.2500012588501,8|0,0:0|0:0,0:0:0:0:
116,336,188966,2,0,P|100:297|113:243,1,82.5000025177003,8|0,0:0|0:0,0:0:0:0:
196,184,189299,1,8,0:0:0:0:
364,228,189466,6,0,L|351:309,1,82.5000025177003,4|0,0:0|0:0,0:0:0:0:
140,296,189799,1,0,0:0:0:0:
264,132,189966,2,0,L|279:236,1,82.5000025177003
150,97,190299,1,0,0:0:0:0:
352,44,190466,1,8,0:0:0:0:
122,85,190632,6,0,P|100:149|117:248,1,165.000005035401,4|0,0:0|0:0,0:0:0:0:
208,300,191132,2,0,P|176:260|132:248,1,82.5000025177003
55,300,191382,1,8,0:0:0:0:
55,300,191466,2,0,P|105:292|138:260,1,82.5000025177003,8|2,0:0|0:0,0:0:0:0:
116,244,191716,1,2,0:0:0:0:
116,244,191799,5,10,0:0:0:0:
104,384,191966,1,0,0:0:0:0:
148,228,192132,1,0,0:0:0:0:
228,364,192299,1,0,0:0:0:0:
124,220,192466,1,8,0:0:0:0:
320,240,192632,1,0,0:0:0:0:
96,212,192799,2,2,L|81:164,3,46.875
52,60,193132,1,2,0:0:0:0:
98,54,193215,1,2,0:0:0:0:
145,49,193299,6,0,B|181:71|223:51|223:51|266:30|303:47,1,165.000005035401,6|2,0:0|0:0,0:0:0:0:
320,72,193716,1,2,0:0:0:0:
320,72,193799,1,2,0:0:0:0:
176,160,193966,1,0,0:0:0:0:
372,188,194132,5,2,0:0:0:0:
88,268,194299,1,2,0:0:0:0:
396,180,194466,1,2,0:0:0:0:
64,276,194632,1,2,0:0:0:0:
176,160,194799,6,0,P|208:160|252:172,1,56.2500021457673,2|0,0:0|0:0,0:0:0:0:
100,248,195132,2,0,L|72:176,1,56.2500021457673,0|0,0:0|0:0,0:0:0:0:
215,265,195466,6,0,P|199:292|166:324,1,56.2500021457673,2|0,0:0|0:0,0:0:0:0:
72,336,195799,2,0,P|88:363|120:395,1,56.2500021457673,2|0,0:0|0:0,0:0:0:0:
224,380,196132,2,0,L|300:368,1,56.2500021457673,0|0,0:0|0:0,0:0:0:0:
384,344,196466,6,0,P|402:322|415:298,1,56.2500021457673,2|0,0:0|0:0,0:0:0:0:
288,220,196799,2,0,P|301:244|319:265,1,56.2500021457673,2|0,0:0|0:0,0:0:0:0:
328,128,197132,2,0,L|264:128,1,56.2500021457673,0|0,0:0|0:0,0:0:0:0:
176,176,197466,6,0,P|164:140|164:108,1,56.2500021457673,2|0,0:0|0:0,0:0:0:0:
76,252,197799,2,2,P|88:216|88:184,1,56.2500021457673
180,304,198132,1,2,0:0:0:0:
176,296,198216,1,2,0:0:0:0:
172,288,198299,1,2,0:0:0:0:
104,356,198466,5,2,0:0:0:0:
248,360,198632,1,2,0:0:0:0:
304,244,198799,2,0,P|312:208|312:184,1,56.2500021457673,2|0,0:0|0:0,0:0:0:0:
300,102,199132,1,2,0:0:0:0:
300,102,199299,2,0,P|264:113|244:125,1,56.2500021457673,0|0,0:0|0:0,0:0:0:0:
179,176,199632,1,0,0:0:0:0:
179,176,199799,2,0,P|206:200|226:212,1,56.2500021457673,2|0,0:0|0:0,0:0:0:0:
356,223,200132,2,0,P|329:199|309:187,1,56.2500021457673,2|0,0:0|0:0,0:0:0:0:
286,281,200466,5,0,0:0:0:0:
372,312,200632,1,0,0:0:0:0:
368,208,200799,2,0,P|341:184|321:172,1,56.2500021457673,2|0,0:0|0:0,0:0:0:0:
235,172,201132,2,0,L|171:176,1,56.2500021457673,2|0,0:0|0:0,0:0:0:0:
100,184,201466,1,0,0:0:0:0:
148,256,201632,1,0,0:0:0:0:
129,102,201799,2,0,P|120:68|100:32,1,56.2500021457673,2|0,0:0|0:0,0:0:0:0:
8,184,202132,2,0,P|14:156|25:131,1,56.2500021457673,2|0,0:0|0:0,0:0:0:0:
112,304,202466,5,0,0:0:0:0:
40,264,202632,1,0,0:0:0:0:
92,380,202799,2,0,P|140:376|164:368,1,56.2500021457673,2|0,0:0|0:0,0:0:0:0:
200,292,203132,1,2,0:0:0:0:
200,292,203299,2,0,P|196:244|188:220,1,56.2500021457673,0|0,0:0|0:0,0:0:0:0:
112,136,203632,1,0,0:0:0:0:
112,136,203799,2,0,P|106:163|105:191,1,56.2500021457673,2|0,0:0|0:0,0:0:0:0:
240,88,204132,2,0,P|213:82|185:80,1,56.2500021457673,2|0,0:0|0:0,0:0:0:0:
264,184,204466,5,0,0:0:0:0:
335,115,204632,1,0,0:0:0:0:
244,72,204799,2,0,P|217:66|189:64,1,56.2500021457673,2|0,0:0|0:0,0:0:0:0:
112,156,205132,2,0,P|120:182|133:207,1,56.2500021457673,2|0,0:0|0:0,0:0:0:0:
232,240,205466,1,2,0:0:0:0:
236,232,205549,1,2,0:0:0:0:
240,224,205632,1,2,0:0:0:0:
133,207,205799,5,2,0:0:0:0:
192,328,205966,1,2,0:0:0:0:
296,236,206132,2,0,P|264:216|232:208,1,56.2500021457673
284,328,206466,1,2,0:0:0:0:
392,272,206632,1,2,0:0:0:0:
352,140,206799,6,0,P|308:140|244:192,1,127.50000243187,8|8,0:0|0:0,0:0:0:0:
432,204,207299,1,0,0:0:0:0:
400,68,207466,1,8,0:0:0:0:
328,232,207632,1,0,0:0:0:0:
488,120,207799,6,8,P|496:64|468:0,1,127.50000243187
272,112,208299,1,0,0:0:0:0:
328,232,208466,1,8,0:0:0:0:
352,32,208632,1,0,0:0:0:0:
160,84,208799,6,8,P|156:160|192:208,1,127.50000243187
272,112,209299,1,2,0:0:0:0:
264,116,209382,1,2,0:0:0:0:
256,120,209466,1,2,0:0:0:0:
80,188,209632,1,0,0:0:0:0:
220,292,209799,6,0,P|224:248|208:208,1,75,4|0,0:0|0:0,0:0:0:0:
188,380,210132,2,0,P|232:384|272:368,1,75,8|0,0:0|0:0,0:0:0:0:
300,176,210466,1,4,0:0:0:0:
210,97,210632,5,8,0:0:0:0:
183,123,210715,1,8,0:0:0:0:
175,159,210798,1,8,0:0:0:0:
186,195,210882,1,8,0:0:0:0:
214,219,210966,2,0,P|257:235|274:235,2,37.5,8|8|0,0:0|0:0|0:0,0:0:0:0:
360,80,211719,6,0,L|382:236,1,150,2|0,0:0|0:0,0:0:0:0:
268,292,212303,2,0,P|276:252|300:220,1,75,2|0,0:0|0:0,0:0:0:0:
316,364,212708,2,0,P|277:377|237:372,1,75,2|0,0:0|0:0,0:0:0:0:
160,332,213071,5,0,0:0:0:0:
160,332,213271,2,0,L|168:240,1,75,2|0,0:0|0:0,0:0:0:0:
256,180,213665,2,0,L|262:254,1,75,2|2,0:0|0:0,0:0:0:0:
148,160,214052,2,2,P|147:115|158:76,1,75
224,28,214458,1,0,0:0:0:0:
280,216,214830,6,0,B|212:248|212:248|136:240,1,150,2|0,0:0|0:0,0:0:0:0:
48,204,215407,2,0,L|136:212,1,75,2|0,0:0|0:0,0:0:0:0:
136,320,215785,2,0,L|48:312,1,75,2|0,0:0|0:0,0:0:0:0:
61,313,216049,2,2,L|12:308,1,37.5,2|0,0:0|0:0,0:0:0:0:
48,184,216380,6,0,L|122:190,1,75,2|2,0:0|0:0,0:0:0:0:
258,214,216756,1,0,0:0:0:0:
258,214,216937,2,0,L|332:220,1,75,2|0,0:0|0:0,0:0:0:0:
428,267,217337,2,2,B|440:227|440:227|320:219|320:219,1,150,2|0,0:0|0:0,0:0:0:0:
264,296,217922,5,2,0:0:0:0:
356,336,218162,2,0,L|358:279,1,37.5
332,219,218495,2,0,L|336:127,1,75,2|0,0:0|0:0,0:0:0:0:
208,176,218882,2,2,L|205:230,4,37.5
144,24,219474,1,2,0:0:0:0:
60,160,219849,5,8,0:0:0:0:
104,272,220036,1,8,0:0:0:0:
280,128,220273,6,0,L|284:248,1,112.5,4|0,0:0|0:0,0:0:0:0:
283,241,220621,2,0,B|315:257|315:257|363:249,1,75,0|8,0:0|0:0,0:0:0:0:
372,52,221008,6,0,B|348:16|348:16|272:20,1,112.5,4|0,0:0|0:0,0:0:0:0:
278,19,221378,1,0,0:0:0:0:
252,144,221587,2,8,L|259:208,1,37.5
312,285,221805,6,0,B|372:297|372:297|400:277|400:277|464:289,1,150,4|0,0:0|0:0,0:0:0:0:
240,356,222305,1,8,0:0:0:0:
284,96,222500,6,0,L|300:224,1,112.5,4|0,0:0|0:0,0:0:0:0:
176,299,222824,1,8,0:0:0:0:
188,268,222905,1,8,0:0:0:0:
188,236,222986,1,8,0:0:0:0:
176,206,223067,1,8,0:0:0:0:
163,177,223148,1,8,0:0:0:0:
163,144,223229,1,8,0:0:0:0:
183,109,223341,5,8,0:0:0:0:
304,312,223498,1,8,0:0:0:0:
0,328,223814,6,0,B|12:252|12:252|64:192,1,150,4|0,0:0|0:0,0:0:0:0:
188,268,224353,1,0,0:0:0:0:
212,188,224560,2,0,B|214:138|167:107,1,75
104,264,224935,1,0,0:0:0:0:
143,339,225122,1,0,0:0:0:0:
272,92,225310,1,2,0:0:0:0:
408,192,225798,6,0,B|363:162|314:192|314:192|274:216|230:192,1,179.999994506836,4|0,0:0|0:0,0:0:0:0:
272,92,226299,1,8,0:0:0:0:
476,124,226465,2,0,P|500:172|504:220,1,89.9999972534181,0|0,0:0|0:0,0:0:0:0:
316,352,226799,2,0,P|323:307|344:268,1,89.9999972534181,0|8,0:0|0:0,0:0:0:0:
408,192,227132,1,0,0:0:0:0:
216,384,227299,2,0,P|189:347|177:304,1,89.9999972534181,0|0,0:0|0:0,0:0:0:0:
236,148,227632,1,8,0:0:0:0:
408,192,227799,6,0,P|389:232|358:265,1,89.9999972534181,0|0,0:0|0:0,0:0:0:0:
149,123,228132,2,0,P|193:118|237:129,1,89.9999972534181,0|8,0:0|0:0,0:0:0:0:
88,272,228465,1,0,0:0:0:0:
16,60,228632,6,0,B|96:20|96:20|204:40,1,179.999994506836,4|8,0:0|0:0,0:0:0:0:
128,248,229132,2,0,L|120:184,1,44.999998626709
268,140,229299,2,0,L|260:204,1,44.999998626709
248,292,229465,1,0,0:0:0:0:
248,292,229549,1,0,0:0:0:0:
248,292,229632,2,0,P|206:323|101:268,1,179.999994506836,8|0,0:0|0:0,0:0:0:0:
284,168,230132,5,0,0:0:0:0:
328,364,230299,1,8,0:0:0:0:
188,188,230465,2,0,P|228:152|276:144,1,89.9999972534181
180,316,230799,2,0,P|128:299|97:261,1,89.9999972534181,0|8,0:0|0:0,0:0:0:0:
192,76,231132,1,0,0:0:0:0:
320,216,231299,6,0,B|236:220|236:220|152:164,1,179.999994506836,4|8,0:0|0:0,0:0:0:0:
364,144,231799,1,0,0:0:0:0:
276,344,231965,2,0,P|256:288|260:248,1,89.9999972534181,8|0,0:0|0:0,0:0:0:0:
408,216,232299,1,8,0:0:0:0:
136,336,232465,2,0,P|124:260|184:160,1,179.999994506836,4|8,0:0|0:0,0:0:0:0:
272,188,232965,5,8,0:0:0:0:
32,272,233132,1,0,0:0:0:0:
116,80,233299,1,0,0:0:0:0:
116,196,233465,1,8,0:0:0:0:
15,138,233632,1,8,0:0:0:0:
136,68,233799,1,8,0:0:0:0:
152,328,233965,5,4,0:0:0:0:
76,220,234132,1,0,0:0:0:0:
248,140,234298,1,8,0:0:0:0:
236,383,234465,1,0,0:0:0:0:
357,71,234632,1,8,0:0:0:0:
372,363,234798,1,0,0:0:0:0:
224,48,234965,5,8,0:0:0:0:
404,211,235131,1,0,0:0:0:0:
120,136,235299,1,8,0:0:0:0:
352,63,235465,1,0,0:0:0:0:
64,64,235632,1,8,0:0:0:0:
296,137,235798,1,0,0:0:0:0:
68,311,235965,5,8,0:0:0:0:
155,32,236131,1,0,0:0:0:0:
226,284,236298,1,8,0:0:0:0:
156,60,236465,1,0,0:0:0:0:
152,375,236632,6,0,B|196:375|196:375|256:363,1,89.9999972534181,12|0,0:0|0:0,0:0:0:0:
407,156,236965,1,8,0:0:0:0:
184,271,237132,1,0,0:0:0:0:
455,263,237299,1,8,0:0:0:0:
232,148,237466,1,0,0:0:0:0:
252,371,237632,5,8,0:0:0:0:
367,148,237799,1,0,0:0:0:0:
132,172,237965,1,8,0:0:0:0:
355,287,238132,1,0,0:0:0:0:
53,291,238299,1,8,0:0:0:0:
275,176,238466,1,0,0:0:0:0:
196,371,238632,5,8,0:0:0:0:
204,88,238799,1,8,0:0:0:0:
204,88,238882,1,8,0:0:0:0:
204,88,238965,1,8,0:0:0:0:
387,203,239132,1,8,0:0:0:0:
168,276,239298,6,0,B|92:292|92:292|4:284,1,150,4|0,0:0|0:0,0:0:0:0:
116,152,239799,1,0,0:0:0:0:
248,228,239965,2,0,P|256:284|248:324,1,75,8|0,0:0|0:0,0:0:0:0:
136,272,240298,1,0,0:0:0:0:
200,120,240465,2,0,P|256:112|296:120,1,75,0|0,0:0|0:0,0:0:0:0:
368,244,240798,5,8,0:0:0:0:
244,208,240965,1,0,0:0:0:0:
381,66,241132,2,0,P|389:122|381:162,1,75,0|8,0:0|0:0,0:0:0:0:
273,114,241465,1,0,0:0:0:0:
480,8,241631,1,8,0:0:0:0:
248,124,241798,1,8,0:0:0:0:
248,124,241882,1,8,0:0:0:0:
248,124,241965,6,0,P|188:128|124:56,1,150,12|0,0:0|0:0,0:0:0:0:
220,16,242465,1,8,0:0:0:0:
220,236,242632,1,0,0:0:0:0:
40,140,242798,1,0,0:0:0:0:
232,8,242965,6,0,P|292:4|356:76,1,150,8|8,0:0|0:0,0:0:0:0:
348,260,243465,1,8,0:0:0:0:
260,100,243632,1,8,0:0:0:0:
440,132,243798,1,8,0:0:0:0:
176,260,243965,1,8,0:0:0:0:
184,32,244132,1,0,0:0:0:0:
300,188,244298,5,8,0:0:0:0:
264,199,244381,1,8,0:0:0:0:
228,195,244464,1,8,0:0:0:0:
197,174,244548,1,8,0:0:0:0:
179,141,244631,6,0,L|191:306,1,150,4|2,0:0|0:0,0:0:0:0:
212,316,245048,1,2,0:0:0:0:
212,316,245132,1,2,0:0:0:0:
272,232,245298,1,2,0:0:0:0:
360,324,245465,2,0,L|368:240,1,75,2|0,0:0|0:0,0:0:0:0:
464,160,245798,2,0,L|471:234,1,75,2|0,0:0|0:0,0:0:0:0:
359,144,246132,1,2,0:0:0:0:
363,107,246215,1,2,0:0:0:0:
367,70,246298,1,2,0:0:0:0:
428,204,246465,5,2,0:0:0:0:
336,124,246632,1,2,0:0:0:0:
244,204,246798,1,2,0:0:0:0:
152,124,246965,2,0,L|132:212,1,75,2|0,0:0|0:0,0:0:0:0:
48,288,247298,2,0,L|28:200,1,75,2|0,0:0|0:0,0:0:0:0:
148,348,247632,1,2,0:0:0:0:
111,356,247715,1,2,0:0:0:0:
74,364,247798,1,2,0:0:0:0:
148,260,247965,5,2,0:0:0:0:
232,356,248132,1,2,0:0:0:0:
330,243,248298,1,2,0:0:0:0:
424,320,248465,2,0,L|432:232,1,75,2|0,0:0|0:0,0:0:0:0:
436,144,248798,1,2,0:0:0:0:
330,243,248965,5,2,0:0:0:0:
326,205,249048,1,2,0:0:0:0:
323,168,249131,1,2,0:0:0:0:
194,55,249298,1,2,0:0:0:0:
191,89,249381,1,2,0:0:0:0:
188,122,249464,1,2,0:0:0:0:
45,235,249632,1,2,0:0:0:0:
42,205,249715,1,2,0:0:0:0:
39,175,249798,1,2,0:0:0:0:
156,360,249965,5,4,0:0:0:0:
56,312,250132,1,2,0:0:0:0:
224,208,250298,1,2,0:0:0:0:
220,246,250381,1,2,0:0:0:0:
217,283,250464,1,2,0:0:0:0:
124,196,250632,1,2,0:0:0:0:
232,112,250798,1,2,0:0:0:0:
324,212,250965,1,2,0:0:0:0:
424,108,251132,6,0,L|432:188,1,75,2|0,0:0|0:0,0:0:0:0:
324,212,251465,1,2,0:0:0:0:
312,104,251632,1,2,0:0:0:0:
308,66,251715,1,2,0:0:0:0:
304,29,251798,1,2,0:0:0:0:
388,152,251965,5,2,0:0:0:0:
296,232,252132,1,2,0:0:0:0:
204,152,252298,1,2,0:0:0:0:
112,232,252465,1,2,2:0:0:0:
108,224,252548,1,2,2:0:0:0:
104,216,252632,2,0,L|96:136,1,75,2|0,2:0|0:0,0:0:0:0:
28,12,252965,1,2,0:0:0:0:
24,49,253048,1,2,0:0:0:0:
20,86,253131,1,2,0:0:0:0:
184,128,253298,5,2,0:0:0:0:
140,40,253465,1,2,0:0:0:0:
120,208,253632,1,2,0:0:0:0:
284,132,253798,2,0,L|290:44,1,75,2|0,0:0|0:0,0:0:0:0:
392,104,254132,1,2,0:0:0:0:
316,236,254298,1,2,0:0:0:0:
278,233,254381,1,2,0:0:0:0:
241,230,254464,1,2,0:0:0:0:
284,132,254632,1,2,0:0:0:0:
424,200,254798,5,2,0:0:0:0:
431,236,254881,1,2,0:0:0:0:
427,273,254964,1,2,0:0:0:0:
132,96,255298,5,4,0:0:0:0:
219,11,255465,1,2,0:0:0:0:
247,131,255631,1,2,0:0:0:0:
254,167,255716,1,2,0:0:0:0:
262,204,255799,1,2,0:0:0:0:
172,184,255965,1,2,0:0:0:0:
328,88,256131,2,0,L|345:169,1,75,2|0,0:0|0:0,0:0:0:0:
436,256,256465,2,0,L|453:175,1,75,2|0,0:0|0:0,0:0:0:0:
316,244,256798,5,2,0:0:0:0:
384,328,256966,1,2,0:0:0:0:
420,335,257049,1,2,0:0:0:0:
457,343,257132,1,2,0:0:0:0:
408,248,257298,1,2,0:0:0:0:
328,376,257465,1,2,0:0:0:0:
240,244,257632,6,0,L|232:324,1,75,2|0,0:0|0:0,0:0:0:0:
132,252,257965,2,0,L|124:177,1,75,0|2,0:0|0:0,0:0:0:0:
224,80,258299,1,2,0:0:0:0:
220,117,258382,1,2,0:0:0:0:
216,154,258465,1,2,0:0:0:0:
116,92,258632,5,2,0:0:0:0:
236,0,258798,1,2,0:0:0:0:
316,127,258965,1,2,0:0:0:0:
434,35,259132,2,0,L|448:120,1,75,2|0,0:0|0:0,0:0:0:0:
432,252,259465,1,2,0:0:0:0:
320,172,259631,5,2,0:0:0:0:
313,134,259716,1,2,0:0:0:0:
307,97,259799,1,2,0:0:0:0:
215,231,259966,1,2,0:0:0:0:
209,265,260049,1,2,0:0:0:0:
203,299,260132,1,2,0:0:0:0:
110,164,260299,1,2,0:0:0:0:
105,134,260382,1,2,0:0:0:0:
100,104,260465,1,2,0:0:0:0:
32,296,260632,6,0,B|104:268|104:268|180:296,1,150,4|2,0:0|0:0,0:0:0:0:
188,328,261048,1,2,0:0:0:0:
188,328,261132,1,2,0:0:0:0:
36,200,261298,1,0,0:0:0:0:
212,140,261465,2,0,L|204:228,1,75,0|0,0:0|0:0,0:0:0:0:
152,64,261798,6,0,B|222:44|222:44|291:79,1,150,6|0,0:0|0:0,0:0:0:0:
352,188,262298,1,2,0:0:0:0:
355,225,262381,1,2,0:0:0:0:
358,262,262464,1,2,0:0:0:0:
244,272,262632,5,2,0:0:0:0:
340,96,262798,1,2,0:0:0:0:
361,299,262965,1,2,0:0:0:0:
224,24,263132,1,6,0:0:0:0:
256,192,263298,12,0,268298,0:0:0:0:
