osu file format v14

[General]
AudioFilename: audio200.mp3
AudioLeadIn: 0
PreviewTime: 165522
Countdown: 0
SampleSet: Soft
StackLeniency: 0.3
Mode: 0
LetterboxInBreaks: 0
EpilepsyWarning: 1
WidescreenStoryboard: 1

[Editor]
DistanceSpacing: 1
BeatDivisor: 4
GridSize: 32
TimelineZoom: 2.500005

[Metadata]
Title:Sukisuki Zecchoushou
TitleUnicode:スキスキ絶頂症
Artist:Kano
ArtistUnicode:鹿乃
Creator:Loreley
Version:NiNo's Extra
Source:
Tags:GUMI vocaloid utaite cover Denpol-P koyori 電ポルP [panda619] 619 SnowNiNo_ Namki TheMefisto SherryCherry Allihoppa wajinshu nattu smau5
BeatmapID:1221423
BeatmapSetID:484532

[Difficulty]
HPDrainRate:6.2
CircleSize:4
OverallDifficulty:9
ApproachRate:9.5
SliderMultiplier:1.8
SliderTickRate:1

[Events]
//Background and Video events
0,0,"deep sea dream.jpg",0,0
//Break Periods
//Storyboard Layer 0 (Background)
//Storyboard Layer 1 (Fail)
//Storyboard Layer 2 (Pass)
//Storyboard Layer 3 (Foreground)
Sprite,Foreground,Centre,"sb/ring.png",320,240 C,0,16355,,255,255,255 F,0,16355,,1 S,7,16355,16855,0.25,0.9 F,0,16356,16856,1,0 M,0,16355,,239,267
Sprite,Foreground,Centre,"sb/ring.png",320,240 C,0,16483,,255,255,255 F,0,16483,,1 S,7,16483,16983,0.25,0.9 F,0,16484,16984,1,0 M,0,16483,,445,260
Sprite,Foreground,Centre,"sb/ring.png",320,240 C,0,16611,,255,255,255 F,0,16611,,1 S,7,16611,17111,0.25,0.9 F,0,16612,17112,1,0 M,0,16611,,254,361
Sprite,Foreground,Centre,"sb/ring.png",320,240 C,0,16868,,255,255,255 F,0,16868,,1 S,7,16868,17368,0.25,0.9 F,0,16869,17369,1,0 M,0,16868,,162,104
Sprite,Foreground,Centre,"sb/ring.png",320,240 C,0,17124,,255,255,255 F,0,17124,,1 S,7,17124,18124,0.25,0.9 F,0,17125,18125,1,0 M,0,17124,,152,283
Sprite,Foreground,Centre,"sb/ring.png",320,240 C,0,23278,,255,255,255 F,0,23278,,1 S,7,23278,24278,0.25,0.9 F,0,23279,24279,1,0 M,0,23278,,551,80
Sprite,Foreground,Centre,"sb/ring.png",320,240 C,0,23791,,255,255,255 F,0,23791,,1 S,7,23791,24791,0.25,0.9 F,0,23792,24792,1,0 M,0,23791,,549,384
Sprite,Foreground,Centre,"sb/ring.png",320,240 C,0,24047,,255,255,255 F,0,24047,,1 S,7,24047,24547,0.25,0.9 F,0,24048,24548,1,0 M,0,24047,,291,399
Sprite,Foreground,Centre,"sb/ring.png",320,240 C,0,24175,,255,255,255 F,0,24175,,1 S,7,24175,24675,0.25,0.9 F,0,24176,24676,1,0 M,0,24175,,376,295
Sprite,Foreground,Centre,"sb/ring.png",320,240 C,0,24304,,255,255,255 F,0,24304,,1 S,7,24304,24804,0.25,0.9 F,0,24305,24805,1,0 M,0,24304,,164,358
Sprite,Foreground,Centre,"sb/ring.png",320,240 C,0,24432,,255,255,255 F,0,24432,,1 S,7,24432,24932,0.25,0.9 F,0,24433,24933,1,0 M,0,24432,,289,310
Sprite,Foreground,Centre,"sb/ring.png",320,240 C,0,24560,,255,255,255 F,0,24560,,1 S,7,24560,25060,0.25,0.9 F,0,24561,25061,1,0 M,0,24560,,74,259
Sprite,Foreground,Centre,"sb/ring.png",320,240 C,0,24688,,255,255,255 F,0,24688,,1 S,7,24688,25188,0.25,0.9 F,0,24689,25189,1,0 M,0,24688,,206,279
Sprite,Foreground,Centre,"sb/ring.png",320,240 C,0,24816,,255,255,255 F,0,24816,,1 S,7,24816,25316,0.25,0.9 F,0,24817,25317,1,0 M,0,24816,,69,124
Sprite,Foreground,Centre,"sb/ring.png",320,240 C,0,24945,,255,255,255 F,0,24945,,1 S,7,24945,25445,0.25,0.9 F,0,24946,25446,1,0 M,0,24945,,77,377
Sprite,Foreground,Centre,"sb/ring.png",320,240 C,0,25073,,255,255,255 F,0,25073,,1 S,7,25073,26073,0.25,0.9 F,0,25074,26074,1,0 M,0,25073,,232,179
Sprite,Foreground,Centre,"sb/ring.png",320,240 C,0,33534,,255,255,255 F,0,33534,,1 S,7,33534,34034,0.25,0.9 F,0,33535,34035,1,0 M,0,33534,,451,272
Sprite,Foreground,Centre,"sb/ring.png",320,240 C,0,33663,,255,255,255 F,0,33663,,1 S,7,33663,34163,0.25,0.9 F,0,33664,34164,1,0 M,0,33663,,451,272
Sprite,Foreground,Centre,"sb/ring.png",320,240 C,0,33791,,255,255,255 F,0,33791,,1 S,7,33791,34291,0.25,0.9 F,0,33792,34292,1,0 M,0,33791,,528,331
Sprite,Foreground,Centre,"sb/ring.png",320,240 C,0,33919,,255,255,255 F,0,33919,,1 S,7,33919,34419,0.25,0.9 F,0,33920,34420,1,0 M,0,33919,,528,331
Sprite,Foreground,Centre,"sb/ring.png",320,240 C,0,34047,,255,255,255 F,0,34047,,1 S,7,34047,34547,0.25,0.9 F,0,34048,34548,1,0 M,0,34047,,470,409
Sprite,Foreground,Centre,"sb/ring.png",320,240 C,0,34175,,255,255,255 F,0,34175,,1 S,7,34175,34675,0.25,0.9 F,0,34176,34676,1,0 M,0,34175,,470,409
Sprite,Foreground,Centre,"sb/ring.png",320,240 C,0,34304,,255,255,255 F,0,34304,,1 S,7,34304,34804,0.25,0.9 F,0,34305,34805,1,0 M,0,34304,,392,350
Sprite,Foreground,Centre,"sb/ring.png",320,240 C,0,34432,,255,255,255 F,0,34432,,1 S,7,34432,34932,0.25,0.9 F,0,34433,34933,1,0 M,0,34432,,392,350
Sprite,Foreground,Centre,"sb/ring.png",320,240 C,0,47637,,255,255,255 F,0,47637,,1 S,7,47637,48137,0.25,0.9 F,0,47638,48138,1,0 M,0,47637,,331,192
Sprite,Foreground,Centre,"sb/ring.png",320,240 C,0,48022,,255,255,255 F,0,48022,,1 S,7,48022,48522,0.25,0.9 F,0,48023,48523,1,0 M,0,48022,,385,250
Sprite,Foreground,Centre,"sb/ring.png",320,240 C,0,48406,,255,255,255 F,0,48406,,1 S,7,48406,48906,0.25,0.9 F,0,48407,48907,1,0 M,0,48406,,351,322
Sprite,Foreground,Centre,"sb/ring.png",320,240 C,0,57509,,255,255,255 F,0,57509,,1 S,7,57509,58009,0.25,0.9 F,0,57510,58010,1,0 M,0,57509,,434,366
Sprite,Foreground,Centre,"sb/ring.png",320,240 C,0,57637,,255,255,255 F,0,57637,,1 S,7,57637,58137,0.25,0.9 F,0,57638,58138,1,0 M,0,57637,,362,221
Sprite,Foreground,Centre,"sb/ring.png",320,240 C,0,57765,,255,255,255 F,0,57765,,1 S,7,57765,58265,0.25,0.9 F,0,57766,58266,1,0 M,0,57765,,489,304
Sprite,Foreground,Centre,"sb/ring.png",320,240 C,0,72252,,255,255,255 F,0,72252,,1 S,7,72252,72752,0.25,0.9 F,0,72253,72753,1,0 M,0,72252,,92,358
Sprite,Foreground,Centre,"sb/ring.png",320,240 C,0,72637,,255,255,255 F,0,72637,,1 S,7,72637,73137,0.25,0.9 F,0,72638,73138,1,0 M,0,72637,,448,267
Sprite,Foreground,Centre,"sb/ring.png",320,240 C,0,73022,,255,255,255 F,0,73022,,1 S,7,73022,73522,0.25,0.9 F,0,73023,73523,1,0 M,0,73022,,100,366
Sprite,Foreground,Centre,"sb/ring.png",320,240 C,0,73278,,255,255,255 F,0,73278,,1 S,7,73278,73778,0.25,0.9 F,0,73279,73779,1,0 M,0,73278,,366,395
Sprite,Foreground,Centre,"sb/ring.png",320,240 C,0,73791,,255,255,255 F,0,73791,,1 S,7,73791,74291,0.25,0.9 F,0,73792,74292,1,0 M,0,73791,,233,281
Sprite,Foreground,Centre,"sb/ring.png",320,240 C,0,74304,,255,255,255 F,0,74304,,1 S,7,74304,75304,0.25,0.9 F,0,74305,75305,1,0 M,0,74304,,464,283
Sprite,Foreground,Centre,"sb/ring.png",320,240 C,0,106740,,255,255,255 F,0,106740,,1 S,7,106740,107240,0.25,0.9 F,0,106741,107241,1,0 M,0,106740,,408,137
Sprite,Foreground,Centre,"sb/ring.png",320,240 C,0,106868,,255,255,255 F,0,106868,,1 S,7,106868,107368,0.25,0.9 F,0,106869,107369,1,0 M,0,106868,,558,315
Sprite,Foreground,Centre,"sb/ring.png",320,240 C,0,106996,,255,255,255 F,0,106996,,1 S,7,106996,107496,0.25,0.9 F,0,106997,107497,1,0 M,0,106996,,520,86
Sprite,Foreground,Centre,"sb/ring.png",320,240 C,0,127252,,255,255,255 F,0,127252,,1 S,7,127252,127752,0.25,0.9 F,0,127253,127753,1,0 M,0,127252,,431,260
Sprite,Foreground,Centre,"sb/ring.png",320,240 C,0,127381,,255,255,255 F,0,127381,,1 S,7,127381,127881,0.25,0.9 F,0,127382,127882,1,0 M,0,127381,,535,76
Sprite,Foreground,Centre,"sb/ring.png",320,240 C,0,127509,,255,255,255 F,0,127509,,1 S,7,127509,128009,0.25,0.9 F,0,127510,128010,1,0 M,0,127509,,352,169
Sprite,Foreground,Centre,"sb/ring.png",320,240 C,0,134945,,255,255,255 F,0,134945,,1 S,7,134945,135445,0.25,0.9 F,0,134946,135446,1,0 M,0,134945,,321,337
Sprite,Foreground,Centre,"sb/ring.png",320,240 C,0,135073,,255,255,255 F,0,135073,,1 S,7,135073,135573,0.25,0.9 F,0,135074,135574,1,0 M,0,135073,,139,268
Sprite,Foreground,Centre,"sb/ring.png",320,240 C,0,135201,,255,255,255 F,0,135201,,1 S,7,135201,135701,0.25,0.9 F,0,135202,135702,1,0 M,0,135201,,308,294
Sprite,Foreground,Centre,"sb/ring.png",320,240 C,0,135329,,255,255,255 F,0,135329,,1 S,7,135329,135829,0.25,0.9 F,0,135330,135830,1,0 M,0,135329,,163,410
Sprite,Foreground,Centre,"sb/ring.png",320,240 C,0,135842,,255,255,255 F,0,135842,,1 S,7,135842,136842,0.25,0.9 F,0,135843,136843,1,0 M,0,135842,,163,410
Sprite,Foreground,Centre,"sb/ring.png",320,240 C,0,137210,,255,255,255 F,0,137210,,1 S,7,137210,138210,0.25,0.9 F,0,137211,138211,1,0 M,0,137210,,298,279
Sprite,Foreground,Centre,"sb/ring.png",320,240 C,0,137381,,255,255,255 F,0,137381,,1 S,7,137381,138381,0.25,0.9 F,0,137382,138382,1,0 M,0,137381,,368,222
Sprite,Foreground,Centre,"sb/ring.png",320,240 C,0,139261,,255,255,255 F,0,139261,,1 S,7,139261,140261,0.25,0.9 F,0,139262,140262,1,0 M,0,139261,,338,199
Sprite,Foreground,Centre,"sb/ring.png",320,240 C,0,139432,,255,255,255 F,0,139432,,1 S,7,139432,140432,0.25,0.9 F,0,139433,140433,1,0 M,0,139432,,254,168
Sprite,Foreground,Centre,"sb/ring.png",320,240 C,0,139774,,255,255,255 F,0,139774,,1 S,7,139774,140774,0.25,0.9 F,0,139775,140775,1,0 M,0,139774,,174,328
Sprite,Foreground,Centre,"sb/ring.png",320,240 C,0,141483,,255,255,255 F,0,141483,,1 S,7,141483,142483,0.25,0.9 F,0,141484,142484,1,0 M,0,141483,,338,199
Sprite,Foreground,Centre,"sb/ring.png",320,240 C,0,141825,,255,255,255 F,0,141825,,1 S,7,141825,142825,0.25,0.9 F,0,141826,142826,1,0 M,0,141825,,363,341
Sprite,Foreground,Centre,"sb/ring.png",320,240 C,0,142509,,255,255,255 F,0,142509,,1 S,7,142509,143509,0.25,0.9 F,0,142510,143510,1,0 M,0,142509,,338,199
Sprite,Foreground,Centre,"sb/ring.png",320,240 C,0,145415,,255,255,255 F,0,145415,,1 S,7,145415,146415,0.25,0.9 F,0,145416,146416,1,0 M,0,145415,,168,293
Sprite,Foreground,Centre,"sb/ring.png",320,240 C,0,145586,,255,255,255 F,0,145586,,1 S,7,145586,146586,0.25,0.9 F,0,145587,146587,1,0 M,0,145586,,216,378
Sprite,Foreground,Centre,"sb/ring.png",320,240 C,0,147466,,255,255,255 F,0,147466,,1 S,7,147466,148466,0.25,0.9 F,0,147467,148467,1,0 M,0,147466,,258,298
Sprite,Foreground,Centre,"sb/ring.png",320,240 C,0,147637,,255,255,255 F,0,147637,,1 S,7,147637,148637,0.25,0.9 F,0,147638,148638,1,0 M,0,147637,,307,217
Sprite,Foreground,Centre,"sb/ring.png",320,240 C,0,147808,,255,255,255 F,0,147808,,1 S,7,147808,148808,0.25,0.9 F,0,147809,148809,1,0 M,0,147808,,398,221
Sprite,Foreground,Centre,"sb/ring.png",320,240 C,0,147979,,255,255,255 F,0,147979,,1 S,7,147979,148979,0.25,0.9 F,0,147980,148980,1,0 M,0,147979,,487,224
Sprite,Foreground,Centre,"sb/ring.png",320,240 C,0,148150,,255,255,255 F,0,148150,,1 S,7,148150,149150,0.25,0.9 F,0,148151,149151,1,0 M,0,148150,,446,143
Sprite,Foreground,Centre,"sb/ring.png",320,240 C,0,150201,,255,255,255 F,0,150201,,1 S,7,150201,151201,0.25,0.9 F,0,150202,151202,1,0 M,0,150201,,155,201
Sprite,Foreground,Centre,"sb/ring.png",320,240 C,0,151227,,255,255,255 F,0,151227,,1 S,7,151227,152227,0.25,0.9 F,0,151228,152228,1,0 M,0,151227,,485,201
Sprite,Foreground,Centre,"sb/ring.png",320,240 C,0,152252,,255,255,255 F,0,152252,,1 S,7,152252,153252,0.25,0.9 F,0,152253,153253,1,0 M,0,152252,,320,408
Sprite,Foreground,Centre,"sb/ring.png",320,240 C,0,158406,,255,255,255 F,0,158406,,1 S,7,158406,158906,0.25,0.9 F,0,158407,158907,1,0 M,0,158406,,273,315
Sprite,Foreground,Centre,"sb/ring.png",320,240 C,0,158534,,255,255,255 F,0,158534,,1 S,7,158534,159034,0.25,0.9 F,0,158535,159035,1,0 M,0,158534,,273,315
Sprite,Foreground,Centre,"sb/ring.png",320,240 C,0,158663,,255,255,255 F,0,158663,,1 S,7,158663,159163,0.25,0.9 F,0,158664,159164,1,0 M,0,158663,,302,167
Sprite,Foreground,Centre,"sb/ring.png",320,240 C,0,158791,,255,255,255 F,0,158791,,1 S,7,158791,159291,0.25,0.9 F,0,158792,159292,1,0 M,0,158791,,302,167
Sprite,Foreground,Centre,"sb/ring.png",320,240 C,0,158919,,255,255,255 F,0,158919,,1 S,7,158919,159419,0.25,0.9 F,0,158920,159420,1,0 M,0,158919,,214,226
Sprite,Foreground,Centre,"sb/ring.png",320,240 C,0,159047,,255,255,255 F,0,159047,,1 S,7,159047,159547,0.25,0.9 F,0,159048,159548,1,0 M,0,159047,,214,226
Sprite,Foreground,Centre,"sb/ring.png",320,240 C,0,159304,,255,255,255 F,0,159304,,1 S,7,159304,159804,0.25,0.9 F,0,159305,159805,1,0 M,0,159304,,360,256
Sprite,Foreground,Centre,"sb/ring.png",320,240 C,0,159432,,255,255,255 F,0,159432,,1 S,7,159432,159932,0.25,0.9 F,0,159433,159933,1,0 M,0,159432,,224,146
Sprite,Foreground,Centre,"sb/ring.png",320,240 C,0,159560,,255,255,255 F,0,159560,,1 S,7,159560,160060,0.25,0.9 F,0,159561,160061,1,0 M,0,159560,,273,315
Sprite,Foreground,Centre,"sb/ring.png",320,240 C,0,159816,,255,255,255 F,0,159816,,1 S,7,159816,160316,0.25,0.9 F,0,159817,160317,1,0 M,0,159816,,175,218
Sprite,Foreground,Centre,"sb/ring.png",320,240 C,0,159945,,255,255,255 F,0,159945,,1 S,7,159945,160445,0.25,0.9 F,0,159946,160446,1,0 M,0,159945,,362,355
Sprite,Foreground,Centre,"sb/ring.png",320,240 C,0,160073,,255,255,255 F,0,160073,,1 S,7,160073,160573,0.25,0.9 F,0,160074,160574,1,0 M,0,160073,,309,129
Sprite,Foreground,Centre,"sb/ring.png",320,240 C,0,160329,,255,255,255 F,0,160329,,1 S,7,160329,160829,0.25,0.9 F,0,160330,160830,1,0 M,0,160329,,398,263
Sprite,Foreground,Centre,"sb/ring.png",320,240 C,0,171355,,255,255,255 F,0,171355,,1 S,7,171355,171855,0.25,0.9 F,0,171356,171856,1,0 M,0,171355,,377,257
Sprite,Foreground,Centre,"sb/ring.png",320,240 C,0,171483,,255,255,255 F,0,171483,,1 S,7,171483,171983,0.25,0.9 F,0,171484,171984,1,0 M,0,171483,,545,374
Sprite,Foreground,Centre,"sb/ring.png",320,240 C,0,171611,,255,255,255 F,0,171611,,1 S,7,171611,172111,0.25,0.9 F,0,171612,172112,1,0 M,0,171611,,331,409
Sprite,Foreground,Centre,"sb/ring.png",320,240 C,0,179688,,255,255,255 F,0,179688,,1 S,7,179688,180188,0.25,0.9 F,0,179689,180189,1,0 M,0,179688,,323,91
Sprite,Foreground,Centre,"sb/ring.png",320,240 C,0,179816,,255,255,255 F,0,179816,,1 S,7,179816,180316,0.25,0.9 F,0,179817,180317,1,0 M,0,179816,,501,207
Sprite,Foreground,Centre,"sb/ring.png",320,240 C,0,204560,,255,255,255 F,0,204560,,1 S,7,204560,205060,0.25,0.9 F,0,204561,205061,1,0 M,0,204560,,339,309
Sprite,Foreground,Centre,"sb/ring.png",320,240 C,0,205073,,255,255,255 F,0,205073,,1 S,7,205073,205573,0.25,0.9 F,0,205074,205574,1,0 M,0,205073,,268,205
Sprite,Foreground,Centre,"sb/ring.png",320,240 C,0,205457,,255,255,255 F,0,205457,,1 S,7,205457,205957,0.25,0.9 F,0,205458,205958,1,0 M,0,205457,,362,406
Sprite,Foreground,Centre,"sb/ring.png",320,240 C,0,206099,,255,255,255 F,0,206099,,1 S,7,206099,206599,0.25,0.9 F,0,206100,206600,1,0 M,0,206099,,483,288
Sprite,Foreground,Centre,"sb/ring.png",320,240 C,0,206611,,255,255,255 F,0,206611,,1 S,7,206611,207111,0.25,0.9 F,0,206612,207112,1,0 M,0,206611,,229,185
Sprite,Foreground,Centre,"sb/ring.png",320,240 C,0,206996,,255,255,255 F,0,206996,,1 S,7,206996,207496,0.25,0.9 F,0,206997,207497,1,0 M,0,206996,,207,290
Sprite,Foreground,Centre,"sb/ring.png",320,240 C,0,207124,,255,255,255 F,0,207124,,1 S,7,207124,207624,0.25,0.9 F,0,207125,207625,1,0 M,0,207124,,134,220
Sprite,Foreground,Centre,"sb/ring.png",320,240 C,0,207509,,255,255,255 F,0,207509,,1 S,7,207509,208009,0.25,0.9 F,0,207510,208010,1,0 M,0,207509,,301,216
Sprite,Foreground,Centre,"sb/ring.png",320,240 C,0,207765,,255,255,255 F,0,207765,,1 S,7,207765,208265,0.25,0.9 F,0,207766,208266,1,0 M,0,207765,,114,367
Sprite,Foreground,Centre,"sb/ring.png",320,240 C,0,208150,,255,255,255 F,0,208150,,1 S,7,208150,208650,0.25,0.9 F,0,208151,208651,1,0 M,0,208150,,293,148
Sprite,Foreground,Centre,"sb/ring.png",320,240 C,0,208663,,255,255,255 F,0,208663,,1 S,7,208663,209163,0.25,0.9 F,0,208664,209164,1,0 M,0,208663,,189,155
Sprite,Foreground,Centre,"sb/ring.png",320,240 C,0,209047,,255,255,255 F,0,209047,,1 S,7,209047,209547,0.25,0.9 F,0,209048,209548,1,0 M,0,209047,,378,150
Sprite,Foreground,Centre,"sb/ring.png",320,240 C,0,209175,,255,255,255 F,0,209175,,1 S,7,209175,209675,0.25,0.9 F,0,209176,209676,1,0 M,0,209175,,393,249
Sprite,Foreground,Centre,"sb/ring.png",320,240 C,0,209560,,255,255,255 F,0,209560,,1 S,7,209560,210060,0.25,0.9 F,0,209561,210061,1,0 M,0,209560,,299,214
Sprite,Foreground,Centre,"sb/ring.png",320,240 C,0,209816,,255,255,255 F,0,209816,,1 S,7,209816,210316,0.25,0.9 F,0,209817,210317,1,0 M,0,209816,,208,170
Sprite,Foreground,Centre,"sb/ring.png",320,240 C,0,210201,,255,255,255 F,0,210201,,1 S,7,210201,210701,0.25,0.9 F,0,210202,210702,1,0 M,0,210201,,121,290
Sprite,Foreground,Centre,"sb/ring.png",320,240 C,0,210714,,255,255,255 F,0,210714,,1 S,7,210714,211214,0.25,0.9 F,0,210715,211215,1,0 M,0,210714,,204,237
Sprite,Foreground,Centre,"sb/ring.png",320,240 C,0,210842,,255,255,255 F,0,210842,,1 S,7,210842,211342,0.25,0.9 F,0,210843,211343,1,0 M,0,210842,,204,237
Sprite,Foreground,Centre,"sb/ring.png",320,240 C,0,210970,,255,255,255 F,0,210970,,1 S,7,210970,211470,0.25,0.9 F,0,210971,211471,1,0 M,0,210970,,204,237
Sprite,Foreground,Centre,"sb/ring.png",320,240 C,0,211099,,255,255,255 F,0,211099,,1 S,7,211099,211599,0.25,0.9 F,0,211100,211600,1,0 M,0,211099,,204,237
Sprite,Foreground,Centre,"sb/ring.png",320,240 C,0,211227,,255,255,255 F,0,211227,,1 S,7,211227,211727,0.25,0.9 F,0,211228,211728,1,0 M,0,211227,,296,281
Sprite,Foreground,Centre,"sb/ring.png",320,240 C,0,211483,,255,255,255 F,0,211483,,1 S,7,211483,211983,0.25,0.9 F,0,211484,211984,1,0 M,0,211483,,288,180
Sprite,Foreground,Centre,"sb/ring.png",320,240 C,0,211611,,255,255,255 F,0,211611,,1 S,7,211611,212111,0.25,0.9 F,0,211612,212112,1,0 M,0,211611,,380,224
Sprite,Foreground,Centre,"sb/ring.png",320,240 C,0,211740,,255,255,255 F,0,211740,,1 S,7,211740,212740,0.25,0.9 F,0,211741,212741,1,0 M,0,211740,,371,122
Sprite,Foreground,Centre,"sb/ring.png",320,240 C,0,212124,,255,255,255 F,0,212124,,1 S,7,212124,213124,0.25,0.9 F,0,212125,213125,1,0 M,0,212124,,452,151
Sprite,Foreground,Centre,"sb/ring.png",320,240 C,0,212509,,255,255,255 F,0,212509,,1 S,7,212509,213509,0.25,0.9 F,0,212510,213510,1,0 M,0,212509,,501,79
//Storyboard Sound Samples

[TimingPoints]
458,256.410256410256,4,2,4,55,1,0
458,-125,4,2,4,55,0,0
2445,-100,4,2,4,20,0,0
2509,-100,4,2,4,55,0,0
6547,-100,4,2,4,20,0,0
6611,-100,4,2,4,55,0,0
8150,-166.666666666667,4,2,2,40,0,0
8599,-166.666666666667,4,2,2,20,0,0
8663,-100,4,2,6,60,0,0
8855,-100,4,2,6,60,0,0
8919,-100,4,2,2,60,0,0
10906,-100,4,2,2,60,0,0
10970,-100,4,2,2,60,0,0
12957,-100,4,2,2,60,0,0
13022,-100,4,2,2,60,0,0
17060,-100,4,2,2,20,0,0
17124,-100,4,2,6,70,0,0
17188,-100,4,2,2,60,0,0
19111,-100,4,2,2,60,0,0
19175,-100,4,2,2,60,0,0
21163,-100,4,2,2,60,0,0
21227,-100,4,2,2,60,0,0
23278,-100,4,2,6,60,0,0
23919,-100,4,2,2,60,0,0
25073,-100,4,2,2,40,0,0
25329,-100,4,2,2,30,0,0
26099,-133.333333333333,4,2,2,50,0,0
27124,-133.333333333333,4,2,2,50,0,0
30073,-133.333333333333,4,2,2,50,0,0
30329,-133.333333333333,4,2,2,50,0,0
33534,-133.333333333333,4,2,2,40,0,0
33791,-133.333333333333,4,2,2,50,0,0
34240,-133.333333333333,4,2,3,60,0,0
34368,-133.333333333333,4,2,2,35,0,0
34560,-133.333333333333,4,2,2,45,0,0
34945,-133.333333333333,4,2,2,50,0,0
35201,-133.333333333333,4,2,6,50,0,0
35522,-133.333333333333,4,2,6,20,0,0
35586,-133.333333333333,4,2,2,50,0,0
41483,-166.666666666667,4,2,5,50,0,0
41547,-166.666666666667,4,2,5,35,0,0
47124,-133.333333333333,4,2,2,35,0,0
47637,-133.333333333333,4,2,2,50,0,0
48406,-133.333333333333,4,2,10,80,0,0
48438,-133.333333333333,4,2,10,35,0,0
48919,-200,4,2,2,40,0,0
49624,-200,4,2,2,20,0,0
49688,-83.3333333333333,4,2,6,60,0,1
49816,-83.3333333333333,4,2,6,60,0,1
49881,-83.3333333333333,4,2,6,20,0,1
49945,-83.3333333333333,4,2,6,60,0,1
51932,-83.3333333333333,4,2,6,60,0,1
51996,-83.3333333333333,4,2,6,60,0,1
52445,-83.3333333333333,4,2,6,60,0,1
52509,-83.3333333333333,4,2,6,60,0,1
53470,-83.3333333333333,4,2,6,20,0,1
53534,-83.3333333333333,4,2,6,60,0,1
53983,-83.3333333333333,4,2,6,20,0,1
54047,-83.3333333333333,4,2,6,60,0,1
56740,-66.6666666666667,4,2,2,60,0,0
56932,-66.6666666666667,4,2,2,60,0,0
56996,-66.6666666666667,4,2,2,60,0,0
57188,-66.6666666666667,4,2,2,60,0,0
57252,-66.6666666666667,4,2,2,60,0,0
57445,-66.6666666666667,4,2,2,60,0,0
57509,-66.6666666666667,4,2,2,60,0,0
57893,-83.3333333333333,4,2,9,60,0,1
58150,-83.3333333333333,4,2,2,60,0,1
61675,-83.3333333333333,4,2,2,60,0,1
61740,-83.3333333333333,4,2,2,60,0,1
65073,-83.3333333333333,4,2,2,50,0,1
65586,-83.3333333333333,4,2,2,60,0,1
65970,-83.3333333333333,4,2,2,60,0,1
66099,-100,4,2,2,60,0,0
66355,-100,4,2,2,60,0,0
68342,-100,4,2,2,20,0,0
68406,-100,4,2,2,60,0,0
70393,-100,4,2,2,60,0,0
70457,-100,4,2,2,60,0,0
72252,-83.3333333333333,4,2,2,60,0,0
73214,-83.3333333333333,4,2,2,20,0,0
73278,-100,4,2,2,60,0,0
74304,-133.333333333333,4,2,6,60,0,0
74368,-133.333333333333,4,2,6,50,0,0
75329,-133.333333333333,4,2,2,50,0,0
84560,-100,4,2,6,50,0,0
84752,-100,4,2,2,20,0,0
84816,-100,4,2,2,60,0,0
90714,-133.333333333333,4,2,2,50,0,0
90778,-166.666666666667,4,2,5,50,0,0
94816,-133.333333333333,4,2,2,50,0,0
96868,-133.333333333333,4,2,2,60,0,0
97637,-100,4,2,2,60,0,0
98406,-100,4,2,2,65,0,0
98534,-100,4,2,2,70,0,0
98663,-100,4,2,2,75,0,0
98791,-100,4,2,2,60,0,0
98919,-83.3333333333333,4,2,6,70,0,1
99047,-83.3333333333333,4,2,6,70,0,1
99111,-83.3333333333333,4,2,2,20,0,1
99175,-83.3333333333333,4,2,2,60,0,1
101163,-83.3333333333333,4,2,2,60,0,1
101227,-83.3333333333333,4,2,2,60,0,1
101675,-83.3333333333333,4,2,2,60,0,1
101740,-83.3333333333333,4,2,2,60,0,1
102701,-83.3333333333333,4,2,2,20,0,1
102765,-83.3333333333333,4,2,2,60,0,1
105970,-66.6666666666667,4,2,2,60,0,0
106163,-66.6666666666667,4,2,2,60,0,0
106227,-66.6666666666667,4,2,2,60,0,0
106419,-66.6666666666667,4,2,2,60,0,0
106483,-66.6666666666667,4,2,2,60,0,0
106675,-66.6666666666667,4,2,2,60,0,0
106740,-66.6666666666667,4,2,2,60,0,0
107124,-83.3333333333333,4,2,9,60,0,1
107252,-83.3333333333333,4,2,9,60,0,1
107316,-83.3333333333333,4,2,2,60,0,1
108086,-83.3333333333333,4,2,2,20,0,1
108150,-83.3333333333333,4,2,2,60,0,1
111419,-83.3333333333333,4,2,2,60,0,1
111483,-83.3333333333333,4,2,2,60,0,1
111932,-83.3333333333333,4,2,2,60,0,1
111996,-83.3333333333333,4,2,2,60,0,1
114304,-100,4,2,2,60,0,0
114496,-100,4,2,2,60,0,0
114560,-100,4,2,2,60,0,0
114752,-100,4,2,2,60,0,0
114816,-100,4,2,2,60,0,0
115009,-100,4,2,2,20,0,0
115073,-100,4,2,2,60,0,0
115329,-133.333333333333,4,2,2,30,0,0
117637,-133.333333333333,4,2,2,30,0,0
117701,-133.333333333333,4,2,3,20,0,0
117765,-133.333333333333,4,2,3,20,0,0
117829,-133.333333333333,4,2,2,25,0,0
117893,-133.333333333333,4,2,2,25,0,0
117957,-133.333333333333,4,2,3,30,0,0
118022,-133.333333333333,4,2,3,30,0,0
118086,-133.333333333333,4,2,2,35,0,0
118150,-133.333333333333,4,2,2,35,0,0
118214,-133.333333333333,4,2,3,35,0,0
118278,-133.333333333333,4,2,3,35,0,0
118342,-133.333333333333,4,2,2,40,0,0
118406,-133.333333333333,4,2,2,40,0,0
118470,-133.333333333333,4,2,3,45,0,0
118534,-133.333333333333,4,2,3,45,0,0
118599,-133.333333333333,4,2,2,50,0,0
118663,-133.333333333333,4,2,2,50,0,0
118727,-133.333333333333,4,2,3,55,0,0
118791,-200,4,2,3,55,0,0
118919,-200,4,2,2,60,0,0
119047,-200,4,2,2,60,0,0
119175,-200,4,2,2,40,0,0
119368,-200,4,2,2,20,0,0
119432,-100,4,2,6,60,0,0
119624,-100,4,2,6,20,0,0
119688,-100,4,2,2,60,0,0
121675,-100,4,2,2,20,0,0
121740,-100,4,2,2,60,0,0
121932,-100,4,2,2,20,0,0
121996,-100,4,2,2,60,0,0
123470,-100,4,2,2,20,0,0
123534,-100,4,2,2,60,0,0
123727,-100,4,2,2,60,0,0
123791,-100,4,2,2,60,0,0
125778,-100,4,2,2,60,0,0
125842,-100,4,2,2,60,0,0
127188,-100,4,2,2,60,0,0
127252,-100,4,2,2,60,0,0
127637,-100,4,2,6,60,0,0
127765,-100,4,2,2,60,0,0
129368,-100,4,2,2,60,0,0
129432,-100,4,2,2,60,0,0
129881,-100,4,2,2,20,0,0
129945,-100,4,2,2,60,0,0
133983,-100,4,2,2,60,0,0
134047,-100,4,2,2,60,0,0
134175,-66.6666666666667,4,2,2,60,0,0
134368,-66.6666666666667,4,2,2,60,0,0
134432,-66.6666666666667,4,2,2,60,0,0
134624,-66.6666666666667,4,2,2,60,0,0
134688,-66.6666666666667,4,2,2,60,0,0
134881,-66.6666666666667,4,2,2,60,0,0
134945,-100,4,2,2,50,0,0
135329,-100,4,2,2,50,0,0
135842,-133.333333333333,4,2,2,40,0,0
143534,-133.333333333333,4,3,4,40,0,0
143705,-133.333333333333,4,2,2,40,0,0
148022,-133.333333333333,4,2,2,30,0,0
148150,-133.333333333333,4,3,2,30,0,0
149688,-133.333333333333,4,3,2,30,0,0
149774,-133.333333333333,4,2,2,30,0,0
155265,-133.333333333333,4,2,2,15,0,0
155329,-133.333333333333,4,2,2,30,0,0
156355,-133.333333333333,4,2,2,20,0,0
156868,-133.333333333333,4,2,2,25,0,0
157381,-133.333333333333,4,2,2,30,0,0
157893,-133.333333333333,4,2,2,35,0,0
158406,-100,4,2,2,40,0,0
158791,-100,4,2,3,45,0,1
159175,-100,4,2,3,50,0,1
159432,-100,4,2,3,55,0,1
159688,-100,4,2,3,60,0,1
159945,-100,4,2,3,65,0,1
160201,-100,4,2,3,70,0,1
160457,-83.3333333333333,4,2,2,70,0,0
160714,-100,4,2,2,70,0,0
161483,-100,4,2,2,50,0,0
161996,-100,4,2,2,80,0,0
162445,-100,4,2,2,20,0,0
162509,-100,4,2,2,60,0,0
162616,-100,4,2,2,20,0,0
162787,-100,4,2,2,60,0,0
162915,-100,4,2,2,20,0,0
162957,-100,4,2,2,60,0,0
163022,-100,4,2,2,65,0,0
163470,-100,4,2,2,20,0,0
163534,-83.3333333333333,4,2,6,70,0,1
163663,-83.3333333333333,4,2,6,70,0,1
163727,-83.3333333333333,4,2,6,20,0,1
163791,-83.3333333333333,4,2,6,70,0,1
165778,-83.3333333333333,4,2,6,70,0,1
165842,-83.3333333333333,4,2,6,70,0,1
166291,-83.3333333333333,4,2,6,70,0,1
166355,-83.3333333333333,4,2,6,70,0,1
167316,-83.3333333333333,4,2,6,20,0,1
167381,-83.3333333333333,4,2,6,70,0,1
167829,-83.3333333333333,4,2,6,20,0,1
167893,-83.3333333333333,4,2,6,70,0,1
169945,-83.3333333333333,4,2,2,60,0,1
170586,-66.6666666666667,4,2,2,60,0,0
170778,-66.6666666666667,4,2,2,60,0,0
170842,-66.6666666666667,4,2,2,60,0,0
171034,-66.6666666666667,4,2,2,60,0,0
171099,-66.6666666666667,4,2,2,60,0,0
171291,-66.6666666666667,4,2,2,60,0,0
171355,-66.6666666666667,4,2,2,60,0,0
171740,-83.3333333333333,4,2,9,60,0,1
171868,-83.3333333333333,4,2,2,60,0,1
172957,-83.3333333333333,4,2,2,60,0,1
173022,-83.3333333333333,4,2,2,60,0,1
175522,-83.3333333333333,4,2,2,60,0,1
175586,-83.3333333333333,4,2,2,60,0,1
175778,-83.3333333333333,4,2,2,60,0,1
175842,-83.3333333333333,4,2,2,60,0,1
178791,-83.3333333333333,4,2,3,60,0,0
178983,-83.3333333333333,4,2,3,20,0,0
179047,-83.3333333333333,4,2,3,60,0,0
179240,-83.3333333333333,4,2,3,20,0,0
179304,-83.3333333333333,4,2,10,75,0,0
179560,-83.3333333333333,4,2,6,60,0,0
179945,-83.3333333333333,4,2,2,70,0,1
180137,-83.3333333333333,4,2,2,20,0,1
180201,-83.3333333333333,4,2,2,70,0,1
186291,-83.3333333333333,4,2,2,70,0,1
186355,-83.3333333333333,4,2,2,70,0,1
188150,-83.3333333333333,4,2,6,70,0,1
188278,-83.3333333333333,4,2,2,70,0,1
191419,-83.3333333333333,4,2,2,70,0,1
191483,-83.3333333333333,4,2,2,70,0,1
192252,-83.3333333333333,4,2,2,80,0,1
193214,-83.3333333333333,4,2,2,80,0,1
193278,-83.3333333333333,4,2,2,80,0,1
195329,-83.3333333333333,4,2,6,70,0,1
195457,-83.3333333333333,4,2,2,80,0,1
196291,-83.3333333333333,4,2,2,20,0,1
196355,-133.333333333333,4,2,2,80,0,0
204560,-133.333333333333,4,2,5,55,0,0
211740,-100,4,2,2,60,0,0
211868,-100,4,2,2,20,0,0
211932,-100,4,2,2,60,0,0
212252,-100,4,2,2,20,0,0
212316,-100,4,2,2,60,0,0
212509,-100,4,2,2,60,0,0

[Colours]
Combo1 : 255,102,28
Combo2 : 0,159,236
Combo3 : 249,198,91
Combo4 : 237,38,33

[HitObjects]
120,75,458,5,8,0:0:0:0:
447,132,714,1,8,0:0:0:0:
447,132,970,1,8,0:0:0:0:
278,199,1099,1,8,0:0:0:0:
278,199,1355,5,8,0:0:0:0:
278,199,1611,1,8,0:0:0:0:
341,29,1740,1,8,0:0:0:0:
341,29,1996,1,8,0:0:0:0:
388,292,2252,1,8,0:0:0:0:
131,163,2509,5,8,0:0:0:0:
429,126,2765,1,8,0:0:0:0:
429,126,3022,1,8,0:0:0:0:
296,247,3150,1,8,0:0:0:0:
296,247,3406,5,8,0:0:0:0:
296,247,3663,1,8,0:0:0:0:
213,87,3791,1,8,0:0:0:0:
213,87,4047,1,8,0:0:0:0:
158,351,4304,1,8,0:0:0:0:
24,133,4560,5,8,0:0:0:0:
296,247,4816,1,8,0:0:0:0:
296,247,5073,1,8,0:0:0:0:
119,278,5201,1,8,0:0:0:0:
119,278,5457,5,8,0:0:0:0:
119,278,5714,1,8,0:0:0:0:
180,109,5842,1,8,0:0:0:0:
180,109,6099,1,8,0:0:0:0:
17,353,6355,1,8,0:0:0:0:
297,246,6611,5,8,0:0:0:0:
36,112,6868,1,8,0:0:0:0:
36,112,7124,1,8,0:0:0:0:
211,73,7252,1,8,0:0:0:0:
211,73,7509,5,8,0:0:0:0:
211,73,7765,1,8,0:0:0:0:
140,238,7893,1,8,0:0:0:0:
140,238,8150,2,0,L|198:236,2,53.9999983520508,2|0|0,0:3|0:0|0:0,0:0:0:0:
140,238,8663,6,0,P|181:195|185:108,1,135,4|0,1:2|0:0,0:0:0:0:
175,79,8919,2,0,P|225:112|261:118,1,90,8|0,0:0|0:0,0:0:0:0:
101,153,9175,1,0,1:0:0:0:
242,27,9304,1,0,1:0:0:0:
282,211,9432,1,8,0:0:0:0:
175,79,9560,6,0,L|77:67,1,90,0|0,1:0|0:0,0:0:0:0:
274,200,9816,1,0,1:0:0:0:
167,68,9944,2,0,L|69:56,1,90,8|0,0:0|0:0,0:0:0:0:
163,208,10201,1,0,1:0:0:0:
242,27,10329,1,0,1:0:0:0:
54,168,10457,2,0,L|58:262,1,90,8|0,0:0|0:0,0:0:0:0:
10,367,10714,6,0,P|59:332|135:330,1,135,0|0,1:0|0:0,0:0:0:0:
166,357,10970,2,0,P|151:310|155:261,1,90,8|0,0:0|0:0,0:0:0:0:
185,133,11227,1,0,1:0:0:0:
57,257,11355,1,0,1:0:0:0:
64,117,11483,1,8,0:0:0:0:
152,269,11611,6,0,L|247:275,1,90,0|0,0:0|0:0,0:0:0:0:
185,133,11868,1,0,0:0:0:0:
57,257,11996,2,0,L|48:359,1,90,8|0,0:0|0:0,0:0:0:0:
64,117,12252,1,0,1:0:0:0:
152,269,12381,1,0,1:0:0:0:
185,133,12509,1,8,0:0:0:0:
57,257,12637,1,0,0:0:0:0:
258,222,12765,6,0,P|322:199|370:134,1,135,0|0,1:0|0:0,0:0:0:0:
398,119,13022,2,0,P|385:174|388:218,1,90,8|0,0:0|0:0,0:0:0:0:
478,36,13278,1,0,1:0:0:0:
283,108,13406,2,0,L|187:114,1,90,0|8,1:0|0:0,0:0:0:0:
22,42,13663,6,0,P|103:86|107:188,1,180,0|0,1:0|1:0,0:0:0:0:
193,15,14047,1,8,0:0:0:0:
22,140,14175,1,0,0:0:0:0:
193,113,14304,1,0,1:0:0:0:
22,42,14432,1,0,1:0:0:0:
115,166,14560,1,8,0:0:0:0:
193,15,14688,1,0,0:0:0:0:
22,140,14816,6,0,P|23:201|48:241,1,90,0|0,1:0|0:0,0:0:0:0:
184,328,15073,2,0,P|236:296|258:254,1,90,8|0,0:0|0:0,0:0:0:0:
269,94,15329,2,0,P|215:64|168:66,1,90,0|0,1:0|1:0,0:0:0:0:
157,187,15586,1,8,0:0:0:0:
363,180,15714,6,0,L|356:81,1,90,0|0,1:0|0:0,0:0:0:0:
166,200,15970,1,0,1:0:0:0:
372,193,16098,2,0,L|365:94,1,90,8|0,0:0|0:0,0:0:0:0:
175,211,16355,5,8,0:0:0:0:
381,204,16483,1,8,0:0:0:0:
190,305,16611,1,8,0:0:0:0:
365,103,16739,1,8,0:0:0:0:
98,48,16868,6,0,L|85:195,1,135,4|0,1:2|0:0,0:0:0:0:
88,227,17124,2,0,P|143:205|184:203,1,90,12|0,0:0|0:0,0:0:0:0:
278,274,17381,1,0,1:0:0:0:
158,311,17509,1,0,1:0:0:0:
288,280,17637,5,8,0:0:0:0:
173,202,17765,2,0,L|180:112,1,90,0|0,1:0|0:0,0:0:0:0:
299,287,18022,1,0,1:0:0:0:
184,209,18150,2,0,L|191:119,1,90,8|0,0:0|0:0,0:0:0:0:
311,292,18406,1,0,0:0:0:0:
184,317,18534,1,0,0:0:0:0:
305,181,18663,2,0,L|312:91,1,90,8|0,0:0|0:0,0:0:0:0:
192,119,18919,6,0,P|145:163|64:174,1,135,0|0,1:0|0:0,0:0:0:0:
38,153,19175,2,0,L|23:258,1,90,8|0,0:0|0:0,0:0:0:0:
98,74,19432,1,0,1:0:0:0:
120,268,19560,1,0,1:0:0:0:
1,61,19688,1,8,0:0:0:0:
192,119,19816,6,0,L|293:127,1,90,0|0,0:0|0:0,0:0:0:0:
98,74,20073,1,0,0:0:0:0:
203,225,20201,2,0,L|304:233,1,90,8|0,0:0|0:0,0:0:0:0:
109,180,20457,2,0,P|98:229|110:278,1,90,0|0,1:0|1:0,0:0:0:0:
383,281,20714,2,0,P|394:232|382:183,1,90,8|0,0:0|0:0,0:0:0:0:
403,43,20970,6,0,L|246:54,1,135,0|0,1:0|0:0,0:0:0:0:
222,51,21227,2,0,P|260:99|271:144,1,90,8|0,0:0|0:0,0:0:0:0:
236,280,21483,1,0,1:0:0:0:
170,137,21611,1,0,1:0:0:0:
138,292,21740,1,8,0:0:0:0:
268,125,21868,6,0,L|368:118,1,90,0|0,1:0|0:0,0:0:0:0:
146,284,22124,1,0,1:0:0:0:
276,117,22252,2,0,L|376:110,1,90,8|0,0:0|0:0,0:0:0:0:
294,265,22509,1,0,1:0:0:0:
127,135,22637,1,0,1:0:0:0:
311,30,22765,2,0,L|411:23,1,90,8|0,0:0|0:0,0:0:0:0:
434,203,23022,5,0,1:0:0:0:
276,117,23150,1,0,0:0:0:0:
487,24,23278,2,0,L|490:128,1,90,12|0,0:0|0:0,0:0:0:0:
312,239,23534,1,0,1:0:0:0:
409,111,23662,1,0,0:0:0:0:
485,328,23791,2,0,L|379:318,1,90,12|0,0:0|0:0,0:0:0:0:
227,343,24047,5,12,0:0:0:0:
312,239,24175,1,0,1:0:0:0:
100,302,24304,5,8,0:0:0:0:
225,254,24432,1,0,1:0:0:0:
10,203,24560,5,8,0:0:0:0:
142,223,24688,1,0,0:0:0:0:
5,68,24816,5,8,0:0:0:0:
13,321,24945,1,0,0:0:0:0:
168,123,25073,1,4,0:0:0:0:
168,123,26099,5,8,0:0:0:0:
168,123,26227,1,8,0:0:0:0:
168,123,26355,2,0,P|214:120|289:55,1,135.000005149842,0|8,1:0|0:0,0:0:0:0:
376,27,26740,2,0,L|369:173,1,135.000005149842,0|8,1:0|0:0,0:0:0:0:
268,169,27124,6,0,L|271:245,1,67.5000025749208,4|0,1:2|0:0,0:0:0:0:
192,196,27381,2,0,L|188:272,1,67.5000025749208,8|0,0:0|0:0,0:0:0:0:
114,216,27637,2,0,L|117:292,1,67.5000025749208,0|0,1:0|1:0,0:0:0:0:
38,243,27894,2,0,L|34:319,1,67.5000025749208,8|0,0:0|0:0,0:0:0:0:
100,368,28150,6,0,L|242:373,1,135.000005149842,0|8,0:0|0:0,0:0:0:0:
245,285,28534,1,0,0:0:0:0:
245,285,28663,2,0,L|324:288,1,67.5000025749208,0|0,1:0|1:0,0:0:0:0:
322,374,28919,2,0,L|401:371,1,67.5000025749208,8|0,0:0|0:0,0:0:0:0:
477,361,29175,5,0,0:0:0:0:
439,282,29304,1,0,0:0:0:0:
491,212,29432,2,0,P|499:167|497:139,1,67.5000025749208,8|0,0:0|0:0,0:0:0:0:
494,57,29688,2,0,P|456:74|356:76,1,135.000005149842,0|8,1:0|0:0,0:0:0:0:
288,31,30073,6,0,P|330:71|349:158,1,135.000005149842,0|0,1:0|1:0,0:0:0:0:
306,219,30457,2,0,P|275:189|265:157,1,67.5000025749208,8|0,0:0|0:0,0:0:0:0:
350,143,30714,2,0,P|391:131|424:138,1,67.5000025749208,0|0,1:0|1:0,0:0:0:0:
392,219,30970,2,0,P|381:260|358:285,1,67.5000025749208,8|0,0:0|0:0,0:0:0:0:
281,304,31227,5,0,1:0:0:0:
281,304,31355,1,0,0:0:0:0:
306,219,31483,1,8,0:0:0:0:
306,219,31611,1,0,0:0:0:0:
220,240,31740,2,0,L|145:244,1,67.5000025749208,0|0,1:0|1:0,0:0:0:0:
65,232,31996,1,8,0:0:0:0:
65,232,32124,6,0,P|88:180|77:100,1,135.000005149842,0|0,1:0|1:0,0:0:0:0:
44,22,32509,2,0,L|124:27,1,67.5000025749208,8|0,0:0|0:0,0:0:0:0:
164,95,32765,2,0,L|244:90,1,67.5000025749208,8|0,0:0|0:0,0:0:0:0:
287,22,33022,2,0,L|367:27,1,67.5000025749208,8|8,0:0|0:0,0:0:0:0:
403,98,33278,6,0,P|376:129|363:206,1,101.250003862381,0|0,1:0|0:0,0:0:0:0:
387,216,33534,1,8,0:0:0:0:
387,216,33663,1,8,0:0:0:0:
464,275,33791,1,8,0:0:0:0:
464,275,33919,1,8,0:0:0:0:
406,353,34047,1,8,0:0:0:0:
406,353,34175,1,8,0:0:0:0:
328,294,34304,5,8,0:0:0:0:
328,294,34432,1,8,0:0:0:0:
328,294,34560,2,0,L|182:283,1,135.000005149842,0|8,1:0|0:0,0:0:0:0:
131,337,34945,2,0,P|159:301|163:208,1,135.000005149842,0|8,1:0|0:0,0:0:0:0:
112,154,35329,6,0,P|144:134|177:133,1,67.5000025749208,4|0,1:2|0:0,0:0:0:0:
227,236,35586,2,0,P|193:232|165:214,1,67.5000025749208,8|0,0:0|0:0,0:0:0:0:
272,144,35842,2,0,L|351:142,1,67.5000025749208,0|0,1:0|1:0,0:0:0:0:
419,124,36099,1,8,0:0:0:0:
394,201,36227,6,0,P|382:239|379:269,1,67.5000025749208,0|0,1:0|0:0,0:0:0:0:
427,331,36483,1,0,1:0:0:0:
291,247,36611,2,0,P|299:285|312:313,1,67.5000025749208,8|0,0:0|0:0,0:0:0:0:
359,377,36868,1,0,1:0:0:0:
359,377,36996,1,0,1:0:0:0:
427,331,37124,2,0,P|449:306|467:277,1,67.5000025749208,8|0,0:0|0:0,0:0:0:0:
509,207,37381,6,0,P|499:174|482:145,1,67.5000025749208,0|0,1:0|0:0,0:0:0:0:
463,67,37637,2,0,P|430:59|396:58,1,67.5000025749208,8|0,0:0|0:0,0:0:0:0:
319,32,37893,2,0,P|296:56|278:85,1,67.5000025749208,0|0,1:0|1:0,0:0:0:0:
262,165,38150,1,8,0:0:0:0:
202,110,38278,6,0,L|195:23,1,67.5000025749208,0|0,1:0|0:0,0:0:0:0:
186,190,38534,1,0,1:0:0:0:
126,135,38663,2,0,L|119:48,1,67.5000025749208,8|0,0:0|0:0,0:0:0:0:
110,215,38919,2,0,L|103:302,1,67.5000025749208,0|0,1:0|1:0,0:0:0:0:
50,160,39175,2,0,L|43:73,1,67.5000025749208,8|0,0:0|0:0,0:0:0:0:
35,240,39432,6,0,L|29:307,1,67.5000025749208,0|0,1:0|0:0,0:0:0:0:
99,349,39688,2,0,L|104:281,1,67.5000025749208,8|0,0:0|0:0,0:0:0:0:
179,249,39945,2,0,L|173:316,1,67.5000025749208,0|0,1:0|1:0,0:0:0:0:
243,358,40201,2,0,L|248:290,1,67.5000025749208,8|0,0:0|0:0,0:0:0:0:
315,245,40457,6,0,L|309:177,1,67.5000025749208,0|0,1:0|0:0,0:0:0:0:
259,113,40714,1,0,1:0:0:0:
259,113,40842,1,0,1:0:0:0:
197,245,40970,2,0,L|202:177,1,67.5000025749208,8|0,0:0|0:0,0:0:0:0:
259,113,41227,1,0,1:0:0:0:
259,113,41355,1,0,1:0:0:0:
259,113,41483,6,0,P|294:114|360:71,2,107.999996704102,4|0|0,1:2|0:0|1:0,0:0:0:0:
164,60,42252,1,0,0:0:0:0:
142,166,42509,2,0,L|134:278,1,107.999996704102,0|0,1:0|0:0,0:0:0:0:
233,317,43022,2,0,L|240:199,2,107.999996704102,0|0|0,1:0|0:0|1:0,0:0:0:0:
341,319,43791,1,0,0:0:0:0:
348,214,44047,2,0,L|234:208,1,107.999996704102,0|0,1:0|0:0,0:0:0:0:
132,201,44560,5,0,1:0:0:0:
230,211,44816,2,0,P|238:243|253:273,1,53.9999983520508,8|0,0:0|0:0,0:0:0:0:
123,200,45073,1,0,1:0:0:0:
240,209,45329,2,0,P|247:239|261:266,1,53.9999983520508,0|0,0:0|0:0,0:0:0:0:
260,354,45586,2,0,P|192:340|143:362,1,107.999996704102,4|0,2:0|0:0,0:0:0:0:
33,226,46099,2,0,P|65:253|79:333,1,107.999996704102,0|0,1:0|0:0,0:0:0:0:
190,202,46611,6,0,L|183:82,1,107.999996704102,0|0,1:0|0:0,0:0:0:0:
325,288,47124,2,0,L|320:378,2,67.5000025749208,0|0|8,1:0|0:0|0:0,0:0:0:0:
267,136,47637,6,0,P|221:115|181:29,1,135.000005149842,8|0,0:0|0:0,0:0:0:0:
321,194,48022,2,0,P|316:143|370:66,1,135.000005149842,8|0,0:0|0:0,0:0:0:0:
287,266,48406,1,2,0:0:0:0:
287,266,48919,6,0,L|338:263,1,45,2|0,0:0|0:0,0:0:0:0:
231,336,49175,6,0,P|204:299|247:186,1,157.5,2|0,0:0|0:0,0:0:0:0:
232,143,49688,6,0,P|190:179|137:188,1,107.999996704102,4|0,1:2|0:0,0:0:0:0:
242,36,49945,2,0,P|294:54|328:95,1,107.999996704102,12|0,0:0|0:0,0:0:0:0:
314,255,50201,2,0,P|261:236|227:195,1,107.999996704102,0|0,1:0|1:0,0:0:0:0:
424,185,50457,2,0,L|433:307,1,107.999996704102,8|0,0:0|0:0,0:0:0:0:
338,375,50714,5,0,1:0:0:0:
314,255,50842,1,0,0:0:0:0:
221,338,50970,2,0,L|108:342,1,107.999996704102,8|0,0:0|0:0,0:0:0:0:
272,157,51227,2,0,P|299:196|313:282,1,107.999996704102,0|0,1:0|1:0,0:0:0:0:
32,271,51483,2,0,P|35:217|56:168,1,107.999996704102,8|0,0:0|0:0,0:0:0:0:
220,28,51740,6,0,P|159:51|62:58,1,161.999995056153,0|0,1:0|0:0,0:0:0:0:
17,29,51996,2,0,P|45:84|53:140,1,107.999996704102,8|0,0:0|0:0,0:0:0:0:
229,36,52252,2,0,P|168:59|71:66,1,161.999995056153,0|0,1:0|0:0,0:0:0:0:
26,37,52509,2,0,P|54:92|62:148,1,107.999996704102,8|0,0:0|0:0,0:0:0:0:
118,294,52765,6,0,P|151:242|196:207,1,107.999996704102,0|0,1:0|0:0,0:0:0:0:
292,88,53022,2,0,P|230:84|177:63,1,107.999996704102,8|0,0:0|0:0,0:0:0:0:
26,37,53278,2,0,L|36:216,1,161.999995056153,0|0,1:0|1:0,0:0:0:0:
70,239,53534,2,0,L|62:382,1,107.999996704102,8|0,0:0|0:0,0:0:0:0:
181,365,53791,6,0,P|236:343|286:341,1,107.999996704102,0|0,1:0|0:0,0:0:0:0:
259,127,54047,2,0,P|250:185|227:229,1,107.999996704102,8|0,0:0|0:0,0:0:0:0:
403,348,54304,2,0,L|384:120,1,215.999993408203,0|8,1:0|0:0,0:0:0:0:
312,216,54688,6,0,P|424:235|498:142,1,215.999993408203,0|0,1:0|0:0,0:0:0:0:
277,111,55073,2,0,P|225:145|202:198,1,107.999996704102,8|0,0:0|0:0,0:0:0:0:
233,293,55329,1,0,1:0:0:0:
233,293,55457,1,0,0:0:0:0:
312,216,55586,1,8,0:0:0:0:
125,261,55714,6,0,L|116:144,1,107.999996704102,0|0,1:0|0:0,0:0:0:0:
154,370,55970,1,0,0:0:0:0:
233,293,56099,2,0,L|242:176,1,107.999996704102,8|0,0:0|0:0,0:0:0:0:
341,325,56355,2,0,L|332:208,1,107.999996704102,0|0,1:0|1:0,0:0:0:0:
449,357,56611,1,8,0:0:0:0:
457,249,56740,6,0,L|441:47,1,202.500007724762,0|0,1:0|0:0,0:0:0:0:
490,111,56996,2,0,P|423:126|368:14,1,202.500007724762,0|0,1:0|0:0,0:0:0:0:
441,47,57252,2,0,L|425:248,1,202.500007724762,0|0,1:0|0:0,0:0:0:0:
370,310,57509,5,8,0:0:0:0:
298,165,57637,1,8,0:0:0:0:
425,248,57765,1,8,0:0:0:0:
249,334,57893,6,0,P|204:348|126:345,1,107.999996704102,4|0,1:2|0:0,0:0:0:0:
192,149,58150,2,0,P|245:148|297:164,1,107.999996704102,8|0,0:0|0:0,0:0:0:0:
116,236,58406,1,0,1:0:0:0:
116,236,58534,1,0,1:0:0:0:
79,126,58663,2,0,L|89:9,1,107.999996704102,8|0,0:0|0:0,0:0:0:0:
116,236,58919,5,0,1:0:0:0:
3,213,59047,1,0,0:0:0:0:
40,323,59175,2,0,L|158:313,1,107.999996704102,8|0,0:0|0:0,0:0:0:0:
186,135,59432,2,0,L|78:125,1,107.999996704102,0|0,1:0|1:0,0:0:0:0:
256,243,59688,2,0,P|300:198|313:146,1,107.999996704102,8|0,0:0|0:0,0:0:0:0:
267,33,59945,5,0,1:0:0:0:
267,33,60073,1,0,0:0:0:0:
186,135,60201,2,0,L|170:254,1,107.999996704102,8|0,0:0|0:0,0:0:0:0:
141,13,60457,1,0,1:0:0:0:
141,13,60585,1,0,0:0:0:0:
312,155,60713,2,0,L|296:274,1,107.999996704102,8|0,0:0|0:0,0:0:0:0:
197,344,60970,6,0,P|173:295|173:237,1,107.999996704102,0|0,1:0|0:0,0:0:0:0:
398,180,61227,2,0,P|422:229|422:287,1,107.999996704102,8|0,0:0|0:0,0:0:0:0:
324,363,61483,2,0,L|275:175,1,161.999995056153,0|0,1:0|0:0,0:0:0:0:
289,151,61740,2,0,P|251:196|191:216,1,107.999996704102,8|0,0:0|0:0,0:0:0:0:
100,219,61996,6,0,P|94:165|75:115,1,107.999996704102,0|0,1:0|0:0,0:0:0:0:
283,206,62252,2,0,P|263:256|258:309,1,107.999996704102,8|0,0:0|0:0,0:0:0:0:
172,106,62509,2,0,P|227:82|262:45,1,107.999996704102,0|0,1:0|0:0,0:0:0:0:
381,242,62765,2,0,P|326:210|273:206,1,107.999996704102,8|0,0:0|0:0,0:0:0:0:
141,253,63022,6,0,P|167:309|176:370,1,107.999996704102,0|0,1:0|0:0,0:0:0:0:
40,166,63278,2,0,P|80:130|137:116,1,107.999996704102,8|0,0:0|0:0,0:0:0:0:
229,307,63534,2,0,P|177:290|137:247,1,107.999996704102,0|0,1:0|0:0,0:0:0:0:
254,67,63791,2,0,P|265:119|248:176,1,107.999996704102,8|0,0:0|0:0,0:0:0:0:
40,166,64047,6,0,L|190:169,1,107.999996704102,0|0,1:0|0:0,0:0:0:0:
43,58,64304,1,8,0:0:0:0:
38,269,64432,1,0,0:0:0:0:
148,169,64560,2,0,L|151:55,1,107.999996704102,8|0,0:0|0:0,0:0:0:0:
40,166,64816,1,8,0:0:0:0:
251,171,64945,1,0,0:0:0:0:
38,269,65073,5,8,0:0:0:0:
151,61,65201,1,0,0:0:0:0:
249,274,65329,1,8,0:0:0:0:
40,166,65457,1,0,0:0:0:0:
254,63,65586,5,8,0:0:0:0:
251,171,65714,1,0,0:0:0:0:
249,274,65842,1,0,0:0:0:0:
249,274,66099,6,0,P|328:267|387:313,1,135,4|0,1:2|0:0,0:0:0:0:
401,329,66355,2,0,P|388:270|391:228,1,90,8|0,0:0|0:0,0:0:0:0:
284,171,66611,1,0,1:0:0:0:
300,348,66740,1,0,1:0:0:0:
389,240,66868,1,8,0:0:0:0:
249,274,66996,6,0,L|146:266,1,90,0|0,0:0|0:0,0:0:0:0:
397,232,67252,1,0,0:0:0:0:
257,266,67381,2,0,L|154:258,1,90,8|0,0:0|0:0,0:0:0:0:
405,224,67637,1,0,1:0:0:0:
265,258,67765,1,0,1:0:0:0:
413,216,67893,2,0,L|516:208,1,90,8|0,0:0|0:0,0:0:0:0:
293,173,68150,6,0,P|269:229|263:276,1,90,0|0,1:0|0:0,0:0:0:0:
471,283,68406,2,0,P|434:234|396:205,1,90,8|0,0:0|0:0,0:0:0:0:
264,257,68663,1,0,1:0:0:0:
284,380,68791,1,0,1:0:0:0:
379,301,68919,1,8,0:0:0:0:
264,257,69047,6,0,P|207:235|96:280,1,180,0|0,1:0|0:0,0:0:0:0:
131,169,69432,2,0,P|185:159|231:164,1,90,8|0,0:0|0:0,0:0:0:0:
284,380,69688,2,0,P|239:382|195:372,1,90,0|0,1:0|0:0,0:0:0:0:
264,257,69945,2,0,P|318:266|359:286,1,90,8|0,0:0|0:0,0:0:0:0:
491,364,70201,6,0,P|456:313|467:224,1,135,0|0,1:0|0:0,0:0:0:0:
481,203,70457,2,0,P|491:139|486:105,1,90,8|0,0:0|0:0,0:0:0:0:
349,280,70714,1,0,1:0:0:0:
395,97,70842,2,0,P|344:56|312:43,1,90,0|8,1:0|0:0,0:0:0:0:
168,225,71099,6,0,P|236:220|306:125,1,180,0|0,1:0|1:0,0:0:0:0:
190,32,71483,2,0,L|200:145,1,90,8|0,0:0|0:0,0:0:0:0:
168,225,71740,1,0,1:0:0:0:
93,146,71868,1,0,1:0:0:0:
28,302,71996,1,8,0:0:0:0:
8,193,72124,1,0,0:0:0:0:
28,302,72252,6,0,L|259:317,1,215.999993408203,8|0,0:0|0:0,0:0:0:0:
384,211,72637,2,0,L|153:226,1,215.999993408203,8|0,0:0|0:0,0:0:0:0:
36,310,73022,2,0,L|228:322,1,161.999995056153,8|0,0:0|0:0,0:0:0:0:
302,339,73278,6,0,L|294:212,2,120,2|2|2,0:0|0:0|0:0,0:0:0:0:
169,225,73791,2,0,L|177:99,2,120,8|8|8,0:0|0:0|0:0,0:0:0:0:
400,227,74304,5,4,0:0:0:0:
404,231,74688,1,0,0:0:0:0:
404,231,74816,2,0,L|398:150,1,67.5000025749208,8|0,0:0|0:0,0:0:0:0:
391,78,75073,1,0,1:0:0:0:
391,78,75329,6,0,L|312:71,1,67.5000025749208,0|0,0:0|0:0,0:0:0:0:
259,21,75586,2,0,P|284:50|300:151,1,135.000005149842,0|8,1:0|0:0,0:0:0:0:
225,168,75970,2,0,P|200:139|184:38,1,135.000005149842,0|0,1:0|0:0,0:0:0:0:
259,21,76355,6,0,L|410:31,1,135.000005149842,0|0,1:0|0:0,0:0:0:0:
475,34,76740,1,0,1:0:0:0:
500,110,76868,2,0,P|484:137|479:190,1,67.5000025749208,8|0,0:0|0:0,0:0:0:0:
426,235,77124,2,0,P|442:262|447:315,1,67.5000025749208,0|0,1:0|0:0,0:0:0:0:
394,358,77381,6,0,L|320:349,1,67.5000025749208,0|0,0:0|0:0,0:0:0:0:
246,355,77637,2,0,P|255:312|219:215,1,135.000005149842,0|8,1:0|0:0,0:0:0:0:
148,237,78022,2,0,P|139:280|175:377,1,135.000005149842,0|0,1:0|0:0,0:0:0:0:
246,355,78406,6,0,L|318:351,2,67.5000025749208,0|0|0,1:0|0:0|0:0,0:0:0:0:
165,365,78791,1,0,1:0:0:0:
165,365,78919,2,0,P|144:322|139:290,1,67.5000025749208,8|0,0:0|0:0,0:0:0:0:
151,222,79175,1,0,1:0:0:0:
151,222,79304,6,0,P|166:170|158:75,1,135.000005149842,0|0,0:0|0:0,0:0:0:0:
241,106,79688,2,0,P|243:150|240:189,1,67.5000025749208,0|0,1:0|0:0,0:0:0:0:
323,177,79945,2,0,P|325:133|322:94,1,67.5000025749208,8|0,0:0|0:0,0:0:0:0:
404,106,80201,2,0,P|406:150|403:189,1,67.5000025749208,0|0,0:0|0:0,0:0:0:0:
370,246,80457,5,0,1:0:0:0:
370,246,80586,1,0,0:0:0:0:
370,246,80714,2,0,P|368:290|371:329,1,67.5000025749208,0|0,0:0|1:0,0:0:0:0:
316,374,80970,1,8,0:0:0:0:
316,374,81099,1,0,1:0:0:0:
279,301,81227,1,0,1:0:0:0:
226,362,81355,6,0,L|154:367,1,67.5000025749208,0|0,0:0|0:0,0:0:0:0:
189,289,81611,2,0,L|117:294,1,67.5000025749208,0|2,0:0|0:0,0:0:0:0:
152,216,81868,2,0,L|80:221,1,67.5000025749208,0|8,0:0|0:0,0:0:0:0:
47,147,82124,2,0,L|200:137,1,135.000005149842,0|0,1:0|0:0,0:0:0:0:
263,136,82509,5,4,1:2:0:0:
263,136,83534,6,0,L|332:129,2,45.0000017166138,0|8|0,1:0|0:0|1:0,0:0:0:0:
378,210,83791,2,0,L|333:205,2,45.0000017166138,8|0|8,0:0|1:0|0:0,0:0:0:0:
263,283,84047,2,0,L|332:276,2,45.0000017166138,0|0|0,0:0|0:0|0:0,0:0:0:0:
378,357,84304,2,0,L|333:352,2,45.0000017166138,0|0|0,0:0|0:0|0:0,0:0:0:0:
498,369,84560,6,0,P|502:332|490:274,1,90,4|0,1:2|0:0,0:0:0:0:
493,163,84816,2,0,P|456:159|398:171,1,90,8|0,0:0|0:0,0:0:0:0:
286,160,85073,2,0,P|276:203|280:248,1,90,0|0,1:0|1:0,0:0:0:0:
333,352,85329,1,8,0:0:0:0:
218,328,85457,6,0,L|119:322,1,90,0|0,1:0|0:0,0:0:0:0:
15,357,85714,1,0,1:0:0:0:
110,235,85842,2,0,P|125:289|129:331,1,90,8|0,0:0|0:0,0:0:0:0:
4,211,86099,1,0,1:0:0:0:
80,132,86227,1,0,1:0:0:0:
110,235,86355,1,8,0:0:0:0:
4,211,86484,1,0,0:0:0:0:
80,132,86611,6,0,L|196:123,1,90,0|0,1:0|0:0,0:0:0:0:
110,235,86868,2,0,L|226:244,1,90,8|0,0:0|0:0,0:0:0:0:
140,338,87124,2,0,L|256:329,1,90,0|0,1:0|1:0,0:0:0:0:
338,321,87381,1,8,0:0:0:0:
199,241,87509,6,0,P|258:205|281:89,1,180,0|0,1:0|1:0,0:0:0:0:
361,177,87893,2,0,P|341:228|313:264,1,90,8|0,0:0|0:0,0:0:0:0:
161,168,88150,2,0,P|181:117|209:81,1,90,0|0,1:0|1:0,0:0:0:0:
402,97,88406,2,0,P|382:148|354:184,1,90,8|0,0:0|0:0,0:0:0:0:
231,260,88663,6,0,P|285:251|330:258,1,90,0|0,1:0|0:0,0:0:0:0:
456,324,88919,2,0,P|421:281|404:238,1,90,8|0,0:0|0:0,0:0:0:0:
402,97,89175,2,0,P|436:139|453:182,1,90,0|0,1:0|0:0,0:0:0:0:
291,341,89432,2,0,P|295:296|310:254,1,90,8|0,0:0|0:0,0:0:0:0:
307,102,89688,6,0,P|266:120|221:128,1,90,0|0,0:0|0:0,0:0:0:0:
96,217,89945,2,0,P|132:243|161:277,1,90,8|0,0:0|0:0,0:0:0:0:
291,341,90201,1,8,0:0:0:0:
274,180,90329,1,8,0:0:0:0:
377,353,90457,1,0,0:3:0:0:
360,193,90585,1,0,0:0:0:0:
464,366,90714,5,4,1:2:0:0:
464,366,91227,1,0,1:0:0:0:
464,366,91740,1,0,1:0:0:0:
464,366,92252,2,0,L|335:356,1,107.999996704102,0|0,1:2|0:0,0:0:0:0:
194,365,92765,2,0,P|221:322|106:267,2,215.999993408203,0|0|0,1:0|1:0|1:0,0:0:0:0:
194,365,94047,5,8,0:0:0:0:
115,344,94175,1,8,0:0:0:0:
111,261,94304,2,0,L|118:191,1,53.9999983520508,0|0,1:0|0:0,0:0:0:0:
205,358,94560,5,8,0:0:0:0:
126,337,94688,1,0,0:0:0:0:
122,254,94817,2,0,L|139:97,1,135.000005149842,4|0,1:2|0:0,0:0:0:0:
284,379,95329,2,0,L|275:300,1,67.5000025749208,0|0,1:0|0:0,0:0:0:0:
267,230,95586,1,8,0:0:0:0:
267,230,95842,6,0,P|311:209|260:146,2,135.000005149842,0|0|8,1:0|0:0|1:2,0:0:0:0:
182,238,96483,1,0,0:0:0:0:
154,156,96611,1,0,0:0:0:0:
213,92,96740,1,0,0:0:0:0:
98,221,96868,5,8,0:0:0:0:
267,230,96996,1,0,0:0:0:0:
154,156,97124,1,8,0:0:0:0:
231,308,97252,1,0,0:0:0:0:
213,92,97381,1,8,0:0:0:0:
182,238,97509,1,0,0:0:0:0:
303,152,97637,2,0,L|423:143,1,90,8|0,0:0|0:0,0:0:0:0:
471,188,97893,6,0,L|480:308,1,90,0|8,1:0|0:0,0:0:0:0:
467,98,98150,1,8,1:2:0:0:
395,235,98278,1,8,0:0:0:0:
388,55,98406,5,8,0:0:0:0:
471,188,98534,1,8,0:0:0:0:
313,103,98663,1,8,0:0:0:0:
467,98,98791,1,8,0:0:0:0:
317,193,98919,6,0,P|270:213|206:217,1,107.999996704102,4|0,1:2|0:0,0:0:0:0:
112,149,99175,2,0,P|153:115|205:107,1,107.999996704102,8|0,0:0|0:0,0:0:0:0:
302,281,99432,2,0,P|257:318|203:326,1,107.999996704102,0|0,1:0|1:0,0:0:0:0:
13,209,99688,2,0,P|65:219|105:254,1,107.999996704102,8|0,0:0|0:0,0:0:0:0:
0,362,99945,5,0,1:0:0:0:
13,209,100073,1,0,0:0:0:0:
101,332,100201,2,0,L|223:325,1,107.999996704102,8|0,0:0|0:0,0:0:0:0:
233,161,100457,2,0,L|111:154,1,107.999996704102,0|0,1:0|1:0,0:0:0:0:
307,274,100714,2,0,L|429:267,1,107.999996704102,8|0,0:0|0:0,0:0:0:0:
491,145,100970,6,0,P|436:129|372:40,1,161.999995056153,0|0,1:0|0:0,0:0:0:0:
321,32,101227,2,0,L|333:161,1,107.999996704102,8|0,0:0|0:0,0:0:0:0:
484,153,101483,2,0,P|429:137|365:48,1,161.999995056153,0|0,1:0|0:0,0:0:0:0:
314,40,101740,2,0,L|326:169,1,107.999996704102,8|0,0:0|0:0,0:0:0:0:
431,264,101996,6,0,P|378:246|320:233,1,107.999996704102,0|0,1:0|0:0,0:0:0:0:
137,151,102252,2,0,P|189:138|240:121,1,107.999996704102,8|0,0:0|0:0,0:0:0:0:
232,244,102509,2,0,P|181:284|137:373,1,161.999995056153,0|0,1:0|0:0,0:0:0:0:
96,334,102765,2,0,P|89:264|68:225,1,107.999996704102,8|0,0:0|0:0,0:0:0:0:
36,120,103022,6,0,P|100:148|144:150,1,107.999996704102,0|0,1:0|0:0,0:0:0:0:
253,174,103278,2,0,P|195:215|172:252,1,107.999996704102,8|0,0:0|0:0,0:0:0:0:
271,377,103534,2,0,L|265:257,1,107.999996704102,0|0,1:0|1:0,0:0:0:0:
175,245,103791,1,8,0:0:0:0:
347,304,103919,6,0,L|339:154,1,107.999996704102,0|0,0:0|1:0,0:0:0:0:
253,174,104175,1,0,0:0:0:0:
423,231,104304,2,0,L|417:123,1,107.999996704102,8|0,0:0|0:0,0:0:0:0:
258,66,104560,2,0,L|252:173,1,107.999996704102,0|0,1:0|1:0,0:0:0:0:
347,304,104816,1,8,0:0:0:0:
234,286,104945,6,0,P|171:259|124:257,1,107.999996704102,0|0,1:0|0:0,0:0:0:0:
252,173,105201,1,0,1:0:0:0:
347,304,105329,2,0,L|367:180,1,107.999996704102,8|0,0:0|0:0,0:0:0:0:
235,67,105586,2,0,L|255:191,1,107.999996704102,0|0,1:0|1:0,0:0:0:0:
234,286,105842,1,8,0:0:0:0:
314,104,105970,6,0,L|350:330,1,202.500007724762,0|0,1:0|0:0,0:0:0:0:
234,286,106227,2,0,P|269:219|405:209,1,202.500007724762,0|0,1:0|0:0,0:0:0:0:
346,303,106483,2,0,P|285:249|306:119,1,202.500007724762,0|0,1:0|0:0,0:0:0:0:
344,81,106740,5,8,0:0:0:0:
494,259,106868,1,8,0:0:0:0:
456,30,106996,1,8,0:0:0:0:
292,135,107124,6,0,L|177:144,1,107.999996704102,4|0,1:2|0:0,0:0:0:0:
42,278,107381,2,0,L|149:286,1,107.999996704102,8|0,0:0|0:0,0:0:0:0:
304,348,107637,2,0,P|267:299|260:238,1,107.999996704102,0|0,1:0|1:0,0:0:0:0:
184,143,107893,1,8,0:0:0:0:
149,286,108022,1,0,0:0:0:0:
291,155,108150,6,0,L|173:141,1,107.999996704102,0|0,1:0|0:0,0:0:0:0:
365,241,108406,2,0,L|247:255,1,107.999996704102,8|0,0:0|0:0,0:0:0:0:
430,338,108663,2,0,L|312:324,1,107.999996704102,0|0,1:0|1:0,0:0:0:0:
164,280,108919,2,0,P|201:324|220:389,1,107.999996704102,8|0,0:0|0:0,0:0:0:0:
19,334,109175,6,0,L|33:211,1,107.999996704102,0|0,1:0|0:0,0:0:0:0:
164,280,109432,1,8,0:0:0:0:
164,280,109560,1,0,0:0:0:0:
143,141,109688,2,0,L|129:18,1,107.999996704102,0|0,1:0|0:0,0:0:0:0:
31,226,109945,1,8,0:0:0:0:
31,226,110073,1,0,0:0:0:0:
164,280,110201,6,0,P|232:300|272:299,1,107.999996704102,0|0,1:0|0:0,0:0:0:0:
143,141,110457,1,8,0:0:0:0:
31,226,110586,1,0,0:0:0:0:
164,280,110714,2,0,P|198:239|213:167,1,107.999996704102,0|0,1:0|1:0,0:0:0:0:
90,32,110970,2,0,P|56:73|41:145,1,107.999996704102,8|0,0:0|0:0,0:0:0:0:
1,323,111227,6,0,P|41:271|135:238,1,161.999995056153,0|0,1:0|0:0,0:0:0:0:
164,280,111483,2,0,P|223:307|284:305,1,107.999996704102,8|0,0:0|0:0,0:0:0:0:
401,354,111740,2,0,L|379:181,1,161.999995056153,0|0,1:0|0:0,0:0:0:0:
387,139,111996,2,0,P|323:188|280:197,1,107.999996704102,8|0,0:0|0:0,0:0:0:0:
171,172,112252,6,0,L|163:292,1,107.999996704102,0|0,1:0|0:0,0:0:0:0:
290,87,112509,2,0,L|298:207,1,107.999996704102,8|0,0:0|0:0,0:0:0:0:
92,39,112765,2,0,L|84:159,1,107.999996704102,0|0,1:0|0:0,0:0:0:0:
379,31,113022,2,0,L|387:151,1,107.999996704102,8|0,0:0|0:0,0:0:0:0:
291,272,113278,6,0,L|172:263,1,107.999996704102,0|0,1:0|0:0,0:0:0:0:
84,146,113534,1,8,0:0:0:0:
66,362,113663,1,0,0:0:0:0:
291,272,113791,2,0,L|300:153,1,107.999996704102,8|0,0:0|0:0,0:0:0:0:
75,254,114047,1,8,0:0:0:0:
282,380,114175,1,0,0:0:0:0:
299,164,114304,6,0,B|242:117|242:117|166:105,1,135,0|0,1:0|0:0,0:0:0:0:
75,254,114560,2,0,B|143:244|143:244|200:202,1,135,0|0,1:0|0:0,0:0:0:0:
291,172,114816,2,0,B|234:125|234:125|158:113,1,135,0|0,1:0|0:0,0:0:0:0:
67,262,115073,1,0,0:0:0:0:
67,262,115329,6,0,P|97:222|24:195,2,135.000005149842,0|0|0,0:0|0:0|0:0,0:0:0:0:
67,262,116099,2,0,L|63:331,1,67.5000025749208,0|0,0:0|0:0,0:0:0:0:
146,272,116355,2,0,L|142:341,1,67.5000025749208,0|0,0:0|0:0,0:0:0:0:
225,282,116611,1,0,0:0:0:0:
225,282,116868,2,0,L|221:351,1,67.5000025749208,0|0,0:0|0:0,0:0:0:0:
304,292,117124,2,0,L|300:361,1,67.5000025749208,0|0,0:0|0:0,0:0:0:0:
379,369,117381,6,0,L|382:301,1,67.5000025749208,0|0,0:0|0:0,0:0:0:0:
352,226,117637,1,8,0:0:0:0:
304,292,117765,1,0,0:0:0:0:
430,235,117893,1,8,0:0:0:0:
226,283,118022,1,0,0:0:0:0:
382,302,118150,1,8,0:0:0:0:
244,142,118278,1,0,0:0:0:0:
334,367,118406,5,8,0:0:0:0:
400,160,118534,1,8,0:0:0:0:
226,283,118663,1,8,0:0:0:0:
460,310,118791,1,8,0:0:0:0:
244,142,118919,1,2,1:2:0:0:
460,310,119432,6,0,L|357:300,1,90,4|0,2:0|0:0,0:0:0:0:
440,219,119688,2,0,L|337:229,1,90,8|0,0:0|0:0,0:0:0:0:
420,128,119945,2,0,L|317:118,1,90,0|0,1:0|1:0,0:0:0:0:
220,54,120201,1,8,0:0:0:0:
399,36,120329,6,0,L|202:55,1,180,0|0,0:0|1:0,0:0:0:0:
256,155,120714,2,0,L|166:146,1,90,8|0,0:0|0:0,0:0:0:0:
276,246,120971,2,0,L|186:254,1,90,0|0,1:0|1:0,0:0:0:0:
296,337,121227,2,0,L|206:328,1,90,8|0,0:0|0:0,0:0:0:0:
96,295,121483,6,0,P|117:347|122:393,1,90,0|0,1:0|0:0,0:0:0:0:
46,164,121740,2,0,P|25:216|20:262,1,90,8|0,0:0|0:0,0:0:0:0:
167,239,121996,1,0,1:0:0:0:
134,155,122124,1,0,1:0:0:0:
134,155,122252,1,8,0:0:0:0:
96,295,122381,6,0,P|144:327|252:273,1,180,0|0,1:0|1:0,0:0:0:0:
273,194,122765,2,0,P|211:197|179:221,1,90,8|0,0:0|0:0,0:0:0:0:
311,350,123022,2,0,P|339:294|334:255,1,90,0|0,1:0|1:0,0:0:0:0:
280,104,123278,2,0,L|271:218,1,90,8|0,0:0|0:0,0:0:0:0:
151,219,123534,6,0,P|202:185|279:197,1,135,0|0,1:0|0:0,0:0:0:0:
313,213,123791,2,0,L|406:226,1,90,8|0,0:0|0:0,0:0:0:0:
280,104,124047,1,0,1:0:0:0:
247,282,124175,2,0,L|340:295,1,90,0|8,1:0|0:0,0:0:0:0:
469,353,124432,6,0,P|439:299|493:196,1,180,0|0,1:0|1:0,0:0:0:0:
487,59,124816,2,0,P|435:69|381:74,1,90,8|0,0:0|0:0,0:0:0:0:
296,35,125073,1,0,1:0:0:0:
309,231,125201,2,0,L|315:124,1,90,0|8,1:0|0:0,0:0:0:0:
398,72,125457,1,0,0:0:0:0:
212,104,125586,6,0,P|141:97|77:39,1,135,0|0,1:0|0:0,0:0:0:0:
46,29,125842,2,0,L|38:138,1,90,8|0,0:0|0:0,0:0:0:0:
101,224,126099,1,0,1:0:0:0:
212,104,126227,2,0,L|220:213,1,90,0|8,1:0|0:0,0:0:0:0:
184,305,126483,5,0,1:0:0:0:
46,29,126740,1,0,1:0:0:0:
371,29,126996,2,0,L|387:185,1,135,0|0,1:0|0:0,0:0:0:0:
367,204,127252,5,8,0:0:0:0:
471,20,127381,1,8,0:0:0:0:
288,113,127509,1,8,0:0:0:0:
480,213,127637,6,0,L|473:316,1,90,4|0,1:2|0:0,0:0:0:0:
473,105,127893,1,12,0:0:0:0:
384,163,128022,2,0,L|377:266,1,90,0|0,0:0|1:0,0:0:0:0:
380,56,128278,1,0,1:0:0:0:
281,202,128406,1,8,0:0:0:0:
288,113,128534,2,0,L|294:23,1,90,0|0,1:0|0:0,0:0:0:0:
192,63,128791,1,0,0:0:0:0:
192,63,128919,2,0,L|199:166,1,90,8|0,0:0|0:0,0:0:0:0:
275,292,129175,2,0,P|236:258|146:247,1,135,0|0,1:0|0:0,0:0:0:0:
115,265,129432,2,0,P|48:288|14:282,1,90,8|0,0:0|0:0,0:0:0:0:
108,146,129688,6,0,L|227:154,1,90,0|0,1:0|0:0,0:0:0:0:
272,102,129945,1,8,0:0:0:0:
102,56,130073,2,0,L|221:64,1,90,0|0,0:0|1:0,0:0:0:0:
266,12,130329,1,0,0:0:0:0:
197,152,130457,2,0,P|179:206|179:248,1,90,8|0,0:0|1:0,0:0:0:0:
272,102,130714,5,0,0:0:0:0:
191,62,130842,1,0,1:0:0:0:
278,192,130970,2,0,L|375:186,1,90,8|0,0:0|0:0,0:0:0:0:
116,112,131227,2,0,L|19:106,1,90,0|0,1:0|1:0,0:0:0:0:
88,244,131483,2,0,L|185:238,1,90,8|0,0:0|0:0,0:0:0:0:
361,107,131740,6,0,L|264:101,1,90,0|0,1:2|0:0,0:0:0:0:
278,192,131996,1,8,0:0:0:0:
451,113,132124,2,0,L|354:107,1,90,0|0,0:0|1:0,0:0:0:0:
264,10,132381,1,0,1:0:0:0:
181,95,132509,2,0,L|278:101,1,90,8|0,0:0|1:0,0:0:0:0:
342,46,132765,6,0,P|301:16|251:11,1,90,0|0,0:0|1:0,0:0:0:0:
278,192,133022,2,0,P|324:171|353:130,1,90,8|0,0:0|0:0,0:0:0:0:
181,95,133278,2,0,L|174:199,1,90,0|0,1:0|1:0,0:0:0:0:
284,282,133534,2,0,L|277:178,1,90,8|0,0:0|0:0,0:0:0:0:
192,307,133791,6,0,P|219:353|306:375,1,135,0|0,1:0|0:0,0:0:0:0:
336,364,134047,1,8,0:0:0:0:
277,192,134175,6,0,L|63:214,1,202.500007724762,0|0,1:0|0:0,0:0:0:0:
111,116,134432,2,0,P|176:188|150:283,1,202.500007724762,0|0,1:0|0:0,0:0:0:0:
75,212,134688,2,0,P|167:180|249:248,1,202.500007724762,0|0,1:0|0:0,0:0:0:0:
257,281,134945,5,8,0:0:0:0:
75,212,135073,1,8,0:0:0:0:
244,238,135201,1,8,0:0:0:0:
99,354,135329,2,0,L|4:363,2,90,8|8|8,0:0|0:0|0:0,0:0:0:0:
99,354,135842,5,4,1:2:0:0:
53,283,136013,1,0,0:0:0:0:
63,193,136184,1,0,0:0:0:0:
133,136,136355,2,0,L|228:130,2,90.0000034332277,0|0|2,1:0|0:0|0:0,0:0:0:0:
63,193,136868,5,0,1:0:0:0:
145,229,137039,1,0,0:0:0:0:
234,223,137210,1,8,0:3:0:0:
304,166,137381,2,0,L|308:72,2,90.0000034332277,4|0|0,0:0|0:0|1:0,0:0:0:0:
318,254,137893,5,6,1:3:0:0:
234,223,138064,1,2,0:0:0:0:
194,303,138235,1,0,1:0:0:0:
110,272,138406,2,0,L|8:263,2,90.0000034332277,0|0|2,1:0|0:0|0:0,0:0:0:0:
150,192,138919,5,0,1:0:0:0:
234,223,139090,1,2,0:0:0:0:
274,143,139261,1,8,0:3:0:0:
190,112,139432,5,4,0:0:0:0:
150,192,139603,1,0,0:0:0:0:
110,272,139774,1,0,1:0:0:0:
200,269,139945,6,0,L|299:264,2,90.0000034332277,6|2|0,1:3|0:3|1:0,0:0:0:0:
150,192,140457,1,0,1:0:0:0:
190,112,140628,1,0,0:0:0:0:
274,143,140799,1,8,0:0:0:0:
314,63,140970,6,0,L|419:57,2,90.0000034332277,0|2|0,1:0|0:0|1:0,0:0:0:0:
274,143,141483,1,8,0:0:0:0:
339,205,141654,1,0,0:0:0:0:
299,285,141825,1,2,0:0:0:0:
234,223,141996,6,0,L|129:217,2,90.0000034332277,0|2|0,1:0|0:0|1:0,0:0:0:0:
274,143,142509,2,0,L|379:137,2,90.0000034332277,0|2|2,1:0|0:0|0:0,0:0:0:0:
201,88,143022,2,0,L|96:82,1,90.0000034332277,2|2,0:3|0:0,0:0:0:0:
21,80,143363,1,2,0:0:0:0:
66,157,143534,2,0,L|171:163,1,90.0000034332277,2|2,0:3|0:0,0:0:0:0:
245,168,143875,1,2,0:0:0:0:
194,243,144047,6,0,L|104:237,2,90.0000034332277,4|0|0,1:3|0:0|1:0,0:0:0:0:
245,168,144560,2,0,P|282:220|226:328,1,180.000006866455,0|8,1:0|0:0,0:0:0:0:
152,322,145073,5,0,1:0:0:0:
194,243,145244,1,0,0:0:0:0:
104,237,145415,1,8,0:3:0:0:
152,322,145586,2,0,L|357:317,1,180.000006866455,4|0,0:0|1:0,0:0:0:0:
284,240,146099,6,0,L|194:242,2,90.0000034332277,4|0|2,1:3|0:0|0:0,0:0:0:0:
331,317,146611,2,0,P|368:271|326:160,1,180.000006866455,0|8,1:0|0:0,0:0:0:0:
243,161,147124,5,0,1:0:0:0:
284,240,147295,1,0,0:0:0:0:
194,242,147466,1,8,0:0:0:0:
243,161,147637,5,8,0:0:0:0:
334,165,147808,1,8,0:0:0:0:
423,168,147979,1,8,0:0:0:0:
382,87,148150,5,4,0:2:0:0:
91,145,150201,6,0,P|136:121|27:94,1,270.000010299683,4|4,1:2|1:2,0:0:0:0:
421,145,151227,2,0,P|376:121|485:94,1,270.000010299683,4|4,1:2|1:2,0:0:0:0:
256,352,152252,2,0,L|256:64,2,270.000010299683,4|0|0,1:1|0:0|0:0,0:0:0:0:
256,352,153791,1,0,0:0:0:0:
256,217,154047,1,0,0:0:0:0:
256,82,154304,6,0,L|256:352,2,270.000010299683,0|0|0,0:0|0:0|0:0,0:0:0:0:
193,30,155500,1,0,0:0:0:0:
111,33,155671,1,0,0:0:0:0:
43,78,155842,1,0,0:0:0:0:
43,78,156184,5,0,0:0:0:0:
84,147,156355,1,0,0:0:0:0:
256,192,156419,12,0,158150,0:0:0:0:
209,259,158406,5,0,0:0:0:0:
209,259,158534,1,0,0:0:0:0:
238,111,158663,1,0,0:0:0:0:
238,111,158791,1,0,0:0:0:0:
150,170,158919,5,0,1:0:0:0:
150,170,159047,1,0,0:0:0:0:
296,200,159176,1,0,1:0:0:0:
296,200,159304,1,0,0:0:0:0:
160,90,159432,5,0,1:0:0:0:
209,259,159560,1,8,0:0:0:0:
318,122,159689,1,0,1:0:0:0:
111,162,159816,1,8,0:0:0:0:
298,299,159945,5,0,1:0:0:0:
245,73,160073,1,8,0:0:0:0:
109,262,160202,1,0,1:0:0:0:
334,207,160329,1,8,0:0:0:0:
146,72,160457,5,4,1:1:0:0:
192,318,160586,2,0,L|310:297,1,107.999996704102,0|8,0:0|0:0,0:0:0:0:
74,155,160842,1,4,1:1:0:0:
486,357,161099,1,4,1:1:0:0:
256,0,161355,1,8,1:2:0:0:
191,62,161483,6,0,L|201:131,2,60,8|8|8,0:0|0:3|0:3,0:0:0:0:
276,88,161740,2,0,L|266:157,2,60,8|8|8,0:3|0:3|0:3,0:0:0:0:
341,26,161996,1,4,0:0:0:0:
341,26,162509,6,0,L|481:14,2,120,0|0|0,1:0|1:0|1:0,0:0:0:0:
276,88,163022,2,0,P|352:33|288:125,1,315,8|0,0:0|0:0,0:0:0:0:
410,204,163534,6,0,P|452:162|469:108,1,107.999996704102,4|0,1:2|0:0,0:0:0:0:
298,135,163791,2,0,L|292:264,1,107.999996704102,8|0,0:0|0:0,0:0:0:0:
422,306,164047,1,0,1:0:0:0:
422,306,164175,1,0,1:0:0:0:
278,344,164304,2,0,L|168:330,1,107.999996704102,8|0,0:0|0:0,0:0:0:0:
53,197,164560,5,0,1:0:0:0:
45,326,164688,1,0,0:0:0:0:
178,201,164816,2,0,L|285:214,1,107.999996704102,8|0,0:0|0:0,0:0:0:0:
99,104,165073,2,0,P|61:151|54:212,1,107.999996704102,0|0,1:0|1:0,0:0:0:0:
238,307,165329,2,0,P|276:260|283:199,1,107.999996704102,8|0,0:0|0:0,0:0:0:0:
218,42,165586,6,0,B|278:62|278:62|316:44|316:44|373:55,1,161.999995056153,0|0,1:0|0:0,0:0:0:0:
424,44,165842,2,0,P|381:100|370:159,1,107.999996704102,8|0,0:0|0:0,0:0:0:0:
226,50,166099,2,0,B|286:70|286:70|324:52|324:52|381:63,1,161.999995056153,0|0,1:0|0:0,0:0:0:0:
432,52,166355,2,0,P|389:108|378:167,1,107.999996704102,8|0,0:0|0:0,0:0:0:0:
402,257,166611,5,0,1:0:0:0:
402,257,166740,1,0,0:0:0:0:
288,199,166868,2,0,L|162:191,1,107.999996704102,8|0,0:0|0:0,0:0:0:0:
263,350,167124,2,0,P|291:303|281:186,1,161.999995056153,0|0,1:0|0:0,0:0:0:0:
272,145,167381,2,0,P|333:169|392:167,1,107.999996704102,8|0,0:0|0:0,0:0:0:0:
188,89,167637,6,0,P|169:156|185:203,1,107.999996704102,0|0,1:0|0:0,0:0:0:0:
338,73,167893,1,8,0:0:0:0:
338,73,168022,1,0,0:0:0:0:
188,89,168150,2,0,L|66:94,1,107.999996704102,0|0,1:0|0:0,0:0:0:0:
328,89,168406,1,8,0:0:0:0:
178,105,168534,6,0,B|65:110|65:110|16:211,1,215.999993408203,0|0,1:0|1:0,0:0:0:0:
139,325,168919,2,0,L|126:217,1,107.999996704102,8|0,0:0|0:0,0:0:0:0:
26,354,169175,1,0,1:0:0:0:
26,354,169304,1,0,0:0:0:0:
216,310,169432,1,8,0:0:0:0:
20,202,169560,6,0,P|54:139|205:145,1,215.999993408203,0|0,1:0|1:0,0:0:0:0:
216,310,169945,2,0,L|231:186,1,107.999996704102,8|0,0:0|0:0,0:0:0:0:
259,22,170201,2,0,L|274:146,1,107.999996704102,0|0,0:0|0:0,0:0:0:0:
143,203,170457,1,8,0:0:0:0:
313,201,170586,6,0,B|358:162|350:113|350:113|376:159|445:159,1,202.500007724762,0|0,1:0|0:0,0:0:0:0:
304,282,170842,2,0,P|245:243|302:119,1,202.500007724762,0|0,1:0|0:0,0:0:0:0:
379,249,171099,2,0,P|371:330|263:354,1,202.500007724762,0|0,1:0|0:0,0:0:0:0:
313,201,171355,5,8,0:0:0:0:
481,318,171483,1,8,0:0:0:0:
267,353,171611,1,8,0:0:0:0:
436,158,171740,6,0,L|426:35,1,107.999996704102,4|0,1:2|0:0,0:0:0:0:
210,208,171996,2,0,L|200:331,1,107.999996704102,8|0,0:0|0:0,0:0:0:0:
300,102,172252,1,0,1:0:0:0:
300,102,172381,1,0,1:0:0:0:
304,301,172509,2,0,P|242:321|183:308,1,107.999996704102,8|0,0:0|0:0,0:0:0:0:
436,158,172765,6,0,L|450:338,1,161.999995056153,0|0,1:0|0:0,0:0:0:0:
416,363,173022,1,8,0:0:0:0:
352,177,173150,1,0,0:0:0:0:
200,315,173278,2,0,P|253:319|304:301,1,107.999996704102,0|0,1:0|0:0,0:0:0:0:
391,81,173534,2,0,P|337:76|287:95,1,107.999996704102,8|0,0:0|0:0,0:0:0:0:
179,187,173791,6,0,L|191:61,1,107.999996704102,0|0,1:0|0:0,0:0:0:0:
200,315,174047,1,8,0:0:0:0:
200,315,174175,1,0,0:0:0:0:
80,264,174304,2,0,L|92:138,1,107.999996704102,0|0,1:0|1:0,0:0:0:0:
214,323,174560,1,8,0:0:0:0:
214,323,174688,1,0,0:0:0:0:
179,187,174816,6,0,P|248:164|299:172,1,107.999996704102,0|0,1:0|0:0,0:0:0:0:
338,286,175073,1,8,0:0:0:0:
214,323,175201,1,0,0:0:0:0:
282,167,175329,2,0,P|332:127|444:154,1,161.999995056153,0|0,1:0|0:0,0:0:0:0:
433,191,175586,2,0,P|387:138|419:20,1,161.999995056153,8|0,0:0|0:0,0:0:0:0:
437,20,175842,5,0,1:0:0:0:
437,20,175970,1,0,0:0:0:0:
282,167,176099,2,0,L|160:156,1,107.999996704102,8|0,0:0|0:0,0:0:0:0:
313,56,176355,1,0,1:0:0:0:
313,56,176483,1,0,1:0:0:0:
339,254,176611,1,8,0:0:0:0:
339,254,176740,1,0,1:0:0:0:
174,157,176868,6,0,L|184:43,1,107.999996704102,0|0,0:0|1:0,0:0:0:0:
231,244,177124,1,8,0:0:0:0:
123,234,177252,1,0,0:0:0:0:
282,167,177381,1,0,1:0:0:0:
282,167,177509,1,0,1:0:0:0:
288,331,177637,1,8,0:0:0:0:
288,331,177765,1,0,1:0:0:0:
123,234,177893,6,0,L|133:120,1,107.999996704102,0|0,0:0|1:0,0:0:0:0:
231,244,178150,1,8,0:0:0:0:
180,321,178278,1,0,0:0:0:0:
123,234,178406,1,0,1:0:0:0:
288,331,178534,2,0,L|409:327,1,107.999996704102,12|0,0:2|1:0,0:0:0:0:
240,129,178791,6,0,L|119:125,1,107.999996704102,12|0,0:2|0:0,0:0:0:0:
363,217,179047,2,0,L|484:213,1,107.999996704102,8|0,0:2|0:0,0:0:0:0:
426,52,179304,2,0,P|358:91|390:238,1,215.999993408203,14|0,0:0|0:0,0:0:0:0:
259,35,179688,1,8,0:0:0:0:
437,151,179816,1,8,0:0:0:0:
264,283,179945,6,0,L|153:273,1,107.999996704102,4|0,1:2|0:0,0:0:0:0:
362,216,180201,2,0,P|389:271|383:324,1,107.999996704102,8|0,0:0|0:0,0:0:0:0:
256,163,180457,1,0,1:0:0:0:
354,96,180586,1,0,1:0:0:0:
264,283,180714,2,0,L|153:273,1,107.999996704102,8|0,0:0|0:0,0:0:0:0:
21,181,180970,6,0,P|82:161|121:129,1,107.999996704102,0|0,1:0|0:0,0:0:0:0:
249,55,181227,2,0,L|256:172,1,107.999996704102,8|0,0:0|0:0,0:0:0:0:
231,347,181483,1,0,1:0:0:0:
156,273,181611,1,0,1:0:0:0:
324,312,181740,2,0,L|331:195,1,107.999996704102,8|0,0:0|0:0,0:0:0:0:
426,49,181996,6,0,P|368:74|319:83,1,107.999996704102,0|0,1:0|0:0,0:0:0:0:
153,129,182252,2,0,P|205:140|254:162,1,107.999996704102,8|0,0:0|0:0,0:0:0:0:
324,312,182509,1,0,1:0:0:0:
324,82,182637,1,0,1:0:0:0:
174,223,182765,2,0,L|165:338,1,107.999996704102,8|0,0:0|0:0,0:0:0:0:
356,191,183022,6,0,P|305:167|245:163,1,107.999996704102,0|0,1:0|0:0,0:0:0:0:
20,102,183278,2,0,P|68:125|121:131,1,107.999996704102,8|0,0:0|0:0,0:0:0:0:
205,77,183534,1,0,1:0:0:0:
174,223,183663,1,0,1:0:0:0:
121,131,183791,1,8,0:0:0:0:
254,162,183919,1,0,0:0:0:0:
130,23,184047,6,0,L|120:130,1,107.999996704102,0|0,1:0|0:0,0:0:0:0:
63,321,184304,2,0,L|53:213,1,107.999996704102,8|0,0:0|0:0,0:0:0:0:
130,23,184560,1,0,1:0:0:0:
254,162,184688,1,0,1:0:0:0:
54,214,184816,2,0,L|42:82,1,107.999996704102,8|0,0:0|0:0,0:0:0:0:
145,260,185073,6,0,P|107:306|50:320,1,107.999996704102,0|0,1:0|0:0,0:0:0:0:
236,138,185329,2,0,P|305:151|349:180,1,107.999996704102,8|0,0:0|0:0,0:0:0:0:
287,329,185586,1,0,1:0:0:0:
145,260,185714,1,0,1:0:0:0:
236,138,185842,2,0,L|245:16,1,107.999996704102,8|0,0:0|0:0,0:0:0:0:
392,121,186099,6,0,P|324:145|226:134,1,161.999995056153,0|0,1:0|0:0,0:0:0:0:
177,126,186355,2,0,P|205:179|222:243,1,107.999996704102,8|0,0:0|0:0,0:0:0:0:
146,323,186611,1,0,1:0:0:0:
106,214,186740,1,0,1:0:0:0:
219,225,186868,2,0,P|278:259|333:256,1,107.999996704102,8|0,0:0|0:0,0:0:0:0:
479,238,187124,6,0,P|434:272|406:326,1,107.999996704102,0|0,1:0|0:0,0:0:0:0:
299,154,187381,2,0,P|298:99|262:42,1,107.999996704102,8|0,0:0|0:0,0:0:0:0:
219,225,187637,5,4,1:2:0:0:
404,132,187765,1,0,1:0:0:0:
205,125,187893,1,8,0:0:0:0:
390,32,188021,1,8,0:0:0:0:
325,241,188150,6,0,L|205:222,1,107.999996704102,4|0,1:2|0:0,0:0:0:0:
404,132,188406,2,0,P|449:195|461:238,1,107.999996704102,8|0,0:0|0:0,0:0:0:0:
346,375,188663,1,0,1:0:0:0:
479,357,188791,1,0,1:0:0:0:
325,241,188919,2,0,L|313:107,1,107.999996704102,8|0,0:0|0:0,0:0:0:0:
181,29,189175,6,0,L|169:163,1,107.999996704102,0|0,1:0|0:0,0:0:0:0:
240,286,189432,2,0,P|201:241|145:228,1,107.999996704102,8|0,0:0|0:0,0:0:0:0:
30,198,189688,1,0,1:0:0:0:
171,136,189816,1,0,1:0:0:0:
154,317,189945,2,0,L|33:325,1,107.999996704102,8|0,0:0|0:0,0:0:0:0:
254,177,190201,6,0,L|375:185,1,107.999996704102,0|0,1:0|0:0,0:0:0:0:
386,355,190457,2,0,L|265:363,1,107.999996704102,8|0,0:0|0:0,0:0:0:0:
361,184,190714,1,0,1:0:0:0:
476,356,190842,1,0,1:0:0:0:
499,187,190970,2,0,L|484:69,1,107.999996704102,8|0,0:0|0:0,0:0:0:0:
335,33,191227,6,0,P|393:68|508:76,1,161.999995056153,0|0,1:0|0:0,0:0:0:0:
442,116,191483,2,0,P|395:142|354:197,1,107.999996704102,8|0,0:0|0:0,0:0:0:0:
489,266,191740,1,0,1:0:0:0:
485,80,191868,1,0,1:0:0:0:
360,183,191996,2,0,L|372:308,1,107.999996704102,8|0,0:0|0:0,0:0:0:0:
363,64,192252,6,0,P|297:42|247:43,1,107.999996704102,0|0,1:0|0:0,0:0:0:0:
143,293,192509,2,0,P|196:289|246:270,1,107.999996704102,8|0,0:0|0:0,0:0:0:0:
133,136,192765,1,0,1:0:0:0:
96,299,192893,1,0,1:0:0:0:
278,202,193022,2,0,L|258:38,1,161.999995056153,8|0,0:0|0:0,0:0:0:0:
301,73,193278,6,0,P|348:106|408:118,1,107.999996704102,0|0,1:0|0:0,0:0:0:0:
490,219,193534,2,0,L|370:233,1,107.999996704102,8|0,0:0|1:0,0:0:0:0:
261,339,193791,1,0,1:0:0:0:
278,202,193919,1,0,0:0:0:0:
456,332,194047,2,0,L|336:346,1,107.999996704102,8|0,0:0|0:0,0:0:0:0:
161,219,194304,5,0,1:0:0:0:
161,219,194432,1,0,0:0:0:0:
441,321,194560,2,0,L|321:335,1,107.999996704102,12|0,0:0|0:0,0:0:0:0:
147,208,194816,5,0,0:0:0:0:
147,208,194944,1,0,0:0:0:0:
427,311,195072,2,0,L|307:325,1,107.999996704102,12|0,0:0|0:0,0:0:0:0:
261,69,195329,5,12,0:2:0:0:
245,362,195457,1,0,1:0:0:0:
425,126,195586,1,12,0:2:0:0:
147,208,195714,1,0,1:0:0:0:
427,311,195842,1,12,0:0:0:0:
255,50,195970,1,0,1:0:0:0:
237,380,196098,1,12,0:0:0:0:
440,114,196227,1,0,0:0:0:0:
315,174,196355,6,0,L|241:169,1,67.5000025749208,4|0,0:0|0:0,0:0:0:0:
192,84,196611,2,0,L|118:89,1,67.5000025749208,0|0,0:0|0:0,0:0:0:0:
82,181,196868,2,0,L|8:176,1,67.5000025749208,0|0,0:0|0:0,0:0:0:0:
124,88,197124,1,0,0:0:0:0:
176,174,197252,6,0,L|182:249,1,67.5000025749208,0|0,0:0|0:0,0:0:0:0:
88,284,197509,1,0,0:0:0:0:
88,284,197637,2,0,L|82:359,1,67.5000025749208,0|0,0:0|0:0,0:0:0:0:
180,375,197893,2,0,P|211:351|248:340,1,67.5000025749208,0|0,0:0|0:0,0:0:0:0:
311,272,198150,2,0,P|280:248|243:237,1,67.5000025749208,0|0,0:0|0:0,0:0:0:0:
176,174,198406,6,0,L|255:166,1,67.5000025749208,0|0,0:0|0:0,0:0:0:0:
291,77,198663,2,0,L|370:85,1,67.5000025749208,0|0,0:0|0:0,0:0:0:0:
403,173,198919,2,0,L|482:165,1,67.5000025749208,0|0,0:0|0:0,0:0:0:0:
358,83,199175,1,0,0:0:0:0:
321,178,199304,6,0,L|327:245,1,67.5000025749208,0|0,0:0|0:0,0:0:0:0:
245,303,199560,1,0,0:0:0:0:
245,303,199688,2,0,L|238:235,1,67.5000025749208,0|0,0:0|0:0,0:0:0:0:
146,192,199945,2,0,L|152:259,1,67.5000025749208,0|0,0:0|0:0,0:0:0:0:
70,317,200201,2,0,L|63:249,1,67.5000025749208,0|0,0:0|0:0,0:0:0:0:
15,160,200457,6,0,L|21:92,1,67.5000025749208,0|0,0:0|0:0,0:0:0:0:
82,11,200714,2,0,P|130:35|159:38,1,67.5000025749208,0|0,0:0|0:0,0:0:0:0:
195,123,200970,2,0,P|243:99|272:96,1,67.5000025749208,0|0,0:0|0:0,0:0:0:0:
356,80,201227,1,0,0:0:0:0:
356,80,201355,6,0,L|350:155,1,67.5000025749208,0|0,0:0|0:0,0:0:0:0:
445,112,201611,1,0,0:0:0:0:
445,112,201740,2,0,L|439:187,1,67.5000025749208,0|0,0:0|0:0,0:0:0:0:
451,280,201996,2,0,P|409:277|383:264,1,67.5000025749208,0|0,0:0|0:0,0:0:0:0:
291,231,202252,2,0,P|249:234|223:247,1,67.5000025749208,0|0,0:0|0:0,0:0:0:0:
383,333,202509,6,0,L|388:243,1,67.5000025749208,0|0,0:0|0:0,0:0:0:0:
287,298,202765,2,0,L|292:208,1,67.5000025749208,0|0,0:0|0:0,0:0:0:0:
190,262,203022,2,0,L|195:172,1,67.5000025749208,0|0,0:0|0:0,0:0:0:0:
95,222,203278,1,0,0:0:0:0:
95,222,203406,6,0,L|100:132,1,67.5000025749208,0|0,0:0|0:0,0:0:0:0:
176,25,203663,1,0,0:0:0:0:
176,25,203791,2,0,L|181:115,1,67.5000025749208,0|0,0:0|0:0,0:0:0:0:
193,194,204047,2,0,P|228:167|265:156,2,67.5000025749208,0|0|0,0:0|0:0|0:0,0:0:0:0:
275,253,204432,1,0,0:0:0:0:
275,253,204560,6,0,L|364:248,1,67.5000025749208,0|0,1:0|0:0,0:0:0:0:
414,114,204816,2,0,L|325:109,1,67.5000025749208,2|0,0:0|0:0,0:0:0:0:
204,149,205073,2,0,P|242:171|272:271,1,135.000005149842,8|10,0:0|0:0,0:0:0:0:
298,350,205457,6,0,P|298:306|369:230,1,135.000005149842,0|0,1:0|1:0,0:0:0:0:
461,321,205842,2,0,L|379:327,1,67.5000025749208,10|0,0:0|0:0,0:0:0:0:
419,232,206099,2,0,L|337:238,1,67.5000025749208,8|0,0:0|1:0,0:0:0:0:
374,145,206355,2,0,L|292:151,1,67.5000025749208,2|8,0:0|0:0,0:0:0:0:
165,129,206611,6,0,P|203:148|245:240,1,135.000005149842,0|2,1:0|0:0,0:0:0:0:
143,234,206996,1,0,0:0:0:0:
70,164,207124,2,0,L|79:83,1,67.5000025749208,8|0,0:0|0:0,0:0:0:0:
237,160,207381,1,10,0:0:0:0:
237,160,207509,6,0,L|246:241,1,67.5000025749208,0|0,1:0|0:0,0:0:0:0:
50,311,207765,1,0,1:0:0:0:
50,311,207893,2,0,L|59:230,1,67.5000025749208,10|0,0:0|0:0,0:0:0:0:
229,92,208150,2,0,L|238:173,1,67.5000025749208,8|0,0:0|1:0,0:0:0:0:
135,301,208406,2,0,L|144:220,1,67.5000025749208,2|8,0:0|0:0,0:0:0:0:
125,99,208663,6,0,P|174:149|253:155,1,135.000005149842,0|2,1:0|0:0,0:0:0:0:
314,94,209047,1,0,0:0:0:0:
329,193,209175,2,0,L|326:270,1,67.5000025749208,8|0,0:0|0:0,0:0:0:0:
235,158,209432,1,10,0:0:0:0:
235,158,209560,6,0,L|232:235,1,67.5000025749208,0|0,1:0|0:0,0:0:0:0:
144,114,209816,1,0,1:0:0:0:
144,114,209944,2,0,L|141:191,1,67.5000025749208,10|0,0:0|0:0,0:0:0:0:
57,234,210201,2,0,P|43:193|44:162,1,67.5000025749208,8|0,0:0|1:0,0:0:0:0:
145,282,210457,2,0,P|116:314|89:329,1,67.5000025749208,2|8,0:0|0:0,0:0:0:0:
140,181,210714,5,0,1:0:0:0:
140,181,210842,1,0,0:0:0:0:
140,181,210970,1,2,0:0:0:0:
140,181,211099,1,0,0:0:0:0:
232,225,211227,2,0,L|242:309,1,67.5000025749208,8|0,0:0|0:0,0:0:0:0:
224,124,211483,1,2,1:2:0:0:
316,168,211611,1,8,0:0:0:0:
307,66,211740,6,0,P|269:33|148:54,1,180,4|0,1:2|0:0,0:0:0:0:
388,95,212124,2,0,P|340:111|298:226,1,180,4|0,1:2|0:0,0:0:0:0:
437,23,212509,1,4,0:0:0:0:
