osu file format v14

[General]
AudioFilename: audio200.mp3
AudioLeadIn: 0
PreviewTime: 165522
Countdown: 0
SampleSet: Soft
StackLeniency: 0.7
Mode: 0
LetterboxInBreaks: 0
EpilepsyWarning: 1
WidescreenStoryboard: 1

[Editor]
DistanceSpacing: 3.3
BeatDivisor: 4
GridSize: 32
TimelineZoom: 4.900003

[Metadata]
Title:Sukisuki Zecchoushou
TitleUnicode:スキスキ絶頂症
Artist:Kano
ArtistUnicode:鹿乃
Creator:Loreley
Version:Lovesickness
Source:
Tags:GUMI vocaloid utaite cover Denpol-P koyori 電ポルP [panda619] 619 SnowNiNo_ Namki TheMefisto SherryCherry Allihoppa wajinshu nattu smau5
BeatmapID:1047758
BeatmapSetID:484532

[Difficulty]
HPDrainRate:6.1
CircleSize:4.1
OverallDifficulty:9.5
ApproachRate:9.7
SliderMultiplier:1.8
SliderTickRate:1

[Events]
//Background and Video events
0,0,"deep sea dream.jpg",0,0
//Break Periods
2,148350,149535
2,196555,202202
//Storyboard Layer 0 (Background)
//Storyboard Layer 1 (Fail)
//Storyboard Layer 2 (Pass)
//Storyboard Layer 3 (Foreground)
Sprite,Foreground,Centre,"sb\ring.png",320,240 M,0,16355,,89,294 F,0,16355,,1 C,0,16355,,255,255,255 S,7,16355,16855,0.25,0.9 F,0,16356,16856,1,0
Sprite,Foreground,Centre,"sb\ring.png",320,240 M,0,16483,,279,235 F,0,16483,,1 C,0,16483,,255,255,255 S,7,16483,16983,0.25,0.9 F,0,16484,16984,1,0
Sprite,Foreground,Centre,"sb\ring.png",320,240 M,0,16611,,208,403 F,0,16611,,1 C,0,16611,,255,255,255 S,7,16611,17111,0.25,0.9 F,0,16612,17112,1,0
Sprite,Foreground,Centre,"sb\ring.png",320,240 M,0,16740,,142,153 F,0,16740,,1 C,0,16740,,255,255,255 S,7,16740,17240,0.25,0.9 F,0,16741,17241,1,0
Sprite,Foreground,Centre,"sb\ring.png",320,240 M,0,16868,,132,395 F,0,16868,,1 C,0,16868,,255,255,255 S,7,16868,17368,0.25,0.9 F,0,16869,17369,1,0
Sprite,Foreground,Centre,"sb\ring.png",320,240 M,0,17124,,208,403 F,0,17124,,1 C,0,17124,,255,255,255 S,7,17124,18124,0.25,0.9 F,0,17125,18125,1,0
Sprite,Foreground,Centre,"sb\ring.png",320,240 M,0,23278,,218,282 F,0,23278,,1 C,0,23278,,255,255,255 S,7,23278,24278,0.25,0.9 F,0,23279,24279,1,0
Sprite,Foreground,Centre,"sb\ring.png",320,240 M,0,23791,,112,75 F,0,23791,,1 C,0,23791,,255,255,255 S,7,23791,24791,0.25,0.9 F,0,23792,24792,1,0
Sprite,Foreground,Centre,"sb\ring.png",320,240 M,0,24047,,103,398 F,0,24047,,1 C,0,24047,,255,255,255 S,7,24047,24547,0.25,0.9 F,0,24048,24548,1,0
Sprite,Foreground,Centre,"sb\ring.png",320,240 M,0,24175,,370,301 F,0,24175,,1 C,0,24175,,255,255,255 S,7,24175,24675,0.25,0.9 F,0,24176,24676,1,0
Sprite,Foreground,Centre,"sb\ring.png",320,240 M,0,24304,,204,251 F,0,24304,,1 C,0,24304,,255,255,255 S,7,24304,24804,0.25,0.9 F,0,24305,24805,1,0
Sprite,Foreground,Centre,"sb\ring.png",320,240 M,0,24432,,495,270 F,0,24432,,1 C,0,24432,,255,255,255 S,7,24432,24932,0.25,0.9 F,0,24433,24933,1,0
Sprite,Foreground,Centre,"sb\ring.png",320,240 M,0,24560,,275,358 F,0,24560,,1 C,0,24560,,255,255,255 S,7,24560,25060,0.25,0.9 F,0,24561,25061,1,0
Sprite,Foreground,Centre,"sb\ring.png",320,240 M,0,24688,,566,337 F,0,24688,,1 C,0,24688,,255,255,255 S,7,24688,25188,0.25,0.9 F,0,24689,25189,1,0
Sprite,Foreground,Centre,"sb\ring.png",320,240 M,0,24816,,193,331 F,0,24816,,1 C,0,24816,,255,255,255 S,7,24816,25316,0.25,0.9 F,0,24817,25317,1,0
Sprite,Foreground,Centre,"sb\ring.png",320,240 M,0,24945,,531,190 F,0,24945,,1 C,0,24945,,255,255,255 S,7,24945,25445,0.25,0.9 F,0,24946,25446,1,0
Sprite,Foreground,Centre,"sb\ring.png",320,240 M,0,25073,,204,251 F,0,25073,,1 C,0,25073,,255,255,255 S,7,25073,26073,0.25,0.9 F,0,25074,26074,1,0
Sprite,Foreground,Centre,"sb\ring.png",320,240 M,0,33534,,407,210 F,0,33534,,1 C,0,33534,,255,255,255 S,7,33534,34034,0.25,0.9 F,0,33535,34035,1,0
Sprite,Foreground,Centre,"sb\ring.png",320,240 M,0,33663,,381,374 F,0,33663,,1 C,0,33663,,255,255,255 S,7,33663,34163,0.25,0.9 F,0,33664,34164,1,0
Sprite,Foreground,Centre,"sb\ring.png",320,240 M,0,33791,,528,210 F,0,33791,,1 C,0,33791,,255,255,255 S,7,33791,34291,0.25,0.9 F,0,33792,34292,1,0
Sprite,Foreground,Centre,"sb\ring.png",320,240 M,0,33919,,554,374 F,0,33919,,1 C,0,33919,,255,255,255 S,7,33919,34419,0.25,0.9 F,0,33920,34420,1,0
Sprite,Foreground,Centre,"sb\ring.png",320,240 M,0,34047,,390,192 F,0,34047,,1 C,0,34047,,255,255,255 S,7,34047,34547,0.25,0.9 F,0,34048,34548,1,0
Sprite,Foreground,Centre,"sb\ring.png",320,240 M,0,34175,,358,392 F,0,34175,,1 C,0,34175,,255,255,255 S,7,34175,34675,0.25,0.9 F,0,34176,34676,1,0
Sprite,Foreground,Centre,"sb\ring.png",320,240 M,0,34304,,537,192 F,0,34304,,1 C,0,34304,,255,255,255 S,7,34304,34804,0.25,0.9 F,0,34305,34805,1,0
Sprite,Foreground,Centre,"sb\ring.png",320,240 M,0,34432,,569,392 F,0,34432,,1 C,0,34432,,255,255,255 S,7,34432,34932,0.25,0.9 F,0,34433,34933,1,0
Sprite,Foreground,Centre,"sb\ring.png",320,240 M,0,47637,,335,384 F,0,47637,,1 C,0,47637,,255,255,255 S,7,47637,48137,0.25,0.9 F,0,47638,48138,1,0
Sprite,Foreground,Centre,"sb\ring.png",320,240 M,0,48022,,335,384 F,0,48022,,1 C,0,48022,,255,255,255 S,7,48022,48522,0.25,0.9 F,0,48023,48523,1,0
Sprite,Foreground,Centre,"sb\ring.png",320,240 M,0,48406,,261,403 F,0,48406,,1 C,0,48406,,255,255,255 S,7,48406,48906,0.25,0.9 F,0,48407,48907,1,0
Sprite,Foreground,Centre,"sb\ring.png",320,240 M,0,57509,,349,236 F,0,57509,,1 C,0,57509,,255,255,255 S,7,57509,58009,0.25,0.9 F,0,57510,58010,1,0
Sprite,Foreground,Centre,"sb\ring.png",320,240 M,0,57637,,556,229 F,0,57637,,1 C,0,57637,,255,255,255 S,7,57637,58137,0.25,0.9 F,0,57638,58138,1,0
Sprite,Foreground,Centre,"sb\ring.png",320,240 M,0,57765,,333,232 F,0,57765,,1 C,0,57765,,255,255,255 S,7,57765,58265,0.25,0.9 F,0,57766,58266,1,0
Sprite,Foreground,Centre,"sb\ring.png",320,240 M,0,72252,,119,230 F,0,72252,,1 C,0,72252,,255,255,255 S,7,72252,72752,0.25,0.9 F,0,72253,72753,1,0
Sprite,Foreground,Centre,"sb\ring.png",320,240 M,0,72637,,191,332 F,0,72637,,1 C,0,72637,,255,255,255 S,7,72637,73137,0.25,0.9 F,0,72638,73138,1,0
Sprite,Foreground,Centre,"sb\ring.png",320,240 M,0,73022,,240,219 F,0,73022,,1 C,0,73022,,255,255,255 S,7,73022,73522,0.25,0.9 F,0,73023,73523,1,0
Sprite,Foreground,Centre,"sb\ring.png",320,240 M,0,73278,,391,335 F,0,73278,,1 C,0,73278,,255,255,255 S,7,73278,73778,0.25,0.9 F,0,73279,73779,1,0
Sprite,Foreground,Centre,"sb\ring.png",320,240 M,0,73449,,355,340 F,0,73449,,1 C,0,73449,,255,255,255 S,7,73449,73949,0.25,0.9 F,0,73450,73950,1,0
Sprite,Foreground,Centre,"sb\ring.png",320,240 M,0,73620,,368,309 F,0,73620,,1 C,0,73620,,255,255,255 S,7,73620,74120,0.25,0.9 F,0,73621,74121,1,0
Sprite,Foreground,Centre,"sb\ring.png",320,240 M,0,73791,,372,394 F,0,73791,,1 C,0,73791,,255,255,255 S,7,73791,74291,0.25,0.9 F,0,73792,74292,1,0
Sprite,Foreground,Centre,"sb\ring.png",320,240 M,0,73962,,312,287 F,0,73962,,1 C,0,73962,,255,255,255 S,7,73962,74462,0.25,0.9 F,0,73963,74463,1,0
Sprite,Foreground,Centre,"sb\ring.png",320,240 M,0,74133,,441,295 F,0,74133,,1 C,0,74133,,255,255,255 S,7,74133,74633,0.25,0.9 F,0,74134,74634,1,0
Sprite,Foreground,Centre,"sb\ring.png",320,240 M,0,74304,,172,243 F,0,74304,,1 C,0,74304,,255,255,255 S,7,74304,75304,0.25,0.9 F,0,74305,75305,1,0
Sprite,Foreground,Centre,"sb\ring.png",320,240 M,0,106740,,558,164 F,0,106740,,1 C,0,106740,,255,255,255 S,7,106740,107240,0.25,0.9 F,0,106741,107241,1,0
Sprite,Foreground,Centre,"sb\ring.png",320,240 M,0,106868,,361,225 F,0,106868,,1 C,0,106868,,255,255,255 S,7,106868,107368,0.25,0.9 F,0,106869,107369,1,0
Sprite,Foreground,Centre,"sb\ring.png",320,240 M,0,106996,,562,150 F,0,106996,,1 C,0,106996,,255,255,255 S,7,106996,107496,0.25,0.9 F,0,106997,107497,1,0
Sprite,Foreground,Centre,"sb\ring.png",320,240 M,0,127252,,304,295 F,0,127252,,1 C,0,127252,,255,255,255 S,7,127252,127752,0.25,0.9 F,0,127253,127753,1,0
Sprite,Foreground,Centre,"sb\ring.png",320,240 M,0,127381,,209,97 F,0,127381,,1 C,0,127381,,255,255,255 S,7,127381,127881,0.25,0.9 F,0,127382,127882,1,0
Sprite,Foreground,Centre,"sb\ring.png",320,240 M,0,127509,,317,309 F,0,127509,,1 C,0,127509,,255,255,255 S,7,127509,128009,0.25,0.9 F,0,127510,128010,1,0
Sprite,Foreground,Centre,"sb\ring.png",320,240 M,0,134945,,478,163 F,0,134945,,1 C,0,134945,,255,255,255 S,7,134945,135445,0.25,0.9 F,0,134946,135446,1,0
Sprite,Foreground,Centre,"sb\ring.png",320,240 M,0,135073,,391,270 F,0,135073,,1 C,0,135073,,255,255,255 S,7,135073,135573,0.25,0.9 F,0,135074,135574,1,0
Sprite,Foreground,Centre,"sb\ring.png",320,240 M,0,135201,,470,147 F,0,135201,,1 C,0,135201,,255,255,255 S,7,135201,135701,0.25,0.9 F,0,135202,135702,1,0
Sprite,Foreground,Centre,"sb\ring.png",320,240 M,0,135329,,376,271 F,0,135329,,1 C,0,135329,,255,255,255 S,7,135329,135829,0.25,0.9 F,0,135330,135830,1,0
Sprite,Foreground,Centre,"sb\ring.png",320,240 M,0,135457,,328,167 F,0,135457,,1 C,0,135457,,255,255,255 S,7,135457,135957,0.25,0.9 F,0,135458,135958,1,0
Sprite,Foreground,Centre,"sb\ring.png",320,240 M,0,135586,,288,252 F,0,135586,,1 C,0,135586,,255,255,255 S,7,135586,136086,0.25,0.9 F,0,135587,136087,1,0
Sprite,Foreground,Centre,"sb\ring.png",320,240 M,0,135842,,162,151 F,0,135842,,1 C,0,135842,,255,255,255 S,7,135842,136842,0.25,0.9 F,0,135843,136843,1,0
Sprite,Foreground,Centre,"sb\ring.png",320,240 M,0,137210,,476,326 F,0,137210,,1 C,0,137210,,255,255,255 S,7,137210,138210,0.25,0.9 F,0,137211,138211,1,0
Sprite,Foreground,Centre,"sb\ring.png",320,240 M,0,137381,,304,346 F,0,137381,,1 C,0,137381,,255,255,255 S,7,137381,138381,0.25,0.9 F,0,137382,138382,1,0
Sprite,Foreground,Centre,"sb\ring.png",320,240 M,0,137722,,501,321 F,0,137722,,1 C,0,137722,,255,255,255 S,7,137722,138722,0.25,0.9 F,0,137723,138723,1,0
Sprite,Foreground,Centre,"sb\ring.png",320,240 M,0,139261,,93,115 F,0,139261,,1 C,0,139261,,255,255,255 S,7,139261,140261,0.25,0.9 F,0,139262,140262,1,0
Sprite,Foreground,Centre,"sb\ring.png",320,240 M,0,139432,,84,301 F,0,139432,,1 C,0,139432,,255,255,255 S,7,139432,140432,0.25,0.9 F,0,139433,140433,1,0
Sprite,Foreground,Centre,"sb\ring.png",320,240 M,0,139774,,114,102 F,0,139774,,1 C,0,139774,,255,255,255 S,7,139774,140774,0.25,0.9 F,0,139775,140775,1,0
Sprite,Foreground,Centre,"sb\ring.png",320,240 M,0,141312,,348,188 F,0,141312,,1 C,0,141312,,255,255,255 S,7,141312,142312,0.25,0.9 F,0,141313,142313,1,0
Sprite,Foreground,Centre,"sb\ring.png",320,240 M,0,141483,,453,93 F,0,141483,,1 C,0,141483,,255,255,255 S,7,141483,142483,0.25,0.9 F,0,141484,142484,1,0
Sprite,Foreground,Centre,"sb\ring.png",320,240 M,0,142338,,226,283 F,0,142338,,1 C,0,142338,,255,255,255 S,7,142338,143338,0.25,0.9 F,0,142339,143339,1,0
Sprite,Foreground,Centre,"sb\ring.png",320,240 M,0,142509,,343,272 F,0,142509,,1 C,0,142509,,255,255,255 S,7,142509,143509,0.25,0.9 F,0,142510,143510,1,0
Sprite,Foreground,Centre,"sb\ring.png",320,240 M,0,145415,,553,162 F,0,145415,,1 C,0,145415,,255,255,255 S,7,145415,146415,0.25,0.9 F,0,145416,146416,1,0
Sprite,Foreground,Centre,"sb\ring.png",320,240 M,0,145586,,557,350 F,0,145586,,1 C,0,145586,,255,255,255 S,7,145586,146586,0.25,0.9 F,0,145587,146587,1,0
Sprite,Foreground,Centre,"sb\ring.png",320,240 M,0,145928,,542,143 F,0,145928,,1 C,0,145928,,255,255,255 S,7,145928,146928,0.25,0.9 F,0,145929,146929,1,0
Sprite,Foreground,Centre,"sb\ring.png",320,240 M,0,147637,,268,218 F,0,147637,,1 C,0,147637,,255,255,255 S,7,147637,148637,0.25,0.9 F,0,147638,148638,1,0
Sprite,Foreground,Centre,"sb\ring.png",320,240 M,0,147808,,373,217 F,0,147808,,1 C,0,147808,,255,255,255 S,7,147808,148808,0.25,0.9 F,0,147809,148809,1,0
Sprite,Foreground,Centre,"sb\ring.png",320,240 M,0,147979,,268,218 F,0,147979,,1 C,0,147979,,255,255,255 S,7,147979,148979,0.25,0.9 F,0,147980,148980,1,0
Sprite,Foreground,Centre,"sb\ring.png",320,240 M,0,148150,,320,300 F,0,148150,,1 C,0,148150,,255,255,255 S,7,148150,149150,0.25,0.9 F,0,148151,149151,1,0
Sprite,Foreground,Centre,"sb\ring.png",320,240 M,0,150030,,214,251 F,0,150030,,1 C,0,150030,,255,255,255 S,7,150030,151030,0.25,0.9 F,0,150031,151031,1,0
Sprite,Foreground,Centre,"sb\ring.png",320,240 M,0,150201,,176,174 F,0,150201,,1 C,0,150201,,255,255,255 S,7,150201,151201,0.25,0.9 F,0,150202,151202,1,0
Sprite,Foreground,Centre,"sb\ring.png",320,240 M,0,150714,,528,102 F,0,150714,,1 C,0,150714,,255,255,255 S,7,150714,151714,0.25,0.9 F,0,150715,151715,1,0
Sprite,Foreground,Centre,"sb\ring.png",320,240 M,0,151227,,164,339 F,0,151227,,1 C,0,151227,,255,255,255 S,7,151227,152227,0.25,0.9 F,0,151228,152228,1,0
Sprite,Foreground,Centre,"sb\ring.png",320,240 M,0,151740,,536,372 F,0,151740,,1 C,0,151740,,255,255,255 S,7,151740,152740,0.25,0.9 F,0,151741,152741,1,0
Sprite,Foreground,Centre,"sb\ring.png",320,240 M,0,152252,,179,199 F,0,152252,,1 C,0,152252,,255,255,255 S,7,152252,153252,0.25,0.9 F,0,152253,153253,1,0
Sprite,Foreground,Centre,"sb\ring.png",320,240 M,0,158406,,509,410 F,0,158406,,1 C,0,158406,,255,255,255 S,7,158406,158906,0.25,0.9 F,0,158407,158907,1,0
Sprite,Foreground,Centre,"sb\ring.png",320,240 M,0,158534,,397,401 F,0,158534,,1 C,0,158534,,255,255,255 S,7,158534,159034,0.25,0.9 F,0,158535,159035,1,0
Sprite,Foreground,Centre,"sb\ring.png",320,240 M,0,158663,,509,382 F,0,158663,,1 C,0,158663,,255,255,255 S,7,158663,159163,0.25,0.9 F,0,158664,159164,1,0
Sprite,Foreground,Centre,"sb\ring.png",320,240 M,0,158791,,385,379 F,0,158791,,1 C,0,158791,,255,255,255 S,7,158791,159291,0.25,0.9 F,0,158792,159292,1,0
Sprite,Foreground,Centre,"sb\ring.png",320,240 M,0,158919,,503,311 F,0,158919,,1 C,0,158919,,255,255,255 S,7,158919,159419,0.25,0.9 F,0,158920,159420,1,0
Sprite,Foreground,Centre,"sb\ring.png",320,240 M,0,159047,,353,338 F,0,159047,,1 C,0,159047,,255,255,255 S,7,159047,159547,0.25,0.9 F,0,159048,159548,1,0
Sprite,Foreground,Centre,"sb\ring.png",320,240 M,0,159175,,481,238 F,0,159175,,1 C,0,159175,,255,255,255 S,7,159175,159675,0.25,0.9 F,0,159176,159676,1,0
Sprite,Foreground,Centre,"sb\ring.png",320,240 M,0,159304,,309,301 F,0,159304,,1 C,0,159304,,255,255,255 S,7,159304,159804,0.25,0.9 F,0,159305,159805,1,0
Sprite,Foreground,Centre,"sb\ring.png",320,240 M,0,159432,,448,171 F,0,159432,,1 C,0,159432,,255,255,255 S,7,159432,159932,0.25,0.9 F,0,159433,159933,1,0
Sprite,Foreground,Centre,"sb\ring.png",320,240 M,0,159560,,245,269 F,0,159560,,1 C,0,159560,,255,255,255 S,7,159560,160060,0.25,0.9 F,0,159561,160061,1,0
Sprite,Foreground,Centre,"sb\ring.png",320,240 M,0,159688,,398,109 F,0,159688,,1 C,0,159688,,255,255,255 S,7,159688,160188,0.25,0.9 F,0,159689,160189,1,0
Sprite,Foreground,Centre,"sb\ring.png",320,240 M,0,159816,,170,255 F,0,159816,,1 C,0,159816,,255,255,255 S,7,159816,160316,0.25,0.9 F,0,159817,160317,1,0
Sprite,Foreground,Centre,"sb\ring.png",320,240 M,0,159945,,329,80 F,0,159945,,1 C,0,159945,,255,255,255 S,7,159945,160445,0.25,0.9 F,0,159946,160446,1,0
Sprite,Foreground,Centre,"sb\ring.png",320,240 M,0,160073,,97,279 F,0,160073,,1 C,0,160073,,255,255,255 S,7,160073,160573,0.25,0.9 F,0,160074,160574,1,0
Sprite,Foreground,Centre,"sb\ring.png",320,240 M,0,160201,,252,69 F,0,160201,,1 C,0,160201,,255,255,255 S,7,160201,160701,0.25,0.9 F,0,160202,160702,1,0
Sprite,Foreground,Centre,"sb\ring.png",320,240 M,0,160329,,64,354 F,0,160329,,1 C,0,160329,,255,255,255 S,7,160329,160829,0.25,0.9 F,0,160330,160830,1,0
Sprite,Foreground,Centre,"sb\ring.png",320,240 M,0,171355,,127,356 F,0,171355,,1 C,0,171355,,255,255,255 S,7,171355,171855,0.25,0.9 F,0,171356,171856,1,0
Sprite,Foreground,Centre,"sb\ring.png",320,240 M,0,171483,,166,157 F,0,171483,,1 C,0,171483,,255,255,255 S,7,171483,171983,0.25,0.9 F,0,171484,171984,1,0
Sprite,Foreground,Centre,"sb\ring.png",320,240 M,0,171611,,124,373 F,0,171611,,1 C,0,171611,,255,255,255 S,7,171611,172111,0.25,0.9 F,0,171612,172112,1,0
Sprite,Foreground,Centre,"sb\ring.png",320,240 M,0,179688,,308,349 F,0,179688,,1 C,0,179688,,255,255,255 S,7,179688,180188,0.25,0.9 F,0,179689,180189,1,0
Sprite,Foreground,Centre,"sb\ring.png",320,240 M,0,179816,,146,395 F,0,179816,,1 C,0,179816,,255,255,255 S,7,179816,180316,0.25,0.9 F,0,179817,180317,1,0
Sprite,Foreground,Centre,"sb\ring.png",320,240 M,0,204560,,165,199 F,0,204560,,1 C,0,204560,,255,255,255 S,7,204560,205060,0.25,0.9 F,0,204561,205061,1,0
Sprite,Foreground,Centre,"sb\ring.png",320,240 M,0,205073,,176,209 F,0,205073,,1 C,0,205073,,255,255,255 S,7,205073,205573,0.25,0.9 F,0,205074,205574,1,0
Sprite,Foreground,Centre,"sb\ring.png",320,240 M,0,205457,,249,325 F,0,205457,,1 C,0,205457,,255,255,255 S,7,205457,205957,0.25,0.9 F,0,205458,205958,1,0
Sprite,Foreground,Centre,"sb\ring.png",320,240 M,0,205714,,428,174 F,0,205714,,1 C,0,205714,,255,255,255 S,7,205714,206214,0.25,0.9 F,0,205715,206215,1,0
Sprite,Foreground,Centre,"sb\ring.png",320,240 M,0,206099,,432,314 F,0,206099,,1 C,0,206099,,255,255,255 S,7,206099,206599,0.25,0.9 F,0,206100,206600,1,0
Sprite,Foreground,Centre,"sb\ring.png",320,240 M,0,206611,,278,102 F,0,206611,,1 C,0,206611,,255,255,255 S,7,206611,207111,0.25,0.9 F,0,206612,207112,1,0
Sprite,Foreground,Centre,"sb\ring.png",320,240 M,0,207124,,283,114 F,0,207124,,1 C,0,207124,,255,255,255 S,7,207124,207624,0.25,0.9 F,0,207125,207625,1,0
Sprite,Foreground,Centre,"sb\ring.png",320,240 M,0,207509,,146,175 F,0,207509,,1 C,0,207509,,255,255,255 S,7,207509,208009,0.25,0.9 F,0,207510,208010,1,0
Sprite,Foreground,Centre,"sb\ring.png",320,240 M,0,207765,,258,228 F,0,207765,,1 C,0,207765,,255,255,255 S,7,207765,208265,0.25,0.9 F,0,207766,208266,1,0
Sprite,Foreground,Centre,"sb\ring.png",320,240 M,0,208150,,330,364 F,0,208150,,1 C,0,208150,,255,255,255 S,7,208150,208650,0.25,0.9 F,0,208151,208651,1,0
Sprite,Foreground,Centre,"sb\ring.png",320,240 M,0,208663,,191,127 F,0,208663,,1 C,0,208663,,255,255,255 S,7,208663,209163,0.25,0.9 F,0,208664,209164,1,0
Sprite,Foreground,Centre,"sb\ring.png",320,240 M,0,209175,,172,119 F,0,209175,,1 C,0,209175,,255,255,255 S,7,209175,209675,0.25,0.9 F,0,209176,209676,1,0
Sprite,Foreground,Centre,"sb\ring.png",320,240 M,0,209560,,145,299 F,0,209560,,1 C,0,209560,,255,255,255 S,7,209560,210060,0.25,0.9 F,0,209561,210061,1,0
Sprite,Foreground,Centre,"sb\ring.png",320,240 M,0,209816,,271,215 F,0,209816,,1 C,0,209816,,255,255,255 S,7,209816,210316,0.25,0.9 F,0,209817,210317,1,0
Sprite,Foreground,Centre,"sb\ring.png",320,240 M,0,210201,,315,373 F,0,210201,,1 C,0,210201,,255,255,255 S,7,210201,210701,0.25,0.9 F,0,210202,210702,1,0
Sprite,Foreground,Centre,"sb\ring.png",320,240 M,0,210714,,405,89 F,0,210714,,1 C,0,210714,,255,255,255 S,7,210714,211214,0.25,0.9 F,0,210715,211215,1,0
Sprite,Foreground,Centre,"sb\ring.png",320,240 M,0,210970,,390,281 F,0,210970,,1 C,0,210970,,255,255,255 S,7,210970,211470,0.25,0.9 F,0,210971,211471,1,0
Sprite,Foreground,Centre,"sb\ring.png",320,240 M,0,211227,,385,90 F,0,211227,,1 C,0,211227,,255,255,255 S,7,211227,211727,0.25,0.9 F,0,211228,211728,1,0
Sprite,Foreground,Centre,"sb\ring.png",320,240 M,0,211483,,413,287 F,0,211483,,1 C,0,211483,,255,255,255 S,7,211483,211983,0.25,0.9 F,0,211484,211984,1,0
Sprite,Foreground,Centre,"sb\ring.png",320,240 M,0,211611,,402,180 F,0,211611,,1 C,0,211611,,255,255,255 S,7,211611,212111,0.25,0.9 F,0,211612,212112,1,0
Sprite,Foreground,Centre,"sb\ring.png",320,240 M,0,211740,,304,305 F,0,211740,,1 C,0,211740,,255,255,255 S,7,211740,212740,0.25,0.9 F,0,211741,212741,1,0
Sprite,Foreground,Centre,"sb\ring.png",320,240 M,0,212124,,301,298 F,0,212124,,1 C,0,212124,,255,255,255 S,7,212124,213124,0.25,0.9 F,0,212125,213125,1,0
Sprite,Foreground,Centre,"sb\ring.png",320,240 M,0,212509,,366,365 F,0,212509,,1 C,0,212509,,255,255,255 S,7,212509,213509,0.25,0.9 F,0,212510,213510,1,0
//Storyboard Sound Samples

[TimingPoints]
458,256.410256410256,4,2,4,55,1,0
458,-125,4,2,4,55,0,0
2445,-125,4,2,4,20,0,0
2509,-125,4,2,4,55,0,0
6547,-125,4,2,4,20,0,0
6611,-125,4,2,4,55,0,0
8150,-133.333333333333,4,2,2,40,0,0
8663,-100,4,2,6,60,0,0
8919,-100,4,2,2,60,0,0
9432,-100,4,2,2,60,0,0
17060,-100,4,2,2,20,0,0
17124,-100,4,2,6,70,0,0
17188,-100,4,2,2,60,0,0
23278,-90.9090909090909,4,2,6,60,0,0
23534,-83.3333333333333,4,2,6,60,0,0
23791,-76.9230769230769,4,2,6,60,0,0
23919,-100,4,2,2,60,0,0
25073,-83.3333333333333,4,2,2,40,0,0
25329,-133.333333333333,4,2,2,30,0,0
26099,-111.111111111111,4,2,2,50,0,0
26740,-90.9090909090909,4,2,2,50,0,0
27124,-117.647058823529,4,2,2,50,0,0
33278,-100,4,2,2,50,0,0
33534,-117.647058823529,4,2,2,40,0,0
33791,-117.647058823529,4,2,2,50,0,0
34240,-117.647058823529,4,2,3,60,0,0
34368,-117.647058823529,4,2,2,35,0,0
34560,-133.333333333333,4,2,2,45,0,0
34945,-86.9565217391304,4,2,2,50,0,0
35201,-117.647058823529,4,2,6,50,0,0
35522,-117.647058823529,4,2,6,20,0,0
35586,-117.647058823529,4,2,2,50,0,0
40714,-117.647058823529,4,2,2,50,0,0
41483,-133.333333333333,4,2,5,50,0,0
41547,-133.333333333333,4,2,5,35,0,0
47124,-133.333333333333,4,2,2,35,0,0
47637,-111.111111111111,4,2,2,50,0,0
48022,-94.3396226415094,4,2,2,50,0,0
48406,-111.111111111111,4,2,10,80,0,0
48438,-111.111111111111,4,2,10,35,0,0
48919,-200,4,2,2,40,0,0
49175,-200,4,2,2,40,0,0
49624,-200,4,2,2,20,0,0
49688,-100,4,2,6,60,0,1
49881,-100,4,2,6,20,0,1
49945,-100,4,2,6,60,0,1
53470,-100,4,2,6,20,0,1
53534,-100,4,2,6,60,0,1
53983,-100,4,2,6,20,0,1
54047,-100,4,2,6,60,0,1
56740,-100,4,2,2,60,0,0
57381,-100,4,2,2,60,0,0
57893,-100,4,2,9,60,0,1
58150,-100,4,2,2,60,0,1
64304,-100,4,2,2,60,0,1
64945,-100,4,2,2,60,0,1
65073,-100,4,2,2,50,0,0
65586,-133.333333333333,4,2,2,60,0,0
65842,-100,4,2,2,60,0,0
66355,-100,4,2,2,60,0,0
68342,-100,4,2,2,20,0,0
68406,-100,4,2,2,60,0,0
70714,-100,4,2,2,60,0,0
72124,-100,4,2,2,60,0,0
72252,-83.3333333333333,4,2,2,60,0,0
73022,-133.333333333333,4,2,2,60,0,0
73214,-133.333333333333,4,2,2,20,0,0
73278,-100,4,2,2,60,0,0
73342,-100,4,2,2,60,0,0
73385,-100,4,2,2,20,0,0
73513,-100,4,2,2,60,0,0
73556,-100,4,2,2,20,0,0
73684,-100,4,2,2,60,0,0
73727,-100,4,2,2,20,0,0
73791,-83.3333333333333,4,2,2,60,0,0
74304,-100,4,2,6,60,0,0
74368,-100,4,2,6,50,0,0
75329,-200,4,2,2,50,0,0
75457,-117.647058823529,4,2,2,50,0,0
77381,-200,4,2,2,50,0,0
77509,-117.647058823529,4,2,2,50,0,0
79304,-133.333333333333,4,2,2,50,0,0
79560,-117.647058823529,4,2,2,50,0,0
82124,-142.857142857143,4,2,2,50,0,0
82381,-71.4285714285714,4,2,2,50,0,0
82637,-117.647058823529,4,2,2,50,0,0
83022,-133.333333333333,4,2,2,50,0,0
83278,-117.647058823529,4,2,2,50,0,0
83534,-83.3333333333333,4,2,2,50,0,0
83962,-117.647058823529,4,2,2,50,0,0
84560,-90.9090909090909,4,2,6,50,0,0
84752,-111.111111111111,4,2,2,20,0,0
84816,-111.111111111111,4,2,2,60,0,0
90714,-133.333333333333,4,2,2,50,0,0
90778,-133.333333333333,4,2,5,50,0,0
93791,-133.333333333333,4,2,5,50,0,0
94816,-133.333333333333,4,2,2,50,0,0
96355,-133.333333333333,4,2,2,50,0,0
96868,-100,4,2,2,60,0,0
97124,-94.3396226415094,4,2,2,60,0,0
97381,-89.2857142857143,4,2,2,60,0,0
97637,-84.7457627118644,4,2,2,60,0,0
97893,-80.6451612903226,4,2,2,60,0,0
98150,-76.9230769230769,4,2,2,60,0,0
98406,-100,4,2,2,65,0,0
98534,-100,4,2,2,70,0,0
98663,-100,4,2,2,75,0,0
98791,-100,4,2,2,60,0,0
98919,-90.9090909090909,4,2,6,70,0,1
99111,-100,4,2,2,20,0,1
99175,-100,4,2,2,60,0,1
102701,-100,4,2,2,20,0,1
102765,-100,4,2,2,60,0,1
105970,-100,4,2,2,60,0,0
106740,-100,4,2,2,60,0,0
107124,-100,4,2,9,60,0,1
107316,-100,4,2,2,60,0,1
107381,-100,4,2,2,60,0,1
108086,-100,4,2,2,20,0,1
108150,-100,4,2,2,60,0,1
110457,-100,4,2,2,60,0,1
110970,-100,4,2,2,60,0,1
113534,-100,4,2,2,60,0,1
114304,-90.9090909090909,4,2,2,60,0,0
114560,-83.3333333333333,4,2,2,60,0,0
114816,-76.9230769230769,4,2,2,60,0,0
115009,-76.9230769230769,4,2,2,20,0,0
115073,-76.9230769230769,4,2,2,60,0,0
115329,-200,4,2,2,30,0,0
117381,-133.333333333333,4,2,2,30,0,0
117573,-133.333333333333,4,2,2,30,0,0
117701,-133.333333333333,4,2,3,20,0,0
117829,-133.333333333333,4,2,2,25,0,0
117957,-133.333333333333,4,2,3,30,0,0
118086,-133.333333333333,4,2,2,35,0,0
118214,-133.333333333333,4,2,3,35,0,0
118342,-133.333333333333,4,2,2,40,0,0
118470,-133.333333333333,4,2,3,45,0,0
118599,-133.333333333333,4,2,2,50,0,0
118727,-133.333333333333,4,2,3,55,0,0
118919,-200,4,2,2,60,0,0
119175,-133.333333333333,4,2,2,40,0,0
119368,-133.333333333333,4,2,2,20,0,0
119432,-76.9230769230769,4,2,6,60,0,0
119624,-76.9230769230769,4,2,6,20,0,0
119688,-111.111111111111,4,2,2,60,0,0
121675,-111.111111111111,4,2,2,20,0,0
121740,-111.111111111111,4,2,2,60,0,0
121932,-111.111111111111,4,2,2,20,0,0
121996,-111.111111111111,4,2,2,60,0,0
123470,-111.111111111111,4,2,2,20,0,0
123534,-111.111111111111,4,2,2,60,0,0
124047,-111.111111111111,4,2,2,60,0,0
124432,-100,4,2,2,60,0,0
124560,-100,4,2,2,60,0,0
125586,-100,4,2,2,60,0,0
127637,-100,4,2,6,60,0,0
127765,-100,4,2,2,60,0,0
129881,-100,4,2,2,20,0,0
129945,-100,4,2,2,60,0,0
134945,-100,4,2,2,50,0,0
135009,-100,4,2,2,20,0,0
135073,-100,4,2,2,50,0,0
135137,-100,4,2,2,20,0,0
135201,-100,4,2,2,50,0,0
135265,-100,4,2,2,20,0,0
135329,-100,4,2,2,50,0,0
135393,-100,4,2,2,20,0,0
135457,-100,4,2,2,50,0,0
135522,-100,4,2,2,20,0,0
135586,-100,4,2,2,50,0,0
135842,-142.857142857143,4,2,2,40,0,0
143534,-142.857142857143,4,3,4,40,0,0
143705,-142.857142857143,4,2,2,40,0,0
148022,-181.818181818181,4,2,2,30,0,0
148150,-270.27027027027,4,3,2,30,0,0
149774,-133.333333333333,4,2,2,30,0,0
152188,-303.030303030303,4,2,2,30,0,0
152316,-303.030303030303,4,2,2,30,0,0
155265,-303.030303030303,4,2,2,15,0,0
155329,-303.030303030303,4,2,2,30,0,0
155842,-232.558139534884,4,2,2,30,0,0
156355,-200,4,2,2,20,0,0
156868,-166.666666666667,4,2,2,25,0,0
157381,-142.857142857143,4,2,2,30,0,0
157893,-125,4,2,2,35,0,0
158406,-125,4,2,2,40,0,0
158791,-133.333333333333,4,2,3,45,0,1
159175,-133.333333333333,4,2,3,50,0,1
159432,-133.333333333333,4,2,3,55,0,1
159688,-133.333333333333,4,2,3,60,0,1
159945,-133.333333333333,4,2,3,65,0,1
160201,-133.333333333333,4,2,3,70,0,1
160457,-83.3333333333333,4,2,2,70,0,0
160714,-100,4,2,2,70,0,0
161483,-100,4,2,2,50,0,0
161526,-100,4,2,2,50,0,0
161569,-100,4,2,2,20,0,0
161611,-100,4,2,2,50,0,0
161654,-100,4,2,2,20,0,0
161697,-100,4,2,2,50,0,0
161740,-100,4,2,2,20,0,0
161782,-100,4,2,2,50,0,0
161825,-100,4,2,2,20,0,0
161868,-100,4,2,2,50,0,0
161910,-100,4,2,2,20,0,0
161953,-100,4,2,2,50,0,0
161996,-133.333333333333,4,2,2,20,0,0
162445,-76.9230769230769,4,2,2,20,0,0
162509,-76.9230769230769,4,2,2,60,0,0
162573,-76.9230769230769,4,2,2,60,0,0
162616,-71.4285714285714,4,2,2,20,0,0
162744,-76.9230769230769,4,2,2,20,0,0
162787,-66.6666666666667,4,2,2,60,0,0
162915,-76.9230769230769,4,2,2,20,0,0
162957,-76.9230769230769,4,2,2,60,0,0
163022,-200,4,2,2,65,0,0
163470,-200,4,2,2,20,0,0
163534,-100,4,2,6,70,0,1
163727,-100,4,2,6,20,0,1
163791,-100,4,2,6,70,0,1
167316,-100,4,2,6,20,0,1
167381,-100,4,2,6,70,0,1
167829,-100,4,2,6,20,0,1
167893,-100,4,2,6,70,0,1
169945,-100,4,2,2,60,0,1
170586,-100,4,2,2,60,0,0
171740,-100,4,2,9,60,0,1
171868,-100,4,2,2,60,0,1
171996,-100,4,2,2,60,0,1
174816,-100,4,2,2,60,0,1
178791,-83.3333333333333,4,2,3,60,0,0
178983,-83.3333333333333,4,2,3,20,0,0
179047,-76.9230769230769,4,2,3,60,0,0
179240,-76.9230769230769,4,2,3,20,0,0
179304,-71.4285714285714,4,2,10,75,0,0
179560,-71.4285714285714,4,2,6,60,0,0
179945,-90.9090909090909,4,2,2,70,0,1
180137,-90.9090909090909,4,2,2,20,0,1
180201,-90.9090909090909,4,2,2,70,0,1
188150,-90.9090909090909,4,2,6,70,0,1
188278,-90.9090909090909,4,2,2,70,0,1
188663,-86.9565217391304,4,2,2,70,0,1
189175,-83.3333333333333,4,2,2,70,0,1
189304,-90.9090909090909,4,2,2,70,0,1
192252,-90.9090909090909,4,2,2,80,0,1
195329,-90.9090909090909,4,2,6,70,0,1
195457,-90.9090909090909,4,2,2,80,0,1
196099,-90.9090909090909,4,2,2,80,0,1
196291,-90.9090909090909,4,2,2,20,0,1
196355,-100,4,2,2,80,0,0
204560,-133.333333333333,4,2,5,55,0,0
211740,-100,4,2,2,60,0,0
211868,-100,4,2,2,20,0,0
211932,-100,4,2,2,60,0,0
212124,-74.0740740740741,4,2,2,60,0,0
212252,-74.0740740740741,4,2,2,20,0,0
212316,-74.0740740740741,4,2,2,60,0,0

[Colours]
Combo1 : 255,102,28
Combo2 : 0,159,236
Combo3 : 249,198,91
Combo4 : 237,38,33

[HitObjects]
442,294,458,6,0,B|449:259|449:259|440:218,1,72,8|0,0:0|0:0,0:0:0:0:
268,224,714,2,0,B|260:261|260:261|267:310,1,72,8|0,0:0|0:0,0:0:0:0:
358,160,970,5,8,0:0:0:0:
358,160,1099,2,0,L|357:68,1,72,8|0,0:0|0:0,0:0:0:0:
168,57,1355,2,0,P|132:56|97:66,1,72,8|0,0:0|0:0,0:0:0:0:
235,125,1611,1,8,0:0:0:0:
235,125,1740,2,0,P|259:75|262:54,1,72,8|0,0:0|0:0,0:0:0:0:
141,133,1996,6,0,L|149:227,1,72,8|0,0:0|0:0,0:0:0:0:
199,311,2252,2,0,B|117:297|117:297|148:336,1,108,8|0,0:0|0:0,0:0:0:0:
58,344,2509,6,0,L|133:334,1,72,8|0,0:0|0:0,0:0:0:0:
133,219,2765,2,0,L|56:214,1,72,8|0,0:0|0:0,0:0:0:0:
235,232,3022,5,8,0:0:0:0:
235,232,3150,2,0,P|242:192|228:141,1,72,8|0,0:0|0:0,0:0:0:0:
338,53,3406,2,0,P|333:91|339:131,1,72,8|0,0:0|0:0,0:0:0:0:
451,218,3663,1,8,0:0:0:0:
451,218,3791,2,0,L|377:220,1,72,8|0,0:0|0:0,0:0:0:0:
221,169,4047,6,0,B|211:136|211:136|214:98,1,72,8|0,0:0|0:0,0:0:0:0:
359,228,4304,2,0,B|366:263|366:263|358:298,1,72,8|0,0:0|0:0,0:0:0:0:
208,338,4560,6,0,P|174:334|136:336,1,72,8|0,0:0|0:0,0:0:0:0:
28,236,4816,2,0,P|63:237|99:233,1,72,8|0,0:0|0:0,0:0:0:0:
209,172,5073,5,8,0:0:0:0:
209,172,5201,2,0,L|199:265,1,72,8|0,0:0|0:0,0:0:0:0:
69,153,5457,6,0,L|67:81,1,72,8|0,0:0|0:0,0:0:0:0:
171,100,5714,1,8,0:0:0:0:
171,100,5842,2,0,P|210:90|261:108,1,72,8|0,0:0|0:0,0:0:0:0:
359,184,6099,6,0,L|278:179,1,72,8|0,0:0|0:0,0:0:0:0:
425,128,6355,2,0,B|446:174|446:174|437:231,1,108,8|0,0:0|0:0,0:0:0:0:
418,248,6611,6,0,L|416:333,1,72,8|0,0:0|0:0,0:0:0:0:
318,345,6868,2,0,P|295:325|252:319,1,72,8|0,0:0|0:0,0:0:0:0:
140,264,7124,1,8,0:0:0:0:
140,264,7252,2,0,L|140:336,1,72,8|0,0:0|0:0,0:0:0:0:
226,240,7509,6,0,P|234:203|235:168,1,72,8|0,0:0|0:0,0:0:0:0:
47,176,7765,1,8,0:0:0:0:
47,176,7893,2,0,P|46:212|53:249,1,72,8|0,0:0|0:0,0:0:0:0:
146,110,8150,6,0,L|140:28,2,67.5000025749208,2|0|0,0:3|0:0|0:0,0:0:0:0:
131,186,8663,6,0,B|117:3,1,180,4|8,1:2|0:0,0:0:0:0:
36,230,9047,1,0,0:0:0:0:
235,199,9175,1,0,1:0:0:0:
109,273,9304,1,0,1:0:0:0:
146,110,9432,1,8,0:0:0:0:
139,344,9560,6,0,P|55:330|35:247,1,180,0|0,1:0|1:0,0:0:0:0:
166,102,9945,2,0,L|255:103,1,90,8|0,0:0|0:0,0:0:0:0:
426,245,10201,2,0,L|318:253,1,90,0|0,1:0|1:0,0:0:0:0:
404,143,10457,1,8,0:0:0:0:
477,328,10586,1,0,0:0:0:0:
276,297,10714,6,0,P|261:248|281:199,1,90,0|0,1:0|0:0,0:0:0:0:
161,58,10970,2,0,P|179:95|152:163,1,90,8|0,0:0|0:0,0:0:0:0:
87,289,11227,1,0,1:0:0:0:
80,109,11355,1,0,1:0:0:0:
225,210,11483,1,8,0:0:0:0:
0,298,11611,6,0,P|34:226|139:221,1,180
196,361,11996,2,0,P|152:352|121:316,1,90,8|0,0:0|0:0,0:0:0:0:
308,186,12252,1,0,1:0:0:0:
397,328,12381,1,0,1:0:0:0:
308,186,12509,2,0,P|311:133|316:90,1,90,8|0,0:0|0:0,0:0:0:0:
483,328,12765,6,0,P|440:339|383:317,1,90,0|0,1:0|0:0,0:0:0:0:
217,254,13022,1,8,0:0:0:0:
407,225,13150,1,0,0:0:0:0:
286,361,13278,5,0,1:0:0:0:
407,225,13406,1,0,1:0:0:0:
286,361,13534,1,8,0:0:0:0:
159,151,13663,6,0,B|129:202|129:202|150:344,1,180,0|0,1:0|1:0,0:0:0:0:
75,146,14047,1,8,0:0:0:0:
303,207,14175,1,0,0:0:0:0:
303,207,14240,1,0,0:0:0:0:
303,207,14304,6,0,P|257:210|207:223,1,90,0|0,1:0|1:0,0:0:0:0:
141,291,14560,1,8,0:0:0:0:
234,135,14688,1,0,0:0:0:0:
0,142,14816,6,0,P|46:144|100:157,1,90,0|0,1:0|0:0,0:0:0:0:
33,247,15073,1,8,0:0:0:0:
161,84,15201,1,0,0:0:0:0:
267,251,15329,5,0,1:0:0:0:
109,174,15457,1,0,1:0:0:0:
119,342,15586,1,8,0:0:0:0:
342,270,15714,6,0,P|316:190|214:199,1,180,0|0,1:0|1:0,0:0:0:0:
109,264,16099,2,0,P|107:222|109:152,1,90,8|0,0:0|0:0,0:0:0:0:
25,238,16355,5,8,0:0:0:0:
215,179,16483,1,8,0:0:0:0:
144,347,16611,5,8,0:0:0:0:
78,97,16740,1,8,0:0:0:0:
68,339,16868,6,0,P|19:307|54:216,1,135,4|0,1:2|0:0,0:0:0:0:
144,347,17124,2,0,B|167:358|167:358|261:350,1,90,12|0,0:0|0:0,0:0:0:0:
420,290,17381,1,0,1:0:0:0:
304,175,17509,1,0,1:0:0:0:
273,359,17637,1,8,0:0:0:0:
439,211,17765,6,0,B|388:211|388:211|333:261|333:261|269:258,1,180,0|0,1:0|1:0,0:0:0:0:
398,376,18150,2,0,P|404:331|419:289,1,90,8|0,0:0|0:0,0:0:0:0:
282,88,18406,2,0,P|297:130|303:174,1,90
284,337,18663,1,8,0:0:0:0:
409,180,18791,1,0,0:0:0:0:
409,180,18855,1,0,0:0:0:0:
409,180,18919,6,0,P|456:173|507:171,1,90,0|0,1:0|0:0,0:0:0:0:
326,363,19175,2,0,P|305:320|325:269,1,90,8|0,0:0|0:0,0:0:0:0:
434,96,19432,5,0,1:0:0:0:
327,265,19560,1,0,1:0:0:0:
512,187,19688,1,8,0:0:0:0:
285,192,19816,6,0,L|100:174,1,180,0|0,0:0|0:0,0:0:0:0:
219,101,20201,2,0,B|331:111,1,90,8|0,0:0|0:0,0:0:0:0:
187,300,20457,6,0,L|199:190,1,90,0|0,1:0|1:0,0:0:0:0:
25,134,20714,2,0,L|36:250,1,90,8|0,0:0|0:0,0:0:0:0:
1,368,20970,6,0,P|39:344|88:345,1,90,0|0,1:0|0:0,0:0:0:0:
266,333,21227,2,0,P|222:327|182:292,1,90,8|0,0:0|0:0,0:0:0:0:
139,152,21483,5,0,1:0:0:0:
300,103,21611,1,0,1:0:0:0:
251,258,21740,1,8,0:0:0:0:
370,50,21868,6,0,B|394:108|369:154|369:154|375:191|375:191|361:247,1,180,0|0,1:0|1:0,0:0:0:0:
214,123,22252,2,0,P|258:104|308:103,1,90,8|0,0:0|0:0,0:0:0:0:
450,134,22509,5,0,1:0:0:0:
269,183,22637,1,0,1:0:0:0:
369,29,22765,1,8,0:0:0:0:
372,254,22893,1,0,0:0:0:0:
372,254,22957,1,0,0:0:0:0:
372,254,23022,6,0,P|372:301|359:365,1,90,0|0,1:0|0:0,0:0:0:0:
154,226,23278,6,0,P|154:275|168:345,1,99.0000030212403,12|0,0:0|0:0,0:0:0:0:
272,75,23534,6,0,P|276:131|261:209,1,107.999996704102,0|0,1:0|0:0,0:0:0:0:
48,19,23791,6,0,P|44:77|52:135,1,116.999994644165,12|0,0:0|0:0,0:0:0:0:
39,342,24047,5,12,0:0:0:0:
306,245,24175,1,0,1:0:0:0:
140,195,24304,5,8,0:0:0:0:
431,214,24432,1,0,1:0:0:0:
211,302,24560,5,8,0:0:0:0:
502,281,24688,1,0,0:0:0:0:
129,275,24816,5,8,0:0:0:0:
467,134,24945,1,0,0:0:0:0:
140,195,25073,6,0,P|110:139|171:189,1,215.999993408203,4|0,0:0|0:0,0:0:0:0:
48,212,25586,6,0,P|33:144|70:72,1,135.000005149842
221,350,26099,5,8,0:0:0:0:
220,334,26227,1,8,0:0:0:0:
255,299,26355,6,0,P|195:298|116:317,1,121.499996292114,0|0,1:0|0:0,0:0:0:0:
109,322,26611,1,8,0:0:0:0:
330,189,26740,6,0,P|263:189|174:165,1,148.50000453186,0|0,1:0|0:0,0:0:0:0:
169,164,26996,1,8,0:0:0:0:
344,34,27124,6,0,P|333:70|335:108,1,76.5000014591217,4|0,1:2|0:0,0:0:0:0:
494,207,27381,2,0,P|506:165|496:116,1,76.5000014591217,8|0,0:0|0:0,0:0:0:0:
339,192,27637,5,0,1:0:0:0:
339,192,27765,1,0,1:0:0:0:
400,346,27893,1,8,0:0:0:0:
416,233,28022,6,0,B|313:211|313:211|258:252,1,153.000002918243
94,343,28406,2,0,P|113:305|112:246,1,76.5000014591217,8|0,0:0|0:0,0:0:0:0:
52,90,28663,5,0,1:0:0:0:
0,219,28791,1,0,1:0:0:0:
156,187,28919,2,0,P|116:179|73:176,1,76.5000014591217,8|0,0:0|0:0,0:0:0:0:
139,77,29175,5,0,0:0:0:0:
237,227,29304,1,0,0:0:0:0:
223,130,29432,5,8,0:0:0:0:
195,308,29560,1,0,0:0:0:0:
361,191,29688,2,0,L|413:267,1,76.5000014591217,0|0,1:0|1:0,0:0:0:0:
457,164,29945,1,8,0:0:0:0:
311,93,30073,6,0,P|390:97|452:29,1,153.000002918243,0|0,1:0|1:0,0:0:0:0:
244,27,30457,2,0,P|226:63|214:116,1,76.5000014591217,8|0,0:0|0:0,0:0:0:0:
358,152,30714,2,0,P|335:118|295:81,1,76.5000014591217,0|0,1:0|1:0,0:0:0:0:
186,192,30970,2,0,P|226:189|278:173,1,76.5000014591217,8|0,0:0|0:0,0:0:0:0:
243,298,31227,5,0,1:0:0:0:
414,247,31355,1,0,0:0:0:0:
317,235,31483,5,8,0:0:0:0:
439,336,31611,1,0,0:0:0:0:
227,308,31740,2,0,P|189:301|147:302,1,76.5000014591217,0|0,1:0|1:0,0:0:0:0:
186,192,31996,1,8,0:0:0:0:
87,350,32124,6,0,B|62:306|80:266|80:266|73:234|73:234|88:179,1,153.000002918243,0|0,1:0|1:0,0:0:0:0:
231,135,32509,2,0,P|202:155|186:215,1,76.5000014591217,8|0,0:0|0:0,0:0:0:0:
24,115,32765,6,0,P|22:72|-16:32,1,76.5000014591217,8|0,0:0|0:0,0:0:0:0:
134,59,33022,1,8,0:0:0:0:
134,59,33150,1,8,0:0:0:0:
239,258,33278,6,0,P|194:266|151:279,1,90,0|0,1:0|0:0,0:0:0:0:
343,154,33534,5,8,0:0:0:0:
317,318,33663,1,8,0:0:0:0:
464,154,33791,1,8,0:0:0:0:
490,318,33919,1,8,0:0:0:0:
326,136,34047,5,8,0:0:0:0:
294,336,34175,1,8,0:0:0:0:
473,136,34304,1,8,0:0:0:0:
505,336,34432,1,8,0:0:0:0:
273,196,34560,6,0,P|248:126|296:63,1,135.000005149842,0|8,1:0|0:0,0:0:0:0:
280,224,34945,6,0,P|232:128|306:39,1,207.000003948212,0|8,1:0|0:0,0:0:0:0:
368,148,35329,6,0,B|401:134|401:134|437:146|437:146|488:136,1,114.750002188683,4|0,1:2|0:0,0:0:0:0:
368,134,35586,2,0,L|357:238,1,76.5000014591217,8|0,0:0|0:0,0:0:0:0:
212,270,35842,2,0,L|232:345,1,76.5000014591217,0|0,1:0|1:0,0:0:0:0:
284,222,36099,1,8,0:0:0:0:
93,214,36227,6,0,P|166:209|216:154,1,153.000002918243,0|0,1:0|1:0,0:0:0:0:
252,41,36611,1,8,0:0:0:0:
365,157,36740,1,0,0:0:0:0:
229,142,36868,5,0,1:0:0:0:
381,60,36996,1,0,1:0:0:0:
359,257,37124,1,8,0:0:0:0:
381,60,37252,1,0,0:0:0:0:
359,257,37381,6,0,L|436:255,1,76.5000014591217,0|0,1:0|0:0,0:0:0:0:
239,179,37637,1,8,0:0:0:0:
272,334,37765,1,0,0:0:0:0:
143,265,37893,2,0,P|130:230|131:174,1,76.5000014591217,0|0,1:0|1:0,0:0:0:0:
164,90,38150,1,8,0:0:0:0:
79,312,38278,6,0,P|52:237|59:154,1,153.000002918243,0|0,1:0|1:0,0:0:0:0:
238,57,38663,2,0,P|246:94|220:144,1,76.5000014591217,8|0,0:0|0:0,0:0:0:0:
55,164,38919,2,0,P|42:129|55:75,1,76.5000014591217,0|0,1:0|1:0,0:0:0:0:
162,217,39175,2,0,L|168:298,1,76.5000014591217,8|0,0:0|0:0,0:0:0:0:
311,354,39432,6,0,P|340:356|384:338,1,76.5000014591217,0|0,1:0|0:0,0:0:0:0:
486,234,39688,2,0,P|469:273|422:304,1,76.5000014591217,8|0,0:0|0:0,0:0:0:0:
382,242,39945,6,0,P|413:210|424:153,1,76.5000014591217,0|0,1:0|1:0,0:0:0:0:
461,39,40201,2,0,P|462:77|440:130,1,76.5000014591217,8|0,0:0|0:0,0:0:0:0:
364,259,40457,6,0,L|274:255,1,76.5000014591217,0|0,1:0|0:0,0:0:0:0:
137,214,40714,1,0,1:0:0:0:
205,298,40842,1,0,1:0:0:0:
195,111,40971,5,8,0:0:0:0:
76,312,41099,1,0,0:0:0:0:
63,123,41227,5,0,1:0:0:0:
215,306,41355,1,0,1:0:0:0:
408,156,41483,6,0,P|355:120|287:158,1,135,4|0,1:2|0:0,0:0:0:0:
345,251,41996,2,0,P|400:222|401:145,1,135,0|0,1:0|0:0,0:0:0:0:
294,146,42509,2,0,P|293:212|359:252,1,135,0|0,1:0|0:0,0:0:0:0:
199,329,43022,6,0,P|139:352|81:302,1,135,0|0,1:0|0:0,0:0:0:0:
153,224,43534,2,0,P|203:262|190:341,1,135,0|0,1:0|0:0,0:0:0:0:
85,314,44048,2,0,P|94:250|166:227,1,135,0|0,1:0|0:0,0:0:0:0:
241,261,44560,6,0,P|237:189|239:106,1,135.000005149842,0|8,1:0|0:0,0:0:0:0:
304,339,44945,1,0,0:0:0:0:
304,339,45073,2,0,B|387:315|387:315|443:351,1,135.000005149842,0|0,1:0|0:0,0:0:0:0:
458,354,45586,6,0,P|485:299|454:211,1,135.000005149842,4|0,2:0|0:0,0:0:0:0:
374,50,46099,2,0,B|350:90|350:90|353:198,1,135.000005149842,0|0,1:0|0:0,0:0:0:0:
303,253,46611,2,0,B|278:213|278:213|278:111,1,135.000005149842,0|0,1:0|0:0,0:0:0:0:
215,28,47124,6,0,B|216:79|216:79|202:115|202:115|203:160,1,135.000005149842,0|8,1:0|0:0,0:0:0:0:
271,328,47637,6,0,P|319:334|268:313,1,161.999995056153,8|0,0:0|0:0,0:0:0:0:
271,328,48022,6,0,P|326:334|267:310,1,190.800000291138,8|0,0:0|0:0,0:0:0:0:
197,347,48406,5,2,0:0:0:0:
129,187,48919,6,0,L|127:142,1,45,2|0,0:0|0:0,0:0:0:0:
139,194,49175,6,0,P|210:168|291:192,1,157.5,2|0,0:0|0:0,0:0:0:0:
279,200,49688,6,0,P|211:182|135:214,1,135,4|0,1:2|0:0,0:0:0:0:
243,323,49945,2,0,L|348:316,1,90,12|0,0:0|0:0,0:0:0:0:
512,200,50201,1,0,1:0:0:0:
427,347,50329,1,0,1:0:0:0:
383,212,50457,2,0,P|379:165|407:114,1,90,8|0,0:0|0:0,0:0:0:0:
279,200,50714,5,0,1:0:0:0:
464,266,50842,1,0,0:0:0:0:
408,113,50970,1,8,0:0:0:0:
333,318,51099,1,0,0:0:0:0:
511,367,51227,6,0,P|474:348|410:352,1,90,0|0,1:0|1:0,0:0:0:0:
251,347,51483,2,0,P|295:342|339:311,1,90,8|0,0:0|0:0,0:0:0:0:
126,230,51740,6,0,B|98:228|89:209|89:209|99:188|143:185,1,90,0|0,1:0|0:0,0:0:0:0:
123,359,51997,2,0,B|146:341|142:320|142:320|122:309|84:331,1,90,8|0,0:0|0:0,0:0:0:0:
266,281,52253,6,0,B|239:274|225:290|225:290|228:313|268:330,1,90,0|0,1:0|1:0,0:0:0:0:
204,197,52510,2,0,B|228:212|248:203|248:203|252:179|218:151,1,90,8|0,0:0|0:0,0:0:0:0:
87,108,52765,6,0,P|133:115|177:114,1,90,0|0,1:0|0:0,0:0:0:0:
368,24,53022,2,0,P|321:26|278:34,1,90,8|0,0:0|0:0,0:0:0:0:
268,243,53278,2,0,P|326:233|359:160,1,135,0|0,1:0|1:0,0:0:0:0:
204,197,53534,2,0,P|190:259|211:298,1,90,8|0,0:0|0:0,0:0:0:0:
283,169,53791,6,0,L|279:35,1,135,0|0,1:0|1:0,0:0:0:0:
194,108,54047,2,0,L|204:197,1,90,8|0,0:0|0:0,0:0:0:0:
122,322,54304,2,0,L|314:306,1,180,0|8,1:0|0:0,0:0:0:0:
248,135,54688,6,0,P|165:134|138:241,1,180,0|0,1:0|0:0,0:0:0:0:
320,194,55073,2,0,L|335:98,1,90,8|0,0:0|0:0,0:0:0:0:
218,376,55329,2,0,L|203:196,1,180,0|8,1:0|0:0,0:0:0:0:
51,74,55714,6,0,B|107:58|107:58|166:89|166:89|239:77,1,180,0|0,1:0|0:0,0:0:0:0:
91,150,56099,2,0,B|51:171|51:171|5:162,1,90,8|0,0:0|0:0,0:0:0:0:
304,41,56355,2,0,P|294:88|298:149,1,90,0|0,1:0|1:0,0:0:0:0:
432,277,56611,1,8,0:0:0:0:
480,68,56740,5,0,1:0:0:0:
301,337,56996,5,0,1:0:0:0:
480,50,57252,6,0,P|434:42|392:80,1,90,0|0,1:0|0:0,0:0:0:0:
285,180,57509,1,8,0:0:0:0:
492,173,57637,1,8,0:0:0:0:
269,176,57765,1,8,0:0:0:0:
452,334,57893,6,0,P|413:247|332:239,1,180,4|8,1:2|0:0,0:0:0:0:
160,200,58278,1,0,0:0:0:0:
256,257,58406,2,0,P|303:260|346:226,1,90,0|0,1:0|1:0,0:0:0:0:
215,117,58663,2,0,P|254:96|298:104,1,90,8|0,0:0|0:0,0:0:0:0:
402,157,58919,6,0,L|415:67,1,90,0|0,1:0|0:0,0:0:0:0:
194,119,59175,2,0,L|165:7,1,90,8|0,0:0|0:0,0:0:0:0:
306,184,59432,6,0,L|297:273,1,90,0|0,1:0|1:0,0:0:0:0:
118,240,59688,2,0,L|137:327,1,90,8|0,0:0|0:0,0:0:0:0:
390,249,59945,6,0,L|210:264,1,180,0|8,1:0|0:0,0:0:0:0:
0,287,60329,1,0,0:0:0:0:
6,73,60457,2,0,P|90:79|115:160,1,180,0|8,1:0|0:0,0:0:0:0:
131,356,60842,1,0,0:0:0:0:
0,287,60970,6,0,P|45:279|96:276,1,90,0|0,1:0|0:0,0:0:0:0:
305,350,61227,2,0,P|258:347|202:337,1,90,8|0,0:0|0:0,0:0:0:0:
60,199,61483,2,0,B|148:180|137:269|249:238,1,180,0|8,1:0|0:0,0:0:0:0:
342,232,61868,1,0,0:0:0:0:
312,82,61996,6,0,P|227:88|202:169,1,180,0|8,1:0|0:0,0:0:0:0:
251,312,62381,1,0,0:0:0:0:
342,232,62509,6,0,B|382:210|420:220|420:220|464:274|524:251,1,180,0|8,1:0|0:0,0:0:0:0:
487,182,62893,1,0,0:0:0:0:
326,312,63022,6,0,P|265:251|292:169,1,180,0|8,1:0|0:0,0:0:0:0:
276,75,63406,1,0,0:0:0:0:
387,107,63534,6,0,B|430:80|490:101|490:101|447:101|412:140,1,180,0|8,1:0|0:0,0:0:0:0:
387,243,63919,1,0,0:0:0:0:
316,166,64047,2,0,P|277:162|222:169,1,90,0|0,1:0|0:0,0:0:0:0:
90,335,64304,5,8,0:0:0:0:
16,146,64432,1,0,0:0:0:0:
99,226,64560,5,8,0:0:0:0:
244,32,64688,1,0,0:0:0:0:
117,127,64816,5,8,0:0:0:0:
387,81,64945,1,0,0:0:0:0:
128,23,65073,5,8,0:0:0:0:
275,346,65329,5,8,0:0:0:0:
272,78,65586,6,0,L|268:146,2,67.5000025749208,8|0|0,0:0|0:0|0:0,0:0:0:0:
292,32,66099,6,0,L|279:219,1,180,4|8,1:2|0:0,0:0:0:0:
157,257,66483,1,0,0:0:0:0:
280,226,66611,1,0,1:0:0:0:
80,166,66740,1,0,1:0:0:0:
126,356,66868,1,8,0:0:0:0:
132,108,66996,6,0,P|47:94|1:166,1,180,0|0,0:0|0:0,0:0:0:0:
141,358,67381,1,8,0:0:0:0:
209,160,67509,1,0,0:0:0:0:
39,288,67637,5,0,1:0:0:0:
252,303,67765,1,0,1:0:0:0:
80,166,67893,1,8,0:0:0:0:
252,303,68022,1,0,0:0:0:0:
317,167,68150,6,0,B|345:122|345:122|319:30,1,135,0|0,1:0|0:0,0:0:0:0:
302,34,68406,2,0,L|209:33,1,90,8|0,0:0|0:0,0:0:0:0:
324,199,68663,2,0,L|413:190,1,90,0|0,1:0|1:0,0:0:0:0:
473,72,68919,1,8,0:0:0:0:
350,114,69047,6,0,B|289:122|289:122|250:160|250:160|165:172,1,180,0|0,1:0|0:0,0:0:0:0:
214,89,69432,2,0,B|197:28|197:28|220:40,1,90,8|0,0:0|0:0,0:0:0:0:
323,198,69688,2,0,B|364:312|364:312|315:279,1,180,0|8,1:0|0:0,0:0:0:0:
126,337,70073,1,0,0:0:0:0:
126,337,70137,1,0,0:0:0:0:
126,337,70201,6,0,L|225:321,1,90,0|0,1:0|0:0,0:0:0:0:
413,197,70457,2,0,L|316:198,1,90,8|0,0:0|0:0,0:0:0:0:
355,308,70714,5,0,1:0:0:0:
332,113,70842,1,0,1:0:0:0:
500,192,70970,1,8,0:0:0:0:
309,225,71099,1,0,1:0:0:0:
415,107,71227,5,0,0:0:0:0:
280,344,71355,1,0,1:0:0:0:
420,89,71483,5,8,0:0:0:0:
190,237,71611,1,0,0:0:0:0:
500,192,71740,5,0,1:0:0:0:
273,184,71868,1,0,1:0:0:0:
400,16,71996,2,0,P|444:14|478:42,1,90,8|0,0:0|0:0,0:0:0:0:
55,174,72252,6,0,B|7:104|72:32|72:32|62:64|84:104,1,215.999993408203,8|0,0:0|0:0,0:0:0:0:
127,276,72637,2,0,B|89:352|-4:332|-4:332|26:326|51:285,1,215.999993408203,8|0,0:0|0:0,0:0:0:0:
176,163,73022,6,0,B|217:147|217:147|299:168,1,101.250003862381,8|0,0:0|0:0,0:0:0:0:
327,279,73278,6,0,L|299:332,1,60,2|0,0:0|0:0,0:0:0:0:
291,284,73449,2,0,L|258:233,1,60,2|0,0:0|0:0,0:0:0:0:
304,253,73620,2,0,L|363:250,1,60,2|0,0:0|0:0,0:0:0:0:
308,338,73791,6,0,L|349:257,1,71.9999978027344,8|0,0:0|0:0,0:0:0:0:
248,231,73962,2,0,L|296:307,1,71.9999978027344,8|0,0:0|0:0,0:0:0:0:
377,239,74133,2,0,L|286:243,1,71.9999978027344,8|0,0:0|0:0,0:0:0:0:
108,187,74304,6,0,B|120:130|79:73|79:73|75:111|51:131,1,180,4|0,0:0|0:0,0:0:0:0:
60,286,74816,2,0,B|104:295|121:343|121:343|162:317|153:263,1,180,8|0,0:0|1:0,0:0:0:0:
111,154,75329,6,0,L|110:102,1,45,0|0,0:0|0:0,0:0:0:0:
114,176,75586,6,0,P|181:144|244:191,1,153.000002918243,0|8,1:0|0:0,0:0:0:0:
332,272,75970,2,0,P|403:253|421:176,1,153.000002918243,0|8,1:0|0:0,0:0:0:0:
351,123,76355,6,0,B|343:157|343:157|352:197,1,76.5000014591217,0|0,1:0|0:0,0:0:0:0:
501,257,76611,2,0,B|508:220|508:220|498:182,1,76.5000014591217,0|0,0:0|1:0,0:0:0:0:
432,107,76868,2,0,L|353:104,1,76.5000014591217,8|0,0:0|0:0,0:0:0:0:
274,226,77124,2,0,L|350:216,1,76.5000014591217,0|0,1:0|0:0,0:0:0:0:
271,52,77381,6,0,L|272:99,1,45,0|0,0:0|0:0,0:0:0:0:
290,42,77637,6,0,P|224:70|147:12,1,153.000002918243,0|8,1:0|0:0,0:0:0:0:
93,228,78022,2,0,P|130:164|203:153,1,153.000002918243,0|0,1:0|0:0,0:0:0:0:
369,287,78406,6,0,L|445:282,1,76.5000014591217,0|0,1:0|0:0,0:0:0:0:
298,223,78663,2,0,P|260:220|221:229,1,76.5000014591217,0|0,0:0|1:0,0:0:0:0:
227,340,78919,2,0,P|265:346|305:335,1,76.5000014591217,8|0,0:0|0:0,0:0:0:0:
128,266,79175,1,0,1:0:0:0:
210,102,79304,6,0,B|238:162|238:162|221:241,1,135.000005149842,0|0,0:0|0:0,0:0:0:0:
57,216,79688,2,0,B|50:176|50:176|68:128,1,76.5000014591217,0|0,1:0|0:0,0:0:0:0:
132,291,79945,1,8,0:0:0:0:
51,119,80073,6,0,B|28:169|28:169|46:275,1,153.000002918243
178,355,80457,5,0,1:0:0:0:
219,251,80586,1,0,0:0:0:0:
331,303,80714,2,0,P|370:281|387:245,1,76.5000014591217,0|0,0:0|1:0,0:0:0:0:
308,115,80970,5,8,0:0:0:0:
302,217,81099,1,0,1:0:0:0:
401,166,81227,1,0,1:0:0:0:
235,157,81355,6,0,B|180:170|180:170|214:182,1,76.5000014591217
385,84,81611,2,0,B|401:31|401:31|373:54,1,76.5000014591217
384,254,81868,2,0,B|422:296|422:296|416:260,1,76.5000014591217,0|8,0:0|0:0,0:0:0:0:
210,249,82124,6,0,B|129:242|129:242|78:267,1,125.999996154785,0|0,1:0|0:0,0:0:0:0:
15,172,82509,6,0,B|22:217|22:217|12:254|12:254|17:295,1,125.999996154785,4|0,1:2|0:0,0:0:0:0:
89,263,83022,6,0,B|101:217|101:217|81:109,1,135.000005149842,0|0,0:0|0:0,0:0:0:0:
80,48,83534,6,0,P|46:58|10:112,1,71.9999978027344,0|8,1:0|0:0,0:0:0:0:
18,96,83705,2,0,P|9:130|18:165,1,71.9999978027344,0|8,1:0|0:0,0:0:0:0:
23,176,83876,2,0,P|49:199|84:209,1,71.9999978027344,0|8,1:0|0:0,0:0:0:0:
159,225,84047,5,0,0:0:0:0:
202,267,84132,1,0,0:0:0:0:
203,317,84217,1,0,0:0:0:0:
181,351,84303,1,0,0:0:0:0:
152,364,84389,1,0,0:0:0:0:
132,367,84474,1,0,0:0:0:0:
117,365,84560,6,0,P|177:326|256:354,1,148.50000453186,4|0,1:2|0:0,0:0:0:0:
327,363,84816,2,0,P|326:322|353:280,1,80.9999975280763,8|0,0:0|0:0,0:0:0:0:
286,173,85073,2,0,L|219:246,1,80.9999975280763,0|0,1:0|1:0,0:0:0:0:
399,168,85329,1,8,0:0:0:0:
275,80,85457,6,0,P|353:91|421:32,1,161.999995056153,0|0,1:0|1:0,0:0:0:0:
335,16,85842,1,8,0:0:0:0:
368,167,85970,1,0,0:0:0:0:
185,41,86099,6,0,L|178:126,1,80.9999975280763,0|0,1:0|1:0,0:0:0:0:
219,264,86355,1,8,0:0:0:0:
64,218,86483,1,0,0:0:0:0:
140,354,86611,6,0,L|135:273,1,80.9999975280763,0|0,1:0|0:0,0:0:0:0:
98,148,86868,2,0,P|59:137|21:155,1,80.9999975280763,8|0,0:0|0:0,0:0:0:0:
219,264,87124,2,0,P|235:233|217:171,1,80.9999975280763,0|0,1:0|1:0,0:0:0:0:
56,348,87381,5,8,0:0:0:0:
56,348,87509,2,0,B|119:346|119:346|140:354|140:354|160:346|160:346|225:343,1,161.999995056153,0|0,1:0|1:0,0:0:0:0:
417,348,87893,2,0,P|404:308|430:247,1,80.9999975280763,8|0,0:0|0:0,0:0:0:0:
506,130,88150,6,0,L|416:126,1,80.9999975280763,0|0,1:0|1:0,0:0:0:0:
261,145,88406,2,0,P|299:158|317:207,1,80.9999975280763,8|0,0:0|0:0,0:0:0:0:
283,319,88663,6,0,P|244:319|188:337,1,80.9999975280763,0|0,1:0|0:0,0:0:0:0:
100,307,88919,2,0,P|60:310|19:327,1,80.9999975280763,8|0,0:0|0:0,0:0:0:0:
269,304,89175,6,0,P|231:313|181:344,1,80.9999975280763,0|0,1:0|0:0,0:0:0:0:
84,296,89431,2,0,P|46:309|10:335,1,80.9999975280763,8|0,0:0|0:0,0:0:0:0:
257,291,89688,6,0,P|276:256|271:215,1,80.9999975280763,0|0,0:0|0:0,0:0:0:0:
70,288,89945,2,0,P|70:327|94:360,1,80.9999975280763,8|0,0:0|0:0,0:0:0:0:
122,82,90201,5,8,0:0:0:0:
158,290,90329,1,8,0:0:0:0:
106,93,90457,1,0,0:3:0:0:
171,279,90586,1,0,0:0:0:0:
390,96,90714,6,0,P|321:102|254:106,1,135.000005149842,4|0,1:2|0:0,0:0:0:0:
331,217,91227,2,0,P|358:155|397:84,1,135.000005149842,0|0,1:0|0:0,0:0:0:0:
255,106,91740,2,0,P|293:163|333:221,1,135.000005149842,0|0,1:0|0:0,0:0:0:0:
206,211,92252,6,0,P|138:219|71:224,1,135.000005149842,0|0,1:2|0:0,0:0:0:0:
149,333,92765,2,0,P|177:272|210:200,1,135.000005149842,0|0,1:0|0:0,0:0:0:0:
71,223,93278,2,0,P|111:280|152:337,1,135.000005149842,0|0,1:0|0:0,0:0:0:0:
238,344,93791,6,0,P|276:345|309:332,1,67.5000025749208,0|0,1:0|0:0,0:0:0:0:
277,215,94047,1,8,0:0:0:0:
182,271,94176,1,8,0:0:0:0:
72,224,94304,6,0,L|68:304,1,67.5000025749208,0|0,1:0|0:0,0:0:0:0:
177,169,94560,1,8,0:0:0:0:
182,271,94688,1,0,0:0:0:0:
206,98,94816,6,0,P|140:99|99:155,1,135.000005149842,4|0,1:2|0:0,0:0:0:0:
227,334,95329,2,0,P|259:276|231:212,1,135.000005149842,0|8,1:0|0:0,0:0:0:0:
321,164,95842,6,0,B|366:158|411:166|411:166|395:148|363:128,1,135.000005149842,0|0,1:0|0:0,0:0:0:0:
242,114,96355,6,0,P|225:178|263:233,1,135.000005149842,8|0,1:2|0:0,0:0:0:0:
272,240,96868,6,0,P|234:256|174:249,1,90,8|0,0:0|0:0,0:0:0:0:
284,235,97124,6,0,P|237:262|219:314,1,95.4000001455689,8|0,0:0|0:0,0:0:0:0:
296,232,97381,6,0,P|239:234|188:209,1,100.800001230469,8|0,0:0|0:0,0:0:0:0:
308,229,97637,6,0,P|262:269|258:332,1,106.199996272888,8|0,0:0|0:0,0:0:0:0:
387,213,97893,6,0,P|369:173|300:155,1,111.59999557251,0|8,1:0|0:0,0:0:0:0:
366,294,98150,6,0,P|409:298|463:234,1,116.999994644165,8|8,1:2|0:0,0:0:0:0:
249,81,98406,5,8,0:0:0:0:
159,290,98534,1,8,0:0:0:0:
252,87,98663,1,8,0:0:0:0:
159,290,98791,1,8,0:0:0:0:
143,43,98919,6,0,B|123:95|123:95|141:198,1,148.50000453186,4|0,1:2|0:0,0:0:0:0:
123,56,99175,6,0,B|108:96|108:96|122:156,1,90,8|0,0:0|0:0,0:0:0:0:
71,308,99432,2,0,P|114:296|158:289,1,90,0|0,1:0|1:0,0:0:0:0:
367,230,99688,2,0,P|324:218|280:211,1,90,8|0,0:0|0:0,0:0:0:0:
267,323,99945,5,0,1:0:0:0:
294,97,100073,1,0,0:0:0:0:
267,323,100201,1,8,0:0:0:0:
294,97,100329,1,0,0:0:0:0:
127,185,100457,6,0,B|104:147|104:147|111:101,1,90,0|0,1:0|1:0,0:0:0:0:
279,210,100714,2,0,L|268:303,1,90,8|0,0:0|0:0,0:0:0:0:
463,279,100970,6,0,B|491:281|500:300|500:300|490:321|446:324,1,90,0|0,1:0|0:0,0:0:0:0:
466,150,101227,2,0,B|443:168|447:189|447:189|467:200|505:178,1,90,8|0,0:0|0:0,0:0:0:0:
323,228,101483,6,0,B|350:235|364:219|364:219|361:196|321:179,1,90,0|0,1:0|1:0,0:0:0:0:
385,312,101740,2,0,B|361:297|341:306|341:306|337:330|371:358,1,90,8|0,0:0|0:0,0:0:0:0:
244,125,101996,6,0,P|292:121|326:91,1,90,0|0,1:0|0:0,0:0:0:0:
111,32,102252,2,0,P|106:78|104:145,1,90,8|0,0:0|0:0,0:0:0:0:
50,279,102509,2,0,P|100:231|184:250,1,135,0|0,1:0|0:0,0:0:0:0:
237,271,102765,2,0,P|190:262|138:257,1,90,8|0,0:0|0:0,0:0:0:0:
380,245,103022,6,0,P|397:204|377:157,1,90,0|0,1:0|0:0,0:0:0:0:
239,26,103278,2,0,P|224:68|247:112,1,90,8|0,0:0|0:0,0:0:0:0:
374,137,103534,6,0,P|418:130|462:121,1,90,0|0,1:0|1:0,0:0:0:0:
273,249,103791,1,8,0:0:0:0:
462,278,103919,1,0,0:0:0:0:
261,341,104047,5,0,1:0:0:0:
291,157,104175,1,0,0:0:0:0:
261,341,104304,2,0,P|318:326|341:275,1,90,8|0,0:0|0:0,0:0:0:0:
133,131,104560,6,0,P|141:173|144:220,1,90,0|0,1:0|1:0,0:0:0:0:
273,249,104816,1,8,0:0:0:0:
238,108,104945,6,0,P|158:135|164:250,1,180,0|0,1:0|1:0,0:0:0:0:
236,341,105329,1,8,0:0:0:0:
224,189,105457,1,0,0:0:0:0:
405,237,105586,6,0,P|357:227|316:227,1,90,0|0,1:0|1:0,0:0:0:0:
477,152,105842,1,8,0:0:0:0:
387,340,105970,5,0,1:0:0:0:
407,34,106227,5,0,1:0:0:0:
399,325,106483,6,0,P|395:269|420:215,1,90,0|0,1:0|0:0,0:0:0:0:
494,108,106740,1,8,0:0:0:0:
297,169,106868,1,8,0:0:0:0:
498,94,106996,1,8,0:0:0:0:
288,154,107124,6,0,B|266:110|294:67|294:67|347:72|369:129,1,180,4|8,1:2|0:0,0:0:0:0:
405,237,107509,1,0,0:0:0:0:
280,333,107637,2,0,L|188:327,1,90,0|0,1:0|1:0,0:0:0:0:
96,240,107893,2,0,B|83:155|83:155|111:86,1,135,8|0,0:0|0:0,0:0:0:0:
102,110,108150,6,0,L|191:105,1,90,0|0,1:0|0:0,0:0:0:0:
360,306,108406,2,0,P|312:308|273:342,1,90,8|0,0:0|0:0,0:0:0:0:
224,177,108663,2,0,P|262:147|265:80,1,90,0|0,1:0|1:0,0:0:0:0:
65,69,108919,2,0,L|80:158,1,90,8|0,0:0|0:0,0:0:0:0:
0,319,109175,6,0,L|186:296,1,180,0|8,1:0|0:0,0:0:0:0:
343,342,109560,1,0,0:0:0:0:
498,221,109688,2,0,L|314:206,1,180,0|8,1:0|0:0,0:0:0:0:
107,223,110073,1,0,0:0:0:0:
192,53,110201,6,0,P|173:95|198:154,1,90,0|0,1:0|0:0,0:0:0:0:
363,20,110457,1,8,0:0:0:0:
318,206,110586,1,0,0:0:0:0:
212,57,110714,1,0,1:0:0:0:
421,95,110842,1,0,1:0:0:0:
329,284,110970,2,0,P|374:264|388:202,1,90,8|0,0:0|0:0,0:0:0:0:
182,136,111227,6,0,L|161:339,1,180,0|8,1:0|0:0,0:0:0:0:
318,206,111611,1,0,0:0:0:0:
221,68,111740,6,0,P|140:72|105:156,1,180,0|8,1:0|0:0,0:0:0:0:
163,315,112124,1,0,0:0:0:0:
347,285,112252,6,0,B|382:231|357:166|357:166|339:192|303:216,1,180,0|8,1:0|0:0,0:0:0:0:
168,293,112637,1,0,0:0:0:0:
64,217,112765,6,0,B|33:196|-4:208|-4:208|-33:153|18:107,1,180,0|8,1:0|0:0,0:0:0:0:
91,285,113150,1,0,0:0:0:0:
107,105,113278,2,0,P|152:100|203:129,1,90,0|0,1:0|0:0,0:0:0:0:
341,258,113534,5,8,0:0:0:0:
143,174,113663,1,0,0:0:0:0:
352,168,113791,5,8,0:0:0:0:
173,258,113919,1,0,0:0:0:0:
420,219,114047,5,8,0:0:0:0:
87,234,114175,1,0,0:0:0:0:
427,136,114304,6,0,P|426:91|375:49,1,99.0000030212403,0|0,1:0|0:0,0:0:0:0:
368,284,114560,6,0,P|410:303|485:263,1,107.999996704102,0|0,1:0|0:0,0:0:0:0:
287,175,114816,6,0,P|250:198|262:335,1,175.499991966248,0|0,1:0|0:0,0:0:0:0:
249,328,115073,5,0,0:0:0:0:
3,201,115329,6,0,P|48:160|134:166,1,135,0|0,0:0|0:0,0:0:0:0:
326,97,115842,2,0,P|258:90|206:39,1,135,0|0,0:0|0:0,0:0:0:0:
376,33,116355,6,0,P|380:98|375:177,1,135
367,186,116868,5,0,0:0:0:0:
386,300,117124,1,0,0:0:0:0:
261,321,117381,6,0,P|216:296|195:251,1,101.250003862381,0|0,0:0|0:0,0:0:0:0:
190,168,117637,5,8,0:0:0:0:
274,205,117765,1,0,0:0:0:0:
186,178,117893,5,8,0:0:0:0:
276,197,118022,1,0,0:0:0:0:
195,252,118150,5,8,0:0:0:0:
262,119,118278,1,0,0:0:0:0:
276,287,118406,5,8,0:0:0:0:
184,91,118534,1,8,0:0:0:0:
260,300,118663,1,8,0:0:0:0:
201,78,118791,1,8,0:0:0:0:
389,255,118919,6,0,L|436:251,1,45,2|0,1:2|0:0,0:0:0:0:
362,243,119175,6,0,B|465:233,1,101.250003862381,0|0,0:0|0:0,0:0:0:0:
512,317,119432,6,0,B|415:302|433:385|318:349,1,175.499991966248,4|0,2:0|0:0,0:0:0:0:
361,242,119688,2,0,P|353:203|373:164,1,80.9999975280763,8|0,0:0|0:0,0:0:0:0:
493,41,119945,5,0,1:0:0:0:
462,233,120073,1,0,1:0:0:0:
333,92,120201,1,8,0:0:0:0:
341,282,120329,6,0,P|292:221|205:225,1,161.999995056153,0|0,0:0|1:0,0:0:0:0:
68,321,120714,1,8,0:0:0:0:
156,114,120842,1,0,0:0:0:0:
218,241,120970,5,0,1:0:0:0:
2,196,121099,1,0,1:0:0:0:
218,241,121227,1,8,0:0:0:0:
2,196,121355,1,0,0:0:0:0:
87,60,121483,6,0,B|70:110|70:110|88:197,1,121.499996292114,0|0,1:0|0:0,0:0:0:0:
135,236,121740,2,0,L|260:228,1,121.499996292114,8|0,0:0|0:0,0:0:0:0:
256,228,121996,2,0,B|268:197|268:197|261:149,1,80.9999975280763,0|0,1:0|1:0,0:0:0:0:
156,114,122252,1,8,0:0:0:0:
145,247,122381,6,0,B|140:264|140:264|142:333,1,80.9999975280763,0|0,1:0|0:0,0:0:0:0:
8,177,122637,2,0,P|18:137|50:111,1,80.9999975280763,0|8,1:0|0:0,0:0:0:0:
239,140,122893,5,0,0:0:0:0:
167,324,123022,1,0,1:0:0:0:
326,263,123150,1,0,1:0:0:0:
326,263,123214,1,0,0:0:0:0:
326,263,123278,2,0,B|348:258|368:251|368:251|402:269|402:269|423:265|463:266,1,121.499996292114,8|0,0:0|0:0,0:0:0:0:
441,266,123534,6,0,P|454:226|433:168,1,80.9999975280763,0|0,1:0|0:0,0:0:0:0:
235,230,123791,2,0,P|231:269|247:306,1,80.9999975280763,8|0,0:0|0:0,0:0:0:0:
348,346,124047,5,0,1:0:0:0:
151,271,124175,1,0,1:0:0:0:
337,203,124304,1,8,0:0:0:0:
174,94,124432,6,0,P|131:124|128:191,1,90,0|0,1:0|0:0,0:0:0:0:
56,324,124688,1,0,1:0:0:0:
259,221,124816,1,8,0:0:0:0:
56,324,124945,1,0,0:0:0:0:
206,152,125073,5,0,1:0:0:0:
162,355,125201,1,0,1:0:0:0:
20,207,125329,1,8,0:0:0:0:
238,306,125457,6,0,P|285:311|336:337,1,90,0|0,0:0|1:0,0:0:0:0:
66,348,125714,1,0,0:0:0:0:
126,216,125842,2,0,L|115:127,1,90,8|0,0:0|0:0,0:0:0:0:
254,222,126099,5,0,1:0:0:0:
274,60,126227,1,0,1:0:0:0:
122,111,126355,1,8,0:0:0:0:
406,17,126483,5,0,1:0:0:0:
35,40,126740,5,0,1:0:0:0:
385,27,126996,6,0,P|392:71|374:116,1,90,0|0,1:0|0:0,0:0:0:0:
240,239,127252,1,8,0:0:0:0:
145,41,127381,1,8,0:0:0:0:
253,253,127509,1,8,0:0:0:0:
128,45,127637,6,0,P|129:91|126:134,1,90,4|0,1:2|0:0,0:0:0:0:
39,213,127893,1,12,0:0:0:0:
232,154,128022,1,0,0:0:0:0:
112,36,128150,5,0,1:0:0:0:
151,240,128278,1,0,1:0:0:0:
0,126,128406,1,8,0:0:0:0:
213,75,128534,6,0,B|346:60|346:60|302:93,1,180
248,271,128919,2,0,L|243:158,1,90,8|0,0:0|0:0,0:0:0:0:
419,191,129175,1,0,1:0:0:0:
242,157,129304,1,0,1:0:0:0:
410,306,129432,2,0,L|418:208,1,90,8|0,0:0|0:0,0:0:0:0:
123,243,129688,6,0,P|73:231|121:212,1,135,0|0,1:0|0:0,0:0:0:0:
150,319,129945,2,0,P|109:336|35:318,1,90,8|0,0:0|0:0,0:0:0:0:
52,129,130201,2,0,P|99:121|147:140,1,90,0|0,1:0|0:0,0:0:0:0:
263,268,130457,1,8,0:0:0:0:
121,212,130586,6,0,P|58:224|121:244,1,180,0|0,1:0|1:0,0:0:0:0:
261,149,130970,1,8,0:0:0:0:
325,354,131099,1,0,0:0:0:0:
261,149,131227,1,0,1:0:0:0:
325,354,131355,1,0,1:0:0:0:
417,209,131483,5,8,0:0:0:0:
178,297,131611,1,0,0:0:0:0:
335,174,131740,6,0,P|312:89|213:90,1,180,0|8,1:2|0:0,0:0:0:0:
272,281,132124,1,0,0:0:0:0:
272,281,132188,1,0,0:0:0:0:
272,281,132252,2,0,L|371:273,1,90,0|0,1:0|1:0,0:0:0:0:
486,305,132509,1,8,0:0:0:0:
432,119,132637,6,0,B|324:99|352:182|230:140,1,180,0|0,1:0|1:0,0:0:0:0:
395,283,133022,2,0,L|393:167,1,90,8|0,0:0|0:0,0:0:0:0:
208,97,133278,2,0,P|186:135|198:190,1,90,0|0,1:0|1:0,0:0:0:0:
317,324,133534,2,0,P|295:283|254:265,1,90,8|0,0:0|0:0,0:0:0:0:
49,264,133791,6,0,P|90:267|142:270,1,90,0|0,1:0|0:0,0:0:0:0:
236,343,134047,1,8,0:0:0:0:
66,104,134175,5,0,1:0:0:0:
484,59,134432,5,0,1:0:0:0:
46,112,134688,5,0,1:0:0:0:
414,107,134945,6,0,L|370:106,1,45,8|0,0:0|0:0,0:0:0:0:
327,214,135073,2,0,L|378:212,1,45,8|0,0:0|0:0,0:0:0:0:
406,91,135201,2,0,L|348:93,1,45,8|0,0:0|0:0,0:0:0:0:
312,215,135329,6,0,L|315:259,1,45,8|0,0:0|0:0,0:0:0:0:
264,111,135457,2,0,L|267:66,1,45,8|0,0:0|0:0,0:0:0:0:
224,196,135586,2,0,L|132:187,1,90,8|8,0:0|0:0,0:0:0:0:
98,95,135842,6,0,P|118:59|154:38,1,83.9999974365235,4|0,1:2|0:0,0:0:0:0:
152,284,136184,1,0,0:0:0:0:
391,193,136355,2,0,P|304:191|210:197,1,167.999994873047,0|2,1:0|0:0,0:0:0:0:
247,371,136868,2,0,P|232:331|240:291,1,83.9999974365235,0|0,1:0|0:0,0:0:0:0:
412,270,137210,5,8,0:3:0:0:
240,290,137381,1,4,0:0:0:0:
437,265,137722,5,0,1:0:0:0:
322,132,137893,2,0,L|324:223,1,83.9999974365235,6|2,1:3|0:0,0:0:0:0:
363,323,138235,1,0,1:0:0:0:
401,122,138406,6,0,P|337:55|261:81,1,167.999994873047,0|2,1:0|0:0,0:0:0:0:
168,194,138919,2,0,P|120:178|97:135,1,83.9999974365235,0|2,1:0|0:0,0:0:0:0:
29,59,139261,5,8,0:3:0:0:
20,245,139432,1,4,0:0:0:0:
50,46,139774,5,0,1:0:0:0:
190,128,139945,2,0,P|231:122|285:119,1,83.9999974365235,6|2,1:3|0:3,1:3:0:0:
383,184,140287,1,0,1:0:0:0:
288,267,140457,6,0,P|248:203|296:102,1,167.999994873047,0|8,1:0|0:0,0:0:0:0:
381,57,140970,1,0,1:0:0:0:
383,184,141141,1,2,0:0:0:0:
284,132,141312,1,0,1:0:0:0:
389,37,141483,6,0,P|405:115|387:233,1,167.999994873047,8|2,0:0|0:0,0:0:0:0:
339,323,141996,2,0,B|298:332|298:332|242:322,1,83.9999974365235,0|2,1:0|0:0,0:0:0:0:
162,227,142338,1,0,1:0:0:0:
279,216,142509,2,0,L|286:106,2,83.9999974365235,0|2|2,1:0|0:0|0:0,0:0:0:0:
322,66,143022,6,0,P|266:60|230:78,1,83.9999974365235,2|2,0:3|0:0,0:0:0:0:
174,163,143363,1,2,0:0:0:0:
212,2,143534,6,0,P|172:41|162:81,1,83.9999974365235,2|2,0:3|0:0,0:0:0:0:
183,182,143875,1,2,0:0:0:0:
87,41,144047,6,0,P|90:96|115:129,1,83.9999974365235,4|0,1:3|0:0,0:0:0:0:
195,200,144389,1,0,1:0:0:0:
244,121,144560,6,0,B|302:113|302:113|358:127|358:127|420:116,1,167.999994873047,0|8,1:0|0:0,0:0:0:0:
372,294,145073,2,0,P|361:253|373:213,1,83.9999974365235,0|0,1:0|0:0,0:0:0:0:
489,106,145415,5,8,0:3:0:0:
493,294,145586,1,4,0:0:0:0:
478,87,145928,5,0,1:0:0:0:
349,214,146099,2,0,P|308:214|237:220,1,83.9999974365235,4|0,1:3|0:0,0:0:0:0:
192,331,146440,1,2,0:0:0:0:
116,273,146611,2,0,P|96:193|142:100,1,167.999994873047,0|8,1:0|0:0,0:0:0:0:
207,45,147124,6,0,B|255:15|323:35|323:35|286:41|261:77,1,167.999994873047,0|8,1:0|0:0,0:0:0:0:
204,162,147637,1,8,0:0:0:0:
309,161,147808,1,8,0:0:0:0:
204,162,147979,1,8,0:0:0:0:
256,244,148150,5,4,0:2:0:0:
150,195,150030,6,0,L|149:256,1,45.0000017166138
112,118,150201,5,4,1:2:0:0:
464,46,150714,5,4,1:2:0:0:
100,283,151227,5,4,1:2:0:0:
472,316,151740,5,4,1:2:0:0:
115,143,152252,6,0,B|136:76|91:50|91:50|63:82|57:163|154:204|154:204|61:208|38:258|39:304|39:304|72:342|168:350|208:262,1,673.199997945557,4|0,1:1|0:0,0:0:0:0:
229,192,155329,6,0,L|264:208,2,39.5999998791504,0|0|0,0:0|0:0|0:0,0:0:0:0:
361,75,155842,6,0,P|313:91|288:135,1,103.200001574707
287,293,156355,6,0,L|290:235,1,45,0|0,0:0|0:0,0:0:0:0:
419,139,156611,2,0,L|417:196,1,45,0|0,0:0|0:0,0:0:0:0:
297,302,156868,6,0,L|300:243,1,53.9999983520508,0|0,0:0|0:0,0:0:0:0:
434,137,157124,2,0,L|431:195,1,53.9999983520508,0|0,0:0|0:0,0:0:0:0:
307,313,157381,6,0,L|310:232,1,62.9999980773926,0|0,0:0|0:0,0:0:0:0:
441,137,157637,2,0,L|440:217,1,62.9999980773926,0|0,0:0|0:0,0:0:0:0:
321,323,157893,6,0,L|320:237,1,72,0|0,0:0|0:0,0:0:0:0:
451,136,158150,2,0,L|453:221,1,72,0|0,0:0|0:0,0:0:0:0:
445,354,158406,5,0,1:0:0:0:
333,345,158534,1,0,0:0:0:0:
445,326,158663,5,0,1:0:0:0:
321,323,158791,1,0,0:0:0:0:
439,255,158919,5,0,1:0:0:0:
289,282,159047,1,8,0:0:0:0:
417,182,159175,5,0,1:0:0:0:
245,245,159304,1,8,0:0:0:0:
384,115,159432,5,0,1:0:0:0:
181,213,159560,1,8,0:0:0:0:
334,53,159688,5,0,1:0:0:0:
106,199,159816,1,8,0:0:0:0:
265,24,159945,5,0,1:0:0:0:
33,223,160073,1,8,0:0:0:0:
188,13,160201,5,0,1:0:0:0:
0,298,160329,1,8,0:0:0:0:
0,77,160457,6,0,P|95:45|156:125,1,215.999993408203,4|8,1:1|0:0,0:0:0:0:
256,340,160842,2,0,P|298:333|323:285,1,90,4|0,1:1|0:0,0:0:0:0:
414,17,161099,2,0,P|457:23|483:59,1,90,4|0,1:1|0:0,0:0:0:0:
512,262,161355,1,8,1:2:0:0:
432,159,161483,6,0,L|396:152,1,30,8|0,0:0|0:0,0:0:0:0:
392,150,161569,2,0,L|356:143,1,30,8|0,0:0|0:0,0:0:0:0:
353,140,161654,2,0,L|317:133,1,30,8|0,0:0|0:0,0:0:0:0:
312,131,161740,6,0,L|346:118,1,30,8|0,0:0|0:0,0:0:0:0:
351,117,161826,2,0,L|385:104,1,30,8|0,0:0|0:0,0:0:0:0:
388,106,161911,2,0,L|422:93,1,30,8|0,0:0|0:0,0:0:0:0:
395,83,161996,6,0,B|396:152|396:152|420:175|420:175|424:263|424:263|385:314,1,236.250009012223,4|0,0:0|0:0,0:0:0:0:
289,167,162509,6,0,P|252:154|209:172,1,77.9999964294435
213,260,162680,2,0,P|257:273|294:257,1,83.9999974365235
297,154,162851,2,0,P|252:138|201:159,1,90.0000034332277
184,255,163022,6,0,P|261:289|323:248,1,157.5,8|0,0:0|0:0,0:0:0:0:
276,51,163534,6,0,P|205:52|121:47,1,135,4|0,1:2|0:0,0:0:0:0:
141,50,163791,2,0,B|131:99|131:99|142:137,1,90,8|0,0:0|0:0,0:0:0:0:
58,70,164047,5,0,1:0:0:0:
218,168,164175,1,0,1:0:0:0:
89,250,164304,2,0,B|-14:233,1,90,8|0,0:0|0:0,0:0:0:0:
29,76,164560,5,0,1:0:0:0:
173,237,164688,1,0,0:0:0:0:
224,48,164816,1,8,0:0:0:0:
118,128,164945,1,0,0:0:0:0:
320,52,165073,6,0,P|324:102|337:167,1,90,0|0,1:0|1:0,0:0:0:0:
56,182,165329,2,0,P|34:143|40:100,1,90,8|0,0:0|0:0,0:0:0:0:
205,221,165586,6,0,L|312:213,1,90,0|0,1:0|0:0,0:0:0:0:
465,312,165842,2,0,B|371:315,1,90,8|0,0:0|0:0,0:0:0:0:
218,237,166099,6,0,L|325:229,1,90,0|0,1:0|0:0,0:0:0:0:
452,331,166355,2,0,B|358:334,1,90,8|0,0:0|0:0,0:0:0:0:
402,156,166611,6,0,P|415:198|404:241,1,90,0|0,1:0|0:0,0:0:0:0:
214,321,166868,2,0,P|202:278|218:236,1,90,8|0,0:0|0:0,0:0:0:0:
279,105,167124,6,0,B|311:152|311:152|306:256,1,135,0|0,1:0|0:0,0:0:0:0:
303,317,167381,2,0,L|192:321,1,90,8|0,0:0|0:0,0:0:0:0:
103,210,167637,6,0,B|82:147|82:147|102:81,1,135,0|0,1:0|0:0,0:0:0:0:
176,33,167893,2,0,B|187:76|187:76|174:122,1,90,8|0,0:0|0:0,0:0:0:0:
158,295,168150,2,0,B|33:281|33:281|65:338,1,180,0|8,1:0|0:0,0:0:0:0:
290,197,168534,6,0,B|232:182|232:182|175:206|175:206|98:184,1,180,0|0,1:0|1:0,0:0:0:0:
215,350,168919,2,0,P|214:305|233:264,1,90,8|0,0:0|0:0,0:0:0:0:
5,58,169175,2,0,P|40:137|38:232,1,180,0|8,1:0|0:0,0:0:0:0:
180,130,169560,6,0,B|234:141|306:122|306:122|280:151|294:195,1,180,0|0,1:0|1:0,0:0:0:0:
365,261,169945,2,0,P|362:219|373:156,1,90,8|0,0:0|0:0,0:0:0:0:
188,249,170201,2,0,P|195:294|196:339,1,90
233,76,170457,1,8,0:0:0:0:
113,203,170586,5,0,1:0:0:0:
441,69,170842,5,0,1:0:0:0:
94,202,171099,6,0,B|72:200|72:200|2:216,1,90,0|0,1:0|0:0,0:0:0:0:
63,300,171355,1,8,0:0:0:0:
102,101,171483,1,8,0:0:0:0:
60,317,171611,1,8,0:0:0:0:
101,86,171740,6,0,B|137:51|185:63|185:63|214:98|262:101,1,180,4|8,1:2|0:0,0:0:0:0:
153,157,172124,1,0,0:0:0:0:
348,78,172252,6,0,P|353:121|328:158,1,90,0|0,1:0|1:0,0:0:0:0:
263,24,172509,2,0,P|305:26|342:65,1,90,8|0,0:0|0:0,0:0:0:0:
153,157,172765,6,0,P|150:108|142:42,1,90,0|0,1:0|0:0,0:0:0:0:
238,164,173022,1,8,0:0:0:0:
86,209,173150,1,0,0:0:0:0:
294,235,173278,6,0,P|323:201|327:154,1,90,0|0,1:0|0:0,0:0:0:0:
76,125,173534,2,0,P|67:170|92:214,1,90,8|0,0:0|0:0,0:0:0:0:
174,340,173791,6,0,P|132:318|85:306,1,90,0|0,1:0|0:0,0:0:0:0:
284,268,174047,2,0,P|326:246|373:234,1,90,8|0,0:0|0:0,0:0:0:0:
194,208,174304,5,0,1:0:0:0:
259,357,174432,1,0,1:0:0:0:
399,225,174560,1,8,0:0:0:0:
262,276,174688,1,0,0:0:0:0:
326,106,174816,6,0,P|293:144|292:192,1,90,0|0,1:0|0:0,0:0:0:0:
405,328,175073,1,8,0:0:0:0:
480,147,175201,1,0,0:0:0:0:
399,225,175329,5,0,1:0:0:0:
512,286,175457,1,0,1:0:0:0:
403,125,175586,1,8,0:0:0:0:
282,280,175714,1,0,0:0:0:0:
480,147,175842,6,0,P|481:103|453:65,1,90,0|0,1:0|0:0,0:0:0:0:
268,26,176099,1,8,0:0:0:0:
278,187,176227,1,0,0:0:0:0:
366,23,176355,5,0,1:0:0:0:
205,105,176483,1,0,1:0:0:0:
403,125,176611,1,8,0:0:0:0:
236,27,176740,6,0,P|150:38|119:118,1,180,0|0,1:0|1:0,0:0:0:0:
270,276,177124,2,0,P|276:231|278:187,1,90,8|0,0:0|0:0,0:0:0:0:
304,79,177381,5,0,1:0:0:0:
197,229,177509,1,0,1:0:0:0:
376,175,177637,1,8,0:0:0:0:
367,337,177765,6,0,B|319:335|319:335|282:357|282:357|242:347|242:347|195:359,1,180,0|0,1:0|1:0,0:0:0:0:
278,187,178150,1,8,0:0:0:0:
96,315,178278,1,0,0:0:0:0:
125,174,178406,5,0,1:0:0:0:
191,338,178534,1,12,0:2:0:0:
297,186,178663,1,0,1:0:0:0:
44,154,178791,6,0,P|62:221|172:241,1,161.999995056153,12|0,0:2|0:0,0:0:0:0:
51,249,179047,6,0,P|144:265|208:195,1,175.499991966248,8|0,0:2|0:0,0:0:0:0:
245,56,179304,6,0,B|215:20|162:28|162:28|118:68|105:117|126:177,1,251.999992309571,14|0,0:0|0:0,0:0:0:0:
244,293,179688,5,8,0:0:0:0:
82,339,179816,1,8,0:0:0:0:
259,281,179945,6,0,P|280:207|226:133,1,148.50000453186,4|0,1:2|0:0,0:0:0:0:
292,26,180201,2,0,P|294:74|330:118,1,99.0000030212403,8|0,0:0|0:0,0:0:0:0:
508,35,180457,5,0,1:0:0:0:
332,129,180586,1,0,1:0:0:0:
396,11,180714,1,8,0:0:0:0:
424,203,180842,1,0,0:0:0:0:
424,203,180906,1,0,0:0:0:0:
424,203,180970,6,0,P|479:206|521:164,1,99.0000030212403,0|0,1:0|0:0,0:0:0:0:
351,284,181227,2,0,P|296:287|254:245,1,99.0000030212403,8|0,0:0|0:0,0:0:0:0:
152,126,181483,5,0,1:0:0:0:
314,148,181611,1,0,1:0:0:0:
152,276,181740,2,0,P|200:279|249:286,1,99.0000030212403,8|0,0:0|0:0,0:0:0:0:
327,132,181996,6,0,P|335:84|311:37,1,99.0000030212403,0|0,1:0|0:0,0:0:0:0:
97,181,182252,2,0,P|75:138|83:90,1,99.0000030212403,8|0,0:0|0:0,0:0:0:0:
321,240,182509,5,0,1:0:0:0:
152,126,182637,1,0,1:0:0:0:
130,325,182765,1,8,0:0:0:0:
326,227,182893,1,0,0:0:0:0:
326,227,182957,1,0,0:0:0:0:
326,227,183022,6,0,P|378:217|414:165,1,99.0000030212403,0|0,1:0|0:0,0:0:0:0:
188,276,183278,2,0,P|147:249|99:254,1,99.0000030212403,8|0,0:0|0:0,0:0:0:0:
21,360,183534,5,0,1:0:0:0:
47,193,183663,1,0,1:0:0:0:
209,351,183791,2,0,P|257:341|306:338,1,99.0000030212403,8|0,0:0|0:0,0:0:0:0:
283,114,184047,6,0,P|269:160|288:205,1,99.0000030212403,0|0,1:0|0:0,0:0:0:0:
451,256,184304,2,0,P|405:273|359:256,1,99.0000030212403,8|0,0:0|0:0,0:0:0:0:
348,155,184560,5,0,1:0:0:0:
363,366,184688,1,0,1:0:0:0:
479,244,184816,1,8,0:0:0:0:
279,291,184945,1,0,0:0:0:0:
279,291,185009,1,0,0:0:0:0:
279,291,185073,6,0,P|230:297|189:271,1,99.0000030212403,0|0,1:0|0:0,0:0:0:0:
0,254,185329,2,0,P|43:231|61:186,1,99.0000030212403,8|0,0:0|0:0,0:0:0:0:
34,68,185586,5,0,1:0:0:0:
115,263,185714,1,0,1:0:0:0:
163,36,185842,2,0,P|158:91|162:147,1,99.0000030212403,8|0,0:0|0:0,0:0:0:0:
310,211,186099,6,0,P|325:164|297:115,1,99.0000030212403,0|0,1:0|0:0,0:0:0:0:
189,271,186355,2,0,P|175:325|210:369,1,99.0000030212403,8|0,0:0|0:0,0:0:0:0:
248,168,186611,5,0,1:0:0:0:
84,286,186740,1,0,1:0:0:0:
258,310,186868,1,8,0:0:0:0:
127,160,186996,1,0,0:0:0:0:
127,160,187060,1,0,0:0:0:0:
127,160,187124,6,0,P|75:146|31:138,1,99.0000030212403,0|0,1:0|0:0,0:0:0:0:
315,233,187381,2,0,P|363:241|406:217,1,99.0000030212403,8|0,0:0|0:0,0:0:0:0:
479,62,187637,5,4,1:2:0:0:
350,169,187765,1,0,1:0:0:0:
512,211,187893,5,8,0:0:0:0:
334,18,188022,1,8,0:0:0:0:
232,239,188150,6,0,P|252:284|293:312,1,99.0000030212403,4|0,1:2|0:0,0:0:0:0:
407,350,188406,1,8,0:0:0:0:
407,350,188535,1,0,0:0:0:0:
178,304,188663,6,0,P|157:259|170:193,1,103.500001974106,0|0,1:0|1:0,0:0:0:0:
238,84,188919,1,8,0:0:0:0:
238,84,189048,1,0,0:0:0:0:
127,138,189176,6,0,P|91:178|86:231,1,107.999996704102,0|0,1:0|0:0,0:0:0:0:
112,357,189432,1,8,0:0:0:0:
112,357,189560,1,0,0:0:0:0:
0,205,189688,1,0,1:0:0:0:
233,256,189816,1,0,1:0:0:0:
3,322,189945,5,8,0:0:0:0:
150,65,190073,1,0,0:0:0:0:
311,260,190201,6,0,P|311:310|318:370,1,99.0000030212403,0|0,1:0|0:0,0:0:0:0:
185,193,190457,2,0,P|228:166|277:131,1,99.0000030212403,8|0,0:0|0:0,0:0:0:0:
193,325,190714,5,0,1:0:0:0:
177,89,190842,1,0,1:0:0:0:
400,185,190970,1,8,0:0:0:0:
171,207,191099,1,0,0:0:0:0:
405,86,191227,6,0,P|399:135|399:184,1,99.0000030212403,0|0,1:0|0:0,0:0:0:0:
479,332,191483,2,0,P|435:310|381:312,1,99.0000030212403,8|0,0:0|0:0,0:0:0:0:
157,325,191740,5,0,1:0:0:0:
383,194,191868,1,0,1:0:0:0:
157,325,191996,1,8,0:0:0:0:
224,114,192124,1,0,0:0:0:0:
287,348,192252,6,0,P|308:304|291:252,1,99.0000030212403,0|0,1:0|0:0,0:0:0:0:
93,207,192509,2,0,P|145:202|215:189,1,99.0000030212403,8|0,0:0|0:0,0:0:0:0:
223,85,192765,1,0,1:0:0:0:
185,331,192893,1,0,1:0:0:0:
409,229,193022,5,8,0:0:0:0:
132,106,193150,1,0,0:0:0:0:
368,29,193278,6,0,P|360:79|361:138,1,99.0000030212403,0|0,1:0|0:0,0:0:0:0:
204,328,193534,2,0,P|203:274|191:218,1,99.0000030212403,8|0,0:0|1:0,0:0:0:0:
27,99,193791,1,0,1:0:0:0:
280,178,193919,1,0,0:0:0:0:
21,248,194047,1,8,0:0:0:0:
280,178,194175,1,0,0:0:0:0:
14,88,194304,5,0,1:0:0:0:
204,328,194432,1,0,0:0:0:0:
154,63,194560,6,0,P|148:112|139:172,1,99.0000030212403,12|0,0:0|0:0,0:0:0:0:
52,344,194816,1,0,0:0:0:0:
34,106,194945,1,0,0:0:0:0:
220,319,195073,5,12,0:0:0:0:
396,60,195201,1,0,0:0:0:0:
362,319,195329,5,12,0:2:0:0:
173,60,195457,1,0,1:0:0:0:
209,335,195586,5,12,0:2:0:0:
402,44,195714,1,0,1:0:0:0:
370,336,195842,5,12,0:0:0:0:
160,44,195970,1,0,1:0:0:0:
443,361,196099,6,0,P|435:290|366:261,1,148.50000453186,12|0,0:0|0:0,0:0:0:0:
289,257,196355,5,4,0:0:0:0:
101,143,204560,5,0,1:0:0:0:
173,273,204816,1,2,0:0:0:0:
112,153,205073,1,8,0:0:0:0:
185,269,205329,1,10,0:0:0:0:
185,269,205457,2,0,L|276:262,1,67.5000025749208,0|0,1:0|0:0,0:0:0:0:
364,118,205714,5,0,1:0:0:0:
385,267,205842,1,10,0:0:0:0:
368,258,206099,6,0,P|369:295|362:334,1,67.5000025749208,8|0,0:0|1:0,0:0:0:0:
380,131,206355,2,0,P|376:95|382:47,1,67.5000025749208,2|8,0:0|0:0,0:0:0:0:
214,46,206611,5,0,1:0:0:0:
90,115,206868,1,2,0:0:0:0:
219,58,207124,1,8,0:0:0:0:
82,119,207381,1,10,0:0:0:0:
82,119,207509,2,0,L|103:186,1,67.5000025749208,0|0,1:0|0:0,0:0:0:0:
194,172,207765,5,0,1:0:0:0:
194,172,207893,2,0,P|204:206|201:247,1,67.5000025749208,10|0,0:0|0:0,0:0:0:0:
266,308,208150,2,0,P|278:271|309:245,1,67.5000025749208,8|0,0:0|1:0,0:0:0:0:
345,175,208406,2,0,P|310:175|276:168,1,67.5000025749208,2|8,0:0|0:0,0:0:0:0:
127,71,208663,5,0,1:0:0:0:
94,246,208919,1,2,0:0:0:0:
108,63,209175,1,8,0:0:0:0:
81,243,209432,1,10,0:0:0:0:
81,243,209560,2,0,L|103:322,1,67.5000025749208,0|0,1:0|0:0,0:0:0:0:
207,159,209816,5,0,1:0:0:0:
254,304,209945,1,10,0:0:0:0:
251,317,210201,2,0,P|281:302|321:302,1,67.5000025749208,8|0,0:0|1:0,0:0:0:0:
414,333,210457,2,0,P|407:300|403:267,1,67.5000025749208,2|8,0:0|0:0,0:0:0:0:
341,33,210714,5,0,1:0:0:0:
326,225,210970,1,2,0:0:0:0:
321,34,211227,1,8,0:0:0:0:
349,231,211483,1,2,1:2:0:0:
338,124,211611,5,8,0:0:0:0:
240,249,211740,2,0,P|206:260|222:228,1,90,4|0,1:2|0:0,0:0:0:0:
350,128,211996,5,0,0:0:0:0:
237,242,212124,2,0,P|201:268|221:228,1,121.500000463486,4|0,1:2|0:0,0:0:0:0:
361,132,212381,5,0,0:0:0:0:
302,309,212509,1,4,0:0:0:0:
