osu file format v14

[General]
AudioFilename: audio200.mp3
AudioLeadIn: 0
PreviewTime: 165522
Countdown: 0
SampleSet: Soft
StackLeniency: 0.4
Mode: 0
LetterboxInBreaks: 0
EpilepsyWarning: 1
WidescreenStoryboard: 1

[Editor]
Bookmarks: 190457
DistanceSpacing: 1.4
BeatDivisor: 4
GridSize: 32
TimelineZoom: 3.700004

[Metadata]
Title:Sukisuki Zecchoushou
TitleUnicode:スキスキ絶頂症
Artist:Kano
ArtistUnicode:鹿乃
Creator:Loreley
Version:Expert
Source:
Tags:GUMI vocaloid utaite cover Denpol-P koyori 電ポルP [panda619] 619 SnowNiNo_ Namki TheMefisto SherryCherry Allihoppa wajinshu nattu smau5
BeatmapID:1250198
BeatmapSetID:484532

[Difficulty]
HPDrainRate:6
CircleSize:4.1
OverallDifficulty:8.5
ApproachRate:9.3
SliderMultiplier:1.8
SliderTickRate:1

[Events]
//Background and Video events
0,0,"deep sea dream.jpg",0,0
//Break Periods
2,135913,147596
2,196555,202202
//Storyboard Layer 0 (Background)
//Storyboard Layer 1 (Fail)
//Storyboard Layer 2 (Pass)
//Storyboard Layer 3 (Foreground)
Sprite,Foreground,Centre,"sb\ring.png",320,240 M,0,16355,,416,368 F,0,16355,,1 C,0,16355,,255,255,255 S,7,16355,16855,0.25,0.9 F,0,16356,16856,1,0
Sprite,Foreground,Centre,"sb\ring.png",320,240 M,0,16483,,492,321 F,0,16483,,1 C,0,16483,,255,255,255 S,7,16483,16983,0.25,0.9 F,0,16484,16984,1,0
Sprite,Foreground,Centre,"sb\ring.png",320,240 M,0,16611,,330,345 F,0,16611,,1 C,0,16611,,255,255,255 S,7,16611,17111,0.25,0.9 F,0,16612,17112,1,0
Sprite,Foreground,Centre,"sb\ring.png",320,240 M,0,16740,,415,388 F,0,16740,,1 C,0,16740,,255,255,255 S,7,16740,17240,0.25,0.9 F,0,16741,17241,1,0
Sprite,Foreground,Centre,"sb\ring.png",320,240 M,0,16868,,278,411 F,0,16868,,1 C,0,16868,,255,255,255 S,7,16868,17368,0.25,0.9 F,0,16869,17369,1,0
Sprite,Foreground,Centre,"sb\ring.png",320,240 M,0,17124,,267,288 F,0,17124,,1 C,0,17124,,255,255,255 S,7,17124,18124,0.25,0.9 F,0,17125,18125,1,0
Sprite,Foreground,Centre,"sb\ring.png",320,240 M,0,23278,,385,372 F,0,23278,,1 C,0,23278,,255,255,255 S,7,23278,24278,0.25,0.9 F,0,23279,24279,1,0
Sprite,Foreground,Centre,"sb\ring.png",320,240 M,0,23791,,371,206 F,0,23791,,1 C,0,23791,,255,255,255 S,7,23791,24791,0.25,0.9 F,0,23792,24792,1,0
Sprite,Foreground,Centre,"sb\ring.png",320,240 M,0,24047,,343,105 F,0,24047,,1 C,0,24047,,255,255,255 S,7,24047,24547,0.25,0.9 F,0,24048,24548,1,0
Sprite,Foreground,Centre,"sb\ring.png",320,240 M,0,24304,,105,166 F,0,24304,,1 C,0,24304,,255,255,255 S,7,24304,24804,0.25,0.9 F,0,24305,24805,1,0
Sprite,Foreground,Centre,"sb\ring.png",320,240 M,0,24432,,282,212 F,0,24432,,1 C,0,24432,,255,255,255 S,7,24432,24932,0.25,0.9 F,0,24433,24933,1,0
Sprite,Foreground,Centre,"sb\ring.png",320,240 M,0,24560,,216,97 F,0,24560,,1 C,0,24560,,255,255,255 S,7,24560,25060,0.25,0.9 F,0,24561,25061,1,0
Sprite,Foreground,Centre,"sb\ring.png",320,240 M,0,24688,,168,277 F,0,24688,,1 C,0,24688,,255,255,255 S,7,24688,25188,0.25,0.9 F,0,24689,25189,1,0
Sprite,Foreground,Centre,"sb\ring.png",320,240 M,0,24816,,80,152 F,0,24816,,1 C,0,24816,,255,255,255 S,7,24816,25316,0.25,0.9 F,0,24817,25317,1,0
Sprite,Foreground,Centre,"sb\ring.png",320,240 M,0,24945,,303,225 F,0,24945,,1 C,0,24945,,255,255,255 S,7,24945,25445,0.25,0.9 F,0,24946,25446,1,0
Sprite,Foreground,Centre,"sb\ring.png",320,240 M,0,25073,,227,70 F,0,25073,,1 C,0,25073,,255,255,255 S,7,25073,26073,0.25,0.9 F,0,25074,26074,1,0
Sprite,Foreground,Centre,"sb\ring.png",320,240 M,0,33534,,463,290 F,0,33534,,1 C,0,33534,,255,255,255 S,7,33534,34034,0.25,0.9 F,0,33535,34035,1,0
Sprite,Foreground,Centre,"sb\ring.png",320,240 M,0,33663,,466,298 F,0,33663,,1 C,0,33663,,255,255,255 S,7,33663,34163,0.25,0.9 F,0,33664,34164,1,0
Sprite,Foreground,Centre,"sb\ring.png",320,240 M,0,33791,,378,281 F,0,33791,,1 C,0,33791,,255,255,255 S,7,33791,34291,0.25,0.9 F,0,33792,34292,1,0
Sprite,Foreground,Centre,"sb\ring.png",320,240 M,0,33919,,370,291 F,0,33919,,1 C,0,33919,,255,255,255 S,7,33919,34419,0.25,0.9 F,0,33920,34420,1,0
Sprite,Foreground,Centre,"sb\ring.png",320,240 M,0,34047,,309,226 F,0,34047,,1 C,0,34047,,255,255,255 S,7,34047,34547,0.25,0.9 F,0,34048,34548,1,0
Sprite,Foreground,Centre,"sb\ring.png",320,240 M,0,34175,,290,236 F,0,34175,,1 C,0,34175,,255,255,255 S,7,34175,34675,0.25,0.9 F,0,34176,34676,1,0
Sprite,Foreground,Centre,"sb\ring.png",320,240 M,0,34304,,298,126 F,0,34304,,1 C,0,34304,,255,255,255 S,7,34304,34804,0.25,0.9 F,0,34305,34805,1,0
Sprite,Foreground,Centre,"sb\ring.png",320,240 M,0,34432,,265,125 F,0,34432,,1 C,0,34432,,255,255,255 S,7,34432,34932,0.25,0.9 F,0,34433,34933,1,0
Sprite,Foreground,Centre,"sb\ring.png",320,240 M,0,47637,,533,243 F,0,47637,,1 C,0,47637,,255,255,255 S,7,47637,48137,0.25,0.9 F,0,47638,48138,1,0
Sprite,Foreground,Centre,"sb\ring.png",320,240 M,0,48022,,373,243 F,0,48022,,1 C,0,48022,,255,255,255 S,7,48022,48522,0.25,0.9 F,0,48023,48523,1,0
Sprite,Foreground,Centre,"sb\ring.png",320,240 M,0,48406,,458,340 F,0,48406,,1 C,0,48406,,255,255,255 S,7,48406,48906,0.25,0.9 F,0,48407,48907,1,0
Sprite,Foreground,Centre,"sb\ring.png",320,240 M,0,57509,,411,264 F,0,57509,,1 C,0,57509,,255,255,255 S,7,57509,58009,0.25,0.9 F,0,57510,58010,1,0
Sprite,Foreground,Centre,"sb\ring.png",320,240 M,0,57637,,532,252 F,0,57637,,1 C,0,57637,,255,255,255 S,7,57637,58137,0.25,0.9 F,0,57638,58138,1,0
Sprite,Foreground,Centre,"sb\ring.png",320,240 M,0,57765,,400,263 F,0,57765,,1 C,0,57765,,255,255,255 S,7,57765,58265,0.25,0.9 F,0,57766,58266,1,0
Sprite,Foreground,Centre,"sb\ring.png",320,240 M,0,72252,,295,209 F,0,72252,,1 C,0,72252,,255,255,255 S,7,72252,72752,0.25,0.9 F,0,72253,72753,1,0
Sprite,Foreground,Centre,"sb\ring.png",320,240 M,0,72637,,168,97 F,0,72637,,1 C,0,72637,,255,255,255 S,7,72637,73137,0.25,0.9 F,0,72638,73138,1,0
Sprite,Foreground,Centre,"sb\ring.png",320,240 M,0,73022,,95,378 F,0,73022,,1 C,0,73022,,255,255,255 S,7,73022,73522,0.25,0.9 F,0,73023,73523,1,0
Sprite,Foreground,Centre,"sb\ring.png",320,240 M,0,73278,,283,324 F,0,73278,,1 C,0,73278,,255,255,255 S,7,73278,73778,0.25,0.9 F,0,73279,73779,1,0
Sprite,Foreground,Centre,"sb\ring.png",320,240 M,0,73791,,378,237 F,0,73791,,1 C,0,73791,,255,255,255 S,7,73791,74291,0.25,0.9 F,0,73792,74292,1,0
Sprite,Foreground,Centre,"sb\ring.png",320,240 M,0,74304,,406,315 F,0,74304,,1 C,0,74304,,255,255,255 S,7,74304,75304,0.25,0.9 F,0,74305,75305,1,0
Sprite,Foreground,Centre,"sb\ring.png",320,240 M,0,106740,,72,385 F,0,106740,,1 C,0,106740,,255,255,255 S,7,106740,107240,0.25,0.9 F,0,106741,107241,1,0
Sprite,Foreground,Centre,"sb\ring.png",320,240 M,0,106868,,146,332 F,0,106868,,1 C,0,106868,,255,255,255 S,7,106868,107368,0.25,0.9 F,0,106869,107369,1,0
Sprite,Foreground,Centre,"sb\ring.png",320,240 M,0,106996,,64,394 F,0,106996,,1 C,0,106996,,255,255,255 S,7,106996,107496,0.25,0.9 F,0,106997,107497,1,0
Sprite,Foreground,Centre,"sb\ring.png",320,240 M,0,127252,,225,137 F,0,127252,,1 C,0,127252,,255,255,255 S,7,127252,127752,0.25,0.9 F,0,127253,127753,1,0
Sprite,Foreground,Centre,"sb\ring.png",320,240 M,0,127381,,219,243 F,0,127381,,1 C,0,127381,,255,255,255 S,7,127381,127881,0.25,0.9 F,0,127382,127882,1,0
Sprite,Foreground,Centre,"sb\ring.png",320,240 M,0,127509,,226,122 F,0,127509,,1 C,0,127509,,255,255,255 S,7,127509,128009,0.25,0.9 F,0,127510,128010,1,0
Sprite,Foreground,Centre,"sb\ring.png",320,240 M,0,134945,,154,300 F,0,134945,,1 C,0,134945,,255,255,255 S,7,134945,135445,0.25,0.9 F,0,134946,135446,1,0
Sprite,Foreground,Centre,"sb\ring.png",320,240 M,0,135073,,287,279 F,0,135073,,1 C,0,135073,,255,255,255 S,7,135073,135573,0.25,0.9 F,0,135074,135574,1,0
Sprite,Foreground,Centre,"sb\ring.png",320,240 M,0,135201,,161,313 F,0,135201,,1 C,0,135201,,255,255,255 S,7,135201,135701,0.25,0.9 F,0,135202,135702,1,0
Sprite,Foreground,Centre,"sb\ring.png",320,240 M,0,135329,,278,294 F,0,135329,,1 C,0,135329,,255,255,255 S,7,135329,135829,0.25,0.9 F,0,135330,135830,1,0
Sprite,Foreground,Centre,"sb\ring.png",320,240 M,0,135457,,214,217 F,0,135457,,1 C,0,135457,,255,255,255 S,7,135457,135957,0.25,0.9 F,0,135458,135958,1,0
Sprite,Foreground,Centre,"sb\ring.png",320,240 M,0,148150,,316,251 F,0,148150,,1 C,0,148150,,255,255,255 S,7,148150,149150,0.25,0.9 F,0,148151,149151,1,0
Sprite,Foreground,Centre,"sb\ring.png",320,240 M,0,150030,,316,251 F,0,150030,,1 C,0,150030,,255,255,255 S,7,150030,151030,0.25,0.9 F,0,150031,151031,1,0
Sprite,Foreground,Centre,"sb\ring.png",320,240 M,0,150201,,268,354 F,0,150201,,1 C,0,150201,,255,255,255 S,7,150201,151201,0.25,0.9 F,0,150202,151202,1,0
Sprite,Foreground,Centre,"sb\ring.png",320,240 M,0,150714,,432,247 F,0,150714,,1 C,0,150714,,255,255,255 S,7,150714,151714,0.25,0.9 F,0,150715,151715,1,0
Sprite,Foreground,Centre,"sb\ring.png",320,240 M,0,151227,,187,186 F,0,151227,,1 C,0,151227,,255,255,255 S,7,151227,152227,0.25,0.9 F,0,151228,152228,1,0
Sprite,Foreground,Centre,"sb\ring.png",320,240 M,0,151740,,415,101 F,0,151740,,1 C,0,151740,,255,255,255 S,7,151740,152740,0.25,0.9 F,0,151741,152741,1,0
Sprite,Foreground,Centre,"sb\ring.png",320,240 M,0,152252,,322,384 F,0,152252,,1 C,0,152252,,255,255,255 S,7,152252,153252,0.25,0.9 F,0,152253,153253,1,0
Sprite,Foreground,Centre,"sb\ring.png",320,240 M,0,158919,,478,371 F,0,158919,,1 C,0,158919,,255,255,255 S,7,158919,159419,0.25,0.9 F,0,158920,159420,1,0
Sprite,Foreground,Centre,"sb\ring.png",320,240 M,0,159175,,391,214 F,0,159175,,1 C,0,159175,,255,255,255 S,7,159175,159675,0.25,0.9 F,0,159176,159676,1,0
Sprite,Foreground,Centre,"sb\ring.png",320,240 M,0,159432,,340,387 F,0,159432,,1 C,0,159432,,255,255,255 S,7,159432,159932,0.25,0.9 F,0,159433,159933,1,0
Sprite,Foreground,Centre,"sb\ring.png",320,240 M,0,159560,,333,393 F,0,159560,,1 C,0,159560,,255,255,255 S,7,159560,160060,0.25,0.9 F,0,159561,160061,1,0
Sprite,Foreground,Centre,"sb\ring.png",320,240 M,0,159688,,294,320 F,0,159688,,1 C,0,159688,,255,255,255 S,7,159688,160188,0.25,0.9 F,0,159689,160189,1,0
Sprite,Foreground,Centre,"sb\ring.png",320,240 M,0,159816,,277,321 F,0,159816,,1 C,0,159816,,255,255,255 S,7,159816,160316,0.25,0.9 F,0,159817,160317,1,0
Sprite,Foreground,Centre,"sb\ring.png",320,240 M,0,159945,,291,230 F,0,159945,,1 C,0,159945,,255,255,255 S,7,159945,160445,0.25,0.9 F,0,159946,160446,1,0
Sprite,Foreground,Centre,"sb\ring.png",320,240 M,0,160073,,269,217 F,0,160073,,1 C,0,160073,,255,255,255 S,7,160073,160573,0.25,0.9 F,0,160074,160574,1,0
Sprite,Foreground,Centre,"sb\ring.png",320,240 M,0,160201,,343,160 F,0,160201,,1 C,0,160201,,255,255,255 S,7,160201,160701,0.25,0.9 F,0,160202,160702,1,0
Sprite,Foreground,Centre,"sb\ring.png",320,240 M,0,160329,,327,132 F,0,160329,,1 C,0,160329,,255,255,255 S,7,160329,160829,0.25,0.9 F,0,160330,160830,1,0
Sprite,Foreground,Centre,"sb\ring.png",320,240 M,0,171355,,441,111 F,0,171355,,1 C,0,171355,,255,255,255 S,7,171355,171855,0.25,0.9 F,0,171356,171856,1,0
Sprite,Foreground,Centre,"sb\ring.png",320,240 M,0,171483,,298,87 F,0,171483,,1 C,0,171483,,255,255,255 S,7,171483,171983,0.25,0.9 F,0,171484,171984,1,0
Sprite,Foreground,Centre,"sb\ring.png",320,240 M,0,171611,,453,119 F,0,171611,,1 C,0,171611,,255,255,255 S,7,171611,172111,0.25,0.9 F,0,171612,172112,1,0
Sprite,Foreground,Centre,"sb\ring.png",320,240 M,0,179688,,180,128 F,0,179688,,1 C,0,179688,,255,255,255 S,7,179688,180188,0.25,0.9 F,0,179689,180189,1,0
Sprite,Foreground,Centre,"sb\ring.png",320,240 M,0,179816,,324,220 F,0,179816,,1 C,0,179816,,255,255,255 S,7,179816,180316,0.25,0.9 F,0,179817,180317,1,0
Sprite,Foreground,Centre,"sb\ring.png",320,240 M,0,204560,,150,197 F,0,204560,,1 C,0,204560,,255,255,255 S,7,204560,205060,0.25,0.9 F,0,204561,205061,1,0
Sprite,Foreground,Centre,"sb\ring.png",320,240 M,0,205073,,150,197 F,0,205073,,1 C,0,205073,,255,255,255 S,7,205073,205573,0.25,0.9 F,0,205074,205574,1,0
Sprite,Foreground,Centre,"sb\ring.png",320,240 M,0,205457,,249,171 F,0,205457,,1 C,0,205457,,255,255,255 S,7,205457,205957,0.25,0.9 F,0,205458,205958,1,0
Sprite,Foreground,Centre,"sb\ring.png",320,240 M,0,205714,,444,309 F,0,205714,,1 C,0,205714,,255,255,255 S,7,205714,206214,0.25,0.9 F,0,205715,206215,1,0
Sprite,Foreground,Centre,"sb\ring.png",320,240 M,0,206099,,433,172 F,0,206099,,1 C,0,206099,,255,255,255 S,7,206099,206599,0.25,0.9 F,0,206100,206600,1,0
Sprite,Foreground,Centre,"sb\ring.png",320,240 M,0,206611,,258,387 F,0,206611,,1 C,0,206611,,255,255,255 S,7,206611,207111,0.25,0.9 F,0,206612,207112,1,0
Sprite,Foreground,Centre,"sb\ring.png",320,240 M,0,207124,,258,387 F,0,207124,,1 C,0,207124,,255,255,255 S,7,207124,207624,0.25,0.9 F,0,207125,207625,1,0
Sprite,Foreground,Centre,"sb\ring.png",320,240 M,0,207509,,146,321 F,0,207509,,1 C,0,207509,,255,255,255 S,7,207509,208009,0.25,0.9 F,0,207510,208010,1,0
Sprite,Foreground,Centre,"sb\ring.png",320,240 M,0,207765,,258,268 F,0,207765,,1 C,0,207765,,255,255,255 S,7,207765,208265,0.25,0.9 F,0,207766,208266,1,0
Sprite,Foreground,Centre,"sb\ring.png",320,240 M,0,208150,,330,132 F,0,208150,,1 C,0,208150,,255,255,255 S,7,208150,208650,0.25,0.9 F,0,208151,208651,1,0
Sprite,Foreground,Centre,"sb\ring.png",320,240 M,0,208663,,191,369 F,0,208663,,1 C,0,208663,,255,255,255 S,7,208663,209163,0.25,0.9 F,0,208664,209164,1,0
Sprite,Foreground,Centre,"sb\ring.png",320,240 M,0,209175,,191,369 F,0,209175,,1 C,0,209175,,255,255,255 S,7,209175,209675,0.25,0.9 F,0,209176,209676,1,0
Sprite,Foreground,Centre,"sb\ring.png",320,240 M,0,209560,,129,283 F,0,209560,,1 C,0,209560,,255,255,255 S,7,209560,210060,0.25,0.9 F,0,209561,210061,1,0
Sprite,Foreground,Centre,"sb\ring.png",320,240 M,0,209816,,302,207 F,0,209816,,1 C,0,209816,,255,255,255 S,7,209816,210316,0.25,0.9 F,0,209817,210317,1,0
Sprite,Foreground,Centre,"sb\ring.png",320,240 M,0,210201,,314,107 F,0,210201,,1 C,0,210201,,255,255,255 S,7,210201,210701,0.25,0.9 F,0,210202,210702,1,0
Sprite,Foreground,Centre,"sb\ring.png",320,240 M,0,210714,,409,362 F,0,210714,,1 C,0,210714,,255,255,255 S,7,210714,211214,0.25,0.9 F,0,210715,211215,1,0
Sprite,Foreground,Centre,"sb\ring.png",320,240 M,0,210970,,409,362 F,0,210970,,1 C,0,210970,,255,255,255 S,7,210970,211470,0.25,0.9 F,0,210971,211471,1,0
Sprite,Foreground,Centre,"sb\ring.png",320,240 M,0,211227,,409,362 F,0,211227,,1 C,0,211227,,255,255,255 S,7,211227,211727,0.25,0.9 F,0,211228,211728,1,0
Sprite,Foreground,Centre,"sb\ring.png",320,240 M,0,211483,,378,237 F,0,211483,,1 C,0,211483,,255,255,255 S,7,211483,211983,0.25,0.9 F,0,211484,211984,1,0
Sprite,Foreground,Centre,"sb\ring.png",320,240 M,0,211611,,317,314 F,0,211611,,1 C,0,211611,,255,255,255 S,7,211611,212111,0.25,0.9 F,0,211612,212112,1,0
Sprite,Foreground,Centre,"sb\ring.png",320,240 M,0,211740,,243,144 F,0,211740,,1 C,0,211740,,255,255,255 S,7,211740,212740,0.25,0.9 F,0,211741,212741,1,0
Sprite,Foreground,Centre,"sb\ring.png",320,240 M,0,212124,,191,350 F,0,212124,,1 C,0,212124,,255,255,255 S,7,212124,213124,0.25,0.9 F,0,212125,213125,1,0
Sprite,Foreground,Centre,"sb\ring.png",320,240 M,0,212509,,88,129 F,0,212509,,1 C,0,212509,,255,255,255 S,7,212509,213509,0.25,0.9 F,0,212510,213510,1,0
//Storyboard Sound Samples

[TimingPoints]
458,256.410256410256,4,2,4,55,1,0
458,-125,4,2,4,55,0,0
2445,-100,4,2,4,20,0,0
2509,-125,4,2,4,55,0,0
4496,-125,4,2,4,20,0,0
4560,-125,4,2,4,55,0,0
6547,-100,4,2,4,20,0,0
6611,-125,4,2,4,55,0,0
8150,-166.666666666667,4,2,2,40,0,0
8599,-166.666666666667,4,2,2,20,0,0
8663,-100,4,2,6,60,0,0
8919,-100,4,2,2,60,0,0
9432,-100,4,2,2,60,0,0
17060,-100,4,2,2,20,0,0
17124,-100,4,2,6,70,0,0
17188,-100,4,2,2,60,0,0
23278,-100,4,2,6,60,0,0
23919,-100,4,2,2,60,0,0
25073,-90.9090909090909,4,2,2,40,0,0
25329,-90.9090909090909,4,2,2,30,0,0
25586,-133.333333333333,4,2,2,30,0,0
26099,-133.333333333333,4,2,2,50,0,0
27124,-117.647058823529,4,2,2,50,0,0
33534,-117.647058823529,4,2,2,40,0,0
33791,-117.647058823529,4,2,2,50,0,0
34240,-117.647058823529,4,2,3,60,0,0
34368,-117.647058823529,4,2,2,35,0,0
34560,-133.333333333333,4,2,2,45,0,0
34945,-100,4,2,2,50,0,0
35201,-117.647058823529,4,2,6,50,0,0
35522,-117.647058823529,4,2,6,20,0,0
35586,-117.647058823529,4,2,2,50,0,0
40714,-117.647058823529,4,2,2,50,0,0
41483,-133.333333333333,4,2,5,50,0,0
41547,-133.333333333333,4,2,5,35,0,0
47124,-133.333333333333,4,2,2,35,0,0
47637,-111.111111111111,4,2,2,50,0,0
48406,-111.111111111111,4,2,10,80,0,0
48438,-111.111111111111,4,2,10,35,0,0
48919,-200,4,2,2,40,0,0
49175,-200,4,2,2,40,0,0
49624,-200,4,2,2,20,0,0
49688,-100,4,2,6,60,0,1
49881,-100,4,2,6,20,0,1
49945,-100,4,2,6,60,0,1
53470,-100,4,2,6,20,0,1
53534,-100,4,2,6,60,0,1
53983,-100,4,2,6,20,0,1
54047,-100,4,2,6,60,0,1
56740,-100,4,2,2,60,0,0
57381,-100,4,2,2,60,0,0
57893,-100,4,2,9,60,0,1
58150,-100,4,2,2,60,0,1
64304,-100,4,2,2,60,0,1
64945,-100,4,2,2,60,0,1
65073,-100,4,2,2,50,0,0
65586,-133.333333333333,4,2,2,60,0,0
65842,-200,4,2,2,60,0,0
66099,-100,4,2,2,60,0,0
66355,-100,4,2,2,60,0,0
68342,-100,4,2,2,20,0,0
68406,-100,4,2,2,60,0,0
69881,-100,4,2,2,20,0,0
69945,-100,4,2,2,60,0,0
70714,-100,4,2,2,60,0,0
72252,-90.9090909090909,4,2,2,60,0,0
73022,-133.333333333333,4,2,2,60,0,0
73214,-133.333333333333,4,2,2,20,0,0
73278,-100,4,2,2,60,0,0
73791,-117.647058823529,4,2,2,60,0,0
74133,-117.647058823529,4,2,2,60,0,0
74304,-100,4,2,6,60,0,0
74368,-100,4,2,6,50,0,0
75329,-200,4,2,2,50,0,0
75457,-117.647058823529,4,2,2,50,0,0
77381,-200,4,2,2,50,0,0
77509,-200,4,2,2,50,0,0
77637,-117.647058823529,4,2,2,50,0,0
79304,-133.333333333333,4,2,2,50,0,0
79560,-117.647058823529,4,2,2,50,0,0
82124,-142.857142857143,4,2,2,50,0,0
82381,-71.4285714285714,4,2,2,50,0,0
83022,-133.333333333333,4,2,2,50,0,0
83278,-117.647058823529,4,2,2,50,0,0
83534,-83.3333333333333,4,2,2,50,0,0
83962,-117.647058823529,4,2,2,50,0,0
84560,-100,4,2,6,50,0,0
84752,-111.111111111111,4,2,2,20,0,0
84816,-111.111111111111,4,2,2,60,0,0
90714,-133.333333333333,4,2,2,50,0,0
90778,-133.333333333333,4,2,5,50,0,0
93791,-133.333333333333,4,2,5,50,0,0
94816,-133.333333333333,4,2,2,50,0,0
96355,-133.333333333333,4,2,2,50,0,0
96868,-100,4,2,2,60,0,0
97893,-90.9090909090909,4,2,2,60,0,0
98406,-100,4,2,2,65,0,0
98534,-100,4,2,2,70,0,0
98663,-100,4,2,2,75,0,0
98791,-100,4,2,2,60,0,0
98919,-90.9090909090909,4,2,6,70,0,1
99111,-100,4,2,2,20,0,1
99175,-100,4,2,2,60,0,1
102701,-100,4,2,2,20,0,1
102765,-100,4,2,2,60,0,1
105970,-100,4,2,2,60,0,0
106740,-100,4,2,2,60,0,0
107124,-100,4,2,9,60,0,1
107316,-100,4,2,2,60,0,1
107381,-100,4,2,2,60,0,1
108086,-100,4,2,2,20,0,1
108150,-100,4,2,2,60,0,1
110457,-100,4,2,2,60,0,1
110970,-100,4,2,2,60,0,1
113534,-100,4,2,2,60,0,1
114304,-90.9090909090909,4,2,2,60,0,0
115009,-90.9090909090909,4,2,2,20,0,0
115073,-90.9090909090909,4,2,2,60,0,0
115329,-200,4,2,2,30,0,0
117381,-133.333333333333,4,2,2,30,0,0
117701,-133.333333333333,4,2,3,20,0,0
117829,-133.333333333333,4,2,2,25,0,0
117957,-133.333333333333,4,2,3,30,0,0
118086,-133.333333333333,4,2,2,35,0,0
118214,-133.333333333333,4,2,3,35,0,0
118342,-133.333333333333,4,2,2,40,0,0
118470,-133.333333333333,4,2,3,45,0,0
118599,-133.333333333333,4,2,2,50,0,0
118727,-133.333333333333,4,2,3,55,0,0
118919,-200,4,2,2,60,0,0
119175,-133.333333333333,4,2,2,40,0,0
119368,-133.333333333333,4,2,2,20,0,0
119432,-76.9230769230769,4,2,6,60,0,0
119624,-76.9230769230769,4,2,6,20,0,0
119688,-111.111111111111,4,2,2,60,0,0
121675,-111.111111111111,4,2,2,20,0,0
121740,-111.111111111111,4,2,2,60,0,0
121932,-111.111111111111,4,2,2,20,0,0
121996,-111.111111111111,4,2,2,60,0,0
123470,-111.111111111111,4,2,2,20,0,0
123534,-111.111111111111,4,2,2,60,0,0
124047,-111.111111111111,4,2,2,60,0,0
125457,-100,4,2,2,60,0,0
127637,-100,4,2,6,60,0,0
127765,-100,4,2,2,60,0,0
129881,-100,4,2,2,20,0,0
129945,-100,4,2,2,60,0,0
134945,-100,4,2,2,50,0,0
135457,-133.333333333333,4,2,2,50,0,0
135714,-100,4,2,2,50,0,0
135842,-100,4,2,2,40,0,0
148150,-100,4,3,2,30,0,0
155265,-100,4,2,2,15,0,0
155329,-100,4,2,2,30,0,0
156355,-100,4,2,2,20,0,0
156868,-100,4,2,2,25,0,0
157381,-100,4,2,2,30,0,0
157893,-100,4,2,2,35,0,0
158406,-100,4,2,2,40,0,0
158791,-133.333333333333,4,2,3,45,0,1
159175,-133.333333333333,4,2,3,50,0,1
159432,-133.333333333333,4,2,3,55,0,1
159688,-133.333333333333,4,2,3,60,0,1
159945,-133.333333333333,4,2,3,65,0,1
160201,-133.333333333333,4,2,3,70,0,1
160457,-90.9090909090909,4,2,2,70,0,0
160714,-100,4,2,2,70,0,0
161483,-100,4,2,2,50,0,0
161740,-133.333333333333,4,2,2,50,0,0
161996,-175.438596491228,4,2,2,80,0,0
162445,-100,4,2,2,20,0,0
162509,-100,4,2,2,60,0,0
163022,-200,4,2,2,65,0,0
163470,-200,4,2,2,20,0,0
163534,-100,4,2,6,70,0,1
163727,-100,4,2,6,20,0,1
163791,-100,4,2,6,70,0,1
167316,-100,4,2,6,20,0,1
167381,-100,4,2,6,70,0,1
167829,-100,4,2,6,20,0,1
167893,-100,4,2,6,70,0,1
169945,-100,4,2,2,60,0,1
170586,-100,4,2,2,60,0,0
171740,-100,4,2,9,60,0,1
171868,-100,4,2,2,60,0,1
171996,-100,4,2,2,60,0,1
174816,-100,4,2,2,60,0,1
178791,-90.9090909090909,4,2,3,60,0,0
178983,-90.9090909090909,4,2,3,20,0,0
179047,-83.3333333333333,4,2,3,60,0,0
179240,-83.3333333333333,4,2,3,20,0,0
179304,-76.9230769230769,4,2,10,75,0,0
179560,-71.4285714285714,4,2,6,60,0,0
179945,-90.9090909090909,4,2,2,70,0,1
180137,-90.9090909090909,4,2,2,20,0,1
180201,-90.9090909090909,4,2,2,70,0,1
188150,-90.9090909090909,4,2,6,70,0,1
188278,-90.9090909090909,4,2,2,70,0,1
188663,-86.9565217391304,4,2,2,70,0,1
189175,-83.3333333333333,4,2,2,70,0,1
189304,-90.9090909090909,4,2,2,70,0,1
192252,-90.9090909090909,4,2,2,80,0,1
195329,-90.9090909090909,4,2,6,70,0,1
195457,-90.9090909090909,4,2,2,80,0,1
196291,-90.9090909090909,4,2,2,20,0,1
196355,-100,4,2,2,80,0,0
204560,-133.333333333333,4,2,5,55,0,0
211740,-100,4,2,2,60,0,0
211868,-100,4,2,2,20,0,0
211932,-100,4,2,2,60,0,0
212124,-74.0740740740741,4,2,2,60,0,0
212252,-74.0740740740741,4,2,2,20,0,0
212316,-74.0740740740741,4,2,2,60,0,0

[Colours]
Combo1 : 255,102,28
Combo2 : 0,159,236
Combo3 : 249,198,91
Combo4 : 237,38,33

[HitObjects]
441,117,458,6,0,B|449:155|449:155|439:193,1,72,8|0,0:0|0:0,0:0:0:0:
271,187,714,2,0,B|263:149|263:149|273:111,1,72,8|0,0:0|0:0,0:0:0:0:
358,224,970,1,8,0:0:0:0:
358,224,1099,2,0,L|357:316,1,72,8|0,0:0|0:0,0:0:0:0:
168,327,1355,2,0,P|132:328|97:318,1,72,8|0,0:0|0:0,0:0:0:0:
235,259,1611,5,8,0:0:0:0:
235,259,1740,2,0,P|259:309|262:330,1,72,8|0,0:0|0:0,0:0:0:0:
143,249,1996,2,0,L|142:159,1,72,8|0,0:0|0:0,0:0:0:0:
187,80,2252,2,0,L|318:72,1,108,8|0,0:0|0:0,0:0:0:0:
294,73,2509,6,0,L|297:169,1,72,8|0,0:0|0:0,0:0:0:0:
389,177,2765,2,0,P|426:172|473:171,1,72,8|0,0:0|0:0,0:0:0:0:
298,216,3022,1,8,0:0:0:0:
298,216,3150,2,0,P|291:176|305:125,1,72,8|0,0:0|0:0,0:0:0:0:
389,177,3406,2,0,P|394:215|388:255,1,72,8|0,0:0|0:0,0:0:0:0:
301,318,3663,5,8,0:0:0:0:
301,318,3791,2,0,L|227:316,1,72,8|0,0:0|0:0,0:0:0:0:
102,309,4047,2,0,P|95:269|105:228,1,72,8|0,0:0|0:0,0:0:0:0:
146,146,4304,2,0,L|17:150,1,108,8|0,0:0|0:0,0:0:0:0:
38,149,4560,6,0,L|37:61,1,72,8|0,0:0|0:0,0:0:0:0:
142,57,4816,2,0,P|179:60|213:85,1,72,8|0,0:0|0:0,0:0:0:0:
248,174,5073,1,8,0:0:0:0:
248,174,5201,2,0,L|250:265,1,72,8|0,0:0|0:0,0:0:0:0:
339,345,5457,2,0,L|341:269,1,72,8|0,0:0|0:0,0:0:0:0:
418,170,5714,5,8,0:0:0:0:
418,170,5842,2,0,L|428:265,1,72,8|0,0:0|0:0,0:0:0:0:
407,343,6099,2,0,P|372:353|338:344,1,72,8|0,0:0|0:0,0:0:0:0:
205,343,6355,2,0,P|190:298|206:227,1,108,8|0,0:0|0:0,0:0:0:0:
200,240,6611,6,0,L|271:237,1,72,8|0,0:0|0:0,0:0:0:0:
324,154,6868,2,0,L|251:156,1,72,8|0,0:0|0:0,0:0:0:0:
221,79,7124,1,8,0:0:0:0:
221,79,7252,2,0,L|297:74,1,72,8|0,0:0|0:0,0:0:0:0:
403,112,7509,2,0,P|411:147|403:192,1,72,8|0,0:0|0:0,0:0:0:0:
346,293,7765,1,8,0:0:0:0:
346,293,7893,2,0,L|244:289,1,72,8|0,0:0|0:0,0:0:0:0:
199,241,8150,6,0,P|185:292|202:343,1,107.999996704102,2|0,0:3|0:0,0:0:0:0:
274,290,8663,6,0,L|282:100,2,180,4|8|0,1:2|0:0|1:0,0:0:0:0:
202,343,9304,1,0,1:0:0:0:
291,305,9432,1,8,0:0:0:0:
181,359,9560,6,0,P|95:311|0:322,1,180,0|0,1:0|1:0,0:0:0:0:
32,234,9945,2,0,P|72:233|141:222,1,90,8|0,0:0|0:0,0:0:0:0:
111,74,10201,2,0,P|91:109|66:174,1,90,0|0,1:0|1:0,0:0:0:0:
168,149,10457,1,8,0:0:0:0:
68,167,10586,1,0,0:0:0:0:
220,223,10714,6,0,P|199:187|155:134,1,90,0|0,1:0|0:0,0:0:0:0:
303,56,10970,2,0,P|275:93|253:145,1,90,8|0,0:0|0:0,0:0:0:0:
431,132,11227,2,0,P|384:126|328:133,1,90,0|0,1:0|1:0,0:0:0:0:
324,218,11483,1,8,0:0:0:0:
461,209,11611,6,0,P|513:140|464:57,1,180,0|0,0:0|0:0,0:0:0:0:
341,130,11996,2,0,P|330:179|322:239,1,90,8|0,0:0|0:0,0:0:0:0:
370,297,12252,1,0,1:0:0:0:
282,293,12381,1,0,1:0:0:0:
378,298,12509,2,0,P|422:304|466:314,1,90,8|0,0:0|0:0,0:0:0:0:
272,295,12765,6,0,P|227:304|183:311,1,90,0|0,1:0|0:0,0:0:0:0:
153,163,13022,2,0,P|183:196|211:231,1,90,8|0,0:0|0:0,0:0:0:0:
109,258,13278,1,0,1:0:0:0:
109,258,13406,1,0,1:0:0:0:
156,150,13534,1,8,0:0:0:0:
46,111,13663,6,0,B|56:188|56:188|9:301,1,180,0|0,1:0|1:0,0:0:0:0:
87,325,14047,1,8,0:0:0:0:
183,310,14175,1,0,0:0:0:0:
211,231,14304,2,0,P|233:183|227:122,1,90,0|0,1:0|1:0,0:0:0:0:
157,73,14560,1,8,0:0:0:0:
157,73,14688,1,0,0:0:0:0:
243,46,14816,6,0,P|288:42|345:41,1,90,0|0,1:0|0:0,0:0:0:0:
342,135,15073,1,8,0:0:0:0:
418,88,15201,1,0,0:0:0:0:
414,177,15329,5,0,1:0:0:0:
488,135,15457,1,0,1:0:0:0:
428,265,15586,1,8,0:0:0:0:
309,214,15714,6,0,P|259:143|293:63,1,180,0|0,1:0|1:0,0:0:0:0:
418,88,16099,2,0,L|414:191,1,90,8|0,0:0|0:0,0:0:0:0:
352,312,16355,5,8,0:0:0:0:
428,265,16483,1,8,0:0:0:0:
266,289,16611,5,8,0:0:0:0:
351,332,16740,1,8,0:0:0:0:
214,355,16868,6,0,P|185:295|234:207,1,135,4|0,1:2|0:0,0:0:0:0:
203,232,17124,2,0,L|112:231,1,90,12|0,0:0|0:0,0:0:0:0:
33,187,17381,1,0,1:0:0:0:
75,305,17509,1,0,1:0:0:0:
0,266,17637,1,8,0:0:0:0:
110,147,17765,6,0,B|170:142|170:142|237:160|237:160|301:152,1,180,0|0,1:0|1:0,0:0:0:0:
361,214,18150,2,0,P|360:258|332:292,1,90,8|0,0:0|0:0,0:0:0:0:
211,317,18406,2,0,P|212:273|240:239,1,90,0|0,0:0|0:0,0:0:0:0:
331,292,18663,2,0,L|421:294,1,90,8|0,0:0|0:0,0:0:0:0:
447,216,18919,6,0,P|407:194|372:165,1,90,0|0,1:0|0:0,0:0:0:0:
457,38,19175,2,0,P|457:82|450:127,1,90,8|0,0:0|0:0,0:0:0:0:
364,156,19432,1,0,1:0:0:0:
381,74,19560,1,0,1:0:0:0:
454,136,19688,1,8,0:0:0:0:
324,251,19816,6,0,P|262:188|152:213,1,180,0|0,0:0|0:0,0:0:0:0:
132,292,20201,2,0,B|250:287,1,90,8|0,0:0|0:0,0:0:0:0:
176,194,20457,6,0,L|74:202,1,90,0|0,1:0|1:0,0:0:0:0:
140,83,20714,2,0,L|245:96,1,90,8|0,0:0|0:0,0:0:0:0:
67,32,20970,6,0,P|54:75|33:114,1,90,0|0,1:0|0:0,0:0:0:0:
52,283,21227,2,0,P|64:239|85:200,1,90,8|0,0:0|0:0,0:0:0:0:
176,194,21483,5,0,1:0:0:0:
136,279,21611,1,0,1:0:0:0:
81,192,21740,1,8,0:0:0:0:
245,246,21868,6,0,B|268:184|240:141|240:141|244:103|244:103|226:48,1,180,0|0,1:0|1:0,0:0:0:0:
308,12,22252,2,0,P|316:59|335:110,1,90,8|0,0:0|0:0,0:0:0:0:
344,188,22509,5,0,1:0:0:0:
344,188,22637,1,0,1:0:0:0:
420,128,22765,1,8,0:0:0:0:
420,128,22893,1,0,0:0:0:0:
451,227,23022,6,0,P|404:213|356:214,1,90,0|0,1:0|0:0,0:0:0:0:
321,316,23278,2,0,P|278:329|233:330,1,90,12|0,0:0|0:0,0:0:0:0:
186,234,23534,6,0,P|233:248|281:247,1,90,0|0,1:0|0:0,0:0:0:0:
307,150,23791,2,0,P|349:136|394:135,1,90,12|0,0:0|0:0,0:0:0:0:
279,49,24047,6,0,P|234:48|191:34,1,90,12|0,0:0|1:0,0:0:0:0:
41,110,24304,5,8,0:0:0:0:
218,156,24432,1,0,1:0:0:0:
152,41,24560,5,8,0:0:0:0:
104,221,24688,1,0,0:0:0:0:
16,96,24816,5,8,0:0:0:0:
239,169,24945,1,0,0:0:0:0:
163,14,25073,5,4,0:0:0:0:
275,87,25586,6,0,P|341:93|407:105,1,135.000005149842,0|0,0:0|0:0,0:0:0:0:
355,226,26099,5,8,0:0:0:0:
355,226,26227,1,8,0:0:0:0:
355,226,26355,6,0,P|298:222|206:220,1,135.000005149842,0|8,1:0|0:0,0:0:0:0:
221,349,26740,2,0,P|169:342|84:335,1,135.000005149842,0|8,1:0|0:0,0:0:0:0:
154,263,27124,6,0,P|143:227|151:184,1,76.5000014591217,4|0,1:2|0:0,0:0:0:0:
59,91,27381,2,0,P|71:133|61:182,1,76.5000014591217,8|0,0:0|0:0,0:0:0:0:
51,262,27637,1,0,1:0:0:0:
51,262,27765,1,0,1:0:0:0:
148,189,27893,1,8,0:0:0:0:
59,91,28022,6,0,P|134:86|221:81,1,153.000002918243,0|0,0:0|0:0,0:0:0:0:
262,180,28406,2,0,P|249:215|251:253,1,76.5000014591217,8|0,0:0|0:0,0:0:0:0:
296,335,28663,1,0,1:0:0:0:
338,231,28791,1,0,1:0:0:0:
387,311,28919,2,0,P|428:315|471:314,1,76.5000014591217,8|0,0:0|0:0,0:0:0:0:
478,217,29175,5,0,0:0:0:0:
478,217,29304,1,0,0:0:0:0:
463,112,29432,1,8,0:0:0:0:
463,112,29560,1,0,0:0:0:0:
348,27,29688,2,0,L|354:112,1,76.5000014591217,0|0,1:0|1:0,0:0:0:0:
407,175,29945,1,8,0:0:0:0:
407,175,30073,6,0,P|350:126|276:131,1,153.000002918243,0|0,1:0|1:0,0:0:0:0:
297,271,30457,2,0,P|315:235|327:182,1,76.5000014591217,8|0,0:0|0:0,0:0:0:0:
193,148,30714,2,0,P|216:182|256:219,1,76.5000014591217,0|0,1:0|1:0,0:0:0:0:
351,119,30970,2,0,P|311:122|259:138,1,76.5000014591217,8|0,0:0|0:0,0:0:0:0:
217,74,31227,5,0,1:0:0:0:
217,74,31355,1,0,0:0:0:0:
117,97,31483,1,8,0:0:0:0:
117,97,31611,1,0,0:0:0:0:
23,56,31740,2,0,P|23:94|30:131,1,76.5000014591217,0|0,1:0|1:0,0:0:0:0:
26,255,31996,1,8,0:0:0:0:
26,255,32124,6,0,P|84:210|179:247,1,153.000002918243,0|0,1:0|1:0,0:0:0:0:
232,329,32509,2,0,P|191:324|145:324,1,76.5000014591217,8|0,0:0|0:0,0:0:0:0:
326,245,32765,2,0,P|285:249|239:250,1,76.5000014591217,8|0,0:0|0:0,0:0:0:0:
245,170,33022,1,8,0:0:0:0:
259,78,33150,1,8,0:0:0:0:
329,139,33278,6,0,P|369:143|416:144,1,76.5000014591217,0|0,1:0|0:0,0:0:0:0:
399,234,33534,1,8,0:0:0:0:
402,242,33663,1,8,0:0:0:0:
314,225,33791,5,8,0:0:0:0:
306,235,33919,1,8,0:0:0:0:
245,170,34047,5,8,0:0:0:0:
226,180,34175,1,8,0:0:0:0:
234,70,34304,5,8,0:0:0:0:
201,69,34432,1,8,0:0:0:0:
314,106,34560,6,0,P|385:154|448:124,1,135.000005149842,0|8,1:0|0:0,0:0:0:0:
380,68,34945,6,0,L|168:69,1,180,0|8,1:0|0:0,0:0:0:0:
200,68,35329,6,0,P|147:88|121:138,1,114.750002188683,4|0,1:2|0:0,0:0:0:0:
250,202,35586,2,0,P|222:170|184:138,1,76.5000014591217,8|0,0:0|0:0,0:0:0:0:
81,232,35842,2,0,P|122:223|168:207,1,76.5000014591217,0|0,1:0|1:0,0:0:0:0:
121,138,36099,1,8,0:0:0:0:
227,279,36227,6,0,P|302:261|325:182,1,153.000002918243,0|0,1:0|1:0,0:0:0:0:
277,115,36611,1,8,0:0:0:0:
277,115,36740,1,0,0:0:0:0:
250,202,36868,5,0,1:0:0:0:
368,118,36996,1,0,1:0:0:0:
327,195,37124,1,8,0:0:0:0:
325,44,37252,1,0,0:0:0:0:
384,114,37381,6,0,P|423:105|459:101,1,76.5000014591217,0|0,1:0|0:0,0:0:0:0:
504,173,37637,1,8,0:0:0:0:
494,35,37765,1,0,0:0:0:0:
504,187,37893,2,0,P|466:191|428:199,1,76.5000014591217,0|0,1:0|1:0,0:0:0:0:
346,253,38150,1,8,0:0:0:0:
407,330,38278,6,0,P|449:269|428:198,1,153.000002918243,0|0,1:0|1:0,0:0:0:0:
335,177,38663,2,0,P|340:222|347:262,1,76.5000014591217,8|0,0:0|0:0,0:0:0:0:
285,350,38919,2,0,P|279:304|272:264,1,76.5000014591217,0|0,1:0|1:0,0:0:0:0:
407,330,39175,2,0,P|442:322|490:318,1,76.5000014591217,8|0,0:0|0:0,0:0:0:0:
269,256,39432,6,0,P|234:248|186:244,1,76.5000014591217,0|0,1:0|0:0,0:0:0:0:
266,223,39688,2,0,P|230:230|185:247,1,76.5000014591217,8|0,0:0|0:0,0:0:0:0:
60,283,39945,6,0,P|84:256|111:217,1,76.5000014591217,0|0,1:0|1:0,0:0:0:0:
90,296,40201,2,0,P|101:261|109:214,1,76.5000014591217,8|0,0:0|0:0,0:0:0:0:
23,129,40457,6,0,P|21:170|26:206,1,76.5000014591217,0|0,1:0|0:0,0:0:0:0:
85,62,40714,1,0,1:0:0:0:
103,145,40842,1,0,1:0:0:0:
172,91,40971,5,8,0:0:0:0:
205,177,41099,1,0,0:0:0:0:
256,110,41227,5,0,1:0:0:0:
284,209,41355,1,0,1:0:0:0:
343,144,41483,6,0,P|329:77|307:14,1,135,4|0,1:2|0:0,0:0:0:0:
448,288,41996,2,0,P|453:218|471:143,1,135,0|0,1:0|0:0,0:0:0:0:
349,169,42509,6,0,P|282:180|215:181,1,135,0|0,1:0|0:0,0:0:0:0:
300,302,43022,2,0,P|229:303|153:317,1,135,0|0,1:0|0:0,0:0:0:0:
48,318,43534,6,0,P|76:252|68:175,1,135,0|0,1:0|0:0,0:0:0:0:
190,50,44047,2,0,P|162:116|170:193,1,135,0|0,1:0|0:0,0:0:0:0:
362,237,44560,6,0,L|216:244,1,135.000005149842,0|8,1:0|0:0,0:0:0:0:
243,160,44945,1,0,0:0:0:0:
243,160,45073,2,0,L|386:158,1,135.000005149842,0|0,1:0|0:0,0:0:0:0:
464,300,45586,6,0,P|443:260|347:241,1,135,4|0,2:0|0:0,0:0:0:0:
190,222,46099,2,0,P|165:185|198:92,1,135,0|0,2:0|0:0,0:0:0:0:
274,174,46611,2,0,L|266:317,1,135.000005149842,0|0,1:0|0:0,0:0:0:0:
380,353,47124,6,0,B|380:191,1,135.000005149842,0|8,1:0|0:0,0:0:0:0:
469,187,47637,6,0,B|471:76|471:76|462:100|444:121,1,161.999995056153,8|0,0:0|0:0,0:0:0:0:
309,187,48022,2,0,B|306:76|306:76|319:104|334:121,1,161.999995056153,8|0,0:0|0:0,0:0:0:0:
394,284,48406,5,2,0:0:0:0:
394,284,48919,6,0,L|392:329,1,45,2|0,0:0|0:0,0:0:0:0:
459,263,49175,6,0,B|393:281|393:281|324:261,1,135,2|0,0:0|0:0,0:0:0:0:
296,328,49688,6,0,P|305:246|298:168,1,135,4|0,1:2|0:0,0:0:0:0:
302,194,49945,2,0,L|210:184,1,90,12|0,0:0|0:0,0:0:0:0:
155,119,50201,1,0,1:0:0:0:
132,228,50329,1,0,1:0:0:0:
65,109,50457,2,0,L|157:119,1,90,8|0,0:0|0:0,0:0:0:0:
261,103,50714,5,0,1:0:0:0:
212,184,50842,1,0,0:0:0:0:
302,193,50970,1,8,0:0:0:0:
241,273,51099,1,0,0:0:0:0:
372,230,51227,6,0,B|385:185|385:185|363:134,1,90,0|0,1:0|1:0,0:0:0:0:
241,273,51483,2,0,P|289:290|350:319,1,90,8|0,0:0|0:0,0:0:0:0:
415,331,51740,6,0,P|409:364|394:333,1,90,0|0,1:0|0:0,0:0:0:0:
467,190,51996,2,0,P|463:157|446:187,1,90,8|0,0:0|0:0,0:0:0:0:
356,237,52252,6,0,P|339:207|371:222,1,90,0|0,1:0|0:0,0:0:0:0:
503,277,52508,2,0,P|529:299|495:295,1,90,8|0,0:0|0:0,0:0:0:0:
370,220,52765,6,0,P|329:221|280:227,1,90,0|0,1:0|0:0,0:0:0:0:
273,341,53022,2,0,P|226:336|162:328,1,90,8|0,0:0|0:0,0:0:0:0:
75,292,53278,2,0,P|43:233|57:168,1,135,0|0,1:0|1:0,0:0:0:0:
57,168,53534,2,0,L|158:161,1,90,8|0,0:0|0:0,0:0:0:0:
278,207,53791,6,0,L|274:341,1,135,0|0,1:0|1:0,0:0:0:0:
274,342,54047,2,0,L|385:336,1,90,8|0,0:0|0:0,0:0:0:0:
457,202,54304,2,0,L|269:207,1,180,0|8,1:0|0:0,0:0:0:0:
169,167,54688,6,0,P|240:133|233:20,1,180,0|0,1:0|0:0,0:0:0:0:
105,119,55073,2,0,P|87:159|96:202,1,90,8|0,0:0|0:0,0:0:0:0:
182,82,55329,2,0,L|-15:78,1,180,0|8,1:0|0:0,0:0:0:0:
51,268,55714,6,0,P|137:266|168:163,1,180,0|0,1:0|0:0,0:0:0:0:
182,82,56099,2,0,P|146:87|97:136,1,90,8|0,0:0|0:0,0:0:0:0:
278,131,56355,2,0,P|291:97|273:30,1,90,0|0,1:0|1:0,0:0:0:0:
182,82,56611,1,8,0:0:0:0:
390,43,56740,5,0,1:0:0:0:
238,24,56996,5,0,1:0:0:0:
390,43,57252,6,0,L|392:160,1,90,0|0,1:0|0:0,0:0:0:0:
347,208,57509,1,8,0:0:0:0:
468,196,57637,1,8,0:0:0:0:
336,207,57765,1,8,0:0:0:0:
490,192,57893,6,0,B|466:141|466:141|486:7,1,180,4|8,1:2|0:0,0:0:0:0:
324,66,58278,1,0,0:0:0:0:
181,15,58406,2,0,P|178:60|181:105,1,90,0|0,1:0|1:0,0:0:0:0:
284,144,58663,2,0,P|285:188|282:233,1,90,8|0,0:0|0:0,0:0:0:0:
204,334,58919,6,0,L|191:244,1,90,0|0,1:0|0:0,0:0:0:0:
359,333,59175,2,0,L|370:237,1,90,8|0,0:0|0:0,0:0:0:0:
265,55,59432,2,0,L|283:143,1,90,0|0,1:0|1:0,0:0:0:0:
447,51,59688,2,0,L|428:138,1,90,8|0,0:0|0:0,0:0:0:0:
456,262,59945,6,0,P|411:255|368:242,1,90,0|0,1:0|0:0,0:0:0:0:
271,352,60201,2,0,P|314:339|358:332,1,90,8|0,0:0|0:0,0:0:0:0:
266,248,60457,2,0,P|221:241|178:228,1,90,0|0,1:0|0:0,0:0:0:0:
81,338,60713,2,0,P|124:325|168:318,1,90,8|0,0:0|0:0,0:0:0:0:
84,233,60970,6,0,P|94:176|88:137,1,90,0|0,1:0|0:0,0:0:0:0:
117,32,61227,2,0,P|161:69|198:83,1,90,8|0,0:0|0:0,0:0:0:0:
323,178,61483,2,0,P|238:165|178:228,1,180,0|8,1:0|0:0,0:0:0:0:
168,317,61868,1,0,0:0:0:0:
270,259,61996,6,0,L|278:79,1,180,0|8,1:0|0:0,0:0:0:0:
368,30,62381,1,0,0:0:0:0:
465,82,62509,6,0,L|473:261,1,180,0|8,1:0|0:0,0:0:0:0:
361,317,62893,1,0,0:0:0:0:
251,262,63022,6,0,B|240:172|240:172|260:60,1,180,0|8,1:0|0:0,0:0:0:0:
371,30,63407,1,0,0:0:0:0:
483,83,63534,6,0,B|498:170|498:170|487:260,1,180,0|8,1:0|0:0,0:0:0:0:
362,345,63919,1,0,0:0:0:0:
255,283,64047,2,0,P|206:280|141:290,1,90,0|0,1:0|0:0,0:0:0:0:
68,268,64304,5,8,0:0:0:0:
171,193,64432,1,0,0:0:0:0:
62,162,64560,2,0,P|63:204|67:256,1,90,8|0,0:0|0:0,0:0:0:0:
127,112,64816,5,8,0:0:0:0:
0,109,64945,1,0,0:0:0:0:
62,34,65073,5,8,0:0:0:0:
281,201,65329,5,8,0:0:0:0:
281,201,65586,6,0,P|279:166|283:123,2,67.5000025749208,8|0|0,0:0|0:0|0:0,0:0:0:0:
376,221,66099,6,0,P|294:217|245:306,1,180,4|8,1:2|0:0,0:0:0:0:
200,365,66483,1,0,0:0:0:0:
158,282,66611,1,0,1:0:0:0:
111,355,66740,1,0,1:0:0:0:
244,292,66868,1,8,0:0:0:0:
206,204,66996,6,0,P|116:200|26:198,1,180,0|0,0:0|0:0,0:0:0:0:
45,276,67381,1,8,0:0:0:0:
77,120,67509,1,0,0:0:0:0:
11,191,67637,5,0,1:0:0:0:
161,129,67765,1,0,1:0:0:0:
61,96,67893,5,8,0:0:0:0:
125,226,68022,1,0,0:0:0:0:
236,184,68150,6,0,B|252:101|252:101|234:47,1,135,0|0,1:0|0:0,0:0:0:0:
236,53,68406,2,0,L|325:52,1,90,8|0,0:0|0:0,0:0:0:0:
430,131,68663,2,0,L|325:144,1,90,0|0,1:0|1:0,0:0:0:0:
327,241,68919,1,8,0:0:0:0:
213,324,69047,6,0,B|273:309|273:309|326:331|326:331|385:319,1,180,0|0,1:0|0:0,0:0:0:0:
471,351,69432,2,0,B|483:307|483:307|457:262,1,90,8|0,0:0|0:0,0:0:0:0:
327,241,69688,6,0,B|270:231|270:231|165:255,1,135,0|0,1:0|0:0,0:0:0:0:
107,209,69945,2,0,B|99:251|99:251|109:297,1,90,8|0,0:0|0:0,0:0:0:0:
194,248,70201,6,0,L|197:147,1,90,0|0,1:0|0:0,0:0:0:0:
274,40,70457,2,0,L|277:141,1,90,8|0,0:0|0:0,0:0:0:0:
357,245,70714,6,0,L|359:155,1,90,0|0,1:0|1:0,0:0:0:0:
421,80,70970,1,8,0:0:0:0:
436,166,71099,1,0,1:0:0:0:
357,146,71227,1,0,0:0:0:0:
499,104,71355,5,0,1:0:0:0:
332,72,71483,1,8,0:0:0:0:
381,224,71611,1,0,0:0:0:0:
421,80,71740,6,0,P|374:74|314:72,1,90,0|0,1:0|1:0,0:0:0:0:
205,245,71996,2,0,P|249:242|294:237,1,90,8|0,0:0|0:0,0:0:0:0:
231,153,72252,6,0,P|203:246|232:338,1,198.000006042481,8|0,0:0|0:0,0:0:0:0:
104,41,72637,2,0,P|133:133|104:226,1,198.000006042481,8|0,0:0|0:0,0:0:0:0:
31,322,73022,6,0,P|75:310|157:320,1,101.250003862381,8|0,0:0|0:0,0:0:0:0:
219,268,73278,6,0,B|237:232|237:232|232:152,2,120,2|2|2,0:0|0:0|0:0,0:0:0:0:
314,181,73791,6,0,B|307:119|307:119|335:61,2,102.000001945496,8|8|8,0:0|0:0|0:0,0:0:0:0:
342,259,74304,6,0,B|399:227|457:248|457:248|456:286|413:294,1,180,4|0,0:0|0:0,0:0:0:0:
255,238,74816,2,0,B|245:282|282:317|282:317|242:355|193:318,1,180,8|0,0:0|1:0,0:0:0:0:
78,229,75329,6,0,L|77:185,1,45,0|0,0:0|0:0,0:0:0:0:
83,157,75586,6,0,B|138:145|138:145|244:155,1,153.000002918243,0|8,1:0|0:0,0:0:0:0:
255,238,75970,2,0,B|158:247|158:247|103:235,1,153.000002918243,0|0,1:0|0:0,0:0:0:0:
83,157,76355,6,0,B|75:122|75:122|84:82,1,76.5000014591217,0|0,1:0|0:0,0:0:0:0:
236,79,76611,2,0,B|243:115|243:115|233:153,1,76.5000014591217,0|0,0:0|1:0,0:0:0:0:
255,238,76868,2,0,P|294:232|331:230,1,76.5000014591217,8|0,0:0|0:0,0:0:0:0:
455,170,77124,2,0,P|416:168|379:162,1,76.5000014591217,0|0,1:0|0:0,0:0:0:0:
412,279,77381,6,0,L|412:329,1,45,0|0,0:0|0:0,0:0:0:0:
408,343,77637,6,0,P|334:315|244:361,1,153.000002918243,0|8,1:0|0:0,0:0:0:0:
255,238,78022,2,0,P|181:266|91:220,1,153.000002918243,0|0,1:0|0:0,0:0:0:0:
81,156,78406,6,0,L|75:66,1,76.5000014591217,0|0,1:0|0:0,0:0:0:0:
183,40,78663,2,0,L|177:130,1,76.5000014591217,0|0,0:0|1:0,0:0:0:0:
270,164,78919,2,0,L|276:74,1,76.5000014591217,8|0,0:0|0:0,0:0:0:0:
315,14,79175,1,0,1:0:0:0:
359,80,79304,6,0,B|349:133|349:133|371:211,1,135.000005149842,0|0,0:0|0:0,0:0:0:0:
439,119,79688,2,0,B|451:85|451:85|444:45,1,76.5000014591217,0|0,1:0|0:0,0:0:0:0:
359,80,79945,1,8,0:0:0:0:
372,210,80073,2,0,L|539:202,1,153.000002918243,0|0,0:0|0:0,0:0:0:0:
457,302,80457,5,0,1:0:0:0:
457,302,80586,1,0,0:0:0:0:
342,288,80714,2,0,P|311:265|292:232,1,76.5000014591217,0|0,0:0|1:0,0:0:0:0:
324,139,80970,1,8,0:0:0:0:
229,161,81099,1,0,1:0:0:0:
262,82,81227,1,0,1:0:0:0:
184,89,81355,6,0,L|93:110,1,76.5000014591217,0|0,0:0|0:0,0:0:0:0:
150,182,81611,2,0,L|59:203,1,76.5000014591217,0|2,0:0|0:0,0:0:0:0:
129,274,81868,2,0,L|38:295,1,76.5000014591217,0|8,0:0|0:0,0:0:0:0:
47,373,82124,6,0,L|188:339,1,125.999996154785,0|0,1:0|0:0,0:0:0:0:
169,343,82509,5,4,1:2:0:0:
228,259,83022,6,0,B|212:173|212:173|224:127,1,135.000005149842,0|0,0:0|0:0,0:0:0:0:
177,57,83534,6,0,L|97:61,2,71.9999978027344,0|8|0,1:0|0:0|1:0,0:0:0:0:
224,127,83791,2,0,L|295:130,2,71.9999978027344,8|0|8,0:0|1:0|0:0,0:0:0:0:
135,138,84047,5,0,0:0:0:0:
135,173,84132,1,0,0:0:0:0:
135,209,84217,1,0,0:0:0:0:
135,245,84303,1,0,0:0:0:0:
135,280,84388,1,0,0:0:0:0:
135,316,84474,1,0,0:0:0:0:
97,348,84560,6,0,P|165:318|239:350,1,135,4|0,1:2|0:0,0:0:0:0:
220,334,84816,2,0,L|325:333,1,80.9999975280763,8|0,0:0|0:0,0:0:0:0:
409,362,85073,2,0,P|417:322|407:283,1,80.9999975280763,0|0,1:0|1:0,0:0:0:0:
333,221,85329,1,8,0:0:0:0:
412,182,85457,6,0,P|346:137|265:161,1,161.999995056153,0|0,1:0|1:0,0:0:0:0:
232,236,85842,1,8,0:0:0:0:
178,161,85970,1,0,0:0:0:0:
132,246,86099,2,0,P|132:283|138:326,1,80.9999975280763,0|0,1:0|1:0,0:0:0:0:
66,185,86355,1,8,0:0:0:0:
178,161,86483,1,0,0:0:0:0:
35,108,86611,6,0,P|76:107|127:113,1,80.9999975280763,0|0,1:0|0:0,0:0:0:0:
132,31,86868,2,0,P|168:51|209:81,1,80.9999975280763,8|0,0:0|0:0,0:0:0:0:
257,7,87124,2,0,P|277:43|298:89,1,80.9999975280763,0|0,1:0|1:0,0:0:0:0:
270,170,87381,1,8,0:0:0:0:
371,140,87509,6,0,B|492:138|492:138|447:184,1,161.999995056153,0|0,1:0|1:0,0:0:0:0:
365,217,87893,2,0,P|357:177|370:139,1,80.9999975280763,8|0,0:0|0:0,0:0:0:0:
469,89,88150,2,0,P|476:128|463:166,1,80.9999975280763,0|0,1:0|1:0,0:0:0:0:
365,217,88406,2,0,L|284:220,1,80.9999975280763,8|0,0:0|0:0,0:0:0:0:
289,136,88663,6,0,L|369:139,1,80.9999975280763,0|0,1:0|0:0,0:0:0:0:
213,184,88919,2,0,L|132:187,1,80.9999975280763,8|0,0:0|0:0,0:0:0:0:
52,266,89175,2,0,L|132:269,1,80.9999975280763,0|0,1:0|0:0,0:0:0:0:
138,110,89432,2,0,L|57:113,1,80.9999975280763,8|0,0:0|0:0,0:0:0:0:
130,292,89688,6,0,L|49:295,1,80.9999975280763,0|0,0:0|0:0,0:0:0:0:
57,91,89945,2,0,L|137:94,1,80.9999975280763,8|0,0:0|0:0,0:0:0:0:
215,172,90201,5,8,0:0:0:0:
211,192,90329,1,8,0:0:0:0:
293,306,90457,1,0,0:3:0:0:
302,290,90586,1,0,0:0:0:0:
337,191,90714,6,0,P|404:193|471:196,1,135.000005149842,4|0,1:2|0:0,0:0:0:0:
404,42,91227,2,0,P|336:40|269:34,1,135.000005149842,0|0,1:0|0:0,0:0:0:0:
237,237,91740,6,0,P|253:174|284:95,1,135.000005149842,0|0,1:0|0:0,0:0:0:0:
178,139,92252,2,0,P|110:139|36:136,1,135.000005149842,0|0,1:2|0:0,0:0:0:0:
0,269,92765,6,0,P|64:275|140:285,1,135.000005149842,0|0,1:0|0:0,0:0:0:0:
236,320,93278,2,0,P|214:253|196:191,1,135.000005149842,0|0,1:0|0:0,0:0:0:0:
196,191,93791,6,0,L|266:200,1,67.5000025749208,0|0,1:0|0:0,0:0:0:0:
334,254,94047,1,8,0:0:0:0:
337,156,94176,1,8,0:0:0:0:
401,246,94304,6,0,L|329:254,1,67.5000025749208,0|0,1:0|0:0,0:0:0:0:
249,284,94560,1,8,0:0:0:0:
313,343,94688,1,0,0:0:0:0:
217,358,94816,6,0,P|156:353|74:356,1,135,4|0,1:2|0:0,0:0:0:0:
0,262,95329,2,0,P|58:264|151:253,1,135.000005149842,0|8,1:0|0:0,0:0:0:0:
134,256,95842,6,0,P|153:201|124:118,1,135,0|0,1:0|0:0,0:0:0:0:
132,129,96355,6,0,L|281:124,1,135.000005149842,8|0,1:2|0:0,0:0:0:0:
322,59,96868,6,0,P|284:43|213:28,1,90,8|0,0:0|0:0,0:0:0:0:
351,144,97124,2,0,P|382:117|429:62,1,90,8|0,0:0|0:0,0:0:0:0:
259,126,97381,2,0,P|265:166|290:234,1,90,8|0,0:0|0:0,0:0:0:0:
312,54,97637,2,0,P|273:41|201:31,1,90,8|0,0:0|0:0,0:0:0:0:
193,199,97893,6,0,P|223:171|266:112,1,99.0000030212403,0|8,1:0|0:0,0:0:0:0:
133,15,98150,2,0,P|142:56|172:122,1,99.0000030212403,8|8,1:2|0:0,0:0:0:0:
277,244,98406,5,8,0:0:0:0:
340,137,98534,1,8,0:0:0:0:
390,238,98663,1,8,0:0:0:0:
453,135,98791,1,8,0:0:0:0:
488,326,98919,6,0,B|435:308|435:308|333:332,1,148.50000453186,4|0,1:2|0:0,0:0:0:0:
344,329,99175,6,0,L|254:331,1,90,8|0,0:0|0:0,0:0:0:0:
117,325,99432,2,0,P|102:282|114:236,1,90,0|0,1:0|1:0,0:0:0:0:
188,158,99688,2,0,L|300:155,1,90,8|0,0:0|0:0,0:0:0:0:
288,246,99945,5,0,1:0:0:0:
308,143,100073,1,0,0:0:0:0:
370,204,100201,1,8,0:0:0:0:
372,76,100329,1,0,0:0:0:0:
459,199,100457,2,0,P|420:199|346:208,1,90,0|0,1:0|1:0,0:0:0:0:
379,322,100714,2,0,P|339:322|266:331,1,90,8|0,0:0|0:0,0:0:0:0:
140,328,100970,6,0,P|115:290|123:237,1,90,0|0,1:0|0:0,0:0:0:0:
32,229,101227,2,0,P|22:272|38:328,1,90,8|0,0:0|0:0,0:0:0:0:
209,261,101483,6,0,P|211:217|187:181,1,90,0|0,1:0|1:0,0:0:0:0:
258,141,101740,2,0,P|285:176|285:239,1,90,8|0,0:0|0:0,0:0:0:0:
112,222,101996,6,0,P|97:178|119:129,1,90,0|0,1:0|0:0,0:0:0:0:
182,34,102252,2,0,P|233:33|280:74,1,90,8|0,0:0|0:0,0:0:0:0:
345,153,102509,2,0,P|395:201|479:182,1,135,0|0,1:0|0:0,0:0:0:0:
456,197,102765,2,0,L|463:99,1,90,8|0,0:0|0:0,0:0:0:0:
345,153,103022,6,0,L|343:250,1,90,0|0,1:0|0:0,0:0:0:0:
405,338,103278,2,0,P|362:325|319:337,1,90,8|0,0:0|0:0,0:0:0:0:
180,272,103534,6,0,P|222:284|265:271,1,90,0|0,1:0|1:0,0:0:0:0:
219,194,103791,1,8,0:0:0:0:
136,204,103919,6,0,P|98:271|179:358,1,180,0|0,0:0|0:0,0:0:0:0:
136,204,104304,2,0,L|29:201,1,90,8|0,0:0|0:0,0:0:0:0:
58,355,104560,6,0,P|101:351|159:351,1,90,0|0,1:0|1:0,0:0:0:0:
300,222,104816,1,8,0:0:0:0:
324,306,104945,6,0,P|244:279|227:169,1,180,0|0,1:0|1:0,0:0:0:0:
265,79,105329,1,8,0:0:0:0:
332,143,105457,1,0,0:0:0:0:
174,118,105586,2,0,L|82:117,1,90,0|0,1:0|1:0,0:0:0:0:
137,37,105842,1,8,0:0:0:0:
0,150,105970,5,0,1:0:0:0:
158,145,106227,5,0,1:0:0:0:
0,150,106483,6,0,P|-4:206|21:260,1,90,0|0,1:0|0:0,0:0:0:0:
8,329,106740,1,8,0:0:0:0:
82,276,106868,1,8,0:0:0:0:
0,338,106996,1,8,0:0:0:0:
95,265,107124,6,0,P|177:265|283:270,1,180,4|8,1:2|0:0,0:0:0:0:
310,350,107509,1,0,0:0:0:0:
203,355,107637,2,0,P|189:296|207:254,1,90,0|0,1:0|1:0,0:0:0:0:
256,159,107893,1,8,0:0:0:0:
152,78,108022,1,0,0:0:0:0:
33,171,108150,6,0,P|83:169|122:176,1,90,0|0,1:0|0:0,0:0:0:0:
180,269,108406,2,0,P|132:267|81:272,1,90,8|0,0:0|0:0,0:0:0:0:
273,271,108663,6,0,P|247:311|226:358,1,90,0|0,1:0|1:0,0:0:0:0:
329,198,108919,2,0,P|351:240|381:282,1,90,8|0,0:0|0:0,0:0:0:0:
392,101,109175,6,0,P|302:113|215:135,1,180,0|8,1:0|0:0,0:0:0:0:
159,210,109560,1,0,0:0:0:0:
235,19,109688,6,0,P|164:74|99:137,1,180,0|8,1:0|0:0,0:0:0:0:
53,220,110073,1,0,0:0:0:0:
156,297,110201,6,0,P|167:255|153:198,1,90,0|0,1:0|0:0,0:0:0:0:
73,134,110457,1,8,0:0:0:0:
57,237,110586,1,0,0:0:0:0:
155,200,110714,1,0,1:0:0:0:
67,118,110842,1,0,1:0:0:0:
195,119,110970,2,0,P|243:112|293:136,1,90,8|0,0:0|0:0,0:0:0:0:
305,33,111227,6,0,L|293:212,1,180,0|8,1:0|0:0,0:0:0:0:
392,119,111611,1,0,0:0:0:0:
312,294,111740,6,0,P|227:262|220:176,1,180,0|8,1:0|0:0,0:0:0:0:
277,109,112124,1,0,0:0:0:0:
293,212,112252,6,0,P|374:204|483:183,1,180,0|8,1:0|0:0,0:0:0:0:
407,296,112637,1,0,0:0:0:0:
312,294,112765,6,0,P|208:296|125:312,1,180,0|8,1:0|0:0,0:0:0:0:
66,199,113150,1,0,0:0:0:0:
178,215,113278,2,0,P|200:175|200:121,1,90,0|0,1:0|0:0,0:0:0:0:
67,76,113534,5,8,0:0:0:0:
153,21,113663,1,0,0:0:0:0:
206,115,113791,2,0,L|320:108,1,90,8|0,0:0|0:0,0:0:0:0:
52,91,114047,5,8,0:0:0:0:
128,151,114175,1,0,0:0:0:0:
31,89,114304,6,0,P|17:140|29:187,1,99.0000030212403,0|0,1:0|0:0,0:0:0:0:
208,201,114560,2,0,P|170:163|124:150,1,99.0000030212403,0|0,1:0|0:0,0:0:0:0:
31,347,114816,2,0,P|82:333|115:234,1,148.50000453186,0|0,1:0|0:0,0:0:0:0:
38,264,115073,5,0,0:0:0:0:
300,327,115329,6,0,P|359:303|445:297,1,135,0|0,0:0|0:0,0:0:0:0:
500,204,115842,2,0,P|433:197|371:173,1,135,0|0,0:0|0:0,0:0:0:0:
242,99,116355,2,0,P|308:92|371:67,1,135,0|0,0:0|0:0,0:0:0:0:
371,66,116868,5,0,0:0:0:0:
454,112,117124,1,0,0:0:0:0:
370,172,117381,6,0,L|364:330,1,135.000005149842,0|8,0:0|0:0,0:0:0:0:
247,329,117893,2,0,L|241:171,1,135.000005149842,8|8,0:0|0:0,0:0:0:0:
241,194,118406,5,8,0:0:0:0:
172,129,118534,1,8,0:0:0:0:
77,140,118663,1,8,0:0:0:0:
12,209,118791,1,8,0:0:0:0:
21,300,118919,6,0,L|79:300,1,45,2|0,1:2|0:0,0:0:0:0:
143,340,119175,6,0,B|153:291|153:291|124:239,1,101.250003862381,0|0,0:0|0:0,0:0:0:0:
128,246,119432,6,0,B|165:248|193:238|193:238|241:260|241:260|267:251|314:252,1,175.499991966248,4|0,2:0|0:0,0:0:0:0:
335,169,119688,2,0,B|254:172,1,80.9999975280763,8|0,0:0|0:0,0:0:0:0:
166,153,119945,5,0,1:0:0:0:
247,81,120073,1,0,1:0:0:0:
151,65,120201,1,8,0:0:0:0:
247,69,120329,6,0,L|408:55,1,161.999995056153,0|0,0:0|1:0,0:0:0:0:
493,128,120714,1,8,0:0:0:0:
493,128,120842,1,0,0:0:0:0:
402,157,120970,5,0,1:0:0:0:
485,37,121099,1,0,1:0:0:0:
395,172,121227,1,8,0:0:0:0:
492,24,121355,1,0,0:0:0:0:
479,212,121483,6,0,B|411:199|411:199|361:217,1,121.499996292114,0|0,1:0|0:0,0:0:0:0:
326,288,121740,2,0,L|204:288,1,121.499996292114,8|0,0:0|0:0,0:0:0:0:
137,331,121996,2,0,B|128:293|128:293|132:252,1,80.9999975280763,0|0,1:0|1:0,0:0:0:0:
203,201,122252,1,8,0:0:0:0:
130,166,122381,6,0,P|92:164|43:165,1,80.9999975280763,0|0,1:0|0:0,0:0:0:0:
60,54,122637,2,0,P|98:52|147:53,1,80.9999975280763,0|8,1:0|0:0,0:0:0:0:
224,122,122893,1,0,0:0:0:0:
224,122,123022,6,0,L|320:118,1,80.9999975280763,0|0,1:0|1:0,0:0:0:0:
379,88,123278,2,0,B|385:133|385:133|371:165|371:165|376:205,1,121.499996292114,8|0,0:0|0:0,0:0:0:0:
455,224,123534,6,0,B|453:175|453:175|476:116,1,80.9999975280763,0|0,1:0|0:0,0:0:0:0:
452,58,123791,2,0,L|350:64,1,80.9999975280763,8|0,0:0|0:0,0:0:0:0:
262,120,124047,5,0,1:0:0:0:
286,42,124175,1,0,1:0:0:0:
199,60,124304,1,8,0:0:0:0:
135,116,124432,6,0,P|116:52|135:11,1,80.9999975280763,0|0,1:0|0:0,0:0:0:0:
199,60,124688,1,0,1:0:0:0:
262,120,124816,1,8,0:0:0:0:
183,181,124945,1,0,0:0:0:0:
274,222,125073,1,0,1:0:0:0:
133,265,125201,1,0,1:0:0:0:
224,307,125329,5,8,0:0:0:0:
84,333,125457,2,0,P|46:284|61:225,1,90,0|0,0:0|1:0,0:0:0:0:
133,265,125714,1,0,0:0:0:0:
224,307,125842,2,0,L|331:302,1,90,8|0,0:0|0:0,0:0:0:0:
400,283,126099,5,0,1:0:0:0:
313,222,126227,1,0,1:0:0:0:
402,187,126355,1,8,0:0:0:0:
314,150,126483,5,0,1:0:0:0:
314,150,126740,5,0,1:0:0:0:
314,150,126996,6,0,B|257:152|257:152|218:133,1,90,0|0,1:0|0:0,0:0:0:0:
161,81,127252,1,8,0:0:0:0:
155,187,127381,1,8,0:0:0:0:
162,66,127509,1,8,0:0:0:0:
156,199,127637,6,0,B|158:288,1,90,4|0,1:2|0:0,0:0:0:0:
215,343,127893,1,12,0:0:0:0:
97,342,128022,1,0,0:0:0:0:
216,353,128150,2,0,P|259:363|300:348,1,90,0|0,1:0|1:0,0:0:0:0:
342,249,128406,1,8,0:0:0:0:
344,156,128534,6,0,P|273:186|260:291,1,180,0|0,0:0|0:0,0:0:0:0:
342,249,128919,2,0,P|391:249|450:237,1,90,8|0,0:0|0:0,0:0:0:0:
484,169,129175,1,0,1:0:0:0:
409,111,129304,1,0,1:0:0:0:
487,79,129432,2,0,P|488:123|481:181,1,90,8|0,0:0|0:0,0:0:0:0:
373,32,129688,6,0,P|435:31|491:92,1,135,0|0,1:0|0:0,0:0:0:0:
409,111,129945,2,0,L|294:112,1,90,8|0,0:0|0:0,0:0:0:0:
232,65,130201,2,0,P|219:107|226:152,1,90,0|0,1:0|0:0,0:0:0:0:
251,249,130457,1,8,0:0:0:0:
127,292,130586,6,0,P|156:214|105:103,1,180,0|0,1:0|1:0,0:0:0:0:
30,58,130970,1,8,0:0:0:0:
12,154,131099,1,0,0:0:0:0:
115,114,131227,1,0,1:0:0:0:
21,46,131355,1,0,1:0:0:0:
75,189,131483,5,8,0:0:0:0:
106,34,131611,1,0,0:0:0:0:
206,98,131740,6,0,P|211:142|191:181,1,90,0|0,1:2|0:0,0:0:0:0:
154,313,131996,2,0,P|189:286|233:283,1,90,8|0,0:0|0:0,0:0:0:0:
355,246,132252,2,0,P|314:228|289:191,1,90,0|0,1:0|1:0,0:0:0:0:
375,164,132509,1,8,0:0:0:0:
363,79,132637,6,0,P|441:104|445:218,1,180,0|0,1:0|1:0,0:0:0:0:
375,164,133022,2,0,L|286:160,1,90,8|0,0:0|0:0,0:0:0:0:
189,122,133278,2,0,P|176:164|192:205,1,90,0|0,1:0|1:0,0:0:0:0:
285,159,133534,2,0,P|297:116|281:75,1,90,8|0,0:0|0:0,0:0:0:0:
189,122,133791,6,0,L|99:123,1,90,0|0,1:0|0:0,0:0:0:0:
139,43,134047,1,8,0:0:0:0:
86,230,134175,5,0,1:0:0:0:
220,43,134432,5,0,1:0:0:0:
86,230,134688,5,0,1:0:0:0:
90,244,134945,5,8,0:0:0:0:
223,223,135073,1,8,0:0:0:0:
97,257,135201,1,8,0:0:0:0:
214,238,135329,1,8,0:0:0:0:
150,161,135457,6,0,B|139:131|139:131|153:70,2,67.5000025749208,8|8|8,0:0|0:0|0:0,0:0:0:0:
252,195,148150,5,4,0:2:0:0:
252,195,150030,5,0,0:0:0:0:
204,298,150201,1,4,1:2:0:0:
368,191,150714,5,4,1:2:0:0:
123,130,151227,5,4,1:2:0:0:
351,45,151740,5,4,1:2:0:0:
258,328,152252,5,4,1:1:0:0:
256,192,152316,12,0,155329,0:0:0:0:
256,192,155842,5,0,0:0:0:0:
256,192,156355,12,0,158791,0:0:0:0:
414,315,158919,6,0,L|417:229,1,67.5000025749208,0|0,1:0|0:0,0:0:0:0:
327,158,159175,2,0,L|330:244,1,67.5000025749208,0|0,1:0|0:0,0:0:0:0:
276,331,159432,5,0,1:0:0:0:
269,337,159560,1,8,0:0:0:0:
230,264,159688,5,0,1:0:0:0:
213,265,159816,1,8,0:0:0:0:
227,174,159945,5,0,1:0:0:0:
205,161,160073,1,8,0:0:0:0:
279,104,160201,5,0,1:0:0:0:
263,76,160329,1,8,0:0:0:0:
362,32,160457,6,0,L|359:244,1,198.000006042481,4|8,1:1|0:0,0:0:0:0:
223,345,160842,6,0,P|179:345|141:311,1,90,4|0,1:1|0:0,0:0:0:0:
205,161,161099,2,0,P|227:199|216:249,1,90,4|0,1:1|0:0,0:0:0:0:
121,217,161355,1,8,1:2:0:0:
126,128,161483,6,0,L|126:68,2,60,8|8|8,0:0|0:3|0:3,0:0:0:0:
228,139,161740,6,0,L|272:136,2,45.0000017166138,8|8|8,0:3|0:3|0:3,0:0:0:0:
278,46,161996,6,0,P|347:97|347:184,1,179.549997808228,4|0,0:0|0:0,0:0:0:0:
241,217,162509,6,0,L|94:217,2,120,0|0|0,1:0|1:0|1:0,0:0:0:0:
252,343,163022,6,0,P|291:284|381:274,1,157.5,8|0,0:0|0:0,0:0:0:0:
386,354,163534,6,0,L|247:342,1,135,4|0,1:2|0:0,0:0:0:0:
372,270,163791,2,0,B|362:220|362:220|373:182,1,90,8|0,0:0|0:0,0:0:0:0:
429,86,164047,1,0,1:0:0:0:
483,180,164175,1,0,1:0:0:0:
370,172,164304,2,0,P|325:169|280:166,1,90,8|0,0:0|0:0,0:0:0:0:
208,236,164560,5,0,1:0:0:0:
203,121,164688,1,0,0:0:0:0:
126,185,164816,1,8,0:0:0:0:
111,86,164945,1,0,0:0:0:0:
113,187,165073,2,0,P|110:231|111:276,1,90,0|0,1:0|1:0,0:0:0:0:
213,343,165329,2,0,P|249:318|300:318,1,90,8|0,0:0|0:0,0:0:0:0:
433,281,165586,6,0,P|389:271|352:245,1,90,0|0,1:0|0:0,0:0:0:0:
505,213,165842,2,0,P|460:217|416:203,1,90,8|0,0:0|0:0,0:0:0:0:
391,83,166099,6,0,P|404:126|400:171,1,90,0|0,1:0|0:0,0:0:0:0:
293,63,166355,2,0,P|319:99|329:143,1,90,8|0,0:0|0:0,0:0:0:0:
179,135,166611,6,0,P|136:124|84:116,1,90,0|0,1:0|0:0,0:0:0:0:
20,255,166867,2,0,P|64:249|108:239,1,90,8|0,0:0|0:0,0:0:0:0:
107,333,167124,2,0,B|158:352|158:352|260:338,1,135,0|0,1:0|0:0,0:0:0:0:
237,341,167381,2,0,B|248:295|248:295|232:235,1,90,8|0,0:0|0:0,0:0:0:0:
331,146,167637,6,0,P|312:216|351:297,1,135,0|0,1:0|0:0,0:0:0:0:
331,274,167893,2,0,P|383:269|430:266,1,90,8|0,0:0|0:0,0:0:0:0:
411,138,168150,2,0,P|378:81|263:94,1,180,0|8,1:0|0:0,0:0:0:0:
193,201,168534,2,0,P|277:214|330:146,1,180,0|0,1:0|1:0,0:0:0:0:
126,146,168919,6,0,P|111:185|125:250,1,90,8|0,0:0|0:0,0:0:0:0:
220,312,169175,2,0,L|40:314,1,180,0|8,1:0|0:0,0:0:0:0:
229,230,169560,6,0,P|296:268|278:377,1,180,0|0,1:0|1:0,0:0:0:0:
220,312,169945,2,0,P|272:282|321:284,1,90,8|0,0:0|0:0,0:0:0:0:
452,249,170201,2,0,P|400:218|377:175,1,90,0|0,0:0|0:0,0:0:0:0:
408,340,170457,1,8,0:0:0:0:
310,190,170586,5,0,1:0:0:0:
462,168,170842,5,0,1:0:0:0:
310,190,171099,6,0,L|306:86,1,90,0|0,1:0|0:0,0:0:0:0:
377,55,171355,1,8,0:0:0:0:
234,31,171483,1,8,0:0:0:0:
389,63,171611,1,8,0:0:0:0:
209,28,171740,6,0,B|232:95|232:95|211:204,1,180,4|8,1:2|0:0,0:0:0:0:
68,254,172124,1,0,0:0:0:0:
133,193,172252,6,0,P|135:148|100:92,1,90,0|0,1:0|1:0,0:0:0:0:
116,325,172509,2,0,P|147:294|195:284,1,90,8|0,0:0|0:0,0:0:0:0:
283,368,172765,6,0,P|237:364|182:361,1,90,0|0,1:0|0:0,0:0:0:0:
249,229,173022,2,0,P|295:229|342:223,1,90,8|0,0:0|0:0,0:0:0:0:
433,143,173278,6,0,P|448:101|441:57,1,90,0|0,1:0|0:0,0:0:0:0:
277,105,173534,2,0,P|261:63|268:19,1,90,8|0,0:0|0:0,0:0:0:0:
173,137,173791,6,0,P|209:164|242:195,1,90,0|0,1:0|0:0,0:0:0:0:
67,160,174047,2,0,P|79:116|83:72,1,90,8|0,0:0|0:0,0:0:0:0:
134,233,174304,2,0,P|92:250|50:265,1,90,0|0,1:0|1:0,0:0:0:0:
173,137,174560,2,0,P|204:166|244:196,1,90,8|0,0:0|0:0,0:0:0:0:
351,76,174816,6,0,P|306:79|268:103,1,90,0|0,1:0|0:0,0:0:0:0:
335,171,175073,1,8,0:0:0:0:
427,136,175201,1,0,0:0:0:0:
388,254,175329,1,0,1:0:0:0:
489,198,175457,1,0,1:0:0:0:
377,266,175586,1,8,0:0:0:0:
491,291,175714,1,0,0:0:0:0:
363,279,175842,6,0,P|319:267|275:259,1,90,0|0,1:0|0:0,0:0:0:0:
170,308,176099,1,8,0:0:0:0:
178,197,176227,1,0,0:0:0:0:
257,261,176355,1,0,1:0:0:0:
266,143,176483,1,0,1:0:0:0:
161,194,176611,1,8,0:0:0:0:
203,77,176740,6,0,P|282:49|352:106,1,180,0|0,1:0|1:0,0:0:0:0:
428,200,177124,2,0,P|427:155|450:108,1,90,8|0,0:0|0:0,0:0:0:0:
505,171,177381,1,0,1:0:0:0:
506,277,177509,1,0,1:0:0:0:
404,221,177637,1,8,0:0:0:0:
435,329,177765,6,0,P|350:332|251:323,1,180,0|0,1:0|1:0,0:0:0:0:
169,317,178150,1,8,0:0:0:0:
275,237,178278,1,0,0:0:0:0:
184,231,178406,1,0,1:0:0:0:
256,324,178534,1,12,0:2:0:0:
236,160,178663,1,0,1:0:0:0:
90,277,178791,6,0,B|-19:275|-19:275|21:244,1,148.50000453186,12|0,0:2|0:0,0:0:0:0:
90,198,179047,6,0,B|213:205|213:205|169:247,1,161.999995056153,8|0,0:2|0:0,0:0:0:0:
135,304,179304,6,0,B|89:360|89:360|90:195,1,233.999989288331,14|0,0:0|0:0,0:0:0:0:
116,72,179688,5,8,0:0:0:0:
260,164,179816,1,8,0:0:0:0:
201,89,179945,6,0,B|177:139|177:139|186:254,1,148.50000453186,4|0,1:2|0:0,0:0:0:0:
263,262,180201,2,0,L|259:152,1,99.0000030212403,8|0,0:0|0:0,0:0:0:0:
300,49,180457,1,0,1:0:0:0:
300,49,180586,1,0,1:0:0:0:
357,157,180714,2,0,P|308:157|258:163,1,99.0000030212403,8|0,0:0|0:0,0:0:0:0:
74,200,180970,6,0,P|66:151|80:104,1,99.0000030212403,0|0,1:0|0:0,0:0:0:0:
183,32,181227,2,0,P|190:80|176:127,1,99.0000030212403,8|0,0:0|0:0,0:0:0:0:
160,251,181483,1,0,1:0:0:0:
255,220,181611,1,0,1:0:0:0:
224,317,181740,2,0,P|273:315|322:309,1,99.0000030212403,8|0,0:0|0:0,0:0:0:0:
433,342,181996,6,0,P|420:291|428:236,1,99.0000030212403,0|0,1:0|0:0,0:0:0:0:
417,133,182252,2,0,P|379:169|327:190,1,99.0000030212403,8|0,0:0|0:0,0:0:0:0:
265,133,182509,1,0,1:0:0:0:
338,89,182637,1,0,1:0:0:0:
255,51,182765,2,0,P|204:47|149:52,1,99.0000030212403,8|0,0:0|0:0,0:0:0:0:
41,150,183022,6,0,P|94:156|147:156,1,99.0000030212403,0|0,1:0|0:0,0:0:0:0:
92,292,183278,2,0,P|145:286|198:286,1,99.0000030212403,8|0,0:0|0:0,0:0:0:0:
254,231,183534,1,0,1:0:0:0:
266,331,183663,1,0,1:0:0:0:
252,219,183791,2,0,P|254:169|262:120,1,99.0000030212403,8|0,0:0|0:0,0:0:0:0:
264,29,184047,6,0,P|311:41|346:77,1,99.0000030212403,0|0,1:0|0:0,0:0:0:0:
435,200,184304,2,0,P|421:152|435:105,1,99.0000030212403,8|0,0:0|0:0,0:0:0:0:
504,60,184560,1,0,1:0:0:0:
512,155,184688,1,0,1:0:0:0:
438,221,184816,2,0,L|323:216,1,99.0000030212403,8|0,0:0|0:0,0:0:0:0:
243,306,185073,6,0,P|288:289|337:297,1,99.0000030212403,0|0,1:0|0:0,0:0:0:0:
164,232,185329,2,0,P|155:280|124:317,1,99.0000030212403,8|0,0:0|0:0,0:0:0:0:
72,237,185586,1,0,1:0:0:0:
195,149,185714,1,0,1:0:0:0:
103,155,185842,2,0,P|58:161|-3:163,1,99.0000030212403,8|0,0:0|0:0,0:0:0:0:
203,139,186099,6,0,P|214:91|199:44,1,99.0000030212403,0|0,1:0|0:0,0:0:0:0:
314,9,186355,2,0,P|300:55|314:102,1,99.0000030212403,8|0,0:0|0:0,0:0:0:0:
378,191,186611,1,0,1:0:0:0:
389,77,186740,1,0,1:0:0:0:
475,173,186868,2,0,P|426:180|377:190,1,99.0000030212403,8|0,0:0|0:0,0:0:0:0:
284,319,187124,6,0,P|280:269|278:220,1,99.0000030212403,0|0,1:0|0:0,0:0:0:0:
103,250,187381,2,0,P|151:242|197:259,1,99.0000030212403,8|0,0:0|0:0,0:0:0:0:
133,334,187637,5,4,1:2:0:0:
27,307,187765,1,0,1:0:0:0:
95,239,187893,5,8,0:0:0:0:
0,188,188022,1,8,0:0:0:0:
103,157,188150,6,0,P|104:107|116:59,1,99.0000030212403,4|0,1:2|0:0,0:0:0:0:
208,32,188406,1,8,0:0:0:0:
208,32,188535,1,0,0:0:0:0:
189,235,188663,6,0,P|145:258|92:272,1,103.500001974106,0|0,1:0|1:0,0:0:0:0:
28,206,188919,1,8,0:0:0:0:
28,206,189048,1,0,0:0:0:0:
219,129,189175,6,0,P|261:154|302:201,1,107.999996704102,0|0,1:0|0:0,0:0:0:0:
274,282,189431,1,8,0:0:0:0:
274,282,189560,1,0,0:0:0:0:
377,325,189688,6,0,P|388:261|407:221,1,99.0000030212403,0|0,1:0|1:0,0:0:0:0:
477,114,189945,2,0,P|416:136|373:138,1,99.0000030212403,8|0,0:0|0:0,0:0:0:0:
205,173,190201,6,0,P|254:178|299:197,1,99.0000030212403,0|0,1:0|0:0,0:0:0:0:
299,99,190457,1,8,0:0:0:0:
244,269,190586,1,0,0:0:0:0:
133,222,190714,2,0,P|119:174|132:127,1,99.0000030212403,0|0,1:0|1:0,0:0:0:0:
34,248,190970,2,0,P|47:295|34:342,1,99.0000030212403,8|0,0:0|0:0,0:0:0:0:
136,312,191227,6,0,P|208:305|238:310,1,99.0000030212403,0|0,1:0|0:0,0:0:0:0:
302,175,191483,2,0,P|252:179|204:172,1,99.0000030212403,8|0,0:0|0:0,0:0:0:0:
342,262,191740,2,0,P|414:255|444:260,1,99.0000030212403,0|0,1:0|1:0,0:0:0:0:
393,330,191996,1,8,0:0:0:0:
406,174,192124,1,0,0:0:0:0:
489,310,192252,6,0,P|473:263|492:209,1,99.0000030212403,0|0,1:0|0:0,0:0:0:0:
484,92,192509,2,0,P|434:96|386:89,1,99.0000030212403,8|0,0:0|0:0,0:0:0:0:
281,67,192765,1,0,1:0:0:0:
305,156,192893,1,0,1:0:0:0:
364,89,193022,1,8,0:0:0:0:
221,131,193150,1,0,0:0:0:0:
354,228,193278,6,0,P|356:279|353:331,1,99.0000030212403,0|0,1:0|0:0,0:0:0:0:
180,245,193534,2,0,P|230:232|289:256,1,99.0000030212403,8|0,0:0|1:0,0:0:0:0:
305,156,193791,1,0,1:0:0:0:
228,307,193919,1,0,0:0:0:0:
133,178,194047,2,0,P|129:137|137:58,1,99.0000030212403,8|0,0:0|0:0,0:0:0:0:
304,57,194304,6,0,P|307:97|300:177,1,99.0000030212403,0|0,1:0|0:0,0:0:0:0:
370,274,194560,2,0,P|422:269|497:273,1,99.0000030212403,12|0,0:0|0:0,0:0:0:0:
228,307,194816,2,0,P|180:302|129:302,1,99.0000030212403,0|0,0:0|0:0,0:0:0:0:
41,249,195073,5,12,0:0:0:0:
206,203,195201,1,0,0:0:0:0:
40,226,195329,5,12,0:2:0:0:
214,117,195457,1,0,1:0:0:0:
40,205,195586,5,12,0:2:0:0:
172,43,195714,1,0,1:0:0:0:
40,184,195842,5,12,0:0:0:0:
83,27,195970,1,0,1:0:0:0:
41,168,196099,6,0,P|39:241|48:315,1,148.50000453186,12|0,0:0|0:0,0:0:0:0:
135,367,196355,5,4,0:0:0:0:
86,141,204560,5,0,1:0:0:0:
86,141,204816,1,2,0:0:0:0:
86,141,205073,1,8,0:0:0:0:
185,115,205329,1,10,0:0:0:0:
185,115,205457,2,0,L|276:122,1,67.5000025749208,0|0,1:0|0:0,0:0:0:0:
380,253,205714,5,0,1:0:0:0:
369,116,205842,1,10,0:0:0:0:
369,116,206099,6,0,P|370:79|363:40,1,67.5000025749208,8|0,0:0|1:0,0:0:0:0:
380,253,206355,2,0,P|376:289|382:337,1,67.5000025749208,2|8,0:0|0:0,0:0:0:0:
194,331,206611,5,0,1:0:0:0:
194,331,206868,1,2,0:0:0:0:
194,331,207124,1,8,0:0:0:0:
82,265,207381,1,10,0:0:0:0:
82,265,207509,2,0,L|103:198,1,67.5000025749208,0|0,1:0|0:0,0:0:0:0:
194,212,207765,5,0,1:0:0:0:
194,212,207893,2,0,P|204:178|201:137,1,67.5000025749208,10|0,0:0|0:0,0:0:0:0:
266,76,208150,2,0,P|278:113|309:139,1,67.5000025749208,8|0,0:0|1:0,0:0:0:0:
345,209,208406,2,0,P|310:209|276:216,1,67.5000025749208,2|8,0:0|0:0,0:0:0:0:
127,313,208663,5,0,1:0:0:0:
127,313,208919,1,2,0:0:0:0:
127,313,209175,1,8,0:0:0:0:
65,227,209432,1,10,0:0:0:0:
65,227,209560,2,0,L|71:143,1,67.5000025749208,0|0,1:0|0:0,0:0:0:0:
238,151,209816,5,0,1:0:0:0:
238,151,209945,2,0,P|192:153|157:149,1,67.5000025749208,10|0,0:0|0:0,0:0:0:0:
250,51,210201,2,0,P|283:49|323:54,1,67.5000025749208,8|0,0:0|1:0,0:0:0:0:
442,100,210457,2,0,P|441:142|428:191,1,67.5000025749208,2|8,0:0|0:0,0:0:0:0:
345,306,210714,5,0,1:0:0:0:
345,306,210970,1,2,0:0:0:0:
345,306,211227,1,8,0:0:0:0:
314,181,211483,1,2,1:2:0:0:
253,258,211611,1,8,0:0:0:0:
179,88,211740,5,4,1:2:0:0:
179,88,211996,5,0,0:0:0:0:
127,294,212124,1,4,1:2:0:0:
127,294,212381,5,0,0:0:0:0:
24,73,212509,1,4,0:0:0:0:
