osu file format v14

[General]
AudioFilename: audio200.mp3
AudioLeadIn: 0
PreviewTime: 165522
Countdown: 0
SampleSet: Soft
StackLeniency: 0.7
Mode: 0
LetterboxInBreaks: 0
EpilepsyWarning: 1
WidescreenStoryboard: 1

[Editor]
DistanceSpacing: 1.1
BeatDivisor: 4
GridSize: 32
TimelineZoom: 2.900005

[Metadata]
Title:Sukisuki Zecchoushou
TitleUnicode:スキスキ絶頂症
Artist:Kano
ArtistUnicode:鹿乃
Creator:Loreley
Version:Advanced
Source:
Tags:GUMI vocaloid utaite cover Denpol-P koyori 電ポルP [panda619] 619 SnowNiNo_ Namki TheMefisto SherryCherry Allihoppa wajinshu nattu smau5
BeatmapID:1233124
BeatmapSetID:484532

[Difficulty]
HPDrainRate:4
CircleSize:3.8
OverallDifficulty:4
ApproachRate:6
SliderMultiplier:1.00000000596046
SliderTickRate:1

[Events]
//Background and Video events
0,0,"deep sea dream.jpg",0,0
//Break Periods
2,66299,73254
2,135913,155155
2,196555,203360
//Storyboard Layer 0 (Background)
//Storyboard Layer 1 (Fail)
//Storyboard Layer 2 (Pass)
//Storyboard Layer 3 (Foreground)
Sprite,Foreground,Centre,"sb\ring.png",320,240 M,0,16355,,462,208 F,0,16355,,1 C,0,16355,,255,255,255 S,7,16355,16855,0.25,0.9 F,0,16356,16856,1,0
Sprite,Foreground,Centre,"sb\ring.png",320,240 M,0,16611,,373,162 F,0,16611,,1 C,0,16611,,255,255,255 S,7,16611,17111,0.25,0.9 F,0,16612,17112,1,0
Sprite,Foreground,Centre,"sb\ring.png",320,240 M,0,16868,,466,114 F,0,16868,,1 C,0,16868,,255,255,255 S,7,16868,17368,0.25,0.9 F,0,16869,17369,1,0
Sprite,Foreground,Centre,"sb\ring.png",320,240 M,0,33791,,82,311 F,0,33791,,1 C,0,33791,,255,255,255 S,7,33791,34291,0.25,0.9 F,0,33792,34292,1,0
Sprite,Foreground,Centre,"sb\ring.png",320,240 M,0,34047,,134,237 F,0,34047,,1 C,0,34047,,255,255,255 S,7,34047,34547,0.25,0.9 F,0,34048,34548,1,0
Sprite,Foreground,Centre,"sb\ring.png",320,240 M,0,34304,,76,167 F,0,34304,,1 C,0,34304,,255,255,255 S,7,34304,34804,0.25,0.9 F,0,34305,34805,1,0
Sprite,Foreground,Centre,"sb\ring.png",320,240 M,0,47637,,198,252 F,0,47637,,1 C,0,47637,,255,255,255 S,7,47637,48137,0.25,0.9 F,0,47638,48138,1,0
Sprite,Foreground,Centre,"sb\ring.png",320,240 M,0,48022,,214,381 F,0,48022,,1 C,0,48022,,255,255,255 S,7,48022,48522,0.25,0.9 F,0,48023,48523,1,0
Sprite,Foreground,Centre,"sb\ring.png",320,240 M,0,48406,,342,393 F,0,48406,,1 C,0,48406,,255,255,255 S,7,48406,48906,0.25,0.9 F,0,48407,48907,1,0
Sprite,Foreground,Centre,"sb\ring.png",320,240 M,0,57509,,293,332 F,0,57509,,1 C,0,57509,,255,255,255 S,7,57509,58009,0.25,0.9 F,0,57510,58010,1,0
Sprite,Foreground,Centre,"sb\ring.png",320,240 M,0,57637,,293,332 F,0,57637,,1 C,0,57637,,255,255,255 S,7,57637,58137,0.25,0.9 F,0,57638,58138,1,0
Sprite,Foreground,Centre,"sb\ring.png",320,240 M,0,57765,,293,332 F,0,57765,,1 C,0,57765,,255,255,255 S,7,57765,58265,0.25,0.9 F,0,57766,58266,1,0
Sprite,Foreground,Centre,"sb\ring.png",320,240 M,0,74304,,488,364 F,0,74304,,1 C,0,74304,,255,255,255 S,7,74304,75304,0.25,0.9 F,0,74305,75305,1,0
Sprite,Foreground,Centre,"sb\ring.png",320,240 M,0,106740,,116,325 F,0,106740,,1 C,0,106740,,255,255,255 S,7,106740,107240,0.25,0.9 F,0,106741,107241,1,0
Sprite,Foreground,Centre,"sb\ring.png",320,240 M,0,106868,,116,325 F,0,106868,,1 C,0,106868,,255,255,255 S,7,106868,107368,0.25,0.9 F,0,106869,107369,1,0
Sprite,Foreground,Centre,"sb\ring.png",320,240 M,0,106996,,116,325 F,0,106996,,1 C,0,106996,,255,255,255 S,7,106996,107496,0.25,0.9 F,0,106997,107497,1,0
Sprite,Foreground,Centre,"sb\ring.png",320,240 M,0,127252,,531,93 F,0,127252,,1 C,0,127252,,255,255,255 S,7,127252,127752,0.25,0.9 F,0,127253,127753,1,0
Sprite,Foreground,Centre,"sb\ring.png",320,240 M,0,127381,,531,93 F,0,127381,,1 C,0,127381,,255,255,255 S,7,127381,127881,0.25,0.9 F,0,127382,127882,1,0
Sprite,Foreground,Centre,"sb\ring.png",320,240 M,0,127509,,531,93 F,0,127509,,1 C,0,127509,,255,255,255 S,7,127509,128009,0.25,0.9 F,0,127510,128010,1,0
Sprite,Foreground,Centre,"sb\ring.png",320,240 M,0,134945,,473,274 F,0,134945,,1 C,0,134945,,255,255,255 S,7,134945,135445,0.25,0.9 F,0,134946,135446,1,0
Sprite,Foreground,Centre,"sb\ring.png",320,240 M,0,135073,,473,274 F,0,135073,,1 C,0,135073,,255,255,255 S,7,135073,135573,0.25,0.9 F,0,135074,135574,1,0
Sprite,Foreground,Centre,"sb\ring.png",320,240 M,0,135201,,473,274 F,0,135201,,1 C,0,135201,,255,255,255 S,7,135201,135701,0.25,0.9 F,0,135202,135702,1,0
Sprite,Foreground,Centre,"sb\ring.png",320,240 M,0,135329,,473,274 F,0,135329,,1 C,0,135329,,255,255,255 S,7,135329,135829,0.25,0.9 F,0,135330,135830,1,0
Sprite,Foreground,Centre,"sb\ring.png",320,240 M,0,171355,,90,254 F,0,171355,,1 C,0,171355,,255,255,255 S,7,171355,171855,0.25,0.9 F,0,171356,171856,1,0
Sprite,Foreground,Centre,"sb\ring.png",320,240 M,0,171483,,90,254 F,0,171483,,1 C,0,171483,,255,255,255 S,7,171483,171983,0.25,0.9 F,0,171484,171984,1,0
Sprite,Foreground,Centre,"sb\ring.png",320,240 M,0,171611,,90,254 F,0,171611,,1 C,0,171611,,255,255,255 S,7,171611,172111,0.25,0.9 F,0,171612,172112,1,0
Sprite,Foreground,Centre,"sb\ring.png",320,240 M,0,179688,,312,187 F,0,179688,,1 C,0,179688,,255,255,255 S,7,179688,180188,0.25,0.9 F,0,179689,180189,1,0
Sprite,Foreground,Centre,"sb\ring.png",320,240 M,0,179816,,312,187 F,0,179816,,1 C,0,179816,,255,255,255 S,7,179816,180316,0.25,0.9 F,0,179817,180317,1,0
Sprite,Foreground,Centre,"sb\ring.png",320,240 M,0,204560,,487,361 F,0,204560,,1 C,0,204560,,255,255,255 S,7,204560,205060,0.25,0.9 F,0,204561,205061,1,0
Sprite,Foreground,Centre,"sb\ring.png",320,240 M,0,205073,,452,198 F,0,205073,,1 C,0,205073,,255,255,255 S,7,205073,205573,0.25,0.9 F,0,205074,205574,1,0
Sprite,Foreground,Centre,"sb\ring.png",320,240 M,0,205457,,331,238 F,0,205457,,1 C,0,205457,,255,255,255 S,7,205457,205957,0.25,0.9 F,0,205458,205958,1,0
Sprite,Foreground,Centre,"sb\ring.png",320,240 M,0,206099,,114,277 F,0,206099,,1 C,0,206099,,255,255,255 S,7,206099,206599,0.25,0.9 F,0,206100,206600,1,0
Sprite,Foreground,Centre,"sb\ring.png",320,240 M,0,206611,,161,114 F,0,206611,,1 C,0,206611,,255,255,255 S,7,206611,207111,0.25,0.9 F,0,206612,207112,1,0
Sprite,Foreground,Centre,"sb\ring.png",320,240 M,0,207124,,336,136 F,0,207124,,1 C,0,207124,,255,255,255 S,7,207124,207624,0.25,0.9 F,0,207125,207625,1,0
Sprite,Foreground,Centre,"sb\ring.png",320,240 M,0,207509,,470,141 F,0,207509,,1 C,0,207509,,255,255,255 S,7,207509,208009,0.25,0.9 F,0,207510,208010,1,0
Sprite,Foreground,Centre,"sb\ring.png",320,240 M,0,208150,,457,350 F,0,208150,,1 C,0,208150,,255,255,255 S,7,208150,208650,0.25,0.9 F,0,208151,208651,1,0
Sprite,Foreground,Centre,"sb\ring.png",320,240 M,0,208663,,283,384 F,0,208663,,1 C,0,208663,,255,255,255 S,7,208663,209163,0.25,0.9 F,0,208664,209164,1,0
Sprite,Foreground,Centre,"sb\ring.png",320,240 M,0,209175,,109,354 F,0,209175,,1 C,0,209175,,255,255,255 S,7,209175,209675,0.25,0.9 F,0,209176,209676,1,0
Sprite,Foreground,Centre,"sb\ring.png",320,240 M,0,209560,,128,229 F,0,209560,,1 C,0,209560,,255,255,255 S,7,209560,210060,0.25,0.9 F,0,209561,210061,1,0
Sprite,Foreground,Centre,"sb\ring.png",320,240 M,0,210201,,338,207 F,0,210201,,1 C,0,210201,,255,255,255 S,7,210201,210701,0.25,0.9 F,0,210202,210702,1,0
Sprite,Foreground,Centre,"sb\ring.png",320,240 M,0,210714,,405,349 F,0,210714,,1 C,0,210714,,255,255,255 S,7,210714,211214,0.25,0.9 F,0,210715,211215,1,0
Sprite,Foreground,Centre,"sb\ring.png",320,240 M,0,211483,,353,109 F,0,211483,,1 C,0,211483,,255,255,255 S,7,211483,211983,0.25,0.9 F,0,211484,211984,1,0
Sprite,Foreground,Centre,"sb\ring.png",320,240 M,0,211611,,353,109 F,0,211611,,1 C,0,211611,,255,255,255 S,7,211611,212111,0.25,0.9 F,0,211612,212112,1,0
Sprite,Foreground,Centre,"sb\ring.png",320,240 M,0,211740,,353,109 F,0,211740,,1 C,0,211740,,255,255,255 S,7,211740,212740,0.25,0.9 F,0,211741,212741,1,0
//Storyboard Sound Samples

[TimingPoints]
458,256.410256410256,4,2,4,55,1,0
8663,-100,4,2,6,60,0,0
8919,-100,4,2,2,60,0,0
17124,-100,4,2,6,70,0,0
17188,-100,4,2,2,60,0,0
23278,-100,4,2,6,60,0,0
23919,-100,4,2,2,60,0,0
25073,-100,4,2,2,40,0,0
25329,-100,4,2,2,30,0,0
26099,-111.111111111111,4,2,2,50,0,0
33534,-111.111111111111,4,2,2,40,0,0
33791,-111.111111111111,4,2,2,50,0,0
34240,-111.111111111111,4,2,3,60,0,0
34368,-111.111111111111,4,2,2,35,0,0
34560,-111.111111111111,4,2,2,45,0,0
34945,-111.111111111111,4,2,2,50,0,0
35201,-111.111111111111,4,2,6,50,0,0
35586,-111.111111111111,4,2,2,50,0,0
41483,-125,4,2,5,50,0,0
41547,-125,4,2,5,35,0,0
45073,-125,4,2,5,35,0,0
47124,-125,4,2,2,35,0,0
47637,-111.111111111111,4,2,2,50,0,0
48406,-111.111111111111,4,2,10,80,0,0
48438,-111.111111111111,4,2,10,35,0,0
48919,-111.111111111111,4,2,2,40,0,0
49688,-100,4,2,6,60,0,1
56740,-100,4,2,2,60,0,1
57893,-100,4,2,9,60,0,1
58150,-100,4,2,2,60,0,1
65073,-100,4,2,2,50,0,1
65586,-100,4,2,2,60,0,0
65970,-100,4,2,6,60,0,0
74304,-111.111111111111,4,2,6,60,0,0
74368,-111.111111111111,4,2,6,50,0,0
75329,-111.111111111111,4,2,2,50,0,0
83534,-100,4,2,2,50,0,0
84304,-111.111111111111,4,2,2,50,0,0
84560,-111.111111111111,4,2,6,50,0,0
84752,-111.111111111111,4,2,2,60,0,0
90714,-125,4,2,2,50,0,0
90778,-125,4,2,5,50,0,0
94816,-125,4,2,2,50,0,0
96868,-125,4,2,2,60,0,0
98406,-125,4,2,2,65,0,0
98534,-125,4,2,2,70,0,0
98663,-125,4,2,2,75,0,0
98791,-125,4,2,2,60,0,0
98919,-100,4,2,6,70,0,1
99111,-100,4,2,2,60,0,1
99175,-100,4,2,2,60,0,1
107124,-100,4,2,9,60,0,1
107316,-100,4,2,2,60,0,1
107381,-100,4,2,2,60,0,1
115329,-111.111111111111,4,2,2,30,0,0
117573,-111.111111111111,4,2,2,30,0,0
117701,-111.111111111111,4,2,3,20,0,0
117829,-111.111111111111,4,2,2,25,0,0
117957,-111.111111111111,4,2,3,30,0,0
118086,-111.111111111111,4,2,2,35,0,0
118214,-111.111111111111,4,2,3,35,0,0
118342,-111.111111111111,4,2,2,40,0,0
118470,-111.111111111111,4,2,3,45,0,0
118599,-111.111111111111,4,2,2,50,0,0
118727,-111.111111111111,4,2,3,55,0,0
118919,-111.111111111111,4,2,2,60,0,0
119175,-111.111111111111,4,2,2,40,0,0
119432,-111.111111111111,4,2,6,60,0,0
119688,-111.111111111111,4,2,2,60,0,0
127637,-111.111111111111,4,2,6,60,0,0
127765,-111.111111111111,4,2,2,60,0,0
134945,-111.111111111111,4,2,2,50,0,0
135329,-111.111111111111,4,2,2,50,0,0
156355,-111.111111111111,4,2,2,20,0,0
156868,-111.111111111111,4,2,2,25,0,0
157381,-111.111111111111,4,2,2,30,0,0
157893,-111.111111111111,4,2,2,35,0,0
158406,-111.111111111111,4,2,2,40,0,0
158791,-111.111111111111,4,2,3,45,0,0
159175,-111.111111111111,4,2,3,50,0,0
159432,-111.111111111111,4,2,3,55,0,0
159688,-111.111111111111,4,2,3,60,0,0
159945,-111.111111111111,4,2,3,65,0,0
160201,-111.111111111111,4,2,3,70,0,0
160457,-111.111111111111,4,2,2,70,0,0
161483,-111.111111111111,4,2,2,50,0,0
161996,-111.111111111111,4,2,2,80,0,0
162445,-111.111111111111,4,2,2,60,0,0
162509,-111.111111111111,4,2,2,60,0,0
163022,-111.111111111111,4,2,2,65,0,0
163534,-100,4,2,6,70,0,1
169945,-100,4,2,2,60,0,1
171740,-100,4,2,9,60,0,1
171868,-100,4,2,2,60,0,1
178791,-100,4,2,3,60,0,0
179304,-100,4,2,10,75,0,0
179560,-100,4,2,6,60,0,0
179945,-100,4,2,2,70,0,0
188150,-100,4,2,6,70,0,0
188278,-100,4,2,2,70,0,0
192252,-100,4,2,2,80,0,0
195329,-100,4,2,6,70,0,0
195457,-100,4,2,2,80,0,0
196355,-100,4,2,2,50,0,0
204560,-111.111111111111,4,2,5,55,0,0
211740,-111.111111111111,4,2,2,60,0,0

[Colours]
Combo1 : 255,102,28
Combo2 : 0,159,236
Combo3 : 249,198,91
Combo4 : 237,38,33

[HitObjects]
474,313,458,5,8,0:0:0:0:
407,238,714,1,8,0:0:0:0:
343,315,970,2,0,L|181:322,2,150.000000894069,8|8|8,0:0|0:0|0:0,0:0:0:0:
289,230,1996,2,0,L|181:235,1,100.000000596046,8|8,0:0|0:0,0:0:0:0:
102,284,2509,6,0,P|90:244|110:180,1,100.000000596046,8|8,0:0|0:0,0:0:0:0:
187,132,3022,2,0,B|382:120,2,150.000000894069,8|8|8,0:0|0:0|0:0,0:0:0:0:
95,91,4047,1,8,0:0:0:0:
103,188,4304,1,8,0:0:0:0:
196,227,4560,6,0,P|203:178|186:131,1,100.000000596046,8|8,0:0|0:0,0:0:0:0:
103,188,5073,2,0,B|86:238|86:238|89:336,2,150.000000894069,8|8|8,0:0|0:0|0:0,0:0:0:0:
186,131,6099,1,8,0:0:0:0:
278,169,6355,1,8,0:0:0:0:
355,105,6611,6,0,P|379:148|376:197,1,100.000000596046,8|8,0:0|0:0,0:0:0:0:
326,284,7124,2,0,P|255:282|149:286,2,150.000000894069,8|8|8,0:0|0:0|0:0,0:0:0:0:
417,324,8150,1,2,0:3:0:0:
417,324,8663,6,0,P|416:274|420:224,1,100.000000596046,4|8,1:2|0:0,0:0:0:0:
463,133,9175,2,0,P|418:120|360:138,1,100.000000596046,0|8,1:0|0:0,0:0:0:0:
327,163,9560,2,0,P|282:176|224:158,1,100.000000596046,0|0,1:0|1:0,0:0:0:0:
184,145,9945,1,8,0:0:0:0:
87,170,10201,2,0,P|86:222|91:277,1,100.000000596046,0|8,1:0|0:0,0:0:0:0:
163,338,10714,5,0,1:0:0:0:
251,292,10970,2,0,P|300:292|350:297,1,100.000000596046,8|0,0:0|1:0,0:0:0:0:
442,337,11483,2,0,B|465:290|465:290|461:161,1,150.000000894069,8|0,0:0|0:0,0:0:0:0:
425,159,11996,1,8,0:0:0:0:
372,74,12252,2,0,P|328:113|319:165,1,100.000000596046,0|8,1:0|0:0,0:0:0:0:
291,247,12765,6,0,P|248:246|191:249,1,100.000000596046,0|8,1:0|0:0,0:0:0:0:
116,315,13278,2,0,P|94:239|144:167,2,150.000000894069,0|0|8,1:0|1:0|0:0,0:0:0:0:
209,352,14304,1,0,1:0:0:0:
301,314,14560,1,8,0:0:0:0:
387,364,14816,6,0,P|401:316|382:260,1,100.000000596046,0|8,1:0|0:0,0:0:0:0:
312,203,15329,2,0,L|158:202,2,150.000000894069,0|0|8,1:0|1:0|0:0,0:0:0:0:
398,152,16355,1,8,0:0:0:0:
309,106,16611,1,8,0:0:0:0:
402,58,16868,6,0,P|415:108|395:154,1,100.000000596046,4|12,1:2|0:0,0:0:0:0:
311,204,17381,2,0,P|312:257|317:314,1,100.000000596046,0|8,1:0|0:0,0:0:0:0:
281,339,17765,2,0,L|176:338,1,100.000000596046,0|0,1:0|1:0,0:0:0:0:
135,316,18150,1,8,0:0:0:0:
186,230,18406,1,0,0:0:0:0:
103,172,18663,1,8,0:0:0:0:
152,85,18919,6,0,P|104:72|51:93,1,100.000000596046,0|8,1:0|0:0,0:0:0:0:
8,174,19432,2,0,B|8:277|8:277|27:338,2,150.000000894069,0|0|8,1:0|0:0|0:0,0:0:0:0:
57,87,20457,1,0,1:0:0:0:
103,172,20714,1,8,0:0:0:0:
152,85,20970,6,0,L|252:78,1,100,0|8,1:0|0:0,0:0:0:0:
341,34,21483,2,0,P|353:81|339:129,1,100.000000596046,0|8,1:0|0:0,0:0:0:0:
306,168,21868,2,0,L|456:165,1,150.000000894069,0|8,1:0|0:0,0:0:0:0:
500,254,22509,2,0,L|388:256,1,100.000000596046,0|8,1:0|0:0,0:0:0:0:
256,192,23022,12,4,25073,0:0:0:0:
327,248,26099,5,8,0:0:0:0:
327,248,26227,1,8,0:0:0:0:
327,248,26355,2,0,L|441:241,1,89.9999977898594,0|8,1:0|0:0,0:0:0:0:
444,206,26740,2,0,P|453:159|441:112,1,89.9999977898594,0|8,1:0|0:0,0:0:0:0:
415,83,27124,6,0,L|297:88,1,89.9999977898594,4|8,1:2|0:0,0:0:0:0:
246,42,27637,2,0,P|230:88|246:133,1,89.9999977898594,0|8,1:0|0:0,0:0:0:0:
291,201,28150,1,0,0:0:0:0:
229,266,28406,1,8,0:0:0:0:
180,190,28663,2,0,P|143:188|71:190,1,89.9999977898594,0|8,1:0|0:0,0:0:0:0:
23,249,29175,6,0,P|14:295|43:358,1,89.9999977898594,0|8,0:0|0:0,0:0:0:0:
102,287,29688,1,0,1:0:0:0:
176,337,29945,1,8,0:0:0:0:
176,337,30073,2,0,L|323:327,1,134.999996684789,0|8,1:0|0:0,0:0:0:0:
400,335,30714,1,0,1:0:0:0:
363,252,30970,1,8,0:0:0:0:
453,255,31227,6,0,P|454:206|448:152,1,89.9999977898594,0|8,1:0|0:0,0:0:0:0:
498,89,31740,2,0,P|455:72|410:86,1,89.9999977898594,0|8,1:0|0:0,0:0:0:0:
378,110,32124,2,0,P|339:128|277:117,1,89.9999977898594,0|0,1:0|1:0,0:0:0:0:
251,110,32509,1,8,0:0:0:0:
173,156,32765,2,0,L|178:260,1,89.9999977898594,8|8,0:0|0:0,0:0:0:0:
151,332,33278,6,0,L|51:335,1,89.9999977898594,0|8,1:0|0:0,0:0:0:0:
18,255,33791,1,8,0:0:0:0:
70,181,34047,1,8,0:0:0:0:
12,111,34304,1,8,0:0:0:0:
62,36,34560,2,0,P|95:71|106:126,1,89.9999977898594,0|8,1:0|0:0,0:0:0:0:
140,140,34945,2,0,B|229:137,1,89.9999977898594,0|8,1:0|0:0,0:0:0:0:
269,158,35329,6,0,P|279:201|253:265,1,89.9999977898594,4|8,1:2|0:0,0:0:0:0:
294,330,35842,2,0,P|326:299|394:290,1,89.9999977898594,0|8,1:0|0:0,0:0:0:0:
414,291,36227,2,0,L|411:167,1,89.9999977898594,0|0,1:0|1:0,0:0:0:0:
433,161,36611,1,8,0:0:0:0:
471,79,36868,2,0,P|427:70|385:83,1,89.9999977898594,0|8,1:0|0:0,0:0:0:0:
309,133,37381,6,0,L|210:136,1,89.9999977898594,0|8,1:0|0:0,0:0:0:0:
146,82,37893,1,0,1:0:0:0:
74,137,38150,1,8,0:0:0:0:
74,137,38278,2,0,P|64:190|90:245,1,89.9999977898594,0|0,1:0|1:0,0:0:0:0:
106,256,38663,1,8,0:0:0:0:
95,345,38919,1,0,1:0:0:0:
179,314,39175,1,8,0:0:0:0:
268,323,39432,6,0,P|312:323|357:328,1,89.9999977898594,0|8,1:0|0:0,0:0:0:0:
440,293,39945,2,0,P|450:249|436:207,1,89.9999977898594,0|8,1:0|0:0,0:0:0:0:
366,150,40457,1,0,1:0:0:0:
275,150,40714,1,0,1:0:0:0:
220,78,40970,1,8,0:0:0:0:
129,78,41227,1,0,1:0:0:0:
47,63,41483,6,0,P|73:135|148:155,1,160.000000953674,4|0,1:2|1:0,0:0:0:0:
129,78,42252,1,0,0:0:0:0:
149,155,42509,2,0,P|164:191|160:230,1,80.0000004768368,0|0,1:0|0:0,0:0:0:0:
95,278,43022,2,0,P|79:241|84:202,1,80.0000004768368,0|0,1:0|0:0,0:0:0:0:
160,230,43534,6,0,L|319:221,1,160.000000953674,0|0,1:0|1:0,0:0:0:0:
391,257,44304,1,0,0:0:0:0:
385,177,44560,2,0,L|387:97,2,80.0000004768368,0|8|0,1:0|0:0|1:0,0:0:0:0:
408,19,45586,6,0,P|333:36|307:108,1,160.000000953674,4|0,2:0|1:0,0:0:0:0:
387,97,46355,1,0,0:0:0:0:
308,109,46611,2,0,P|233:104|141:101,1,160.000000953674,0|0,1:0|1:0,0:0:0:0:
73,131,47381,1,8,0:0:0:0:
134,196,47637,6,0,L|128:286,1,89.9999977898594,8|0,0:0|0:0,0:0:0:0:
150,325,48022,2,0,P|201:313|259:333,1,89.9999977898594,8|0,0:0|0:0,0:0:0:0:
278,337,48406,1,2,0:0:0:0:
278,337,49688,6,0,P|330:344|383:320,1,100.000000596046,4|12,1:2|0:0,0:0:0:0:
443,256,50201,2,0,P|450:204|426:151,1,100.000000596046,0|8,1:0|0:0,0:0:0:0:
353,100,50714,2,0,P|301:93|248:117,1,100.000000596046,0|8,1:0|0:0,0:0:0:0:
188,181,51227,2,0,P|181:233|205:285,1,100.000000596046,0|8,1:0|0:0,0:0:0:0:
282,223,51740,6,0,L|387:218,1,100.000000596046,0|8,1:0|0:0,0:0:0:0:
429,305,52252,2,0,L|323:310,1,100.000000596046,0|8,1:0|0:0,0:0:0:0:
241,358,52765,1,0,1:0:0:0:
164,293,53022,1,8,0:0:0:0:
72,332,53278,2,0,P|62:283|85:239,1,100.000000596046,0|8,1:0|0:0,0:0:0:0:
167,182,53791,6,0,L|266:181,1,100.000000596046,0|8,1:0|0:0,0:0:0:0:
354,229,54304,2,0,P|368:176|348:129,1,100.000000596046,0|8,1:0|0:0,0:0:0:0:
320,96,54688,2,0,L|197:102,1,100.000000596046,0|0,1:0|0:0,0:0:0:0:
170,91,55073,1,8,0:0:0:0:
81,44,55329,2,0,P|65:90|79:137,1,100.000000596046,0|8,1:0|0:0,0:0:0:0:
115,173,55714,6,0,P|129:220|113:266,1,100.000000596046,0|0,1:0|0:0,0:0:0:0:
74,297,56099,1,8,0:0:0:0:
159,349,56355,2,0,L|263:345,1,100.000000596046,0|8,1:0|0:0,0:0:0:0:
308,338,56740,6,0,P|322:286|303:224,2,100.000000596046,0|0|0,1:0|1:0|1:0,0:0:0:0:
229,276,57509,1,8,0:0:0:0:
229,276,57637,1,8,0:0:0:0:
229,276,57765,1,8,0:0:0:0:
229,276,57893,6,0,L|220:156,2,100.000000596046,4|8|0,1:2|0:0|1:0,0:0:0:0:
159,349,58663,1,8,0:0:0:0:
59,349,58919,2,0,L|59:240,1,100.000000596046,0|8,1:0|0:0,0:0:0:0:
7,162,59432,2,0,P|56:147|124:168,1,100.000000596046,0|8,1:0|0:0,0:0:0:0:
180,219,59945,6,0,L|279:216,1,100.000000596046,0|8,1:0|0:0,0:0:0:0:
369,261,60457,2,0,P|377:212|363:164,1,100.000000596046,0|8,1:0|0:0,0:0:0:0:
277,112,60970,1,0,1:0:0:0:
361,58,61227,1,8,0:0:0:0:
460,61,61483,2,0,P|445:108|454:157,1,100.000000596046,0|8,1:0|0:0,0:0:0:0:
510,240,61996,6,0,B|469:257|435:250|435:250|392:281|392:281|357:269|314:284,2,200.000001192092,0|0|0,1:0|1:0|1:0,0:0:0:0:
454,157,63278,1,8,0:0:0:0:
495,66,63534,2,0,P|445:55|395:77,1,100.000000596046,0|8,1:0|0:0,0:0:0:0:
322,135,64047,2,0,L|210:131,1,100.000000596046,0|8,1:0|0:0,0:0:0:0:
128,95,64560,2,0,P|122:149|155:211,1,100.000000596046,8|8,0:0|0:0,0:0:0:0:
127,290,65073,5,8,0:0:0:0:
212,238,65329,1,8,0:0:0:0:
270,319,65586,2,0,P|308:244|282:171,1,150.000000894069,8|0,0:0|0:0,0:0:0:0:
258,146,66099,5,4,1:2:0:0:
424,308,74304,6,0,P|383:319|337:304,1,89.9999977898594,4|0,0:0|0:0,0:0:0:0:
275,241,74816,2,0,P|234:230|188:245,1,89.9999977898594,8|0,0:0|1:0,0:0:0:0:
120,302,75329,1,0,0:0:0:0:
102,213,75586,2,0,B|97:119|97:119|127:48,2,134.999996684789,0|0|0,1:0|1:0|1:0,0:0:0:0:
189,243,76611,1,0,0:0:0:0:
182,153,76868,1,8,0:0:0:0:
361,161,77381,5,0,0:0:0:0:
432,214,77637,2,0,P|448:150|416:94,2,134.999996684789,0|0|0,1:0|1:0|1:0,0:0:0:0:
366,276,78663,1,0,0:0:0:0:
279,252,78919,2,0,L|183:255,1,89.9999977898594,8|0,0:0|1:0,0:0:0:0:
144,250,79304,2,0,P|129:207|141:158,1,89.9999977898594,0|0,0:0|0:0,0:0:0:0:
162,126,79688,6,0,L|324:122,2,134.999996684789,0|0|0,1:0|0:0|1:0,0:0:0:0:
95,64,80714,1,0,0:0:0:0:
37,132,80970,1,8,0:0:0:0:
40,222,81227,1,0,1:0:0:0:
40,222,81355,2,0,L|38:343,2,89.9999977898594,0|0|0,0:0|0:0|0:0,0:0:0:0:
121,260,82124,2,0,B|171:258|171:258|195:272|195:272|258:270,1,134.999996684789,0|4,1:0|1:2,0:0:0:0:
321,319,83534,6,0,B|347:264|307:210|307:210|323:131|323:131|293:83|322:31,1,300.000001788138,0|0,1:0|0:0,0:0:0:0:
399,78,84560,6,0,P|443:71|487:81,1,89.9999977898594,4|8,1:2|0:0,0:0:0:0:
487,180,85073,2,0,P|437:186|400:176,1,89.9999977898594,0|8,1:0|0:0,0:0:0:0:
350,171,85457,2,0,L|248:171,1,89.9999977898594,0|0,1:0|1:0,0:0:0:0:
212,157,85842,1,8,0:0:0:0:
119,121,86099,2,0,P|111:166|131:213,1,89.9999977898594,0|8,1:0|0:0,0:0:0:0:
182,287,86611,6,0,P|229:282|271:282,1,89.9999977898594,0|8,1:0|0:0,0:0:0:0:
322,196,87124,2,0,P|362:192|411:193,1,89.9999977898594,0|8,1:0|0:0,0:0:0:0:
457,194,87509,2,0,P|490:250|471:313,1,134.999996684789,0|8,1:0|0:0,0:0:0:0:
386,344,88150,2,0,L|286:341,1,89.9999977898594,0|8,1:0|0:0,0:0:0:0:
221,290,88663,6,0,P|176:287|131:287,1,89.9999977898594,0|8,1:0|0:0,0:0:0:0:
58,340,89175,2,0,B|43:298|43:298|54:241,1,89.9999977898594,0|8,1:0|0:0,0:0:0:0:
94,174,89688,2,0,P|142:170|189:170,1,89.9999977898594,0|8,0:0|0:0,0:0:0:0:
255,115,90201,1,8,0:0:0:0:
321,175,90457,1,0,0:3:0:0:
365,108,90714,6,0,P|402:173|358:252,1,160.000000953674,4|0,1:2|1:0,0:0:0:0:
289,255,91483,1,0,0:0:0:0:
223,208,91740,2,0,P|207:244|211:283,1,80.0000004768368,0|0,1:0|0:0,0:0:0:0:
277,330,92252,2,0,P|292:293|288:254,1,80.0000004768368,0|0,1:2|0:0,0:0:0:0:
211,283,92765,6,0,L|52:284,1,160.000000953674,0|0,1:0|1:0,0:0:0:0:
27,207,93535,1,0,0:0:0:0:
70,140,93791,6,0,L|67:54,1,80.0000004768368,0|8,1:0|0:0,0:0:0:0:
147,60,94304,2,0,L|150:143,1,80.0000004768368,0|8,1:0|0:0,0:0:0:0:
201,209,94817,6,0,L|372:198,1,160.000000953674,4|0,1:2|1:0,0:0:0:0:
424,247,95586,1,8,0:0:0:0:
367,303,95842,2,0,L|203:313,1,160.000000953674,0|8,1:0|1:2,0:0:0:0:
89,203,96868,5,8,0:0:0:0:
147,148,97124,1,8,0:0:0:0:
208,199,97381,1,8,0:0:0:0:
272,151,97637,1,8,0:0:0:0:
340,191,97893,6,0,P|351:152|341:113,1,80.0000004768368,0|8,1:0|1:2,0:0:0:0:
280,62,98406,2,0,L|190:65,1,80.0000004768368,8|8,0:0|0:0,0:0:0:0:
99,19,98919,6,0,P|92:71|116:124,1,100.000000596046,4|8,1:2|0:0,0:0:0:0:
153,215,99432,2,0,P|164:263|155:312,1,100.000000596046,0|8,1:0|0:0,0:0:0:0:
257,352,99945,1,0,1:0:0:0:
351,296,100201,1,8,0:0:0:0:
449,346,100458,2,0,P|465:300|446:237,1,100.000000596046,0|8,1:0|0:0,0:0:0:0:
381,171,100970,6,0,L|274:174,1,100.000000596046,0|8,1:0|0:0,0:0:0:0:
214,99,101483,2,0,L|340:91,1,100.000000596046,0|8,1:0|0:0,0:0:0:0:
413,87,101996,1,0,1:0:0:0:
474,165,102252,1,8,0:0:0:0:
432,256,102509,2,0,P|384:242|335:251,1,100.000000596046,0|8,1:0|0:0,0:0:0:0:
249,302,103022,6,0,L|128:306,1,100.000000596046,0|8,1:0|0:0,0:0:0:0:
65,360,103535,2,0,P|52:311|60:262,1,100.000000596046,0|8,1:0|0:0,0:0:0:0:
95,227,103919,2,0,L|195:221,1,100.000000596046,0|0,0:0|0:0,0:0:0:0:
244,216,104304,1,8,0:0:0:0:
314,144,104560,2,0,P|325:89|299:40,1,100.000000596046,0|8,1:0|0:0,0:0:0:0:
258,44,104945,6,0,L|158:44,1,100.000000596046,0|0,1:0|1:0,0:0:0:0:
117,74,105329,1,8,0:0:0:0:
28,27,105586,2,0,P|18:80|31:135,1,100.000000596046,0|8,1:0|0:0,0:0:0:0:
48,169,105971,6,0,B|147:164,2,100.000000596046,0|0|0,1:0|1:0|1:0,0:0:0:0:
52,269,106740,1,8,0:0:0:0:
52,269,106868,1,8,0:0:0:0:
52,269,106996,1,8,0:0:0:0:
52,269,107124,6,0,L|162:261,1,100.000000596046,4|8,1:2|0:0,0:0:0:0:
236,314,107637,1,0,1:0:0:0:
316,255,107893,1,8,0:0:0:0:
399,310,108150,2,0,P|411:254|386:182,1,100.000000596046,0|8,1:0|0:0,0:0:0:0:
315,164,108663,1,0,1:0:0:0:
391,99,108919,1,8,0:0:0:0:
295,68,109176,6,0,L|195:71,1,100.000000596046,0|8,1:0|0:0,0:0:0:0:
100,37,109688,2,0,P|93:83|115:133,1,100.000000596046,0|8,1:0|0:0,0:0:0:0:
200,182,110201,1,0,1:0:0:0:
139,261,110457,1,8,0:0:0:0:
194,344,110714,2,0,L|306:337,1,100.000000596046,0|8,1:0|0:0,0:0:0:0:
382,291,111227,6,0,P|370:242|382:193,1,100.000000596046,0|8,1:0|0:0,0:0:0:0:
447,118,111740,2,0,P|458:69|446:20,1,100.000000596046,0|8,1:0|0:0,0:0:0:0:
360,71,112252,2,0,L|261:77,1,100.000000596046,0|8,1:0|0:0,0:0:0:0:
175,22,112765,2,0,B|163:70|163:70|172:119,1,100.000000596046,0|8,1:0|0:0,0:0:0:0:
208,213,113278,6,0,L|108:223,1,100.000000596046,0|8,1:0|0:0,0:0:0:0:
68,315,113791,2,0,L|167:304,1,100.000000596046,8|8,0:0|0:0,0:0:0:0:
263,334,114304,5,0,1:0:0:0:
344,276,114560,1,0,1:0:0:0:
427,330,114816,2,0,P|439:282|417:223,1,100.000000596046,0|0,1:0|0:0,0:0:0:0:
366,165,115329,6,0,B|306:141|247:160|247:160|292:201,1,179.999995579719,0|0,0:0|0:0,0:0:0:0:
127,277,116355,2,0,B|188:297|246:273|246:273|198:236,1,179.999995579719,0|0,0:0|0:0,0:0:0:0:
126,184,117124,1,0,0:0:0:0:
127,277,117381,6,0,P|116:324|131:377,1,89.9999977898594,0|8,0:0|0:0,0:0:0:0:
208,324,117893,2,0,P|213:279|199:237,1,89.9999977898594,8|8,0:0|0:0,0:0:0:0:
126,184,118406,1,8,0:0:0:0:
201,135,118663,1,8,0:0:0:0:
280,177,118919,1,2,1:2:0:0:
280,177,119432,6,0,L|379:172,1,89.9999977898594,4|8,2:0|0:0,0:0:0:0:
451,210,119945,2,0,P|460:166|444:125,1,89.9999977898594,0|8,1:0|0:0,0:0:0:0:
416,89,120329,2,0,L|307:96,1,89.9999977898594,0|0,0:0|1:0,0:0:0:0:
285,74,120714,1,8,0:0:0:0:
200,43,120970,2,0,L|102:49,1,89.9999977898594,0|8,1:0|0:0,0:0:0:0:
38,103,121483,6,0,P|31:160|54:204,1,89.9999977898594,0|8,1:0|0:0,0:0:0:0:
95,262,121996,2,0,L|202:255,1,89.9999977898594,0|8,1:0|0:0,0:0:0:0:
217,225,122381,2,0,L|323:219,1,89.9999977898594,0|0,1:0|1:0,0:0:0:0:
347,201,122765,1,8,0:0:0:0:
369,162,122893,2,0,P|369:114|353:46,1,89.9999977898594,0|0,0:0|1:0,0:0:0:0:
329,41,123278,1,8,0:0:0:0:
280,116,123534,6,0,L|191:121,1,89.9999977898594,0|8,1:0|0:0,0:0:0:0:
115,71,124047,2,0,P|101:113|106:157,1,89.9999977898594,0|8,1:0|0:0,0:0:0:0:
130,196,124432,2,0,P|143:238|138:282,1,89.9999977898594,0|0,1:0|1:0,0:0:0:0:
115,321,124816,1,8,0:0:0:0:
201,346,125073,2,0,L|299:341,1,89.9999977898594,0|8,1:0|0:0,0:0:0:0:
364,289,125586,5,0,1:0:0:0:
431,348,125842,1,8,0:0:0:0:
452,260,126099,2,0,P|442:209|455:151,1,89.9999977898594,0|8,1:0|0:0,0:0:0:0:
456,127,126483,6,0,L|366:124,2,89.9999977898594,0|0|0,1:0|1:0|1:0,0:0:0:0:
467,37,127252,1,8,0:0:0:0:
467,37,127381,1,8,0:0:0:0:
467,37,127509,1,8,0:0:0:0:
467,37,127637,6,0,L|347:34,1,89.9999977898594,4|12,1:2|0:0,0:0:0:0:
293,68,128150,2,0,L|183:69,1,89.9999977898594,0|8,1:0|0:0,0:0:0:0:
160,82,128534,2,0,B|154:128|154:128|172:182,1,89.9999977898594,0|0,0:0|0:0,0:0:0:0:
199,201,128919,1,8,0:0:0:0:
205,290,129175,6,0,L|115:290,1,89.9999977898594,0|8,1:0|0:0,0:0:0:0:
32,254,129688,2,0,P|21:206|40:151,1,89.9999977898594,0|8,1:0|0:0,0:0:0:0:
70,85,130201,2,0,L|176:81,1,89.9999977898594,0|8,1:0|0:0,0:0:0:0:
194,52,130586,6,0,L|296:47,1,89.9999977898594,0|0,1:0|1:0,0:0:0:0:
322,70,130970,1,8,0:0:0:0:
294,156,131227,1,0,1:0:0:0:
349,226,131483,1,8,0:0:0:0:
287,291,131740,6,0,L|197:296,1,89.9999977898594,0|8,1:2|0:0,0:0:0:0:
125,350,132252,2,0,P|112:307|119:262,1,89.9999977898594,0|8,1:0|0:0,0:0:0:0:
141,224,132637,2,0,P|153:181|140:138,1,89.9999977898594,0|0,1:0|1:0,0:0:0:0:
115,95,133022,1,8,0:0:0:0:
200,68,133278,2,0,P|244:67|289:70,1,89.9999977898594,0|8,1:0|0:0,0:0:0:0:
358,128,133791,6,0,L|447:125,1,89.9999977898594,0|8,1:0|0:0,0:0:0:0:
478,159,134175,2,0,P|493:200|488:245,2,89.9999977898594,0|0|0,1:0|1:0|1:0,0:0:0:0:
409,218,134945,1,8,0:0:0:0:
409,218,135073,1,8,0:0:0:0:
409,218,135201,1,8,0:0:0:0:
409,218,135329,2,0,L|262:211,1,134.999996684789,8|8,0:0|0:0,0:0:0:0:
256,192,156355,5,0,0:0:0:0:
256,192,156419,12,4,160457,1:1:0:0:
235,315,161483,6,0,B|266:311|266:311|288:319|288:319|315:310|315:310|341:319|341:319|368:311|368:311|388:313,1,149.999996316432,8|8,0:0|0:3,0:0:0:0:
408,296,161996,6,0,P|440:221|405:127,1,179.999995579719,4|0,0:0|1:0,0:0:0:0:
410,132,163534,6,0,L|290:136,1,100.000000596046,4|8,1:2|0:0,0:0:0:0:
216,169,164047,2,0,L|221:268,1,100.000000596046,0|8,1:0|0:0,0:0:0:0:
299,331,164560,2,0,L|419:327,1,100.000000596046,0|8,1:0|0:0,0:0:0:0:
493,294,165073,2,0,L|488:195,1,100.000000596046,0|8,1:0|0:0,0:0:0:0:
410,132,165586,6,0,P|360:126|306:136,1,100.000000596046,0|8,1:0|0:0,0:0:0:0:
226,187,166099,2,0,P|176:192|122:183,1,100.000000596046,0|8,1:0|0:0,0:0:0:0:
43,131,166611,1,0,1:0:0:0:
39,231,166868,1,8,0:0:0:0:
94,314,167124,2,0,P|140:297|190:303,1,100.000000596046,0|8,1:0|0:0,0:0:0:0:
285,333,167637,6,0,L|393:327,1,100.000000596046,0|8,1:0|0:0,0:0:0:0:
484,319,168150,2,0,P|494:263|463:198,1,100.000000596046,0|8,1:0|0:0,0:0:0:0:
440,194,168534,2,0,P|430:138|461:73,1,100.000000596046,0|0,1:0|1:0,0:0:0:0:
462,51,168919,1,8,0:0:0:0:
362,49,169175,2,0,B|263:51,1,100.000000596046,0|8,1:0|0:0,0:0:0:0:
217,74,169560,6,0,B|209:128|209:128|229:182,1,100.000000596046,0|0,1:0|1:0,0:0:0:0:
261,205,169945,1,8,0:0:0:0:
226,298,170201,2,0,B|96:301,1,100.000000596046,0|8,0:0|0:0,0:0:0:0:
111,252,170586,6,0,B|118:197|118:197|104:153,2,100.000000596046,0|0|0,1:0|1:0|1:0,0:0:0:0:
26,198,171355,1,8,0:0:0:0:
26,198,171483,1,8,0:0:0:0:
26,198,171611,1,8,0:0:0:0:
26,198,171739,6,0,B|15:149|15:149|34:93,2,100.000000596046,4|8|0,1:2|0:0|1:0,0:0:0:0:
32,298,172509,1,8,0:0:0:0:
123,338,172765,2,0,L|228:328,1,100.000000596046,0|8,1:0|0:0,0:0:0:0:
322,318,173278,2,0,P|335:261|314:211,1,100.000000596046,0|8,1:0|0:0,0:0:0:0:
238,167,173791,6,0,L|128:176,1,100.000000596046,0|8,1:0|0:0,0:0:0:0:
38,179,174304,2,0,P|25:122|46:72,1,100.000000596046,0|8,1:0|0:0,0:0:0:0:
129,45,174816,2,0,L|246:40,1,100.000000596046,0|8,1:0|0:0,0:0:0:0:
300,110,175329,1,0,1:0:0:0:
367,36,175586,1,8,0:0:0:0:
401,129,175842,6,0,B|389:189|389:189|398:337,1,200.000001192092,0|0,1:0|1:0,0:0:0:0:
493,357,176611,1,8,0:0:0:0:
483,257,176868,2,0,B|495:197|495:197|486:49,1,200.000001192092,0|0,0:0|1:0,0:0:0:0:
392,24,177637,1,8,0:0:0:0:
349,114,177893,6,0,P|280:45|183:50,1,200.000001192092,0|0,0:0|1:0,0:0:0:0:
156,93,178534,1,12,0:2:0:0:
156,93,178663,1,0,1:0:0:0:
156,93,178791,6,0,B|43:95,2,100.000000596046,12|8|14,0:2|0:2|0:0,0:0:0:0:
248,131,179560,1,0,0:0:0:0:
248,131,179688,1,8,0:0:0:0:
248,131,179816,1,8,0:0:0:0:
248,131,179945,6,0,P|259:182|245:246,1,100.000000596046,4|8,1:2|0:0,0:0:0:0:
204,316,180457,2,0,L|104:318,1,100.000000596046,0|8,1:0|0:0,0:0:0:0:
19,265,180970,2,0,P|12:215|23:167,1,100.000000596046,0|8,1:0|0:0,0:0:0:0:
80,85,181483,1,0,1:0:0:0:
159,146,181740,1,8,0:0:0:0:
178,48,181996,6,0,L|278:47,1,100.000000596046,0|8,1:0|0:0,0:0:0:0:
368,90,182509,2,0,P|378:138|366:186,1,100.000000596046,0|8,1:0|0:0,0:0:0:0:
289,250,183022,1,0,1:0:0:0:
348,330,183278,1,8,0:0:0:0:
426,267,183534,1,0,1:0:0:0:
366,186,183791,1,8,0:0:0:0:
289,250,184047,6,0,B|178:253,1,100.000000596046,0|8,1:0|0:0,0:0:0:0:
97,293,184560,1,0,1:0:0:0:
42,209,184816,1,8,0:0:0:0:
137,178,185073,2,0,B|146:130|146:130|138:78,1,100.000000596046,0|8,1:0|0:0,0:0:0:0:
230,40,185586,2,0,L|329:36,1,100.000000596046,0|8,1:0|0:0,0:0:0:0:
428,53,186099,6,0,P|437:102|421:161,1,100.000000596046,0|8,1:0|0:0,0:0:0:0:
361,226,186611,1,0,1:0:0:0:
406,315,186868,1,8,0:0:0:0:
306,306,187124,6,0,L|187:303,1,100.000000596046,0|8,1:0|0:0,0:0:0:0:
109,331,187637,1,4,1:2:0:0:
45,253,187893,1,8,0:0:0:0:
45,253,188022,1,8,0:0:0:0:
45,253,188150,6,0,P|20:134|57:43,1,200.000001192092,4|0,1:2|1:0,0:0:0:0:
139,30,188919,1,8,0:0:0:0:
188,116,189175,2,0,L|387:120,1,200.000001192092,0|0,1:0|1:0,0:0:0:0:
461,188,189945,1,8,0:0:0:0:
387,255,190201,6,0,L|185:251,1,200.000001192092,0|0,1:0|1:0,0:0:0:0:
98,297,190970,1,8,0:0:0:0:
109,197,191227,2,0,P|100:143|123:84,1,100.000000596046,0|8,1:0|0:0,0:0:0:0:
203,58,191740,2,0,P|212:111|189:171,1,100.000000596046,0|8,1:0|0:0,0:0:0:0:
187,251,192252,6,0,P|290:219|387:237,1,200.000001192092,0|0,1:0|1:0,0:0:0:0:
434,317,193022,1,8,0:0:0:0:
481,228,193278,2,0,L|472:28,1,200.000001192092,0|0,1:0|1:0,0:0:0:0:
371,27,194047,1,8,0:0:0:0:
327,117,194304,6,0,P|274:117|217:84,1,100.000000596046,0|12,1:0|0:0,0:0:0:0:
155,33,194816,1,0,0:0:0:0:
95,113,195073,1,12,0:0:0:0:
165,183,195329,1,12,0:2:0:0:
96,255,195586,1,12,0:2:0:0:
159,331,195842,1,12,0:0:0:0:
230,261,196099,6,0,L|340:258,1,100.000000596046,12|4,0:0|0:0,0:0:0:0:
423,305,204560,6,0,P|440:265|419:195,1,89.9999977898594,0|2,1:0|0:0,0:0:0:0:
388,142,205073,2,0,L|284:151,1,89.9999977898594,8|10,0:0|0:0,0:0:0:0:
267,182,205457,2,0,L|150:186,1,89.9999977898594,0|0,1:0|1:0,0:0:0:0:
131,181,205842,1,10,0:0:0:0:
50,221,206099,2,0,P|38:177|49:134,1,89.9999977898594,8|2,0:0|0:0,0:0:0:0:
97,58,206611,6,0,L|198:52,1,89.9999977898594,0|2,1:0|0:0,0:0:0:0:
272,80,207124,2,0,L|365:76,1,89.9999977898594,8|10,0:0|0:0,0:0:0:0:
406,85,207509,2,0,P|412:131|387:203,1,89.9999977898594,0|0,1:0|1:0,0:0:0:0:
373,207,207893,1,10,0:0:0:0:
393,294,208150,2,0,L|281:296,1,89.9999977898594,8|2,0:0|0:0,0:0:0:0:
219,328,208663,6,0,L|129:330,1,89.9999977898594,0|2,1:0|0:0,0:0:0:0:
45,298,209175,2,0,P|32:251|48:194,1,89.9999977898594,8|10,0:0|0:0,0:0:0:0:
64,173,209560,2,0,L|161:173,1,89.9999977898594,0|0,1:0|1:0,0:0:0:0:
197,187,209945,1,10,0:0:0:0:
274,151,210201,2,0,P|283:195|270:238,1,89.9999977898594,8|2,0:0|0:0,0:0:0:0:
341,293,210714,6,0,P|367:205|337:95,1,179.999995579719,0|8,1:0|0:0,0:0:0:0:
289,53,211483,1,2,1:2:0:0:
289,53,211611,1,8,0:0:0:0:
289,53,211740,2,0,L|153:54,2,134.999996684789,4|4|4,1:2|1:2|0:0,0:0:0:0:
