osu file format v14

[General]
AudioFilename: audio200.mp3
AudioLeadIn: 0
PreviewTime: 165522
Countdown: 0
SampleSet: Soft
StackLeniency: 0.7
Mode: 0
LetterboxInBreaks: 0
EpilepsyWarning: 1
WidescreenStoryboard: 1

[Editor]
Bookmarks: 25073,41483,66099,74304,115329,119432,135842,152252,156355,196355,204560
DistanceSpacing: 1.2
BeatDivisor: 4
GridSize: 4
TimelineZoom: 2.900005

[Metadata]
Title:Sukisuki Zecchoushou
TitleUnicode:スキスキ絶頂症
Artist:Kano
ArtistUnicode:鹿乃
Creator:Loreley
Version:TheMefisto's Normal
Source:
Tags:GUMI vocaloid utaite cover Denpol-P koyori 電ポルP [panda619] 619 SnowNiNo_ Namki TheMefisto SherryCherry Allihoppa wajinshu nattu smau5
BeatmapID:1236450
BeatmapSetID:484532

[Difficulty]
HPDrainRate:3
CircleSize:3
OverallDifficulty:3
ApproachRate:4
SliderMultiplier:0.80000000596046
SliderTickRate:1

[Events]
//Background and Video events
0,0,"deep sea dream.jpg",0,0
//Break Periods
2,66099,72984
2,115329,118112
2,135842,150932
2,196555,203240
//Storyboard Layer 0 (Background)
//Storyboard Layer 1 (Fail)
//Storyboard Layer 2 (Pass)
//Storyboard Layer 3 (Foreground)
Sprite,Foreground,Centre,"sb\ring.png",320,240 M,0,16355,,440,410 F,0,16355,,1 C,0,16355,,255,255,255 S,7,16355,16855,0.25,0.9 F,0,16356,16856,1,0
Sprite,Foreground,Centre,"sb\ring.png",320,240 M,0,16868,,516,278 F,0,16868,,1 C,0,16868,,255,255,255 S,7,16868,17368,0.25,0.9 F,0,16869,17369,1,0
Sprite,Foreground,Centre,"sb\ring.png",320,240 M,0,23791,,230,154 F,0,23791,,1 C,0,23791,,255,255,255 S,7,23791,24791,0.25,0.9 F,0,23792,24792,1,0
Sprite,Foreground,Centre,"sb\ring.png",320,240 M,0,24047,,325,160 F,0,24047,,1 C,0,24047,,255,255,255 S,7,24047,24547,0.25,0.9 F,0,24048,24548,1,0
Sprite,Foreground,Centre,"sb\ring.png",320,240 M,0,24560,,439,257 F,0,24560,,1 C,0,24560,,255,255,255 S,7,24560,25060,0.25,0.9 F,0,24561,25061,1,0
Sprite,Foreground,Centre,"sb\ring.png",320,240 M,0,25073,,270,285 F,0,25073,,1 C,0,25073,,255,255,255 S,7,25073,26073,0.25,0.9 F,0,25074,26074,1,0
Sprite,Foreground,Centre,"sb\ring.png",320,240 M,0,47637,,279,231 F,0,47637,,1 C,0,47637,,255,255,255 S,7,47637,48137,0.25,0.9 F,0,47638,48138,1,0
Sprite,Foreground,Centre,"sb\ring.png",320,240 M,0,74304,,507,250 F,0,74304,,1 C,0,74304,,255,255,255 S,7,74304,75304,0.25,0.9 F,0,74305,75305,1,0
Sprite,Foreground,Centre,"sb\ring.png",320,240 M,0,135201,,463,339 F,0,135201,,1 C,0,135201,,255,255,255 S,7,135201,135701,0.25,0.9 F,0,135202,135702,1,0
Sprite,Foreground,Centre,"sb\ring.png",320,240 M,0,152252,,320,248 F,0,152252,,1 C,0,152252,,255,255,255 S,7,152252,153252,0.25,0.9 F,0,152253,153253,1,0
Sprite,Foreground,Centre,"sb\ring.png",320,240 M,0,158406,,225,425 F,0,158406,,1 C,0,158406,,255,255,255 S,7,158406,158906,0.25,0.9 F,0,158407,158907,1,0
Sprite,Foreground,Centre,"sb\ring.png",320,240 M,0,204560,,548,316 F,0,204560,,1 C,0,204560,,255,255,255 S,7,204560,205060,0.25,0.9 F,0,204561,205061,1,0
Sprite,Foreground,Centre,"sb\ring.png",320,240 M,0,205073,,475,163 F,0,205073,,1 C,0,205073,,255,255,255 S,7,205073,205573,0.25,0.9 F,0,205074,205574,1,0
Sprite,Foreground,Centre,"sb\ring.png",320,240 M,0,206099,,425,245 F,0,206099,,1 C,0,206099,,255,255,255 S,7,206099,206599,0.25,0.9 F,0,206100,206600,1,0
Sprite,Foreground,Centre,"sb\ring.png",320,240 M,0,206611,,276,207 F,0,206611,,1 C,0,206611,,255,255,255 S,7,206611,207111,0.25,0.9 F,0,206612,207112,1,0
Sprite,Foreground,Centre,"sb\ring.png",320,240 M,0,207124,,213,280 F,0,207124,,1 C,0,207124,,255,255,255 S,7,207124,207624,0.25,0.9 F,0,207125,207625,1,0
Sprite,Foreground,Centre,"sb\ring.png",320,240 M,0,208150,,123,314 F,0,208150,,1 C,0,208150,,255,255,255 S,7,208150,208650,0.25,0.9 F,0,208151,208651,1,0
Sprite,Foreground,Centre,"sb\ring.png",320,240 M,0,208663,,100,153 F,0,208663,,1 C,0,208663,,255,255,255 S,7,208663,209163,0.25,0.9 F,0,208664,209164,1,0
Sprite,Foreground,Centre,"sb\ring.png",320,240 M,0,209175,,270,151 F,0,209175,,1 C,0,209175,,255,255,255 S,7,209175,209675,0.25,0.9 F,0,209176,209676,1,0
Sprite,Foreground,Centre,"sb\ring.png",320,240 M,0,210201,,232,239 F,0,210201,,1 C,0,210201,,255,255,255 S,7,210201,210701,0.25,0.9 F,0,210202,210702,1,0
Sprite,Foreground,Centre,"sb\ring.png",320,240 M,0,210714,,325,352 F,0,210714,,1 C,0,210714,,255,255,255 S,7,210714,211214,0.25,0.9 F,0,210715,211215,1,0
Sprite,Foreground,Centre,"sb\ring.png",320,240 M,0,211483,,253,416 F,0,211483,,1 C,0,211483,,255,255,255 S,7,211483,211983,0.25,0.9 F,0,211484,211984,1,0
Sprite,Foreground,Centre,"sb\ring.png",320,240 M,0,211740,,156,415 F,0,211740,,1 C,0,211740,,255,255,255 S,7,211740,212740,0.25,0.9 F,0,211741,212741,1,0
//Storyboard Sound Samples

[TimingPoints]
458,256.410256410256,4,2,4,55,1,0
8150,-100,4,2,2,40,0,0
8663,-100,4,2,6,60,0,0
8919,-100,4,2,2,60,0,0
17124,-100,4,2,6,70,0,0
17188,-100,4,2,2,60,0,0
23278,-100,4,2,6,60,0,0
23919,-100,4,2,2,60,0,0
25073,-100,4,2,2,40,0,0
25329,-100,4,2,2,30,0,0
26099,-100,4,2,2,50,0,0
27124,-100,4,2,2,50,0,0
33534,-100,4,2,2,40,0,0
33791,-100,4,2,2,50,0,0
34240,-100,4,2,3,60,0,0
34368,-100,4,2,2,35,0,0
34560,-100,4,2,2,45,0,0
34945,-100,4,2,2,50,0,0
35201,-100,4,2,6,50,0,0
35586,-100,4,2,2,50,0,0
41483,-100,4,2,5,50,0,0
41547,-100,4,2,5,35,0,0
45073,-100,4,2,5,35,0,0
47124,-100,4,2,2,35,0,0
47637,-100,4,2,2,50,0,0
48406,-100,4,2,10,80,0,0
48438,-100,4,2,10,35,0,0
48919,-100,4,2,2,40,0,0
49688,-100,4,2,6,60,0,1
56740,-100,4,2,2,60,0,1
57893,-100,4,2,9,60,0,1
58150,-100,4,2,2,60,0,1
65073,-100,4,2,2,50,0,1
65586,-100,4,2,2,60,0,0
65970,-100,4,2,6,60,0,0
66355,-100,4,2,2,60,0,0
74304,-100,4,2,6,60,0,0
74368,-100,4,2,6,50,0,0
75329,-100,4,2,2,50,0,0
84560,-100,4,2,6,50,0,0
84752,-100,4,2,2,60,0,0
90714,-100,4,2,2,50,0,0
90778,-100,4,2,5,50,0,0
94816,-100,4,2,2,50,0,0
96868,-100,4,2,2,60,0,0
98406,-100,4,2,2,65,0,0
98534,-100,4,2,2,70,0,0
98663,-100,4,2,2,75,0,0
98791,-100,4,2,2,60,0,0
98919,-100,4,2,6,70,0,1
99111,-100,4,2,2,60,0,1
107124,-100,4,2,9,60,0,1
107316,-100,4,2,2,60,0,1
114816,-100,4,2,2,60,0,0
115329,-100,4,2,2,30,0,0
117701,-100,4,2,3,20,0,0
117829,-100,4,2,2,25,0,0
117957,-100,4,2,3,30,0,0
118086,-100,4,2,2,35,0,0
118214,-100,4,2,3,35,0,0
118342,-100,4,2,2,40,0,0
118470,-100,4,2,3,45,0,0
118599,-100,4,2,2,50,0,0
118727,-100,4,2,3,55,0,0
118919,-100,4,2,2,60,0,0
119175,-100,4,2,2,40,0,0
119432,-100,4,2,6,60,0,0
119688,-100,4,2,2,60,0,0
127637,-100,4,2,6,60,0,0
127765,-100,4,2,2,60,0,0
134945,-100,4,2,2,50,0,0
135842,-100,4,2,2,40,0,0
156355,-100,4,2,2,20,0,0
156868,-100,4,2,2,25,0,0
157381,-100,4,2,2,30,0,0
157893,-100,4,2,2,35,0,0
158406,-100,4,2,2,40,0,0
158791,-100,4,2,3,45,0,0
159175,-100,4,2,3,50,0,0
159432,-100,4,2,3,55,0,0
159688,-100,4,2,3,60,0,0
159945,-100,4,2,3,65,0,0
160201,-100,4,2,3,70,0,0
160457,-100,4,2,2,70,0,0
161483,-100,4,2,2,50,0,0
163022,-100,4,2,2,65,0,0
163534,-100,4,2,6,70,0,1
169945,-100,4,2,2,60,0,1
171740,-100,4,2,9,60,0,1
171868,-100,4,2,2,60,0,1
178791,-100,4,2,3,60,0,0
179304,-100,4,2,10,75,0,0
179560,-100,4,2,6,60,0,0
179945,-100,4,2,2,70,0,0
188150,-100,4,2,6,70,0,0
188278,-100,4,2,2,70,0,0
188663,-100,4,2,2,70,0,0
192252,-100,4,2,2,80,0,0
195329,-100,4,2,6,70,0,0
195457,-100,4,2,2,80,0,0
196355,-100,4,2,2,80,0,0
196387,-100,4,2,2,80,0,0
204560,-99.9999999999999,4,2,5,55,0,0
211740,-99.9999999999999,4,2,2,60,0,0

[Colours]
Combo1 : 255,102,28
Combo2 : 0,159,236
Combo3 : 249,198,91
Combo4 : 237,38,33

[HitObjects]
433,329,458,6,0,P|472:329|508:312,1,80.000000596046,8|8,0:0|0:0,0:0:0:0:
452,234,970,2,0,L|495:89,2,120.000000894069,8|8|8,0:0|0:0|0:0,0:0:0:0:
359,262,1996,2,0,P|309:247|259:261,1,80.000000596046,8|8,0:0|0:0,0:0:0:0:
196,293,2509,6,0,P|156:295|119:281,1,80.000000596046,8|8,0:0|0:0,0:0:0:0:
68,200,3022,2,0,P|54:142|85:79,2,120.000000894069,8|8|8,0:0|0:0|0:0,0:0:0:0:
150,150,4047,2,0,L|239:135,1,80.000000596046,8|8,0:0|0:0,0:0:0:0:
317,173,4560,6,0,L|395:186,1,80.000000596046,8|8,0:0|0:0,0:0:0:0:
466,251,5073,2,0,P|479:309|444:374,2,120.000000894069,8|8|8,0:0|0:0|0:0,0:0:0:0:
383,300,6099,2,0,P|343:303|305:290,1,80.000000596046,8|8,0:0|0:0,0:0:0:0:
252,210,6611,6,0,P|249:170|262:132,1,80.000000596046,8|8,0:0|0:0,0:0:0:0:
349,91,7124,2,0,L|494:61,2,120.000000894069,8|8|8,0:0|0:0|0:0,0:0:0:0:
261,132,8150,1,2,0:3:0:0:
286,321,8663,6,0,P|191:352|69:322,1,200.000001490115,4|0,1:2|1:0,0:0:0:0:
112,241,9560,2,0,B|144:141|80:141|112:45,1,200.000001490115,0|0,1:0|1:0,0:0:0:0:
205,23,10457,1,8,0:0:0:0:
276,87,10714,6,0,P|379:129|448:66,1,200.000001490115,0|0,1:0|1:0,0:0:0:0:
357,34,11611,2,0,L|369:264,1,200.000001490115,0|0,0:0|1:0,0:0:0:0:
320,317,12509,1,8,0:0:0:0:
232,278,12765,6,0,B|134:240|134:315|35:276,1,200.000001490115,0|0,1:0|1:0,0:0:0:0:
5,186,13663,2,0,P|7:107|100:34,1,200.000001490115,0|0,1:0|1:0,0:0:0:0:
182,75,14560,2,0,P|218:81|281:56,1,80.000000596046,8|0,0:0|1:0,0:0:0:0:
349,34,15073,6,0,L|338:172,1,120.000000894069,8|0,0:0|1:0,0:0:0:0:
272,222,15714,2,0,L|283:360,1,120.000000894069,0|8,1:0|0:0,0:0:0:0:
376,354,16355,2,0,P|413:345|458:300,1,80.000000596046,8|8,0:0|0:0,0:0:0:0:
452,222,16868,6,0,L|469:13,1,200.000001490115,4|0,1:2|1:0,0:0:0:0:
376,51,17765,2,0,P|285:86|160:50,1,200.000001490115,0|0,1:0|1:0,0:0:0:0:
100,24,18663,1,8,0:0:0:0:
21,78,18919,6,0,L|37:277,1,200.000001490115,0|0,1:0|1:0,0:0:0:0:
125,314,19816,2,0,B|221:351|221:276|319:314,1,200.000001490115,0|0,0:0|1:0,0:0:0:0:
398,368,20714,1,8,0:0:0:0:
473,309,20970,6,0,P|508:209|436:139,1,200.000001490115,0|0,1:0|1:0,0:0:0:0:
416,233,21868,2,0,L|217:200,1,200.000001490115,0|0,1:0|1:0,0:0:0:0:
123,212,22765,1,8,0:0:0:0:
43,266,23022,6,0,P|28:190|75:128,1,160.000001192092,0|0,1:0|1:0,0:0:0:0:
166,98,23791,1,12,0:0:0:0:
261,104,24047,2,0,L|347:113,1,80.000000596046,12|8,0:0|0:0,0:0:0:0:
375,201,24560,2,0,L|295:192,1,80.000000596046,8|8,0:0|0:0,0:0:0:0:
206,229,25073,5,4,0:0:0:0:
25,45,27124,6,0,L|104:53,1,80.000000596046,4|8,1:2|0:0,0:0:0:0:
180,111,27637,2,0,L|307:97,2,120.000000894069,0|0|8,1:0|0:0|0:0,0:0:0:0:
96,158,28663,2,0,P|86:211|112:259,1,80.000000596046,0|8,1:0|0:0,0:0:0:0:
171,291,29175,6,0,L|281:278,1,80.000000596046,0|8,0:0|0:0,0:0:0:0:
340,314,29688,2,0,L|450:301,1,80.000000596046,0|8,1:0|0:0,0:0:0:0:
457,274,30073,2,0,P|477:224|450:153,1,120.000000894069,0|8,1:0|0:0,0:0:0:0:
388,95,30714,2,0,P|384:56|397:19,1,80.000000596046,0|8,1:0|0:0,0:0:0:0:
479,66,31227,5,0,1:0:0:0:
370,219,31740,2,0,P|311:246|231:216,2,120.000000894069,0|0|8,1:0|1:0|0:0,0:0:0:0:
303,149,32765,2,0,L|316:43,1,80.000000596046,8|8,0:0|0:0,0:0:0:0:
397,19,33278,5,0,1:0:0:0:
275,30,35329,6,0,L|287:136,1,80.000000596046,4|8,1:2|0:0,0:0:0:0:
353,176,35842,2,0,P|426:156|488:183,2,120.000000894069,0|0|8,1:0|1:0|0:0,0:0:0:0:
294,252,36868,2,0,L|282:358,1,80.000000596046,0|8,1:0|0:0,0:0:0:0:
193,362,37381,6,0,P|153:346|92:354,1,80.000000596046,0|8,1:0|0:0,0:0:0:0:
61,267,37893,2,0,P|101:251|162:259,1,80.000000596046,0|8,1:0|0:0,0:0:0:0:
177,223,38278,2,0,L|162:81,1,120.000000894069,0|8,1:0|0:0,0:0:0:0:
234,38,38919,2,0,P|280:28|334:52,1,80.000000596046,0|8,1:0|0:0,0:0:0:0:
275,125,39432,5,0,1:0:0:0:
424,245,39945,2,0,L|416:334,1,80.000000596046,0|8,1:0|0:0,0:0:0:0:
323,347,40457,2,0,B|245:311|244:367|167:342,1,160.000001192092,0|8,1:0|0:0,0:0:0:0:
80,299,41227,1,0,1:0:0:0:
27,218,41483,6,0,P|77:84|170:94,1,240.000001788138,4|0,1:2|0:0,0:0:0:0:
112,170,42509,2,0,P|189:172|242:116,1,160.000001192092,0|0,1:0|1:0,0:0:0:0:
154,85,43278,1,0,0:0:0:0:
228,24,43534,6,0,P|308:50|296:192,1,240.000001788138,0|0,1:0|0:0,0:0:0:0:
229,247,44560,2,0,L|407:227,1,160.000001192092,0|0,1:0|0:0,0:0:0:0:
481,252,45329,1,0,0:0:0:0:
509,343,45586,5,0,1:0:0:0:
453,159,46099,1,0,1:0:0:0:
393,341,46611,2,0,P|315:360|224:341,1,160.000001192092,0|0,1:0|1:0,0:0:0:0:
183,266,47381,1,8,0:0:0:0:
215,175,47637,6,0,L|207:39,2,120.000000894069,8|8|2,0:0|0:0|0:0,0:0:0:0:
31,355,49688,6,0,P|98:312|184:318,1,160.000001192092,4|0,1:2|1:0,0:0:0:0:
263,355,50457,1,8,0:0:0:0:
334,289,50714,2,0,P|346:252|342:212,2,80.000000596046,0|8|0,1:0|0:0|1:0,0:0:0:0:
250,242,51483,1,8,0:0:0:0:
271,147,51740,6,0,P|302:123|341:116,1,80.000000596046,0|8,1:0|0:0,0:0:0:0:
424,163,52252,2,0,P|462:154|494:130,1,80.000000596046,0|8,1:0|0:0,0:0:0:0:
423,65,52765,2,0,P|386:29|334:19,2,80.000000596046,0|8|0,1:0|0:0|1:0,0:0:0:0:
341,116,53534,1,8,0:0:0:0:
268,53,53791,6,0,L|72:72,1,160.000001192092,0|0,1:0|1:0,0:0:0:0:
21,182,54688,2,0,L|148:194,1,120.000000894069,0|8,1:0|0:0,0:0:0:0:
222,243,55329,1,0,1:0:0:0:
302,123,55714,6,0,P|383:94|476:172,1,200.000001490115,0|0,1:0|1:0,0:0:0:0:
431,293,56740,2,0,L|438:372,2,80.000000596046,0|0|0,1:0|1:0|1:0,0:0:0:0:
223,172,57893,6,0,L|210:331,1,160.000001192092,4|0,1:2|1:0,0:0:0:0:
118,360,58663,1,8,0:0:0:0:
30,320,58919,2,0,P|16:288|26:226,2,80.000000596046,0|8|0,1:0|0:0|1:0,0:0:0:0:
110,267,59688,1,8,0:0:0:0:
176,202,59945,6,0,P|165:120|82:76,1,160.000001192092,0|0,0:0|1:0,0:0:0:0:
84,173,60714,1,8,0:0:0:0:
110,267,60970,2,0,P|144:289|184:294,1,80.000000596046,0|8,1:0|0:0,0:0:0:0:
264,243,61483,1,0,1:0:0:0:
420,354,61996,6,0,L|427:190,1,160.000001192092,0|0,1:0|1:0,0:0:0:0:
411,99,62765,1,8,0:0:0:0:
323,59,63022,2,0,B|245:27|243:85|166:64,1,160.000001192092,0|0,1:0|1:0,0:0:0:0:
76,32,63791,1,8,0:0:0:0:
7,98,64047,5,0,1:0:0:0:
60,282,64560,1,8,0:0:0:0:
238,209,65073,6,0,P|276:201|343:220,2,80.000000596046,8|8|8,0:0|0:0|0:0,0:0:0:0:
443,194,74304,6,0,P|457:119|409:20,2,160.000001192092,4|8|0,0:0|0:0|0:0,0:0:0:0:
346,187,75586,2,0,P|278:177|212:222,2,120.000000894069,0|0|0,1:0|1:0|1:0,0:0:0:0:
215,328,76868,2,0,P|177:338|132:328,1,80.000000596046,8|0,0:0|1:0,0:0:0:0:
82,251,77381,1,0,0:0:0:0:
138,173,77637,2,0,L|136:25,1,120.000000894069,0|0,1:0|1:0,0:0:0:0:
277,84,78406,6,0,L|277:243,2,160.000001192092,0|8|0,1:0|0:0|0:0,0:0:0:0:
361,38,79688,2,0,P|419:30|476:53,1,120.000000894069,0|0,1:0|0:0,0:0:0:0:
402,176,80457,6,0,B|371:256|432:257|393:331,1,160.000001192092,0|8,1:0|0:0,0:0:0:0:
250,353,81355,2,0,L|161:365,2,80.000000596046,0|0|0,0:0|0:0|0:0,0:0:0:0:
278,261,82124,2,0,P|288:200|262:146,1,120.000000894069,0|4,1:0|1:2,0:0:0:0:
494,204,84560,6,0,L|394:197,1,80.000000596046,4|8,1:2|0:0,0:0:0:0:
326,238,85073,2,0,L|246:243,1,80.000000596046,0|8,1:0|0:0,0:0:0:0:
202,262,85457,2,0,P|207:177|168:121,1,120.000000894069,0|8,1:0|0:0,0:0:0:0:
109,97,86099,2,0,P|99:58|118:8,1,80.000000596046,0|8,1:0|0:0,0:0:0:0:
197,59,86611,6,0,L|292:64,1,80.000000596046,0|8,1:0|0:0,0:0:0:0:
361,108,87124,2,0,L|480:101,2,120.000000894069,0|0|8,1:0|1:0|0:0,0:0:0:0:
288,170,88150,2,0,P|276:210|292:272,1,80.000000596046,0|8,1:0|0:0,0:0:0:0:
335,326,88663,5,0,1:0:0:0:
170,228,89175,2,0,P|135:220|75:238,1,80.000000596046,0|8,1:0|0:0,0:0:0:0:
30,302,89688,2,0,P|43:207|6:127,2,160.000001192092,0|8|4,0:0|0:0|1:2,0:0:0:0:
214,357,91227,5,0,1:0:0:0:
323,201,91740,2,0,P|406:191|463:254,1,160.000001192092,0|0,1:0|1:2,0:0:0:0:
373,282,92509,1,0,0:0:0:0:
278,288,92765,6,0,P|228:221|327:103,1,240.000001788138,0|0,1:0|0:0,0:0:0:0:
323,201,93791,1,0,1:0:0:0:
182,70,94304,1,0,1:0:0:0:
36,194,94816,6,0,L|48:355,1,160.000001192092,4|0,1:2|1:0,0:0:0:0:
142,372,95586,1,8,0:0:0:0:
216,312,95842,2,0,P|301:289|391:321,1,160.000001192092,0|8,1:0|1:2,0:0:0:0:
497,163,96868,6,0,L|489:64,1,80.000000596046,8|8,0:0|0:0,0:0:0:0:
401,47,97381,2,0,L|407:126,1,80.000000596046,8|8,0:0|0:0,0:0:0:0:
415,222,97893,1,0,1:0:0:0:
39,174,98919,6,0,P|23:89|64:22,1,160.000001192092,4|0,1:2|1:0,0:0:0:0:
153,20,99688,1,8,0:0:0:0:
212,95,99945,2,0,L|202:209,2,80.000000596046,0|8|0,1:0|0:0|1:0,0:0:0:0:
279,25,100714,1,8,0:0:0:0:
354,84,100970,6,0,L|460:92,1,80.000000596046,0|8,1:0|0:0,0:0:0:0:
468,179,101483,2,0,L|362:187,1,80.000000596046,0|8,1:0|0:0,0:0:0:0:
302,228,101996,2,0,P|288:261|300:323,1,80.000000596046,0|8,1:0|0:0,0:0:0:0:
384,279,102509,1,0,1:0:0:0:
206,351,103022,6,0,P|112:365|37:351,1,160.000001192092,0|0,1:0|1:0,0:0:0:0:
5,217,103919,2,0,L|29:85,1,120.000000894069,0|8,0:0|0:0,0:0:0:0:
116,64,104560,1,0,1:0:0:0:
171,199,104945,6,0,P|273:235|372:186,1,200.000001490115,0|0,1:0|1:0,0:0:0:0:
266,95,105970,2,0,L|255:14,2,80.000000596046,0|0|0,1:0|1:0|1:0,0:0:0:0:
493,179,107124,6,0,L|471:337,1,160.000001192092,4|0,1:2|1:0,0:0:0:0:
383,373,107893,1,8,0:0:0:0:
303,318,108150,2,0,P|265:307|201:335,1,80.000000596046,0|8,1:0|0:0,0:0:0:0:
140,359,108663,2,0,P|101:367|63:356,1,80.000000596046,0|8,1:0|0:0,0:0:0:0:
108,271,109175,6,0,B|149:194|88:195|122:111,1,160.000001192092,0|0,1:0|1:0,0:0:0:0:
206,158,109945,1,8,0:0:0:0:
289,110,110201,2,0,P|332:101|377:117,2,80.000000596046,0|8|0,1:0|0:0|1:0,0:0:0:0:
203,282,111227,6,0,L|375:316,1,160.000001192092,0|0,1:0|1:0,0:0:0:0:
455,321,111996,1,8,0:0:0:0:
498,235,112252,2,0,P|509:156|480:83,1,160.000001192092,0|0,1:0|1:0,0:0:0:0:
386,59,113022,1,8,0:0:0:0:
316,124,113278,6,0,P|234:143|146:116,1,160.000001192092,0|0,1:0|0:0,0:0:0:0:
86,65,114047,1,8,0:0:0:0:
14,128,114304,6,0,L|4:223,2,80.000000596046,0|0|0,1:0|1:0|1:0,0:0:0:0:
39,343,119432,6,0,P|80:347|131:320,1,80.000000596046,0|8,1:0|0:0,0:0:0:0:
138,239,119945,2,0,P|129:187|162:106,2,120.000000894069,0|0|8,1:0|0:0|0:0,0:0:0:0:
222,285,120970,2,0,L|305:267,1,80.000000596046,0|8,1:0|0:0,0:0:0:0:
360,193,121483,6,0,L|438:176,1,80.000000596046,0|8,1:0|0:0,0:0:0:0:
496,99,121996,1,0,1:0:0:0:
368,31,122381,2,0,P|336:22|288:28,1,80.000000596046,0|0,1:0|1:0,0:0:0:0:
197,52,122893,2,0,P|193:119|213:179,1,120.000000894069,0|8,0:0|0:0,0:0:0:0:
278,234,123534,5,0,1:0:0:0:
281,331,123791,2,0,L|199:353,1,80.000000596046,8|0,0:0|1:0,0:0:0:0:
71,311,124432,2,0,P|50:275|69:190,1,120.000000894069,0|8,1:0|0:0,0:0:0:0:
133,136,125073,2,0,L|210:116,1,80.000000596046,0|8,1:0|0:0,0:0:0:0:
257,32,125586,5,0,1:0:0:0:
161,37,125842,2,0,L|83:56,1,80.000000596046,8|0,0:0|1:0,0:0:0:0:
61,200,126483,2,0,P|94:225|150:231,2,80.000000596046,0|0|0,1:0|1:0|1:0,0:0:0:0:
243,43,127637,6,0,L|370:58,1,120.000000894069,4|0,1:2|0:0,0:0:0:0:
439,178,128406,2,0,L|302:195,1,120.000000894069,8|0,0:0|0:0,0:0:0:0:
188,249,129175,2,0,L|108:258,1,80.000000596046,0|8,1:0|0:0,0:0:0:0:
21,217,129688,6,0,P|6:169|32:89,1,120.000000894069,0|0,1:0|0:0,0:0:0:0:
156,50,130457,2,0,P|240:65|292:42,1,120.000000894069,8|0,0:0|1:0,0:0:0:0:
410,26,131227,2,0,L|402:127,1,80.000000596046,0|8,1:0|0:0,0:0:0:0:
364,193,131740,6,0,L|375:332,1,120.000000894069,0|0,1:2|0:0,0:0:0:0:
229,303,132509,2,0,L|219:183,1,120.000000894069,8|0,0:0|1:0,0:0:0:0:
113,86,133278,2,0,P|71:87|19:124,1,80.000000596046,0|8,1:0|0:0,0:0:0:0:
3,192,133791,1,0,1:0:0:0:
75,316,134175,6,0,L|177:335,1,80.000000596046,0|0,1:0|1:0,0:0:0:0:
246,356,134688,2,0,L|325:344,1,80.000000596046,0|8,1:0|0:0,0:0:0:0:
399,283,135201,1,8,0:0:0:0:
256,192,152252,12,0,155329,0:0:0:0:
254,57,156355,6,0,B|196:80|136:33|136:33|89:88|14:96|14:96|70:163|70:163|-4:267|78:371,1,560.000004172322,0|0,1:0|0:0,0:0:0:0:
161,369,158406,6,0,B|229:325|312:368|312:368|388:260|323:141|323:141|406:183|476:143,1,560.000004172322,0|0,1:0|1:0,0:0:0:0:
508,53,160457,6,0,L|378:38,1,120.000000894069,4|4,1:1|1:1,0:0:0:0:
292,50,161099,1,4,1:1:0:0:
197,66,161355,1,8,1:2:0:0:
493,295,162509,6,0,P|425:335|344:299,1,160.000001192092,0|8,1:0|0:0,0:0:0:0:
274,135,163534,6,0,L|101:157,1,160.000001192092,4|0,1:2|1:0,0:0:0:0:
43,219,164304,1,8,0:0:0:0:
111,285,164560,2,0,P|115:319|88:375,2,80.000000596046,0|8|0,1:0|0:0|1:0,0:0:0:0:
18,311,165329,1,8,0:0:0:0:
43,219,165586,6,0,L|34:130,1,80.000000596046,0|8,1:0|0:0,0:0:0:0:
124,105,166099,2,0,L|133:16,1,80.000000596046,0|8,1:0|0:0,0:0:0:0:
224,50,166611,2,0,P|262:62|330:36,1,80.000000596046,0|8,1:0|0:0,0:0:0:0:
390,20,167124,1,0,1:0:0:0:
354,208,167637,6,0,P|367:316|427:360,1,160.000001192092,0|0,1:0|1:0,0:0:0:0:
256,351,168534,2,0,P|174:326|55:387,1,200.000001490115,0|0,1:0|1:0,0:0:0:0:
129,234,169560,6,0,P|146:178|125:123,1,120.000000894069,0|8,1:0|0:0,0:0:0:0:
50,182,170201,1,0,1:0:0:0:
73,39,170586,2,0,P|110:25|155:29,1,80.000000596046,0|0,1:0|1:0,0:0:0:0:
225,87,171099,1,0,1:0:0:0:
458,30,171740,6,0,B|481:110|425:109|470:199,1,160.000001192092,4|0,1:2|1:0,0:0:0:0:
501,274,172509,1,8,0:0:0:0:
429,338,172765,2,0,P|389:350|334:337,1,80.000000596046,0|8,1:0|0:0,0:0:0:0:
272,291,173278,2,0,P|232:285|195:298,1,80.000000596046,0|8,1:0|0:0,0:0:0:0:
100,315,173791,6,0,L|90:221,1,80.000000596046,0|8,1:0|0:0,0:0:0:0:
116,142,174304,2,0,L|107:62,2,80.000000596046,0|8|0,1:0|0:0|1:0,0:0:0:0:
188,204,175073,1,8,0:0:0:0:
267,151,175329,2,0,P|311:140|366:163,1,80.000000596046,0|8,1:0|0:0,0:0:0:0:
397,228,175842,6,0,L|385:42,1,160.000001192092,0|0,0:0|1:0,0:0:0:0:
497,160,176740,2,0,L|504:279,1,120.000000894069,0|8,1:0|0:0,0:0:0:0:
446,356,177381,1,0,1:0:0:0:
312,302,177765,6,0,P|266:287|187:313,1,120.000000894069,0|8,1:0|0:0,0:0:0:0:
114,352,178406,2,0,P|70:362|23:342,1,80.000000596046,0|0,1:0|1:0,0:0:0:0:
18,307,178791,2,0,L|30:222,1,80.000000596046,12|8,0:2|0:2,0:0:0:0:
100,162,179304,1,14,0:0:0:0:
293,304,179945,6,0,P|376:313|463:273,1,160.000001192092,4|0,1:2|1:0,0:0:0:0:
486,198,180714,1,8,0:0:0:0:
428,121,180970,2,0,P|472:102|517:106,2,80.000000596046,0|8|0,1:0|0:0|1:0,0:0:0:0:
359,188,181740,1,8,0:0:0:0:
272,147,181996,6,0,B|195:124|196:189|100:158,1,160.000001192092,0|0,1:0|1:0,0:0:0:0:
24,135,182765,1,8,0:0:0:0:
6,229,183022,2,0,L|15:318,1,80.000000596046,0|8,1:0|0:0,0:0:0:0:
93,361,183534,2,0,P|134:363|173:340,1,80.000000596046,0|8,1:0|0:0,0:0:0:0:
144,251,184047,6,0,P|116:180|140:81,1,160.000001192092,0|0,1:0|1:0,0:0:0:0:
203,37,184816,1,8,0:0:0:0:
294,66,185073,2,0,L|391:49,2,80.000000596046,0|8|0,1:0|0:0|1:0,0:0:0:0:
234,141,185842,1,8,0:0:0:0:
313,194,186099,6,0,P|328:230|314:289,1,80.000000596046,0|8,1:0|0:0,0:0:0:0:
231,244,186611,2,0,P|191:239|150:255,1,80.000000596046,0|8,1:0|0:0,0:0:0:0:
202,336,187124,2,0,L|375:372,1,160.000001192092,0|4,1:0|1:2,0:0:0:0:
452,341,187893,1,8,0:0:0:0:
488,254,188150,5,4,1:2:0:0:
329,145,188663,2,0,P|311:74|346:15,2,120.000000894069,0|0|8,1:0|0:0|0:0,0:0:0:0:
406,89,189688,2,0,P|433:79|498:97,1,80.000000596046,0|8,1:0|0:0,0:0:0:0:
446,175,190201,6,0,P|351:265|296:264,1,160.000001192092,0|0,0:0|1:0,0:0:0:0:
243,223,190970,1,8,0:0:0:0:
165,166,191227,2,0,L|78:177,1,80.000000596046,0|8,1:0|0:0,0:0:0:0:
76,271,191740,2,0,L|155:260,1,80.000000596046,0|8,1:0|0:0,0:0:0:0:
243,223,192252,6,0,P|261:163|197:74,1,160.000001192092,0|0,1:0|1:0,0:0:0:0:
126,44,193022,1,8,0:0:0:0:
54,112,193278,2,0,L|78:286,1,160.000001192092,0|0,1:0|1:0,0:0:0:0:
131,348,194047,1,8,0:0:0:0:
214,300,194304,6,0,P|256:279|315:288,2,80.000000596046,0|12|0,1:0|0:0|0:0,0:0:0:0:
274,374,195073,1,12,0:0:0:0:
367,351,195329,2,0,L|455:336,1,80.000000596046,12|12,0:2|0:2,0:0:0:0:
498,256,195842,2,0,L|410:241,1,80.000000596046,12|12,0:0|0:0,0:0:0:0:
334,195,196355,5,4,0:0:0:0:
484,260,204560,6,0,L|474:161,1,80.000000596046,0|2,1:0|0:0,0:0:0:0:
411,107,205073,2,0,P|354:90|299:112,2,120.000000894069,8|0|10,0:0|1:0|0:0,0:0:0:0:
361,189,206099,2,0,P|319:210|281:208,1,80.000000596046,8|2,0:0|0:0,0:0:0:0:
212,151,206611,6,0,P|170:129|122:131,1,80.000000596046,0|2,1:0|0:0,0:0:0:0:
149,224,207124,2,0,P|153:285|110:340,2,120.000000894069,8|0|10,0:0|1:0|0:0,0:0:0:0:
59,258,208150,2,0,P|33:236|29:166,1,80.000000596046,8|2,0:0|0:0,0:0:0:0:
36,97,208663,6,0,L|126:71,1,80.000000596046,0|2,1:0|0:0,0:0:0:0:
206,95,209175,2,0,L|324:60,2,120.000000894069,8|0|10,0:0|1:0|0:0,0:0:0:0:
168,183,210201,2,0,P|160:216|191:279,1,80.000000596046,8|2,0:0|0:0,0:0:0:0:
261,296,210714,6,0,L|365:265,2,80.000000596046,0|2|8,1:0|0:0|0:0,0:0:0:0:
189,360,211483,1,2,1:2:0:0:
92,359,211740,6,0,P|55:322|36:245,2,120.000000894069,4|4|4,1:2|1:2|0:0,0:0:0:0:
