osu file format v14

[General]
AudioFilename: audio200.mp3
AudioLeadIn: 0
PreviewTime: 165522
Countdown: 0
SampleSet: Soft
StackLeniency: 0.5
Mode: 0
LetterboxInBreaks: 0
EpilepsyWarning: 1
WidescreenStoryboard: 1

[Editor]
Bookmarks: 45073
DistanceSpacing: 1.4
BeatDivisor: 4
GridSize: 32
TimelineZoom: 2.500002

[Metadata]
Title:Sukisuki Zecchoushou
TitleUnicode:スキスキ絶頂症
Artist:Kano
ArtistUnicode:鹿乃
Creator:Loreley
Version:Collab Insane
Source:
Tags:GUMI vocaloid utaite cover Denpol-P koyori 電ポルP [panda619] 619 SnowNiNo_ Namki TheMefisto SherryCherry Allihoppa wajinshu nattu smau5
BeatmapID:1220665
BeatmapSetID:484532

[Difficulty]
HPDrainRate:6
CircleSize:4
OverallDifficulty:7.5
ApproachRate:9.1
SliderMultiplier:1.73000000596046
SliderTickRate:1

[Events]
//Background and Video events
0,0,"deep sea dream.jpg",0,0
//Break Periods
2,74504,81925
2,135914,149446
2,196555,203976
//Storyboard Layer 0 (Background)
//Storyboard Layer 1 (Fail)
//Storyboard Layer 2 (Pass)
//Storyboard Layer 3 (Foreground)
Sprite,Foreground,Centre,"sb\ring.png",320,240 M,0,16355,,225,229 F,0,16355,,1 C,0,16355,,255,255,255 S,7,16355,16855,0.25,0.9 F,0,16356,16856,1,0
Sprite,Foreground,Centre,"sb\ring.png",320,240 M,0,16611,,354,260 F,0,16611,,1 C,0,16611,,255,255,255 S,7,16611,17111,0.25,0.9 F,0,16612,17112,1,0
Sprite,Foreground,Centre,"sb\ring.png",320,240 M,0,16740,,340,142 F,0,16740,,1 C,0,16740,,255,255,255 S,7,16740,17240,0.25,0.9 F,0,16741,17241,1,0
Sprite,Foreground,Centre,"sb\ring.png",320,240 M,0,16868,,472,179 F,0,16868,,1 C,0,16868,,255,255,255 S,7,16868,17368,0.25,0.9 F,0,16869,17369,1,0
Sprite,Foreground,Centre,"sb\ring.png",320,240 M,0,17124,,373,354 F,0,17124,,1 C,0,17124,,255,255,255 S,7,17124,18124,0.25,0.9 F,0,17125,18125,1,0
Sprite,Foreground,Centre,"sb\ring.png",320,240 M,0,23791,,323,168 F,0,23791,,1 C,0,23791,,255,255,255 S,7,23791,24791,0.25,0.9 F,0,23792,24792,1,0
Sprite,Foreground,Centre,"sb\ring.png",320,240 M,0,24175,,576,227 F,0,24175,,1 C,0,24175,,255,255,255 S,7,24175,24675,0.25,0.9 F,0,24176,24676,1,0
Sprite,Foreground,Centre,"sb\ring.png",320,240 M,0,24304,,520,317 F,0,24304,,1 C,0,24304,,255,255,255 S,7,24304,24804,0.25,0.9 F,0,24305,24805,1,0
Sprite,Foreground,Centre,"sb\ring.png",320,240 M,0,24560,,314,413 F,0,24560,,1 C,0,24560,,255,255,255 S,7,24560,25060,0.25,0.9 F,0,24561,25061,1,0
Sprite,Foreground,Centre,"sb\ring.png",320,240 M,0,24816,,293,291 F,0,24816,,1 C,0,24816,,255,255,255 S,7,24816,25316,0.25,0.9 F,0,24817,25317,1,0
Sprite,Foreground,Centre,"sb\ring.png",320,240 M,0,25073,,119,370 F,0,25073,,1 C,0,25073,,255,255,255 S,7,25073,26073,0.25,0.9 F,0,25074,26074,1,0
Sprite,Foreground,Centre,"sb\ring.png",320,240 M,0,33534,,362,220 F,0,33534,,1 C,0,33534,,255,255,255 S,7,33534,34034,0.25,0.9 F,0,33535,34035,1,0
Sprite,Foreground,Centre,"sb\ring.png",320,240 M,0,33663,,362,220 F,0,33663,,1 C,0,33663,,255,255,255 S,7,33663,34163,0.25,0.9 F,0,33664,34164,1,0
Sprite,Foreground,Centre,"sb\ring.png",320,240 M,0,33791,,362,340 F,0,33791,,1 C,0,33791,,255,255,255 S,7,33791,34291,0.25,0.9 F,0,33792,34292,1,0
Sprite,Foreground,Centre,"sb\ring.png",320,240 M,0,34047,,266,256 F,0,34047,,1 C,0,34047,,255,255,255 S,7,34047,34547,0.25,0.9 F,0,34048,34548,1,0
Sprite,Foreground,Centre,"sb\ring.png",320,240 M,0,34175,,266,256 F,0,34175,,1 C,0,34175,,255,255,255 S,7,34175,34675,0.25,0.9 F,0,34176,34676,1,0
Sprite,Foreground,Centre,"sb\ring.png",320,240 M,0,34304,,226,365 F,0,34304,,1 C,0,34304,,255,255,255 S,7,34304,34804,0.25,0.9 F,0,34305,34805,1,0
Sprite,Foreground,Centre,"sb\ring.png",320,240 M,0,47637,,341,150 F,0,47637,,1 C,0,47637,,255,255,255 S,7,47637,48137,0.25,0.9 F,0,47638,48138,1,0
Sprite,Foreground,Centre,"sb\ring.png",320,240 M,0,48022,,474,159 F,0,48022,,1 C,0,48022,,255,255,255 S,7,48022,48522,0.25,0.9 F,0,48023,48523,1,0
Sprite,Foreground,Centre,"sb\ring.png",320,240 M,0,48406,,499,307 F,0,48406,,1 C,0,48406,,255,255,255 S,7,48406,48906,0.25,0.9 F,0,48407,48907,1,0
Sprite,Foreground,Centre,"sb\ring.png",320,240 M,0,57509,,400,310 F,0,57509,,1 C,0,57509,,255,255,255 S,7,57509,58009,0.25,0.9 F,0,57510,58010,1,0
Sprite,Foreground,Centre,"sb\ring.png",320,240 M,0,57637,,489,352 F,0,57637,,1 C,0,57637,,255,255,255 S,7,57637,58137,0.25,0.9 F,0,57638,58138,1,0
Sprite,Foreground,Centre,"sb\ring.png",320,240 M,0,57765,,409,411 F,0,57765,,1 C,0,57765,,255,255,255 S,7,57765,58265,0.25,0.9 F,0,57766,58266,1,0
Sprite,Foreground,Centre,"sb\ring.png",320,240 M,0,72252,,514,261 F,0,72252,,1 C,0,72252,,255,255,255 S,7,72252,72752,0.25,0.9 F,0,72253,72753,1,0
Sprite,Foreground,Centre,"sb\ring.png",320,240 M,0,72637,,542,97 F,0,72637,,1 C,0,72637,,255,255,255 S,7,72637,73137,0.25,0.9 F,0,72638,73138,1,0
Sprite,Foreground,Centre,"sb\ring.png",320,240 M,0,73022,,392,143 F,0,73022,,1 C,0,73022,,255,255,255 S,7,73022,73522,0.25,0.9 F,0,73023,73523,1,0
Sprite,Foreground,Centre,"sb\ring.png",320,240 M,0,73278,,334,303 F,0,73278,,1 C,0,73278,,255,255,255 S,7,73278,73778,0.25,0.9 F,0,73279,73779,1,0
Sprite,Foreground,Centre,"sb\ring.png",320,240 M,0,73449,,188,233 F,0,73449,,1 C,0,73449,,255,255,255 S,7,73449,73949,0.25,0.9 F,0,73450,73950,1,0
Sprite,Foreground,Centre,"sb\ring.png",320,240 M,0,73620,,346,204 F,0,73620,,1 C,0,73620,,255,255,255 S,7,73620,74120,0.25,0.9 F,0,73621,74121,1,0
Sprite,Foreground,Centre,"sb\ring.png",320,240 M,0,73791,,249,333 F,0,73791,,1 C,0,73791,,255,255,255 S,7,73791,74291,0.25,0.9 F,0,73792,74292,1,0
Sprite,Foreground,Centre,"sb\ring.png",320,240 M,0,74304,,410,346 F,0,74304,,1 C,0,74304,,255,255,255 S,7,74304,75304,0.25,0.9 F,0,74305,75305,1,0
Sprite,Foreground,Centre,"sb\ring.png",320,240 M,0,106740,,360,219 F,0,106740,,1 C,0,106740,,255,255,255 S,7,106740,107240,0.25,0.9 F,0,106741,107241,1,0
Sprite,Foreground,Centre,"sb\ring.png",320,240 M,0,106868,,326,117 F,0,106868,,1 C,0,106868,,255,255,255 S,7,106868,107368,0.25,0.9 F,0,106869,107369,1,0
Sprite,Foreground,Centre,"sb\ring.png",320,240 M,0,106996,,430,135 F,0,106996,,1 C,0,106996,,255,255,255 S,7,106996,107496,0.25,0.9 F,0,106997,107497,1,0
Sprite,Foreground,Centre,"sb\ring.png",320,240 M,0,127252,,491,219 F,0,127252,,1 C,0,127252,,255,255,255 S,7,127252,127752,0.25,0.9 F,0,127253,127753,1,0
Sprite,Foreground,Centre,"sb\ring.png",320,240 M,0,127381,,401,237 F,0,127381,,1 C,0,127381,,255,255,255 S,7,127381,127881,0.25,0.9 F,0,127382,127882,1,0
Sprite,Foreground,Centre,"sb\ring.png",320,240 M,0,127509,,465,315 F,0,127509,,1 C,0,127509,,255,255,255 S,7,127509,128009,0.25,0.9 F,0,127510,128010,1,0
Sprite,Foreground,Centre,"sb\ring.png",320,240 M,0,135073,,122,238 F,0,135073,,1 C,0,135073,,255,255,255 S,7,135073,135573,0.25,0.9 F,0,135074,135574,1,0
Sprite,Foreground,Centre,"sb\ring.png",320,240 M,0,135329,,252,260 F,0,135329,,1 C,0,135329,,255,255,255 S,7,135329,135829,0.25,0.9 F,0,135330,135830,1,0
Sprite,Foreground,Centre,"sb\ring.png",320,240 M,0,135586,,108,241 F,0,135586,,1 C,0,135586,,255,255,255 S,7,135586,136086,0.25,0.9 F,0,135587,136087,1,0
Sprite,Foreground,Centre,"sb\ring.png",320,240 M,0,150030,,316,249 F,0,150030,,1 C,0,150030,,255,255,255 S,7,150030,151030,0.25,0.9 F,0,150031,151031,1,0
Sprite,Foreground,Centre,"sb\ring.png",320,240 M,0,150201,,240,282 F,0,150201,,1 C,0,150201,,255,255,255 S,7,150201,151201,0.25,0.9 F,0,150202,151202,1,0
Sprite,Foreground,Centre,"sb\ring.png",320,240 M,0,150714,,299,155 F,0,150714,,1 C,0,150714,,255,255,255 S,7,150714,151714,0.25,0.9 F,0,150715,151715,1,0
Sprite,Foreground,Centre,"sb\ring.png",320,240 M,0,151227,,236,169 F,0,151227,,1 C,0,151227,,255,255,255 S,7,151227,152227,0.25,0.9 F,0,151228,152228,1,0
Sprite,Foreground,Centre,"sb\ring.png",320,240 M,0,151740,,380,162 F,0,151740,,1 C,0,151740,,255,255,255 S,7,151740,152740,0.25,0.9 F,0,151741,152741,1,0
Sprite,Foreground,Centre,"sb\ring.png",320,240 M,0,152252,,293,99 F,0,152252,,1 C,0,152252,,255,255,255 S,7,152252,153252,0.25,0.9 F,0,152253,153253,1,0
Sprite,Foreground,Centre,"sb\ring.png",320,240 M,0,171355,,270,211 F,0,171355,,1 C,0,171355,,255,255,255 S,7,171355,171855,0.25,0.9 F,0,171356,171856,1,0
Sprite,Foreground,Centre,"sb\ring.png",320,240 M,0,171483,,225,84 F,0,171483,,1 C,0,171483,,255,255,255 S,7,171483,171983,0.25,0.9 F,0,171484,171984,1,0
Sprite,Foreground,Centre,"sb\ring.png",320,240 M,0,171611,,305,129 F,0,171611,,1 C,0,171611,,255,255,255 S,7,171611,172111,0.25,0.9 F,0,171612,172112,1,0
Sprite,Foreground,Centre,"sb\ring.png",320,240 M,0,179688,,141,405 F,0,179688,,1 C,0,179688,,255,255,255 S,7,179688,180188,0.25,0.9 F,0,179689,180189,1,0
Sprite,Foreground,Centre,"sb\ring.png",320,240 M,0,179816,,229,268 F,0,179816,,1 C,0,179816,,255,255,255 S,7,179816,180316,0.25,0.9 F,0,179817,180317,1,0
Sprite,Foreground,Centre,"sb\ring.png",320,240 M,0,204560,,231,372 F,0,204560,,1 C,0,204560,,255,255,255 S,7,204560,205060,0.25,0.9 F,0,204561,205061,1,0
Sprite,Foreground,Centre,"sb\ring.png",320,240 M,0,205073,,231,372 F,0,205073,,1 C,0,205073,,255,255,255 S,7,205073,205573,0.25,0.9 F,0,205074,205574,1,0
Sprite,Foreground,Centre,"sb\ring.png",320,240 M,0,205457,,257,263 F,0,205457,,1 C,0,205457,,255,255,255 S,7,205457,205957,0.25,0.9 F,0,205458,205958,1,0
Sprite,Foreground,Centre,"sb\ring.png",320,240 M,0,205714,,243,164 F,0,205714,,1 C,0,205714,,255,255,255 S,7,205714,206214,0.25,0.9 F,0,205715,206215,1,0
Sprite,Foreground,Centre,"sb\ring.png",320,240 M,0,206099,,292,85 F,0,206099,,1 C,0,206099,,255,255,255 S,7,206099,206599,0.25,0.9 F,0,206100,206600,1,0
Sprite,Foreground,Centre,"sb\ring.png",320,240 M,0,206611,,504,327 F,0,206611,,1 C,0,206611,,255,255,255 S,7,206611,207111,0.25,0.9 F,0,206612,207112,1,0
Sprite,Foreground,Centre,"sb\ring.png",320,240 M,0,207124,,504,327 F,0,207124,,1 C,0,207124,,255,255,255 S,7,207124,207624,0.25,0.9 F,0,207125,207625,1,0
Sprite,Foreground,Centre,"sb\ring.png",320,240 M,0,207509,,381,310 F,0,207509,,1 C,0,207509,,255,255,255 S,7,207509,208009,0.25,0.9 F,0,207510,208010,1,0
Sprite,Foreground,Centre,"sb\ring.png",320,240 M,0,207765,,462,209 F,0,207765,,1 C,0,207765,,255,255,255 S,7,207765,208265,0.25,0.9 F,0,207766,208266,1,0
Sprite,Foreground,Centre,"sb\ring.png",320,240 M,0,208150,,280,150 F,0,208150,,1 C,0,208150,,255,255,255 S,7,208150,208650,0.25,0.9 F,0,208151,208651,1,0
Sprite,Foreground,Centre,"sb\ring.png",320,240 M,0,208663,,101,115 F,0,208663,,1 C,0,208663,,255,255,255 S,7,208663,209163,0.25,0.9 F,0,208664,209164,1,0
Sprite,Foreground,Centre,"sb\ring.png",320,240 M,0,209175,,101,115 F,0,209175,,1 C,0,209175,,255,255,255 S,7,209175,209675,0.25,0.9 F,0,209176,209676,1,0
Sprite,Foreground,Centre,"sb\ring.png",320,240 M,0,209560,,210,127 F,0,209560,,1 C,0,209560,,255,255,255 S,7,209560,210060,0.25,0.9 F,0,209561,210061,1,0
Sprite,Foreground,Centre,"sb\ring.png",320,240 M,0,209816,,288,176 F,0,209816,,1 C,0,209816,,255,255,255 S,7,209816,210316,0.25,0.9 F,0,209817,210317,1,0
Sprite,Foreground,Centre,"sb\ring.png",320,240 M,0,210201,,121,282 F,0,210201,,1 C,0,210201,,255,255,255 S,7,210201,210701,0.25,0.9 F,0,210202,210702,1,0
Sprite,Foreground,Centre,"sb\ring.png",320,240 M,0,210714,,429,228 F,0,210714,,1 C,0,210714,,255,255,255 S,7,210714,211214,0.25,0.9 F,0,210715,211215,1,0
Sprite,Foreground,Centre,"sb\ring.png",320,240 M,0,210970,,429,228 F,0,210970,,1 C,0,210970,,255,255,255 S,7,210970,211470,0.25,0.9 F,0,210971,211471,1,0
Sprite,Foreground,Centre,"sb\ring.png",320,240 M,0,211227,,429,228 F,0,211227,,1 C,0,211227,,255,255,255 S,7,211227,211727,0.25,0.9 F,0,211228,211728,1,0
Sprite,Foreground,Centre,"sb\ring.png",320,240 M,0,211483,,513,264 F,0,211483,,1 C,0,211483,,255,255,255 S,7,211483,211983,0.25,0.9 F,0,211484,211984,1,0
Sprite,Foreground,Centre,"sb\ring.png",320,240 M,0,211611,,513,264 F,0,211611,,1 C,0,211611,,255,255,255 S,7,211611,212111,0.25,0.9 F,0,211612,212112,1,0
Sprite,Foreground,Centre,"sb\ring.png",320,240 M,0,211740,,513,264 F,0,211740,,1 C,0,211740,,255,255,255 S,7,211740,212740,0.25,0.9 F,0,211741,212741,1,0
Sprite,Foreground,Centre,"sb\ring.png",320,240 M,0,212124,,429,228 F,0,212124,,1 C,0,212124,,255,255,255 S,7,212124,213124,0.25,0.9 F,0,212125,213125,1,0
Sprite,Foreground,Centre,"sb\ring.png",320,240 M,0,212509,,513,264 F,0,212509,,1 C,0,212509,,255,255,255 S,7,212509,213509,0.25,0.9 F,0,212510,213510,1,0
//Storyboard Sound Samples

[TimingPoints]
458,256.410256410256,4,2,4,55,1,0
458,-88.4955752212389,4,2,4,55,0,0
8150,-100,4,2,2,40,0,0
8406,-117.64705882353,4,2,2,40,0,0
8663,-100,4,2,6,60,0,0
8919,-100,4,2,2,60,0,0
17124,-100,4,2,6,70,0,0
17188,-100,4,2,2,60,0,0
23278,-100,4,2,6,60,0,0
23919,-100,4,2,2,60,0,0
25073,-111.111111111111,4,2,2,40,0,0
25329,-111.111111111111,4,2,2,30,0,0
26099,-111.111111111111,4,2,2,50,0,0
33534,-111.111111111111,4,2,2,40,0,0
33791,-111.111111111111,4,2,2,50,0,0
34240,-111.111111111111,4,2,3,60,0,0
34368,-111.111111111111,4,2,2,35,0,0
34560,-111.111111111111,4,2,2,45,0,0
34945,-111.111111111111,4,2,2,50,0,0
35201,-111.111111111111,4,2,6,50,0,0
35586,-111.111111111111,4,2,2,50,0,0
41483,-133.333333333333,4,2,5,50,0,0
41547,-133.333333333333,4,2,5,35,0,0
45073,-133.333333333333,4,2,5,35,0,0
47124,-133.333333333333,4,2,2,35,0,0
47637,-133.333333333333,4,2,2,50,0,0
48406,-133.333333333333,4,2,10,80,0,0
48438,-133.333333333333,4,2,10,35,0,0
48919,-200,4,2,2,40,0,0
49175,-125,4,2,2,40,0,0
49688,-86.9565217391304,4,2,6,60,0,1
56804,-86.9565217391304,4,2,6,20,0,1
56868,-86.9565217391304,4,2,6,60,0,1
57060,-86.9565217391304,4,2,6,20,0,1
57124,-86.9565217391304,4,2,6,60,0,1
57316,-86.9565217391304,4,2,6,20,0,1
57381,-86.9565217391304,4,2,6,60,0,1
57509,-86.9565217391304,4,2,2,60,0,1
57893,-86.9565217391304,4,2,9,60,0,1
58150,-86.9565217391304,4,2,2,60,0,1
65073,-86.9565217391304,4,2,2,50,0,1
65137,-86.9565217391304,4,2,2,20,0,1
65201,-86.9565217391304,4,2,2,50,0,1
65393,-86.9565217391304,4,2,2,20,0,1
65457,-86.9565217391304,4,2,2,50,0,1
65586,-100,4,2,2,60,0,0
65842,-117.647058823529,4,2,2,60,0,0
65970,-117.647058823529,4,2,6,20,0,0
66099,-100,4,2,6,60,0,0
66355,-100,4,2,2,60,0,0
74304,-100,4,2,6,60,0,0
74368,-100,4,2,6,50,0,0
75329,-100,4,2,2,50,0,0
84560,-111.111111111111,4,2,6,50,0,0
84752,-111.111111111111,4,2,2,60,0,0
84816,-111.111111111111,4,2,2,60,0,0
90714,-133.333333333333,4,2,2,50,0,0
90778,-133.333333333333,4,2,5,50,0,0
94816,-133.333333333333,4,2,2,50,0,0
96868,-100,4,2,2,60,0,0
98406,-100,4,2,2,65,0,0
98534,-100,4,2,2,70,0,0
98663,-100,4,2,2,75,0,0
98791,-100,4,2,2,60,0,0
98919,-86.9565217391304,4,2,6,70,0,1
99111,-86.9565217391304,4,2,2,60,0,1
106034,-86.9565217391304,4,2,2,20,0,1
106099,-86.9565217391304,4,2,2,60,0,1
106291,-86.9565217391304,4,2,2,20,0,1
106355,-86.9565217391304,4,2,2,60,0,1
106547,-86.9565217391304,4,2,2,20,0,1
106611,-86.9565217391304,4,2,2,60,0,1
106740,-86.9565217391304,4,2,2,60,0,1
107124,-86.9565217391304,4,2,9,60,0,1
107316,-86.9565217391304,4,2,2,60,0,1
114816,-133.333333333333,4,2,2,60,0,1
115329,-200,4,2,2,30,0,0
117381,-133.333333333333,4,2,2,30,0,0
117701,-133.333333333333,4,2,3,20,0,0
117829,-133.333333333333,4,2,2,25,0,0
117957,-133.333333333333,4,2,3,30,0,0
118086,-133.333333333333,4,2,2,35,0,0
118214,-133.333333333333,4,2,3,35,0,0
118342,-133.333333333333,4,2,2,40,0,0
118470,-133.333333333333,4,2,3,45,0,0
118599,-133.333333333333,4,2,2,50,0,0
118727,-133.333333333333,4,2,3,55,0,0
118919,-133.333333333333,4,2,2,60,0,0
119175,-133.333333333333,4,2,2,40,0,0
119432,-100,4,2,6,60,0,0
119688,-100,4,2,2,60,0,0
126547,-100,4,2,2,20,0,0
126611,-100,4,2,2,60,0,0
126804,-100,4,2,2,20,0,0
126868,-100,4,2,2,60,0,0
127637,-100,4,2,6,60,0,0
127765,-100,4,2,2,60,0,0
134945,-100,4,2,2,50,0,0
135329,-100,4,2,2,50,0,0
135842,-100,4,2,2,40,0,0
150201,-200,4,2,2,30,0,0
156355,-200,4,2,2,20,0,0
156868,-200,4,2,2,25,0,0
157381,-200,4,2,2,30,0,0
157893,-200,4,2,2,35,0,0
158406,-200,4,2,2,40,0,0
158791,-200,4,2,3,45,0,0
159175,-200,4,2,3,50,0,0
159432,-200,4,2,3,55,0,0
159688,-200,4,2,3,60,0,0
159945,-200,4,2,3,65,0,0
160201,-200,4,2,3,70,0,0
160457,-100,4,2,2,70,0,0
161483,-100,4,2,2,50,0,0
161996,-200,4,2,2,80,0,0
162445,-200,4,2,2,60,0,0
162509,-100,4,2,2,60,0,0
163022,-200,4,2,2,65,0,0
163534,-86.9565217391304,4,2,6,70,0,1
169945,-86.9565217391304,4,2,2,60,0,1
170650,-86.9565217391304,4,2,2,20,0,1
170714,-86.9565217391304,4,2,2,60,0,1
170906,-86.9565217391304,4,2,2,20,0,1
170970,-86.9565217391304,4,2,2,60,0,1
171163,-86.9565217391304,4,2,2,20,0,1
171227,-86.9565217391304,4,2,2,60,0,1
171355,-86.9565217391304,4,2,2,60,0,1
171740,-86.9565217391304,4,2,9,60,0,1
171868,-86.9565217391304,4,2,2,60,0,1
178791,-100,4,2,3,60,0,0
178855,-100,4,2,3,20,0,0
178919,-100,4,2,3,60,0,0
179111,-100,4,2,3,20,0,0
179175,-100,4,2,3,60,0,0
179304,-100,4,2,10,75,0,0
179368,-100,4,2,10,20,0,0
179432,-100,4,2,10,75,0,0
179560,-100,4,2,6,60,0,0
179945,-100,4,2,2,70,0,0
188150,-100,4,2,6,70,0,0
188278,-100,4,2,2,70,0,0
192252,-100,4,2,2,80,0,0
195329,-100,4,2,6,70,0,0
195457,-100,4,2,2,80,0,0
204560,-133.333333333333,4,2,5,55,0,0
211740,-100,4,2,2,60,0,0

[Colours]
Combo1 : 255,102,28
Combo2 : 0,159,236
Combo3 : 249,198,91
Combo4 : 237,38,33

[HitObjects]
159,117,458,6,0,L|155:240,1,97.7450006350601,8|0,0:0|0:0,0:0:0:0:
150,337,714,1,8,0:0:0:0:
141,354,970,1,8,0:0:0:0:
296,331,1099,1,8,0:0:0:0:
280,319,1355,6,0,L|389:327,1,97.7450006350601,8|0,0:0|0:0,0:0:0:0:
506,343,1611,1,8,0:0:0:0:
506,343,1740,1,8,0:0:0:0:
219,222,1996,2,0,P|117:227|17:239,1,195.49000127012,8|8,0:0|0:0,0:0:0:0:
297,142,2509,5,8,0:0:0:0:
242,329,2765,1,8,0:0:0:0:
311,139,3022,1,8,0:0:0:0:
376,280,3150,1,8,0:0:0:0:
391,268,3406,6,0,P|332:263|285:264,1,97.7450006350601,8|0,0:0|0:0,0:0:0:0:
189,331,3663,1,8,0:0:0:0:
189,331,3791,1,8,0:0:0:0:
29,156,4047,2,0,P|129:159|238:153,1,195.49000127012,8|8,0:0|0:0,0:0:0:0:
239,142,4560,6,0,P|298:149|353:165,1,97.7450006350601,8|0,0:0|0:0,0:0:0:0:
446,267,4816,2,0,P|387:274|332:290,1,97.7450006350601,8|0,0:0|0:0,0:0:0:0:
492,174,5073,1,8,0:0:0:0:
379,65,5201,1,8,0:0:0:0:
393,77,5457,6,0,L|177:71,1,195.49000127012,8|8,0:0|0:0,0:0:0:0:
333,150,5842,1,8,0:0:0:0:
340,168,6099,2,0,P|335:219|327:280,1,97.7450006350601,8|0,0:0|0:0,0:0:0:0:
199,351,6355,2,0,P|192:302|188:253,1,97.7450006350601,8|0,0:0|0:0,0:0:0:0:
87,142,6611,6,0,P|177:147|246:76,1,195.49000127012,8|8,0:0|0:0,0:0:0:0:
77,126,7124,1,8,0:0:0:0:
40,277,7252,1,8,0:0:0:0:
24,288,7509,6,0,P|70:286|137:286,1,97.7450006350601,8|0,0:0|0:0,0:0:0:0:
237,297,7765,1,8,0:0:0:0:
237,297,7893,1,8,0:0:0:0:
314,108,8150,6,0,L|317:159,2,43.2500001490115,2|0|0,0:3|0:0|0:0,0:0:0:0:
218,82,8406,6,0,P|218:150|210:216,1,110.287502483546,0|0,0:0|0:0,0:0:0:0:
138,237,8663,6,0,B|209:221|258:233|264:236|271:240|332:255|405:238,1,259.500000894069,4|0,1:2|0:0,0:0:0:0:
481,303,9175,2,0,P|503:263|498:211,1,86.500000298023,0|0,1:0|1:0,0:0:0:0:
418,70,9432,1,8,0:0:0:0:
330,134,9560,6,0,P|240:128|150:130,1,173.000000596046,0|0,1:0|1:0,0:0:0:0:
145,215,9945,2,0,P|158:153|157:114,1,86.500000298023,8|0,0:0|0:0,0:0:0:0:
42,188,10201,2,0,P|44:231|55:272,1,86.500000298023,0|0,1:0|1:0,0:0:0:0:
233,269,10457,2,0,P|243:227|246:184,1,86.500000298023,8|0,0:0|0:0,0:0:0:0:
191,49,10714,6,0,L|5:40,2,173.000000596046,0|8|0,1:0|0:0|1:0,0:0:0:0:
292,71,11355,1,0,1:0:0:0:
358,167,11483,1,8,0:0:0:0:
358,167,11611,6,0,P|402:237|364:313,1,173.000000596046,0|0,0:0|0:0,0:0:0:0:
154,232,11996,2,0,B|253:202|238:263|334:237,2,173.000000596046,8|0|8,0:0|1:0|0:0,0:0:0:0:
201,325,12637,1,0,0:0:0:0:
74,287,12765,6,0,P|65:234|64:182,1,86.500000298023,0|0,1:0|0:0,0:0:0:0:
226,113,13022,2,0,P|223:156|215:198,1,86.500000298023,8|0,0:0|0:0,0:0:0:0:
136,71,13278,2,0,L|19:79,2,86.500000298023,0|0|8,1:0|1:0|0:0,0:0:0:0:
302,91,13663,2,0,P|293:48|290:5,1,86.500000298023,0|0,1:0|0:0,0:0:0:0:
386,72,13919,1,0,1:0:0:0:
295,217,14047,1,8,0:0:0:0:
433,132,14175,2,0,P|473:182|432:286,1,173.000000596046,0|0,0:0|1:0,0:0:0:0:
387,209,14560,2,0,P|351:163|345:115,1,86.500000298023,8|0,0:0|0:0,0:0:0:0:
371,35,14816,6,0,L|188:42,2,173.000000596046,0|8|0,1:0|0:0|1:0,0:0:0:0:
414,239,15586,1,8,0:0:0:0:
315,205,15714,2,0,P|248:182|143:165,1,173.000000596046,0|0,1:0|1:0,0:0:0:0:
60,223,16099,2,0,P|19:251|-36:277,1,86.500000298023,8|0,0:0|0:0,0:0:0:0:
161,173,16355,2,0,P|151:132|163:91,1,86.500000298023,4|0,1:2|0:0,0:0:0:0:
290,204,16611,1,8,0:0:0:0:
276,86,16740,1,8,0:0:0:0:
408,123,16868,6,0,P|420:165|401:218,1,86.500000298023,4|0,1:2|0:0,0:0:0:0:
309,298,17124,1,12,0:0:0:0:
212,351,17252,2,0,P|319:341|406:350,1,173.000000596046,0|0,0:0|1:0,0:0:0:0:
500,216,17637,1,8,0:0:0:0:
402,133,17765,6,0,P|295:123|208:132,1,173.000000596046,0|0,1:0|1:0,0:0:0:0:
126,144,18150,2,0,P|117:90|117:43,1,86.500000298023,8|0,0:0|0:0,0:0:0:0:
35,135,18406,2,0,P|33:178|25:220,1,86.500000298023,0|0,1:0|1:0,0:0:0:0:
132,310,18663,2,0,P|123:256|123:209,1,86.500000298023,8|0,0:0|0:0,0:0:0:0:
390,275,18919,6,0,P|255:262|194:260,2,173.000000596046,0|8|0,1:0|0:0|1:0,0:0:0:0:
512,223,19560,1,0,1:0:0:0:
512,223,19688,1,8,0:0:0:0:
387,168,19816,6,0,P|386:51|392:-12,1,173.000000596046,0|0,0:0|0:0,0:0:0:0:
300,46,20201,2,0,P|260:41|212:28,1,86.500000298023,8|0,0:0|0:0,0:0:0:0:
145,138,20457,2,0,P|186:126|229:121,1,86.500000298023,0|0,1:0|1:0,0:0:0:0:
169,225,20714,6,0,P|111:221|61:107,2,173.000000596046,8|0|8,0:0|1:0|0:0,0:0:0:0:
145,138,21355,1,0,0:0:0:0:
251,241,21483,2,0,L|241:326,2,86.500000298023,0|0|8,1:0|1:0|0:0,0:0:0:0:
234,128,21868,6,0,L|437:119,1,173.000000596046,0|0,1:0|1:0,0:0:0:0:
512,203,22252,2,0,P|517:254|505:302,1,86.500000298023,8|0,0:0|0:0,0:0:0:0:
340,349,22509,2,0,P|332:306|338:263,1,86.500000298023,0|0,1:0|1:0,0:0:0:0:
406,120,22765,1,8,0:0:0:0:
395,213,22893,1,0,0:0:0:0:
246,134,23022,6,0,L|257:328,1,173.000000596046,0|12,1:0|0:0,0:0:0:0:
165,258,23406,1,0,0:0:0:0:
167,146,23534,2,0,P|115:134|72:136,1,86.500000298023,0|0,1:0|0:0,0:0:0:0:
259,112,23791,2,0,L|441:100,1,173.000000596046,12|12,0:0|0:0,0:0:0:0:
512,171,24175,1,0,1:0:0:0:
456,261,24304,2,0,L|360:236,1,86.500000298023,8|0,0:0|1:0,0:0:0:0:
250,357,24560,2,0,L|346:332,1,86.500000298023,8|0,0:0|0:0,0:0:0:0:
229,235,24816,2,0,L|133:210,1,86.500000298023,8|0,0:0|0:0,0:0:0:0:
55,314,25073,6,0,P|64:253|56:143,1,155.699995784855,4|0,0:0|0:0,0:0:0:0:
21,82,25586,1,0,0:0:0:0:
11,92,26099,5,8,0:0:0:0:
108,44,26227,1,8,0:0:0:0:
198,104,26355,2,0,P|253:104|374:96,1,155.699995784855,0|8,1:0|0:0,0:0:0:0:
413,234,26740,2,0,P|362:217|339:195,1,77.8499978924273,0|0,1:0|0:0,0:0:0:0:
411,154,26996,1,8,0:0:0:0:
291,281,27124,6,0,L|292:358,1,77.8499978924273,4|0,1:2|0:0,0:0:0:0:
183,216,27381,2,0,L|185:139,1,77.8499978924273,8|0,0:0|0:0,0:0:0:0:
44,99,27637,2,0,L|42:22,1,77.8499978924273,0|0,1:0|1:0,0:0:0:0:
96,168,27893,1,8,0:0:0:0:
183,216,28022,2,0,L|181:293,1,77.8499978924273,0|0,0:0|0:0,0:0:0:0:
129,377,28278,5,0,0:0:0:0:
268,341,28406,2,0,P|272:295|291:169,1,155.699995784855,8|0,0:0|1:0,0:0:0:0:
348,261,28791,1,0,1:0:0:0:
197,287,28919,2,0,P|149:291|99:300,1,77.8499978924273,8|0,0:0|0:0,0:0:0:0:
18,365,29175,5,0,0:0:0:0:
18,365,29304,1,0,0:0:0:0:
45,263,29432,2,0,L|43:163,1,77.8499978924273,8|0,0:0|0:0,0:0:0:0:
16,75,29688,2,0,P|28:31|135:39,1,155.699995784855,0|8,1:0|0:0,0:0:0:0:
266,152,30073,6,0,L|99:142,1,155.699995784855,0|0,1:0|1:0,0:0:0:0:
353,105,30457,2,0,P|370:153|359:185,1,77.8499978924273,8|0,0:0|0:0,0:0:0:0:
279,253,30714,1,0,1:0:0:0:
211,75,30970,1,8,0:0:0:0:
89,277,31227,6,0,P|40:273|-4:270,2,77.8499978924273,0|0|8,1:0|0:0|0:0,0:0:0:0:
39,351,31611,1,0,0:0:0:0:
136,193,31740,2,0,L|134:26,1,155.699995784855,0|8,1:0|0:0,0:0:0:0:
186,257,32124,6,0,P|252:245|257:161,1,155.699995784855,0|0,1:0|1:0,0:0:0:0:
271,69,32509,2,0,P|325:59|360:73,1,77.8499978924273,8|0,0:0|0:0,0:0:0:0:
460,215,32765,2,0,P|422:221|385:211,1,77.8499978924273,8|0,0:0|0:0,0:0:0:0:
500,149,33022,1,8,0:0:0:0:
505,299,33150,1,8,0:0:0:0:
386,212,33278,6,0,P|389:281|388:312,1,77.8499978924273,0|0,1:0|0:0,0:0:0:0:
298,164,33534,1,8,0:0:0:0:
298,164,33663,1,8,0:0:0:0:
298,284,33791,2,0,P|277:334|258:364,1,77.8499978924273,8|8,0:0|0:0,0:0:0:0:
202,200,34047,1,8,0:0:0:0:
202,200,34175,1,8,0:0:0:0:
162,309,34304,2,0,P|128:351|102:375,1,77.8499978924273,8|8,0:0|0:0,0:0:0:0:
10,308,34560,5,0,1:0:0:0:
55,144,34816,1,8,0:0:0:0:
55,144,34945,2,0,P|18:104|94:44,1,155.699995784855,0|8,1:0|0:0,0:0:0:0:
219,2,35329,6,0,P|217:79|220:157,1,155.699995784855,4|8,1:2|0:0,0:0:0:0:
423,91,35842,2,0,P|424:125|420:171,1,77.8499978924273,0|0,1:0|1:0,0:0:0:0:
475,311,36099,1,8,0:0:0:0:
475,311,36227,2,0,P|396:298|301:310,1,155.699995784855,0|0,1:0|1:0,0:0:0:0:
142,343,36611,6,0,P|99:346|44:342,1,77.8499978924273,8|0,0:0|0:0,0:0:0:0:
243,301,36868,2,0,P|291:305|346:301,1,77.8499978924273,0|0,1:0|1:0,0:0:0:0:
172,183,37124,2,0,P|173:233|175:283,1,77.8499978924273,8|0,0:0|0:0,0:0:0:0:
234,111,37381,5,0,1:0:0:0:
234,111,37509,1,0,0:0:0:0:
102,87,37637,2,0,P|63:83|25:74,1,77.8499978924273,8|0,0:0|0:0,0:0:0:0:
233,111,37893,2,0,P|272:103|311:101,2,77.8499978924273,0|0|8,1:0|0:0|0:0,0:0:0:0:
395,200,38278,6,0,P|389:151|396:29,1,155.699995784855,0|0,1:0|1:0,0:0:0:0:
493,143,38663,1,8,0:0:0:0:
431,318,38919,2,0,P|470:315|512:304,1,77.8499978924273,0|0,1:0|1:0,0:0:0:0:
322,355,39175,2,0,P|283:352|241:341,1,77.8499978924273,8|0,0:0|0:0,0:0:0:0:
168,201,39432,6,0,L|180:306,1,77.8499978924273,0|0,1:0|0:0,0:0:0:0:
245,130,39688,2,0,L|253:52,1,77.8499978924273,8|0,0:0|0:0,0:0:0:0:
158,210,39945,2,0,L|172:318,1,77.8499978924273,0|0,1:0|1:0,0:0:0:0:
254,120,40201,2,0,L|264:29,1,77.8499978924273,8|0,0:0|0:0,0:0:0:0:
273,321,40457,6,0,L|101:311,1,155.699995784855,0|0,1:0|1:0,0:0:0:0:
39,234,40842,1,0,1:0:0:0:
109,151,40970,2,0,P|120:96|116:47,1,77.8499978924273,8|0,0:0|0:0,0:0:0:0:
225,102,41227,2,0,P|226:140|235:178,1,77.8499978924273,0|0,1:0|1:0,0:0:0:0:
342,132,41483,6,0,P|441:131|498:133,1,129.750005396604,4|0,1:2|0:0,0:0:0:0:
287,288,41996,2,0,P|188:289|131:287,1,129.750005396604,0|0,1:0|0:0,0:0:0:0:
32,203,42381,1,0,0:0:0:0:
32,203,42509,2,0,P|40:255|46:340,1,129.750005396604,0|0,1:0|0:0,0:0:0:0:
232,170,43022,2,0,P|236:105|245:41,1,129.750005396604,0|0,1:0|0:0,0:0:0:0:
416,158,43534,6,0,P|424:210|430:295,1,129.750005396604,0|0,1:0|0:0,0:0:0:0:
221,279,44047,2,0,P|283:271|359:273,1,129.750005396604,0|0,1:0|0:0,0:0:0:0:
469,86,44560,2,0,P|408:80|376:80,1,64.8750026983022,0|0,1:0|0:0,0:0:0:0:
248,144,44816,1,8,0:0:0:0:
303,55,44945,1,0,0:0:0:0:
358,188,45073,6,0,P|375:274|379:322,1,129.750005396604,0|0,1:0|0:0,0:0:0:0:
246,158,45586,2,0,P|229:244|225:292,1,129.750005396604,4|0,1:2|0:0,0:0:0:0:
121,105,46099,2,0,P|138:191|142:239,1,129.750005396604,0|0,1:0|0:0,0:0:0:0:
23,62,46611,6,0,P|118:90|28:160,1,259.500010793209,0|0,1:0|1:0,0:0:0:0:
152,70,47252,1,0,0:0:0:0:
152,70,47381,1,8,0:0:0:0:
181,190,47509,1,0,0:0:0:0:
277,94,47637,6,0,P|300:47|315:8,1,64.8750026983022,8|0,0:0|0:0,0:0:0:0:
334,217,47893,1,0,0:0:0:0:
410,103,48022,2,0,P|387:56|372:17,1,64.8750026983022,8|0,0:0|0:0,0:0:0:0:
501,168,48278,1,0,0:0:0:0:
435,251,48406,1,2,0:0:0:0:
435,251,48919,6,0,P|401:249|379:249,1,43.2500001490115,2|0,0:0|0:0,0:0:0:0:
308,184,49175,6,0,B|176:142|193:217|66:176,1,242.200000834464,2|0,0:0|0:0,0:0:0:0:
135,109,49688,6,0,P|133:45|129:5,1,99.4750022400616,4|0,1:2|0:0,0:0:0:0:
241,246,49945,2,0,P|245:295|246:345,1,99.4750022400616,12|0,0:0|0:0,0:0:0:0:
111,293,50201,1,0,1:0:0:0:
111,293,50329,1,0,1:0:0:0:
245,345,50457,2,0,P|324:333|364:332,1,99.4750022400616,8|0,0:0|0:0,0:0:0:0:
512,237,50714,5,0,1:0:0:0:
444,308,50842,1,0,0:0:0:0:
432,211,50970,2,0,P|436:161|435:111,1,99.4750022400616,8|0,0:0|0:0,0:0:0:0:
322,0,51227,2,0,P|321:49|325:99,1,99.4750022400616,0|0,1:0|1:0,0:0:0:0:
415,204,51483,2,0,P|419:154|418:104,1,99.4750022400616,8|0,0:0|0:0,0:0:0:0:
246,229,51740,6,0,P|186:242|136:220,1,99.4750022400616,0|0,1:0|0:0,0:0:0:0:
148,108,51996,2,0,P|208:95|258:117,1,99.4750022400616,8|0,0:0|0:0,0:0:0:0:
150,230,52252,6,0,P|103:218|56:232,1,99.4750022400616,0|0,1:0|0:0,0:0:0:0:
59,354,52508,2,0,P|106:366|154:353,1,99.4750022400616,8|0,0:0|0:0,0:0:0:0:
275,277,52765,5,0,1:0:0:0:
275,277,52893,1,0,0:0:0:0:
212,169,53022,2,0,P|221:119|235:59,1,99.4750022400616,8|0,0:0|0:0,0:0:0:0:
349,224,53278,2,0,P|359:272|368:321,1,99.4750022400616,0|0,1:0|0:0,0:0:0:0:
297,149,53534,2,0,P|352:142|424:140,1,99.4750022400616,8|0,0:0|0:0,0:0:0:0:
181,276,53791,6,0,P|128:285|83:166,1,198.950004480123,0|8,1:0|0:0,0:0:0:0:
165,124,54175,1,0,0:0:0:0:
264,240,54304,2,0,P|259:311|251:347,2,99.4750022400616,0|0|8,1:0|0:0|0:0,0:0:0:0:
249,141,54688,1,0,1:0:0:0:
339,293,54816,6,0,P|441:292|546:286,1,198.950004480123,0|8,0:0|0:0,0:0:0:0:
479,367,55201,1,0,0:0:0:0:
402,201,55329,2,0,P|395:152|397:103,2,99.4750022400616,0|0|8,1:0|0:0|0:0,0:0:0:0:
486,146,55714,1,0,1:0:0:0:
287,152,55842,6,0,L|184:141,1,99.4750022400616,0|0,0:0|0:0,0:0:0:0:
119,291,56099,2,0,L|217:280,1,99.4750022400616,8|0,0:0|0:0,0:0:0:0:
27,355,56355,2,0,P|36:257|36:138,1,198.950004480123,0|8,1:0|0:0,0:0:0:0:
138,60,56740,6,0,L|106:14,1,49.7375011200308,0|0,1:0|0:0,0:0:0:0:
242,94,56996,2,0,L|297:99,1,49.7375011200308,0|0,1:0|0:0,0:0:0:0:
155,175,57252,2,0,L|135:226,1,49.7375011200308,0|0,1:0|0:0,0:0:0:0:
336,254,57509,5,8,0:0:0:0:
425,296,57637,1,8,0:0:0:0:
345,355,57765,1,8,0:0:0:0:
397,163,57893,6,0,P|397:119|357:67,1,99.4750022400616,4|0,1:2|0:0,0:0:0:0:
374,265,58150,2,0,P|345:305|344:354,1,99.4750022400616,8|0,0:0|0:0,0:0:0:0:
485,140,58406,1,0,1:0:0:0:
485,140,58534,1,0,1:0:0:0:
320,140,58663,2,0,P|267:143|208:145,1,99.4750022400616,8|0,0:0|0:0,0:0:0:0:
315,241,58919,6,0,P|282:285|257:331,2,99.4750022400616,0|0|8,1:0|0:0|0:0,0:0:0:0:
353,318,59304,1,0,0:0:0:0:
204,252,59432,2,0,P|155:254|101:262,1,99.4750022400616,0|0,1:0|1:0,0:0:0:0:
7,134,59688,2,0,P|56:136|110:144,1,99.4750022400616,8|0,0:0|0:0,0:0:0:0:
254,64,59945,6,0,L|267:173,1,99.4750022400616,0|0,0:0|0:0,0:0:0:0:
354,278,60201,2,0,L|365:179,1,99.4750022400616,8|0,0:0|0:0,0:0:0:0:
243,41,60457,2,0,L|259:173,1,99.4750022400616,0|0,1:0|1:0,0:0:0:0:
364,300,60713,2,0,L|378:180,1,99.4750022400616,8|0,0:0|0:0,0:0:0:0:
409,91,60970,5,0,1:0:0:0:
458,273,61227,1,8,0:0:0:0:
311,105,61483,2,0,P|258:125|228:178,2,99.4750022400616,0|0|8,1:0|0:0|0:0,0:0:0:0:
308,182,61868,1,0,0:0:0:0:
329,27,61996,6,0,P|267:34|157:134,1,198.950004480123,0|8,1:0|0:0,0:0:0:0:
162,251,62381,1,0,0:0:0:0:
164,118,62509,2,0,P|112:119|34:121,1,99.4750022400616,0|0,1:0|0:0,0:0:0:0:
162,251,62765,2,0,P|214:252|292:254,1,99.4750022400616,8|0,0:0|0:0,0:0:0:0:
447,329,63022,6,0,P|431:267|440:130,1,198.950004480123,0|8,1:0|0:0,0:0:0:0:
350,346,63534,2,0,P|283:339|216:342,2,99.4750022400616,0|0|8,1:0|0:0|0:0,0:0:0:0:
330,255,63919,1,0,0:0:0:0:
197,180,64047,6,0,P|207:126|212:78,1,99.4750022400616,0|0,1:0|0:0,0:0:0:0:
114,233,64304,2,0,P|119:282|128:331,1,99.4750022400616,8|0,0:0|0:0,0:0:0:0:
195,265,64560,1,8,0:0:0:0:
96,132,64688,1,0,0:0:0:0:
202,274,64816,2,0,P|254:272|308:262,1,99.4750022400616,8|0,0:0|0:0,0:0:0:0:
379,207,65073,6,0,L|355:152,1,49.7375011200308,8|0,0:0|0:0,0:0:0:0:
463,354,65329,2,0,L|482:308,1,49.7375011200308,8|0,0:0|0:0,0:0:0:0:
400,205,65586,6,0,L|375:151,2,43.2500001490115,8|0|0,0:0|0:0|0:0,0:0:0:0:
376,86,65842,6,0,P|325:74|241:84,1,110.287502483546,0|0,0:0|0:0,0:0:0:0:
240,172,66099,6,0,P|235:72|227:-13,2,173.000000596046,4|8|0,1:2|0:0|1:0,0:0:0:0:
194,300,66740,1,0,1:0:0:0:
146,196,66868,1,8,0:0:0:0:
288,284,66996,6,0,P|329:283|380:281,1,86.500000298023,0|0,0:0|0:0,0:0:0:0:
139,187,67252,2,0,P|95:186|52:184,1,86.500000298023,0|8,0:0|0:0,0:0:0:0:
289,282,67509,2,0,P|294:189|295:100,1,173.000000596046,0|0,0:0|1:0,0:0:0:0:
139,187,67893,2,0,L|149:280,1,86.500000298023,8|0,0:0|0:0,0:0:0:0:
105,92,68150,6,0,P|59:83|18:78,1,86.500000298023,0|0,1:0|0:0,0:0:0:0:
218,54,68406,2,0,P|182:23|149:-1,1,86.500000298023,8|0,0:0|0:0,0:0:0:0:
330,46,68663,2,0,P|424:44|527:39,1,173.000000596046,0|8,1:0|0:0,0:0:0:0:
434,210,69047,1,0,1:0:0:0:
361,181,69175,2,0,P|388:147|429:133,1,86.500000298023,0|0,0:0|0:0,0:0:0:0:
432,360,69432,6,0,P|374:325|359:315,1,86.500000298023,8|0,0:0|0:0,0:0:0:0:
198,347,69688,2,0,P|257:314|273:306,1,86.500000298023,0|0,1:0|0:0,0:0:0:0:
322,146,69945,2,0,P|320:213|319:231,1,86.500000298023,8|0,0:0|0:0,0:0:0:0:
202,109,70201,6,0,P|109:107|13:98,1,173.000000596046,0|8,1:0|0:0,0:0:0:0:
110,23,70586,1,0,0:0:0:0:
202,202,70714,1,0,1:0:0:0:
202,202,70842,1,0,1:0:0:0:
86,187,70970,2,0,P|33:182|-16:180,1,86.500000298023,8|0,0:0|1:0,0:0:0:0:
165,290,71227,6,0,P|80:306|-14:335,1,173.000000596046,0|8,0:0|0:0,0:0:0:0:
178,368,71611,1,0,0:0:0:0:
266,238,71740,2,0,P|315:246|361:258,2,86.500000298023,0|0|8,1:0|1:0|0:0,0:0:0:0:
360,336,72124,1,0,0:0:0:0:
450,205,72252,6,0,L|432:162,1,43.2500001490115,8|0,0:0|0:0,0:0:0:0:
478,41,72637,2,0,L|449:78,1,43.2500001490115,8|0,0:0|0:0,0:0:0:0:
328,87,73022,2,0,L|371:105,1,43.2500001490115,8|0,0:0|0:0,0:0:0:0:
270,247,73278,5,2,0:0:0:0:
124,177,73449,1,2,0:0:0:0:
282,148,73620,1,2,0:0:0:0:
185,277,73791,2,0,L|58:268,2,115.333333730697,8|8|8,0:0|0:0|0:0,0:0:0:0:
346,290,74304,5,4,0:0:0:0:
237,228,82509,5,4,1:2:0:0:
256,256,83534,2,0,L|313:256,2,57.6666668653487,0|8|0,1:0|0:0|1:0,0:0:0:0:
357,341,83791,2,0,L|295:339,2,57.6666668653487,8|0|8,0:0|1:0|0:0,0:0:0:0:
448,332,84047,5,8,1:2:0:0:
446,284,84132,1,0,1:0:0:0:
444,237,84217,1,0,1:0:0:0:
442,190,84304,1,8,1:2:0:0:
440,143,84388,1,0,1:0:0:0:
438,95,84474,1,0,1:0:0:0:
436,48,84560,6,0,P|412:135|444:190,1,155.699995784855,4|8,1:2|0:0,0:0:0:0:
310,129,84945,1,0,0:0:0:0:
250,232,85073,2,0,P|246:270|251:311,1,77.8499978924273,0|0,1:0|1:0,0:0:0:0:
354,207,85329,1,8,0:0:0:0:
186,193,85457,6,0,P|173:280|197:378,1,155.699995784855,0|0,1:0|1:0,0:0:0:0:
250,232,85842,2,0,P|211:200|173:192,1,77.8499978924273,8|0,0:0|0:0,0:0:0:0:
95,144,86099,2,0,P|142:126|168:97,1,77.8499978924273,0|0,1:0|1:0,0:0:0:0:
88,64,86355,1,8,0:0:0:0:
18,117,86483,1,0,0:0:0:0:
29,198,86611,6,0,P|30:239|35:282,1,77.8499978924273,0|0,1:0|0:0,0:0:0:0:
123,350,86868,2,0,P|124:311|129:266,1,77.8499978924273,8|0,0:0|0:0,0:0:0:0:
220,193,87124,2,0,P|220:230|214:270,1,77.8499978924273,0|0,1:0|1:0,0:0:0:0:
133,184,87381,1,8,0:0:0:0:
305,176,87509,6,0,P|242:189|214:273,1,155.699995784855,0|0,1:0|1:0,0:0:0:0:
356,304,87893,2,0,P|311:283|288:237,1,77.8499978924273,8|0,0:0|0:0,0:0:0:0:
389,84,88150,2,0,P|393:133|364:176,1,77.8499978924273,0|0,1:0|1:0,0:0:0:0:
175,173,88406,2,0,P|215:144|267:147,1,77.8499978924273,8|0,0:0|0:0,0:0:0:0:
445,203,88663,6,0,P|404:231|352:228,1,77.8499978924273,0|0,1:0|0:0,0:0:0:0:
250,67,88919,2,0,P|295:87|318:134,1,77.8499978924273,8|0,0:0|0:0,0:0:0:0:
228,292,89175,2,0,P|223:242|252:199,1,77.8499978924273,0|0,1:0|0:0,0:0:0:0:
383,76,89432,2,0,P|387:125|358:168,1,77.8499978924273,8|0,0:0|0:0,0:0:0:0:
175,173,89688,6,0,P|215:144|267:147,1,77.8499978924273,0|0,0:0|1:0,0:0:0:0:
356,304,89945,2,0,P|311:283|288:237,1,77.8499978924273,8|0,0:0|0:0,0:0:0:0:
375,150,90201,1,8,0:0:0:0:
443,201,90329,1,8,0:0:0:0:
453,285,90457,1,0,0:3:0:0:
415,362,90586,1,0,0:0:0:0:
356,304,90714,6,0,P|292:303|213:320,1,129.750005396604,4|0,1:2|0:0,0:0:0:0:
101,294,91227,2,0,P|166:314|247:312,1,129.750005396604,0|0,1:0|0:0,0:0:0:0:
357,179,91611,5,0,0:0:0:0:
357,179,91740,2,0,P|293:178|214:195,1,129.750005396604,0|0,1:0|0:0,0:0:0:0:
102,169,92253,2,0,P|167:189|248:187,1,129.750005396604,0|0,1:2|0:0,0:0:0:0:
378,85,92765,6,0,P|349:138|353:222,1,129.750005396604,0|0,1:0|0:0,0:0:0:0:
467,171,93278,2,0,P|435:119|360:80,1,129.750005396604,0|0,1:0|0:0,0:0:0:0:
347,206,93791,6,0,P|407:204|478:159,1,129.750005396604,0|8,1:0|0:0,0:0:0:0:
377,85,94175,1,8,0:0:0:0:
294,140,94304,2,0,P|266:197|289:276,1,129.750005396604,0|8,1:0|0:0,0:0:0:0:
277,259,94816,6,0,P|186:256|132:270,1,129.750005396604,4|0,1:2|0:0,0:0:0:0:
17,146,95329,2,0,P|123:148|168:138,1,129.750005396604,0|8,1:0|0:0,0:0:0:0:
329,217,95842,6,0,P|279:258|253:316,1,129.750005396604,0|0,1:0|0:0,0:0:0:0:
341,365,96227,1,0,0:0:0:0:
444,357,96355,2,0,P|438:292|406:236,1,129.750005396604,8|0,1:2|0:0,0:0:0:0:
492,220,96868,6,0,L|487:134,1,86.500000298023,8|0,0:0|0:0,0:0:0:0:
487,120,97124,2,0,L|491:34,1,86.500000298023,8|0,0:0|0:0,0:0:0:0:
332,57,97381,6,0,L|336:143,1,86.500000298023,8|0,0:0|0:0,0:0:0:0:
336,161,97637,2,0,L|331:247,1,86.500000298023,8|0,0:0|0:0,0:0:0:0:
186,104,97893,6,0,P|146:88|103:95,1,86.500000298023,0|8,1:0|0:0,0:0:0:0:
83,249,98150,2,0,P|122:264|165:257,1,86.500000298023,8|8,1:2|0:0,0:0:0:0:
240,188,98406,5,8,0:0:0:0:
240,188,98534,1,8,0:0:0:0:
330,247,98663,1,8,0:0:0:0:
330,247,98791,1,8,0:0:0:0:
324,147,98919,6,0,P|322:83|318:43,1,99.4750022400616,4|0,1:2|0:0,0:0:0:0:
246,276,99175,2,0,P|244:328|246:383,1,99.4750022400616,8|0,0:0|0:0,0:0:0:0:
242,169,99432,1,0,1:0:0:0:
242,169,99560,1,0,1:0:0:0:
165,259,99688,2,0,P|115:262|60:238,1,99.4750022400616,8|0,0:0|0:0,0:0:0:0:
60,133,99945,5,0,1:0:0:0:
128,62,100073,1,0,0:0:0:0:
158,145,100201,2,0,P|206:136|256:131,1,99.4750022400616,8|0,0:0|0:0,0:0:0:0:
424,90,100457,2,0,P|376:81|326:76,1,99.4750022400616,0|0,1:0|1:0,0:0:0:0:
164,165,100714,2,0,P|212:156|262:151,1,99.4750022400616,8|0,0:0|0:0,0:0:0:0:
432,248,100970,6,0,L|320:249,1,99.4750022400616,0|0,1:0|0:0,0:0:0:0:
331,226,101227,2,0,L|444:238,1,99.4750022400616,8|0,0:0|0:0,0:0:0:0:
262,311,101483,6,0,L|150:310,1,99.4750022400616,0|0,1:0|1:0,0:0:0:0:
160,333,101739,2,0,L|273:321,1,99.4750022400616,8|0,0:0|0:0,0:0:0:0:
18,339,101996,5,0,1:0:0:0:
18,339,102124,1,0,0:0:0:0:
128,221,102253,2,0,P|141:172|103:105,1,99.4750022400616,8|0,0:0|0:0,0:0:0:0:
11,45,102509,2,0,P|-7:95|12:161,1,99.4750022400616,0|0,1:0|0:0,0:0:0:0:
224,118,102765,2,0,L|101:129,1,99.4750022400616,8|0,0:0|0:0,0:0:0:0:
103,325,103022,6,0,P|115:236|222:210,1,198.950004480123,0|8,1:0|0:0,0:0:0:0:
180,282,103406,1,0,0:0:0:0:
285,238,103535,2,0,P|286:187|249:131,2,99.4750022400616,0|0|8,1:0|1:0|0:0,0:0:0:0:
249,324,103919,1,0,0:0:0:0:
399,149,104047,2,0,B|363:209|363:209|372:347,1,198.950004480123,0|8,1:0|0:0,0:0:0:0:
455,231,104432,1,0,0:0:0:0:
466,76,104560,2,0,L|363:53,2,99.4750022400616,0|0|8,1:0|1:0|0:0,0:0:0:0:
399,149,104945,1,0,1:0:0:0:
294,83,105073,6,0,P|242:86|171:65,1,99.4750022400616,0|0,0:0|1:0,0:0:0:0:
117,202,105330,2,0,P|162:181|211:178,1,99.4750022400616,8|0,0:0|0:0,0:0:0:0:
220,335,105586,2,0,P|148:298|220:262,1,198.950004480123,0|8,1:0|0:0,0:0:0:0:
400,213,105970,6,0,L|432:167,1,49.7375011200308,0|0,1:0|0:0,0:0:0:0:
296,247,106226,2,0,L|241:252,1,49.7375011200308,0|0,1:0|0:0,0:0:0:0:
383,328,106482,2,0,L|403:379,1,49.7375011200308,0|0,1:0|0:0,0:0:0:0:
296,163,106740,5,8,0:0:0:0:
262,61,106868,1,8,0:0:0:0:
366,79,106996,1,8,0:0:0:0:
200,141,107124,6,0,L|84:129,1,99.4750022400616,4|0,1:2|0:0,0:0:0:0:
92,310,107381,2,0,P|77:263|91:216,1,99.4750022400616,8|0,0:0|0:0,0:0:0:0:
214,295,107637,1,0,1:0:0:0:
214,295,107765,1,0,1:0:0:0:
294,206,107894,2,0,L|297:96,1,99.4750022400616,8|0,0:0|0:0,0:0:0:0:
424,65,108150,6,0,P|444:109|437:157,1,99.4750022400616,0|0,1:0|0:0,0:0:0:0:
364,270,108406,2,0,P|410:262|465:264,1,99.4750022400616,8|0,0:0|0:0,0:0:0:0:
175,312,108663,2,0,P|216:317|274:315,1,99.4750022400616,0|0,1:0|1:0,0:0:0:0:
7,239,108919,2,0,P|57:234|107:236,1,99.4750022400616,8|0,0:0|0:0,0:0:0:0:
209,121,109175,6,0,L|229:240,1,99.4750022400616,0|0,1:0|0:0,0:0:0:0:
336,222,109432,2,0,L|352:123,1,99.4750022400616,8|0,0:0|0:0,0:0:0:0:
192,107,109688,2,0,L|216:245,1,99.4750022400616,0|0,1:0|0:0,0:0:0:0:
352,235,109945,2,0,L|373:111,1,99.4750022400616,8|0,0:0|0:0,0:0:0:0:
143,328,110201,6,0,P|82:316|46:333,1,99.4750022400616,0|0,1:0|0:0,0:0:0:0:
241,369,110457,1,8,0:0:0:0:
219,289,110586,1,0,0:0:0:0:
306,307,110714,2,0,P|351:310|407:308,1,99.4750022400616,0|0,1:0|1:0,0:0:0:0:
257,214,110970,2,0,P|206:212|156:215,1,99.4750022400616,8|0,0:0|0:0,0:0:0:0:
255,15,111227,6,0,L|257:219,1,198.950004480123,0|8,1:0|0:0,0:0:0:0:
98,174,111611,1,0,0:0:0:0:
340,140,111740,2,0,P|350:94|335:39,1,99.4750022400616,0|0,1:0|0:0,0:0:0:0:
174,44,111996,2,0,P|161:91|172:140,1,99.4750022400616,8|0,0:0|0:0,0:0:0:0:
225,300,112252,6,0,P|128:288|4:279,1,198.950004480123,0|8,1:0|0:0,0:0:0:0:
323,350,112765,2,0,P|318:301|319:251,1,99.4750022400616,0|0,1:0|0:0,0:0:0:0:
238,187,113022,1,8,0:0:0:0:
400,230,113150,1,0,0:0:0:0:
445,163,113278,6,0,P|345:169|324:266,1,198.950004480123,0|8,1:0|0:0,0:0:0:0:
442,320,113663,1,0,0:0:0:0:
512,211,113791,2,0,P|525:157|499:102,1,99.4750022400616,8|0,0:0|0:0,0:0:0:0:
421,50,114047,1,8,0:0:0:0:
338,116,114176,1,0,0:0:0:0:
249,49,114304,6,0,L|149:51,1,99.4750022400616,0|0,1:0|0:0,0:0:0:0:
225,134,114560,2,0,L|125:138,1,99.4750022400616,0|0,1:0|0:0,0:0:0:0:
206,219,114816,6,0,B|56:225,1,129.750005396604,0|0,1:0|0:0,0:0:0:0:
351,200,115329,6,0,P|416:137|396:55,1,173.000000596046,0|0,0:0|0:0,0:0:0:0:
266,174,116355,2,0,P|288:261|375:279,1,173.000000596046,0|0,0:0|0:0,0:0:0:0:
351,200,117124,1,0,0:0:0:0:
340,117,117381,6,0,L|207:119,1,129.750005396604,0|8,0:0|0:0,0:0:0:0:
42,225,117893,2,0,L|176:218,1,129.750005396604,8|8,0:0|0:0,0:0:0:0:
171,218,118406,5,8,0:0:0:0:
229,295,118534,1,8,0:0:0:0:
324,317,118663,1,8,0:0:0:0:
406,265,118791,1,8,0:0:0:0:
330,204,118919,6,0,L|331:236,2,32.4375013491511,2|0|0,1:2|0:0|0:0,0:0:0:0:
437,152,119175,6,0,P|409:137|427:172,1,97.3125040474533,0|0,0:0|0:0,0:0:0:0:
437,152,119432,6,0,B|248:158,1,173.000000596046,4|8,1:2|0:0,0:0:0:0:
182,153,119816,1,0,0:0:0:0:
230,74,119945,2,0,L|319:66,1,86.500000298023,0|0,1:0|1:0,0:0:0:0:
224,230,120201,1,8,0:0:0:0:
128,226,120329,6,0,P|94:149|135:76,1,173.000000596046,0|0,0:0|1:0,0:0:0:0:
223,229,120714,2,0,P|215:271|177:305,1,86.500000298023,8|0,0:0|0:0,0:0:0:0:
182,153,120970,2,0,P|225:144|272:164,1,86.500000298023,0|0,1:0|1:0,0:0:0:0:
128,226,121227,2,0,L|41:225,1,86.500000298023,8|0,0:0|0:0,0:0:0:0:
14,319,121483,6,0,L|192:300,1,173.000000596046,0|8,1:0|0:0,0:0:0:0:
335,277,121868,1,0,0:0:0:0:
257,240,121996,2,0,P|250:197|263:157,1,86.500000298023,0|0,1:0|1:0,0:0:0:0:
339,104,122252,1,8,0:0:0:0:
506,205,122381,6,0,B|333:201,1,173.000000596046,0|0,1:0|1:0,0:0:0:0:
339,104,122765,1,8,0:0:0:0:
470,99,122893,1,0,0:0:0:0:
412,231,123022,2,0,L|414:317,1,86.500000298023,0|0,1:0|1:0,0:0:0:0:
268,324,123278,2,0,L|255:215,1,86.500000298023,8|0,0:0|0:0,0:0:0:0:
254,120,123534,6,0,L|362:99,1,86.500000298023,0|0,1:0|0:0,0:0:0:0:
92,197,123791,2,0,L|6:186,1,86.500000298023,8|0,0:0|0:0,0:0:0:0:
175,232,124047,1,0,1:0:0:0:
93,105,124175,1,0,1:0:0:0:
254,120,124304,1,8,0:0:0:0:
173,61,124432,6,0,B|181:110|181:110|167:179|167:179|175:235,1,173.000000596046,0|0,1:0|1:0,0:0:0:0:
243,351,124816,2,0,P|271:311|328:283,1,86.500000298023,8|0,0:0|0:0,0:0:0:0:
398,280,125073,1,0,1:0:0:0:
266,216,125201,1,0,1:0:0:0:
408,289,125329,1,8,0:0:0:0:
256,206,125457,6,0,L|253:96,1,86.500000298023,0|0,0:0|1:0,0:0:0:0:
251,33,125842,6,0,L|253:126,1,86.500000298023,8|0,0:0|0:0,0:0:0:0:
160,183,126099,1,0,1:0:0:0:
113,109,126227,1,0,1:0:0:0:
120,261,126355,1,8,0:0:0:0:
114,92,126483,6,0,L|112:44,1,43.2500001490115,0|0,1:0|0:0,0:0:0:0:
118,277,126740,2,0,L|113:326,1,43.2500001490115,0|0,1:0|0:0,0:0:0:0:
177,182,126996,6,0,L|263:180,1,86.500000298023,0|0,1:0|0:0,0:0:0:0:
427,163,127252,1,8,0:0:0:0:
337,181,127381,1,8,0:0:0:0:
401,259,127509,1,8,0:0:0:0:
495,211,127637,6,0,P|509:164|484:105,1,86.500000298023,4|0,1:2|0:0,0:0:0:0:
401,259,127893,2,0,L|297:264,1,86.500000298023,12|0,0:0|0:0,0:0:0:0:
301,96,128150,2,0,L|398:93,1,86.500000298023,0|0,1:0|1:0,0:0:0:0:
337,181,128406,1,8,0:0:0:0:
223,185,128534,6,0,L|208:12,1,173.000000596046,0|0,0:0|0:0,0:0:0:0:
136,121,128919,2,0,L|149:236,1,86.500000298023,8|0,0:0|0:0,0:0:0:0:
233,357,129175,2,0,L|225:246,1,86.500000298023,0|0,1:0|1:0,0:0:0:0:
47,307,129432,2,0,L|148:291,1,86.500000298023,8|0,0:0|0:0,0:0:0:0:
397,241,129688,6,0,L|214:272,1,173.000000596046,0|8,1:0|0:0,0:0:0:0:
279,173,130073,1,0,0:0:0:0:
320,278,130201,2,0,L|320:364,1,86.500000298023,0|0,1:0|0:0,0:0:0:0:
397,241,130457,1,8,0:0:0:0:
450,313,130586,6,0,B|479:252|479:252|460:141,1,173.000000596046,0|0,1:0|1:0,0:0:0:0:
395,58,130970,2,0,L|308:64,1,86.500000298023,8|0,0:0|0:0,0:0:0:0:
279,173,131227,2,0,L|365:167,1,86.500000298023,0|0,1:0|1:0,0:0:0:0:
396,46,131483,2,0,L|309:52,1,86.500000298023,8|0,0:0|0:0,0:0:0:0:
233,191,131740,6,0,L|415:176,1,173.000000596046,0|8,1:2|0:0,0:0:0:0:
458,283,132125,1,0,0:0:0:0:
346,346,132253,2,0,P|335:304|349:264,1,86.500000298023,0|0,1:0|1:0,0:0:0:0:
405,176,132509,1,8,0:0:0:0:
251,269,132637,6,0,L|78:285,1,173.000000596046,0|0,1:0|1:0,0:0:0:0:
104,146,133022,2,0,P|78:112|68:66,1,86.500000298023,8|0,0:0|0:0,0:0:0:0:
239,38,133278,2,0,P|252:81|240:143,1,86.500000298023,0|0,1:0|1:0,0:0:0:0:
188,216,133534,2,0,L|203:301,1,86.500000298023,8|0,0:0|0:0,0:0:0:0:
350,257,133791,6,0,P|331:182|352:76,1,173.000000596046,0|8,1:0|0:0,0:0:0:0:
434,149,134175,5,0,1:0:0:0:
435,162,134432,5,0,1:0:0:0:
433,175,134688,6,0,P|346:173|260:175,1,173.000000596046,0|8,1:0|0:0,0:0:0:0:
58,182,135073,2,0,P|56:139|66:98,1,86.500000298023,8|8,0:0|0:0,0:0:0:0:
188,204,135329,2,0,P|190:247|180:288,1,86.500000298023,8|8,0:0|0:0,0:0:0:0:
44,185,135586,2,0,P|42:142|52:101,1,86.500000298023,8|8,0:0|0:0,0:0:0:0:
252,193,150030,5,0,0:0:0:0:
176,226,150201,6,0,P|172:181|221:115,1,115.333333730697,4|0,1:2|0:0,0:0:0:0:
235,99,150714,2,0,P|183:123|156:173,1,115.333333730697,4|0,1:2|0:0,0:0:0:0:
172,113,151227,6,0,P|221:84|278:90,1,115.333333730697,4|0,1:2|0:0,0:0:0:0:
316,106,151740,2,0,P|269:73|212:73,1,115.333333730697,4|0,1:2|0:0,0:0:0:0:
229,43,152252,5,4,1:1:0:0:
256,192,152316,12,0,155329,0:0:0:0:
256,192,155842,5,0,0:0:0:0:
317,266,156355,5,0,1:0:0:0:
256,192,156419,12,8,160329,0:0:0:0:
323,222,160457,6,0,P|400:183|368:83,1,173.000000596046,4|8,1:1|0:0,0:0:0:0:
323,222,160842,2,0,L|319:333,1,86.500000298023,4|0,1:1|0:0,0:0:0:0:
395,106,161099,2,0,L|391:-5,1,86.500000298023,4|0,1:1|0:0,0:0:0:0:
311,133,161355,1,8,1:2:0:0:
227,231,161483,6,0,L|163:224,2,57.6666668653487,8|8|8,0:0|0:3|0:3,0:0:0:0:
167,303,161740,2,0,L|109:302,2,57.6666668653487,8|8|8,0:3|0:3|0:3,0:0:0:0:
101,289,161996,6,0,P|89:199|138:146,1,144.166667163372,4|0,0:0|0:0,0:0:0:0:
140,145,162509,6,0,L|18:145,2,115.333333730697,0|0|0,1:0|1:0|1:0,0:0:0:0:
260,125,163022,6,0,B|255:19|255:19|302:48,1,151.37500052154,8|0,0:0|0:0,0:0:0:0:
356,120,163534,6,0,L|469:106,1,99.4750022400616,4|0,1:2|0:0,0:0:0:0:
309,210,163791,2,0,L|422:196,1,99.4750022400616,8|0,0:0|0:0,0:0:0:0:
275,306,164047,1,0,1:0:0:0:
275,306,164175,1,0,1:0:0:0:
181,202,164304,2,0,P|122:188|77:178,1,99.4750022400616,8|0,0:0|0:0,0:0:0:0:
247,137,164560,5,0,1:0:0:0:
335,57,164688,1,0,0:0:0:0:
227,44,164816,2,0,L|116:54,1,99.4750022400616,8|0,0:0|0:0,0:0:0:0:
335,57,165073,2,0,L|446:67,1,99.4750022400616,0|0,1:0|1:0,0:0:0:0:
221,21,165329,2,0,L|110:31,1,99.4750022400616,8|0,0:0|0:0,0:0:0:0:
346,245,165586,6,0,P|348:182|336:139,1,99.4750022400616,0|0,1:0|0:0,0:0:0:0:
208,150,165842,2,0,P|203:199|214:247,1,99.4750022400616,8|0,0:0|0:0,0:0:0:0:
375,262,166099,6,0,P|379:179|363:122,1,99.4750022400616,0|0,1:0|0:0,0:0:0:0:
192,136,166355,2,0,P|186:201|200:266,1,99.4750022400616,8|0,0:0|0:0,0:0:0:0:
191,234,166611,6,0,L|80:229,1,99.4750022400616,0|0,1:0|0:0,0:0:0:0:
276,168,166868,2,0,L|375:163,1,99.4750022400616,8|0,0:0|0:0,0:0:0:0:
260,271,167124,2,0,L|255:370,1,99.4750022400616,0|0,1:0|0:0,0:0:0:0:
191,163,167381,1,8,0:0:0:0:
191,163,167509,1,0,0:0:0:0:
329,129,167637,6,0,P|320:80|175:51,1,198.950004480123,0|8,1:0|0:0,0:0:0:0:
236,117,168022,1,0,0:0:0:0:
400,64,168150,2,0,P|459:66|500:71,2,99.4750022400616,0|0|8,1:0|0:0|0:0,0:0:0:0:
434,150,168534,1,0,1:0:0:0:
261,193,168663,6,0,L|120:185,1,99.4750022400616,0|0,0:0|1:0,0:0:0:0:
51,280,168919,2,0,L|150:274,1,99.4750022400616,8|0,0:0|0:0,0:0:0:0:
373,318,169175,1,0,1:0:0:0:
354,199,169304,1,0,0:0:0:0:
386,327,169432,2,0,L|504:341,1,99.4750022400616,8|0,0:0|1:0,0:0:0:0:
151,275,169688,6,0,P|80:258|43:256,1,99.4750022400616,0|0,0:0|1:0,0:0:0:0:
256,217,169945,2,0,P|305:211|353:198,1,99.4750022400616,8|0,0:0|0:0,0:0:0:0:
166,176,170201,2,0,P|152:128|147:78,2,99.4750022400616,0|0|8,1:0|1:0|0:0,0:0:0:0:
241,298,170586,6,0,P|238:325|234:351,1,49.7375011200308,0|0,1:0|0:0,0:0:0:0:
322,192,170842,2,0,P|319:219|315:245,1,49.7375011200308,0|0,1:0|0:0,0:0:0:0:
421,80,171099,2,0,P|418:107|414:133,1,49.7375011200308,0|0,1:0|0:0,0:0:0:0:
206,155,171355,5,8,0:0:0:0:
161,28,171483,1,8,0:0:0:0:
241,73,171611,1,8,0:0:0:0:
71,150,171740,6,0,L|86:352,1,198.950004480123,4|8,1:2|0:0,0:0:0:0:
6,297,172124,1,0,0:0:0:0:
171,255,172252,2,0,L|280:263,1,99.4750022400616,0|0,1:0|1:0,0:0:0:0:
391,269,172509,1,8,0:0:0:0:
391,269,172637,1,0,0:0:0:0:
243,154,172765,6,0,P|248:98|246:47,1,99.4750022400616,0|0,1:0|0:0,0:0:0:0:
364,21,173022,2,0,P|362:70|367:120,2,99.4750022400616,8|0|0,0:0|0:0|1:0,0:0:0:0:
446,64,173406,1,0,0:0:0:0:
264,180,173534,2,0,P|269:124|267:73,1,99.4750022400616,8|0,0:0|0:0,0:0:0:0:
344,252,173791,6,0,L|443:244,1,99.4750022400616,0|0,1:0|0:0,0:0:0:0:
207,299,174047,2,0,L|107:291,1,99.4750022400616,8|0,0:0|0:0,0:0:0:0:
358,238,174304,6,0,L|480:228,1,99.4750022400616,0|0,1:0|1:0,0:0:0:0:
189,311,174560,2,0,L|66:301,1,99.4750022400616,8|0,0:0|0:0,0:0:0:0:
296,296,174816,6,0,P|276:239|294:185,1,99.4750022400616,0|0,1:0|0:0,0:0:0:0:
358,238,175073,1,8,0:0:0:0:
198,207,175201,1,0,0:0:0:0:
271,101,175329,2,0,L|287:-8,2,99.4750022400616,0|0|8,1:0|1:0|0:0,0:0:0:0:
204,190,175714,1,0,0:0:0:0:
370,164,175842,6,0,L|377:367,1,198.950004480123,0|8,1:0|0:0,0:0:0:0:
204,177,176355,2,0,L|202:292,2,99.4750022400616,0|0|8,1:0|1:0|0:0,0:0:0:0:
121,216,176740,1,0,1:0:0:0:
283,93,176868,6,0,P|344:84|402:86,1,99.4750022400616,0|0,0:0|1:0,0:0:0:0:
512,199,177124,2,0,P|462:198|413:190,1,99.4750022400616,8|0,0:0|0:0,0:0:0:0:
471,115,177381,1,0,1:0:0:0:
471,115,177509,1,0,1:0:0:0:
487,280,177637,1,8,0:0:0:0:
487,280,177765,1,0,1:0:0:0:
262,280,177893,6,0,L|259:165,1,99.4750022400616,0|0,0:0|1:0,0:0:0:0:
331,352,178150,1,8,0:0:0:0:
194,348,178278,1,0,0:0:0:0:
352,254,178406,2,0,P|402:245|470:237,2,99.4750022400616,0|12|0,1:0|0:2|1:0,0:0:0:0:
220,162,178791,6,0,L|255:207,1,43.2500001490115,12|0,0:2|0:0,0:0:0:0:
137,145,179047,2,0,L|80:152,1,43.2500001490115,8|0,0:2|0:0,0:0:0:0:
196,88,179304,2,0,L|217:35,1,43.2500001490115,14|0,0:0|0:0,0:0:0:0:
174,308,179560,5,0,0:0:0:0:
77,349,179688,1,8,0:0:0:0:
165,212,179816,1,8,0:0:0:0:
268,354,179945,6,0,L|374:350,1,86.500000298023,4|0,1:2|0:0,0:0:0:0:
444,227,180201,2,0,P|459:169|456:118,1,86.500000298023,8|0,0:0|0:0,0:0:0:0:
299,121,180457,2,0,P|286:162|283:205,1,86.500000298023,0|0,1:0|1:0,0:0:0:0:
371,177,180714,1,8,0:0:0:0:
371,177,180842,1,0,0:0:0:0:
219,72,180970,6,0,L|14:77,2,173.000000596046,0|8|0,1:0|0:0|1:0,0:0:0:0:
179,175,181611,1,0,1:0:0:0:
179,175,181740,2,0,L|63:170,1,86.500000298023,8|0,0:0|0:0,0:0:0:0:
241,268,181996,6,0,P|304:292|377:204,2,173.000000596046,0|8|0,1:0|0:0|1:0,0:0:0:0:
298,202,182637,1,0,1:0:0:0:
298,202,182765,2,0,P|299:151|308:92,1,86.500000298023,8|0,0:0|0:0,0:0:0:0:
174,336,183022,6,0,L|64:328,1,86.500000298023,0|0,1:0|0:0,0:0:0:0:
18,223,183278,2,0,L|128:215,1,86.500000298023,8|0,0:0|0:0,0:0:0:0:
201,143,183534,1,0,1:0:0:0:
196,258,183663,1,0,1:0:0:0:
109,108,183791,2,0,L|-1:100,1,86.500000298023,8|0,0:0|0:0,0:0:0:0:
262,60,184047,6,0,L|457:48,1,173.000000596046,0|8,1:0|0:0,0:0:0:0:
507,123,184432,1,0,0:0:0:0:
356,129,184560,2,0,L|246:135,1,86.500000298023,0|0,1:0|1:0,0:0:0:0:
418,200,184816,1,8,0:0:0:0:
418,200,184945,1,0,0:0:0:0:
259,314,185073,6,0,P|181:319|143:216,1,173.000000596046,0|8,1:0|0:0,0:0:0:0:
215,246,185457,1,0,0:0:0:0:
56,315,185586,2,0,P|21:249|16:233,1,86.500000298023,0|0,1:0|1:0,0:0:0:0:
59,143,185842,2,0,P|94:77|99:61,1,86.500000298023,8|0,0:0|0:0,0:0:0:0:
191,153,186099,6,0,L|400:142,2,173.000000596046,0|8|0,1:0|0:0|1:0,0:0:0:0:
303,71,186740,1,0,1:0:0:0:
303,71,186868,2,0,L|402:72,1,86.500000298023,8|0,0:0|0:0,0:0:0:0:
475,220,187124,5,0,1:0:0:0:
471,107,187252,1,0,0:0:0:0:
492,223,187381,1,8,0:0:0:0:
234,264,187637,6,0,L|224:355,1,86.500000298023,4|0,1:2|1:0,0:0:0:0:
303,187,187893,1,8,0:0:0:0:
156,187,188022,1,8,0:0:0:0:
321,201,188150,6,0,L|331:292,1,86.500000298023,4|0,1:2|0:0,0:0:0:0:
382,119,188406,2,0,L|391:33,1,86.500000298023,8|0,0:0|0:0,0:0:0:0:
461,205,188663,2,0,L|470:119,2,86.500000298023,0|0|8,1:0|1:0|0:0,0:0:0:0:
453,296,189047,1,0,0:0:0:0:
321,201,189175,6,0,L|124:211,1,173.000000596046,0|8,1:0|0:0,0:0:0:0:
367,283,189688,2,0,P|411:288|471:300,1,86.500000298023,0|0,1:0|1:0,0:0:0:0:
287,328,189945,2,0,P|243:333|183:345,1,86.500000298023,8|0,0:0|0:0,0:0:0:0:
81,257,190201,6,0,P|45:197|109:108,2,173.000000596046,0|8|0,1:0|0:0|1:0,0:0:0:0:
125,189,190842,1,0,1:0:0:0:
194,103,190970,2,0,L|291:115,1,86.500000298023,8|0,0:0|0:0,0:0:0:0:
395,38,191227,6,0,L|419:222,1,173.000000596046,0|8,1:0|0:0,0:0:0:0:
420,358,191611,1,0,0:0:0:0:
420,358,191740,1,0,1:0:0:0:
288,258,191868,1,0,1:0:0:0:
363,285,191996,2,0,P|335:321|290:335,1,86.500000298023,8|0,0:0|0:0,0:0:0:0:
248,188,192252,6,0,L|34:202,1,173.000000596046,0|8,1:0|0:0,0:0:0:0:
181,103,192637,1,0,0:0:0:0:
181,103,192765,2,0,L|282:109,1,86.500000298023,0|0,1:0|1:0,0:0:0:0:
384,161,193022,2,0,L|470:155,1,86.500000298023,8|0,0:0|0:0,0:0:0:0:
403,314,193278,6,0,L|206:307,1,173.000000596046,0|8,1:0|0:0,0:0:0:0:
72,275,193663,1,0,1:0:0:0:
170,160,193791,2,0,P|182:205|150:273,1,86.500000298023,0|0,1:0|0:0,0:0:0:0:
50,288,194047,2,0,P|39:232|56:177,1,86.500000298023,8|0,0:0|0:0,0:0:0:0:
254,229,194304,6,0,P|172:245|149:333,2,173.000000596046,0|12|0,1:0|0:0|0:0,0:0:0:0:
230,307,194945,1,0,0:0:0:0:
345,246,195073,6,0,L|363:125,1,86.500000298023,12|0,0:0|0:0,0:0:0:0:
207,42,195329,2,0,L|223:149,1,86.500000298023,12|0,0:2|1:0,0:0:0:0:
359,227,195586,6,0,L|370:105,1,86.500000298023,12|0,0:2|1:0,0:0:0:0:
194,59,195842,2,0,L|215:165,1,86.500000298023,12|0,0:0|1:0,0:0:0:0:
373,208,196099,6,0,L|371:85,1,86.500000298023,12|0,0:0|0:0,0:0:0:0:
176,88,196355,1,4,0:0:0:0:
167,316,204560,5,0,1:0:0:0:
167,316,204816,1,2,0:0:0:0:
167,316,205073,2,0,P|132:311|86:313,1,64.8750026983022,8|0,0:0|0:0,0:0:0:0:
193,207,205329,1,10,0:0:0:0:
193,207,205457,2,0,P|228:212|274:210,1,64.8750026983022,0|0,1:0|0:0,0:0:0:0:
179,108,205714,5,0,1:0:0:0:
179,108,205842,2,0,P|144:103|98:105,1,64.8750026983022,10|0,0:0|0:0,0:0:0:0:
228,29,206099,2,0,P|259:35|292:38,1,64.8750026983022,8|0,0:0|1:0,0:0:0:0:
381,108,206355,2,0,P|352:122|326:141,1,64.8750026983022,2|8,0:0|0:0,0:0:0:0:
440,271,206611,5,0,1:0:0:0:
440,271,206868,1,2,0:0:0:0:
440,271,207124,2,0,P|451:214|439:187,1,64.8750026983022,8|0,0:0|0:0,0:0:0:0:
317,254,207381,1,10,0:0:0:0:
317,254,207509,2,0,P|306:311|318:338,1,64.8750026983022,0|0,1:0|0:0,0:0:0:0:
398,153,207765,5,0,1:0:0:0:
398,153,207893,2,0,P|354:114|324:111,1,64.8750026983022,10|0,0:0|0:0,0:0:0:0:
216,94,208150,2,0,P|268:62|282:47,1,64.8750026983022,8|0,0:0|1:0,0:0:0:0:
204,193,208406,2,0,P|178:172|149:158,1,64.8750026983022,2|8,0:0|0:0,0:0:0:0:
37,59,208663,5,0,1:0:0:0:
37,59,208919,1,2,0:0:0:0:
37,59,209175,2,0,L|35:141,1,64.8750026983022,8|0,0:0|0:0,0:0:0:0:
146,71,209432,1,10,0:0:0:0:
146,71,209560,2,0,L|148:-14,1,64.8750026983022,0|0,1:0|0:0,0:0:0:0:
224,120,209816,5,0,1:0:0:0:
224,120,209945,2,0,P|178:160|162:163,1,64.8750026983022,10|0,0:0|0:0,0:0:0:0:
57,226,210201,2,0,P|110:221|142:234,1,64.8750026983022,8|0,0:0|1:0,0:0:0:0:
222,278,210457,2,0,P|275:283|307:270,1,64.8750026983022,2|8,0:0|0:0,0:0:0:0:
365,172,210714,5,0,1:0:0:0:
365,172,210970,1,2,0:0:0:0:
365,172,211227,2,0,P|358:209|369:249,1,64.8750026983022,8|0,0:0|0:0,0:0:0:0:
449,208,211483,5,2,1:2:0:0:
449,208,211611,1,8,0:0:0:0:
449,208,211740,2,0,P|452:146|344:86,1,173.000000596046,4|0,1:2|0:0,0:0:0:0:
365,172,212124,2,0,P|362:234|469:294,1,173.000000596046,4|0,1:2|0:0,0:0:0:0:
449,208,212509,5,4,0:0:0:0:
