osu file format v14

[General]
AudioFilename: audio.mp3
AudioLeadIn: 0
PreviewTime: 142945
Countdown: 1
SampleSet: Soft
StackLeniency: 0.7
Mode: 0
LetterboxInBreaks: 0
WidescreenStoryboard: 0

[Editor]
DistanceSpacing: 2
BeatDivisor: 4
GridSize: 8
TimelineZoom: 2.3

[Metadata]
Title:Stella-rium(Asterisk MAKINA Remix)
TitleUnicode:Stella-rium(Asterisk MAKINA Remix)
Artist:Kano
ArtistUnicode:鹿乃
Creator:Listle
Version:lux stellae
Source:
Tags:
BeatmapID:1914274
BeatmapSetID:916628

[Difficulty]
HPDrainRate:5
CircleSize:4
OverallDifficulty:8.3
ApproachRate:9.3
SliderMultiplier:1.7
SliderTickRate:1

[Events]
//Background and Video events
0,0,"893.jpg",0,0
//Break Periods
2,79416,89510
2,223145,233239
//Storyboard Layer 0 (Background)
//Storyboard Layer 1 (Fail)
//Storyboard Layer 2 (Pass)
//Storyboard Layer 3 (Foreground)
//Storyboard Sound Samples

[TimingPoints]
573,338.983050847458,4,1,0,100,1,0
11420,-100,4,2,1,60,0,0
21928,-66.6666666666667,4,2,1,60,0,0
22183,-66.6666666666667,4,2,1,5,0,0
22267,-80,4,2,1,60,0,0
22522,-100,4,2,1,5,0,0
22606,-80,4,2,1,60,0,0
27945,-80,4,2,1,5,0,0
28030,-80,4,2,1,60,0,0
28284,-80,4,2,1,5,0,0
28369,-80,4,2,1,60,0,0
33369,-80,4,2,1,5,0,0
33454,-80,4,2,1,60,0,0
33708,-80,4,2,1,5,0,0
33793,-80,4,2,1,60,0,0
39895,-80,4,2,1,60,0,1
42606,-80,4,2,1,60,0,0
43878,-80,4,2,1,5,0,0
43962,-80,4,2,1,60,0,0
48708,-80,4,2,1,60,0,0
64301,-200,4,2,1,60,0,0
65149,-80,4,2,1,60,0,0
65657,-133.333333333333,4,2,1,60,0,0
65911,-133.333333333333,4,2,1,5,0,0
65996,-66.6666666666667,4,2,1,60,0,0
66250,-66.6666666666667,4,2,1,5,0,0
66335,-100,4,2,1,60,0,0
68369,-200,4,2,1,60,0,0
68623,-200,4,2,1,5,0,0
68708,-66.6666666666667,4,2,1,60,0,0
68962,-66.6666666666667,4,2,1,5,0,0
69047,-80,4,2,1,60,0,0
71081,-80,4,2,1,40,0,0
73793,-80,4,2,1,60,0,1
77861,-80,4,2,1,60,0,0
78878,-66.6666666666667,4,2,1,60,0,0
79217,-80,4,2,1,60,0,0
90064,-80,4,2,1,60,0,0
91420,-133.333333333333,4,2,1,60,0,0
100827,-133.333333333333,4,2,1,5,0,0
100911,-100,4,2,1,40,0,0
111759,-80,4,2,1,60,0,0
117183,-80,4,2,1,60,0,0
122267,-57.1428571428571,4,2,1,60,0,0
122522,-57.1428571428571,4,2,1,5,0,0
122606,-80,4,2,1,80,0,0
141589,-80,4,2,1,80,0,1
143962,-66.6666666666667,4,2,1,80,0,0
144217,-66.6666666666667,4,2,1,5,0,0
144301,-80,4,2,1,70,0,0
165657,-66.6666666666667,4,2,1,70,0,0
165911,-80,4,2,1,5,0,0
165996,-80,4,2,1,60,0,0
176505,-66.6666666666667,4,2,1,60,0,0
176759,-80,4,2,1,5,0,0
176844,-80,4,2,1,60,0,0
180573,-66.6666666666667,4,2,1,60,0,0
180827,-66.6666666666667,4,2,1,5,0,0
180911,-80,4,2,1,60,0,0
186335,-133.333333333333,4,2,1,60,0,0
187183,-100,4,2,1,60,0,0
187352,-66.6666666666667,4,2,1,60,0,0
187606,-66.6666666666667,4,2,1,5,0,0
187691,-80,4,2,1,60,0,0
197267,-80,4,2,1,5,0,0
197352,-80,4,2,1,60,0,0
197606,-80,4,2,1,5,0,0
197691,-80,4,2,1,60,0,0
197945,-80,4,2,1,5,0,0
198030,-80,4,2,1,60,0,0
198284,-80,4,2,1,5,0,0
198369,-80,4,2,1,60,0,0
208030,-133.333333333333,4,2,1,40,0,0
208708,-100,4,2,1,40,0,0
209047,-66.6666666666667,4,2,1,40,0,0
209301,-66.6666666666667,4,2,1,5,0,0
209386,-80,4,2,1,60,0,0
212098,-133.333333333333,4,2,1,60,0,0
212352,-133.333333333333,4,2,1,5,0,0
212437,-66.6666666666667,4,2,1,60,0,0
212691,-66.6666666666667,4,2,1,5,0,0
212776,-80,4,2,1,60,0,0
217522,-80,4,2,1,60,0,1
222606,-66.6666666666667,4,2,1,60,0,0
222861,-66.6666666666667,4,2,1,5,0,0
222945,-80,4,2,1,60,0,0
233793,-133.333333333333,4,2,1,60,0,0
244640,-80,4,2,1,60,0,0
260911,-80,4,2,1,60,0,1
263623,-80,4,2,1,60,0,0
265996,-66.6666666666667,4,2,1,60,0,0
266250,-66.6666666666667,4,2,1,5,0,0
266335,-80,4,2,1,80,0,0
287691,-66.6666666666667,4,2,1,80,0,0
287945,-66.6666666666667,4,2,1,5,0,0
288030,-80,4,2,1,70,0,0
304301,-80,4,2,1,70,0,1
308369,-80,4,2,1,40,0,0
309386,-66.6666666666667,4,2,1,80,0,0
309640,-66.6666666666667,4,2,1,5,0,0
309725,-80,4,2,1,60,0,0
309979,-80,4,2,1,5,0,0
310064,-80,4,2,1,60,0,0
310318,-80,4,2,1,5,0,0
310403,-80,4,2,1,60,0,0
312691,-80,4,2,1,5,0,0
312776,-80,4,2,1,60,0,0
313030,-80,4,2,1,5,0,0
313115,-80,4,2,1,60,0,0
327352,-80,4,2,1,60,0,1
330573,-80,4,2,1,60,0,0
331420,-80,4,2,1,20,0,0

[HitObjects]
439,50,11420,6,0,P|340:75|263:56,1,170,2|0,0:0|0:0,0:0:0:0:
487,135,11928,1,0,0:0:0:0:
488,208,12098,2,0,L|488:360,2,127.5
285,47,12945,2,0,L|285:146,1,85
328,301,13284,1,0,0:0:0:0:
371,368,13454,2,0,P|400:287|363:228,2,127.5
247,350,14132,6,0,B|327:302|327:302|276:295|250:242,1,170,2|0,0:0|0:0,0:0:0:0:
227,70,14640,1,0,0:0:0:0:
299,109,14810,2,0,P|320:255|315:265,2,127.5
158,12,15657,2,0,L|158:127,1,85
232,341,15996,1,0,0:0:0:0:
232,341,16166,2,0,L|232:178,2,127.5
106,363,16844,5,8,0:0:0:0:
27,262,17013,1,0,0:0:0:0:
173,174,17183,1,0,0:0:0:0:
167,301,17352,1,0,0:0:0:0:
17,149,17522,1,8,0:0:0:0:
120,75,17691,1,0,0:0:0:0:
244,298,17861,1,0,0:0:0:0:
178,189,18030,1,0,0:0:0:0:
120,75,18200,5,8,0:0:0:0:
241,110,18369,1,0,0:0:0:0:
145,251,18539,1,0,0:0:0:0:
170,126,18708,1,0,0:0:0:0:
340,253,18878,1,8,0:0:0:0:
227,194,19047,1,0,0:0:0:0:
409,14,19217,1,0,0:0:0:0:
346,124,19386,1,0,0:0:0:0:
279,232,19556,5,4,0:0:0:0:
262,256,19640,1,0,0:0:0:0:
243,279,19725,1,0,0:0:0:0:
225,302,19810,1,0,0:0:0:0:
200,318,19895,2,0,L|157:341,3,42.5,4|0|0|0,0:0|0:0|0:0|0:0,0:0:0:0:
100,283,20234,5,4,0:0:0:0:
113,256,20318,1,0,0:0:0:0:
129,231,20403,1,0,0:0:0:0:
145,206,20488,1,0,0:0:0:0:
159,179,20573,1,4,0:0:0:0:
172,152,20657,1,0,0:0:0:0:
186,125,20742,1,0,0:0:0:0:
200,98,20827,1,0,0:0:0:0:
214,72,20911,6,0,P|180:42|149:36,1,42.5
85,8,21081,2,0,L|57:57,2,42.5
2,157,21420,1,0,0:0:0:0:
159,179,21589,2,0,L|124:140,3,42.5
246,94,21928,2,0,L|390:294,1,191.250007295609
407,302,22267,6,0,P|479:256|473:167,1,159.375,2|0,0:0|0:0,0:0:0:0:
474,140,22606,1,0,0:0:0:0:
474,140,22776,1,0,0:0:0:0:
341,264,22945,2,0,P|333:322|414:378,2,159.375,2|0|0,0:0|0:0|0:0,0:0:0:0:
383,98,23623,1,0,0:0:0:0:
243,196,23793,2,0,L|241:118,2,53.125,0|0|2,0:0|0:0|0:0,0:0:0:0:
238,25,24132,1,0,0:0:0:0:
327,169,24301,5,0,0:0:0:0:
307,146,24386,1,0,0:0:0:0:
284,126,24471,1,0,0:0:0:0:
256,115,24556,1,0,0:0:0:0:
226,111,24640,2,0,P|161:138|147:178,1,106.25,2|0,0:0|0:0,0:0:0:0:
73,367,24979,5,0,0:0:0:0:
73,335,25064,1,0,0:0:0:0:
73,303,25149,1,0,0:0:0:0:
73,271,25234,1,0,0:0:0:0:
74,239,25318,2,0,L|74:111,1,106.25,2|0,0:0|0:0,0:0:0:0:
158,268,25657,6,0,L|158:336,2,53.125
274,377,25996,2,0,L|307:267,1,106.25,2|0,0:0|0:0,0:0:0:0:
342,120,26335,5,0,0:0:0:0:
314,104,26420,1,0,0:0:0:0:
285,89,26505,1,0,0:0:0:0:
256,74,26589,1,0,0:0:0:0:
225,64,26674,2,0,L|115:36,1,106.25,2|0,0:0|0:0,0:0:0:0:
11,219,27013,6,0,L|57:252,2,53.125
122,37,27352,2,0,L|78:130,3,53.125
54,151,27691,2,0,P|122:154|185:88,1,159.375,2|0,0:0|0:0,0:0:0:0:
148,164,28030,2,0,P|120:303|134:335,1,159.375,2|0,0:0|0:0,0:0:0:0:
160,380,28369,6,0,B|212:340|188:273|188:273|222:313,2,159.375,2|0|0,0:0|0:0|0:0,0:0:0:0:
0,368,29047,1,0,0:0:0:0:
55,218,29217,2,0,L|55:285,2,53.125,0|0|2,0:0|0:0|0:0,0:0:0:0:
123,314,29556,1,0,0:0:0:0:
272,360,29725,5,0,0:0:0:0:
296,360,29810,1,0,0:0:0:0:
320,360,29895,1,0,0:0:0:0:
344,360,29979,1,0,0:0:0:0:
368,360,30064,2,0,B|411:359|411:359|464:312,1,106.25,2|0,0:0|0:0,0:0:0:0:
501,157,30403,5,0,0:0:0:0:
477,157,30488,1,0,0:0:0:0:
453,157,30573,1,0,0:0:0:0:
429,157,30657,1,0,0:0:0:0:
405,157,30742,2,0,B|358:157|358:157|309:205,1,106.25,2|0,0:0|0:0,0:0:0:0:
458,317,31081,5,0,0:0:0:0:
501,157,31250,2,0,L|474:242,2,53.125,0|0|2,0:0|0:0|0:0,0:0:0:0:
346,197,31589,1,0,0:0:0:0:
467,92,31759,2,0,L|388:92,1,53.125,2|0,0:0|0:0,0:0:0:0:
300,22,31928,2,0,L|382:22,1,53.125,2|0,0:0|0:0,0:0:0:0:
339,94,32098,2,0,L|218:94,1,106.25,2|0,0:0|0:0,0:0:0:0:
195,93,32352,2,0,L|194:176,1,53.125,2|0,0:0|0:0,0:0:0:0:
293,381,32606,5,0,0:0:0:0:
293,381,32776,2,0,P|332:329|380:293,1,106.25
339,177,33115,2,0,P|420:242|445:311,1,159.375,2|0,0:0|0:0,0:0:0:0:
446,211,33454,2,0,P|408:108|431:48,1,159.375,2|0,0:0|0:0,0:0:0:0:
481,127,33793,2,0,P|492:45|421:-12,2,159.375,2|0|0,0:0|0:0|0:0,0:0:0:0:
396,262,34471,1,0,0:0:0:0:
326,119,34640,2,0,L|265:173,2,53.125,0|0|2,0:0|0:0|0:0,0:0:0:0:
208,227,34979,1,0,0:0:0:0:
233,69,35149,5,0,0:0:0:0:
203,56,35234,1,0,0:0:0:0:
173,44,35318,1,0,0:0:0:0:
142,33,35403,1,0,0:0:0:0:
110,27,35488,2,0,L|4:26,1,106.25,2|0,0:0|0:0,0:0:0:0:
21,243,35827,5,0,0:0:0:0:
51,256,35912,1,0,0:0:0:0:
81,268,35996,1,0,0:0:0:0:
112,279,36081,1,0,0:0:0:0:
141,291,36166,2,0,L|247:292,1,106.25,2|0,0:0|0:0,0:0:0:0:
133,179,36505,2,0,L|69:179,2,53.125
292,180,36844,5,0,0:0:0:0:
198,369,37013,1,0,0:0:0:0:
211,156,37183,1,0,0:0:0:0:
344,320,37352,1,0,0:0:0:0:
130,316,37522,2,0,P|199:291|256:306,1,106.25,2|0,0:0|0:0,0:0:0:0:
433,358,37861,5,0,0:0:0:0:
448,330,37945,1,0,0:0:0:0:
459,300,38030,1,0,0:0:0:0:
459,268,38115,1,0,0:0:0:0:
441,241,38200,1,0,0:0:0:0:
427,212,38284,1,0,0:0:0:0:
421,180,38369,1,0,0:0:0:0:
425,148,38454,1,0,0:0:0:0:
418,116,38539,6,0,L|367:13,1,106.25,2|0,0:0|0:0,0:0:0:0:
171,97,38878,2,0,L|147:227,1,106.25,2|0,0:0|0:0,0:0:0:0:
286,366,39217,2,0,L|402:317,1,106.25,2|0,0:0|0:0,0:0:0:0:
341,115,39556,2,0,L|219:52,1,106.25,2|0,0:0|0:0,0:0:0:0:
208,275,39895,5,8,0:0:0:0:
412,219,40064,1,0,0:0:0:0:
246,66,40234,1,0,0:0:0:0:
302,270,40403,1,0,0:0:0:0:
392,77,40573,1,8,0:0:0:0:
491,264,40742,1,0,0:0:0:0:
248,157,40911,1,0,0:0:0:0:
482,29,41081,1,0,0:0:0:0:
410,284,41250,5,4,0:0:0:0:
392,310,41335,1,0,0:0:0:0:
370,334,41420,1,0,0:0:0:0:
344,353,41505,1,0,0:0:0:0:
316,337,41589,1,4,0:0:0:0:
287,322,41674,1,0,0:0:0:0:
255,316,41759,1,0,0:0:0:0:
223,322,41844,1,0,0:0:0:0:
187,345,41928,5,4,0:0:0:0:
149,365,42013,1,0,0:0:0:0:
107,376,42098,1,0,0:0:0:0:
65,366,42183,1,0,0:0:0:0:
29,342,42267,1,4,0:0:0:0:
12,302,42352,1,0,0:0:0:0:
12,259,42437,1,0,0:0:0:0:
27,219,42522,1,0,0:0:0:0:
50,184,42606,1,4,0:0:0:0:
180,74,42945,5,0,0:0:0:0:
17,25,43284,2,0,L|60:75,2,53.125
188,152,43623,2,0,P|251:105|207:1,1,159.375
180,74,43962,6,0,L|66:74,1,106.25
188,152,44301,2,0,L|79:152,1,106.25
10,270,44640,1,0,0:0:0:0:
68,331,44810,1,0,0:0:0:0:
149,308,44979,1,0,0:0:0:0:
178,228,45149,1,0,0:0:0:0:
278,134,45318,6,0,L|278:278,1,106.25
354,124,45657,2,0,L|354:262,1,106.25
378,380,45996,1,0,0:0:0:0:
456,347,46166,1,0,0:0:0:0:
498,273,46335,1,0,0:0:0:0:
470,192,46505,1,0,0:0:0:0:
354,124,46674,6,0,L|248:65,1,106.25
374,51,47013,2,0,L|265:-11,1,106.25
144,21,47352,1,0,0:0:0:0:
66,56,47522,1,0,0:0:0:0:
36,135,47691,1,0,0:0:0:0:
79,208,47861,1,0,0:0:0:0:
208,255,48030,6,0,L|170:145,1,106.25
287,232,48369,2,0,L|247:114,1,106.25
321,43,48708,2,0,L|363:99,2,53.125
402,151,49047,2,0,P|426:92|420:45,1,106.25
321,43,49386,6,0,B|262:14|220:52|220:52|174:93|113:53,1,212.5
168,2,49895,1,0,0:0:0:0:
274,102,50064,2,0,P|274:161|248:220,1,106.25
169,311,50403,1,0,0:0:0:0:
36,221,50573,2,0,B|98:245|173:188|173:188|140:131|78:153,1,212.5
125,73,51081,2,0,P|62:110|51:153,1,106.25
199,77,51420,2,0,P|175:19|124:-3,1,106.25
6,18,51759,6,0,L|5:82,2,53.125
137,271,52098,2,0,B|169:223|137:143|121:199|81:119|137:55,1,212.5
154,5,52606,1,0,0:0:0:0:
77,222,52776,2,0,P|64:297|108:346,1,106.25
184,121,53115,1,0,0:0:0:0:
132,380,53284,5,2,0:0:0:0:
449,354,53623,5,2,0:0:0:0:
258,98,53962,5,2,0:0:0:0:
370,384,54301,2,0,P|382:315|419:278,1,106.25,4|0,0:0|0:0,0:0:0:0:
477,211,54640,1,0,0:0:0:0:
472,51,54810,2,0,P|385:55|372:170,1,212.5
432,116,55318,5,0,0:0:0:0:
286,49,55488,2,0,P|220:36|174:17,1,106.25
28,60,55827,2,0,P|41:140|36:186,1,106.25
11,322,56166,5,0,0:0:0:0:
143,233,56335,1,0,0:0:0:0:
39,164,56505,1,0,0:0:0:0:
83,283,56674,1,0,0:0:0:0:
209,198,56844,2,0,P|150:158|94:178,1,106.25
0,233,57183,2,0,P|44:278|100:278,1,106.25
285,353,57522,2,0,B|229:348|172:386|108:361|108:361|143:322,1,212.5
230,212,58030,6,0,P|301:207|353:324,1,212.5
278,280,58539,1,0,0:0:0:0:
389,166,58708,1,0,0:0:0:0:
237,115,58878,2,0,L|275:167,2,53.125
387,62,59217,2,0,L|322:43,2,53.125
232,21,59556,5,0,0:0:0:0:
204,35,59640,1,0,0:0:0:0:
175,49,59725,1,0,0:0:0:0:
144,56,59810,1,0,0:0:0:0:
112,54,59895,2,0,P|39:38|6:54,1,106.25
30,208,60234,6,0,P|61:124|58:89,1,106.25
60,108,60573,1,0,0:0:0:0:
159,227,60742,2,0,P|202:291|258:308,1,106.25
337,354,61081,1,0,0:0:0:0:
239,228,61250,1,0,0:0:0:0:
142,355,61420,1,0,0:0:0:0:
94,283,61589,6,0,B|142:251|222:283|166:299|246:339|310:283,1,212.5
435,220,62098,1,0,0:0:0:0:
435,220,62267,1,0,0:0:0:0:
405,62,62437,2,0,P|342:112|370:247,1,212.5
468,119,62945,6,0,P|478:38|451:-5,1,106.25
302,77,63284,2,0,P|384:71|422:49,1,106.25
190,11,63623,2,0,P|124:26|95:72,1,106.25
82,216,63962,1,0,0:0:0:0:
167,81,64132,1,0,0:0:0:0:
26,26,64301,2,0,P|13:70|13:200,1,170
79,143,65149,6,0,P|79:111|85:78,2,53.125
204,296,65657,6,0,B|147:336|147:336|194:349,1,95.6250036478044
250,360,65996,2,0,P|321:328|446:365,1,191.250007295609
497,330,66335,2,0,L|469:288,3,42.5
438,231,66674,2,0,L|459:180,3,42.5
482,124,67013,2,0,P|485:74|395:108,2,170
365,155,67861,1,0,0:0:0:0:
287,188,68030,1,0,0:0:0:0:
214,143,68200,1,0,0:0:0:0:
248,65,68369,6,0,P|204:58|175:69,1,63.75
115,78,68708,2,0,P|130:152|219:292,1,191.250007295609
252,281,69047,2,0,P|205:323|149:318,1,106.25
95,285,69386,1,0,0:0:0:0:
45,228,69556,1,0,0:0:0:0:
36,154,69725,6,0,P|40:86|62:54,2,106.25
107,117,70234,1,0,0:0:0:0:
197,247,70403,1,0,0:0:0:0:
257,98,70573,1,0,0:0:0:0:
257,98,70657,1,0,0:0:0:0:
257,98,70742,2,0,B|307:116|307:116|382:85,1,106.25
485,2,71081,5,8,0:0:0:0:
431,151,71250,1,0,0:0:0:0:
485,2,71420,1,0,0:0:0:0:
431,151,71589,1,0,0:0:0:0:
264,18,71759,1,8,0:0:0:0:
468,73,71928,1,0,0:0:0:0:
296,199,72098,1,0,0:0:0:0:
370,0,72267,5,0,0:0:0:0:
203,133,72437,1,8,0:0:0:0:
403,201,72606,1,0,0:0:0:0:
206,20,72776,1,0,0:0:0:0:
220,277,72945,1,0,0:0:0:0:
393,81,73115,2,0,L|310:146,1,106.25,10|0,0:0|0:0,0:0:0:0:
57,342,73454,2,0,B|32:287|32:287|52:220,1,106.25,2|0,0:0|0:0,0:0:0:0:
169,8,73793,5,8,0:0:0:0:
384,162,73962,1,0,0:0:0:0:
169,8,74132,1,0,0:0:0:0:
384,162,74301,1,0,0:0:0:0:
102,219,74471,1,8,0:0:0:0:
333,51,74640,1,0,0:0:0:0:
320,263,74810,1,0,0:0:0:0:
162,121,74979,1,0,0:0:0:0:
422,83,75149,5,4,0:0:0:0:
453,103,75234,1,0,0:0:0:0:
479,128,75318,1,0,0:0:0:0:
497,160,75403,1,0,0:0:0:0:
495,197,75488,1,4,0:0:0:0:
493,234,75573,1,0,0:0:0:0:
491,270,75657,1,0,0:0:0:0:
481,305,75742,1,0,0:0:0:0:
464,338,75827,6,0,L|383:353,3,53.125,4|0|0|0,0:0|0:0|0:0|0:0,0:0:0:0:
374,343,76166,5,4,0:0:0:0:
337,336,76250,1,0,0:0:0:0:
300,343,76335,1,0,0:0:0:0:
271,366,76420,1,0,0:0:0:0:
224,377,76505,5,4,0:0:0:0:
176,380,76589,1,0,0:0:0:0:
129,368,76674,1,0,0:0:0:0:
82,354,76759,1,0,0:0:0:0:
44,324,76844,1,4,0:0:0:0:
69,283,76928,1,0,0:0:0:0:
116,275,77013,1,0,0:0:0:0:
160,291,77098,1,0,0:0:0:0:
207,297,77183,5,4,0:0:0:0:
251,281,77267,1,0,0:0:0:0:
285,247,77352,1,0,0:0:0:0:
303,202,77437,1,0,0:0:0:0:
290,155,77522,1,4,0:0:0:0:
251,126,77606,1,0,0:0:0:0:
203,121,77691,1,0,0:0:0:0:
163,147,77776,1,0,0:0:0:0:
122,182,77861,6,0,L|91:133,2,53.125,4|0|0,0:0|0:0|0:0,0:0:0:0:
38,45,78200,1,0,0:0:0:0:
221,202,78369,1,0,0:0:0:0:
221,202,78454,1,0,0:0:0:0:
221,202,78539,1,0,0:0:0:0:
425,145,78708,1,0,0:0:0:0:
425,145,78793,1,0,0:0:0:0:
425,145,78878,2,0,P|433:53|277:92,1,255.000009727478,4|2,0:0|0:0,0:0:0:0:
56,295,90064,5,0,0:0:0:0:
134,223,90403,1,0,0:0:0:0:
164,324,90742,1,0,0:0:0:0:
264,357,91081,1,0,0:0:0:0:
315,341,91251,1,0,0:0:0:0:
365,325,91420,2,0,B|436:315|482:345|482:345|471:304|492:254,2,191.250007295609
413,249,92606,1,0,0:0:0:0:
413,249,92776,2,0,P|453:207|477:206,1,63.7500024318696
489,139,93115,6,0,B|454:129|415:144|415:144|379:126|370:78|422:49,1,191.250007295609
346,4,93962,2,0,P|307:58|309:135,1,127.500004863739
325,184,94471,1,0,0:0:0:0:
264,230,94640,1,0,0:0:0:0:
187,220,94810,2,0,B|172:170|106:166|106:166|139:112|201:117,1,191.250007295609
112,238,95488,2,0,B|65:258|65:258|26:238|25:177,1,127.500004863739
5,43,96166,1,0,0:0:0:0:
155,70,96505,5,0,0:0:0:0:
64,193,96844,1,0,0:0:0:0:
84,39,97183,1,0,0:0:0:0:
144,179,97522,1,0,0:0:0:0:
50,355,97861,1,0,0:0:0:0:
19,289,98200,2,0,B|44:274|84:271|116:297|130:324|125:366|125:366|214:370|272:362|278:320|282:271|274:221|328:176|328:176|179:257|179:324,1,701.250026750566,4|0,0:0|0:0,0:0:0:0:
386,236,100403,1,0,0:0:0:0:
386,236,100573,2,0,P|367:291|390:341,1,95.6250036478044
443,286,100911,6,0,P|460:229|437:176,1,85,2|0,0:0|0:0,0:0:0:0:
403,88,101250,2,0,P|388:141|396:187,1,85,2|0,0:0|0:0,0:0:0:0:
478,76,101589,2,0,P|453:29|399:9,1,85,2|0,0:0|0:0,0:0:0:0:
257,32,101928,2,0,P|293:65|340:76,1,85,2|0,0:0|0:0,0:0:0:0:
477,155,102267,5,2,0:0:0:0:
477,155,102437,1,0,0:0:0:0:
360,201,102606,1,2,0:0:0:0:
360,201,102776,1,0,0:0:0:0:
218,107,102945,6,0,L|271:21,1,85,2|0,0:0|0:0,0:0:0:0:
117,46,103284,2,0,L|69:133,1,85,2|0,0:0|0:0,0:0:0:0:
12,231,103623,5,2,0:0:0:0:
52,305,103793,1,0,0:0:0:0:
130,335,103962,1,2,0:0:0:0:
215,335,104132,2,0,P|274:315|291:208,1,170,8|0,0:0|0:0,0:0:0:0:
225,111,104640,1,2,0:0:0:0:
225,111,104810,2,0,P|203:230|240:263,1,170,8|0,0:0|0:0,0:0:0:0:
375,344,105318,2,0,L|474:344,2,85,2|0|2,0:0|0:0|0:0,0:0:0:0:
470,257,105827,5,0,0:0:0:0:
470,257,105996,2,0,L|470:154,1,85,2|0,0:0|0:0,0:0:0:0:
407,60,106335,2,0,L|407:177,1,85,2|0,0:0|0:0,0:0:0:0:
407,145,106674,1,2,0:0:0:0:
346,204,106844,2,0,P|281:201|305:106,1,170,8|0,0:0|0:0,0:0:0:0:
345,54,107352,1,0,0:0:0:0:
345,54,107522,2,0,P|287:36|190:113,1,170,8|0,0:0|0:0,0:0:0:0:
144,205,108030,5,2,0:0:0:0:
74,239,108200,6,0,B|53:193|91:146|91:146|121:112|97:50,1,170,8|0,0:0|0:0,0:0:0:0:
98,10,108708,1,2,0:0:0:0:
31,96,108878,1,0,0:0:0:0:
144,205,109047,2,0,B|186:175|186:175|254:206,1,85,2|0,0:0|0:0,0:0:0:0:
356,285,109386,1,2,0:0:0:0:
356,285,109556,2,0,B|325:322|325:322|193:322,1,170,8|0,0:0|0:0,0:0:0:0:
75,319,110064,5,2,0:0:0:0:
44,239,110234,2,0,P|6:283|39:390,1,170,8|0,0:0|0:0,0:0:0:0:
75,319,110742,2,0,P|118:260|121:237,1,85,2|0,0:0|0:0,0:0:0:0:
78,84,111081,2,0,P|46:154|48:186,1,85,2|0,0:0|0:0,0:0:0:0:
75,319,111420,1,2,0:0:0:0:
122,147,111589,1,0,0:0:0:0:
257,29,111759,6,0,L|273:142,1,106.25,2|0,0:0|0:0,0:0:0:0:
355,270,112098,2,0,L|337:161,1,106.25,2|0,0:0|0:0,0:0:0:0:
383,12,112437,2,0,L|405:137,1,106.25,2|0,0:0|0:0,0:0:0:0:
496,244,112776,2,0,L|475:124,1,106.25,2|0,0:0|0:0,0:0:0:0:
467,33,113115,5,2,0:0:0:0:
467,33,113284,1,0,0:0:0:0:
401,116,113454,1,2,0:0:0:0:
401,116,113623,1,0,0:0:0:0:
487,250,113793,1,2,0:0:0:0:
487,250,113962,1,0,0:0:0:0:
439,345,114132,1,2,0:0:0:0:
439,345,114301,1,0,0:0:0:0:
280,361,114471,6,0,L|141:361,1,106.25,2|0,0:0|0:0,0:0:0:0:
31,287,114810,2,0,L|161:287,1,106.25,2|0,0:0|0:0,0:0:0:0:
285,227,115149,2,0,L|154:227,1,106.25,2|0,0:0|0:0,0:0:0:0:
29,168,115488,2,0,L|151:168,1,106.25,2|0,0:0|0:0,0:0:0:0:
293,145,115827,5,2,0:0:0:0:
369,71,115996,1,0,0:0:0:0:
281,10,116166,2,0,L|201:90,1,106.25,2|0,0:0|0:0,0:0:0:0:
79,182,116505,1,2,0:0:0:0:
19,94,116674,1,0,0:0:0:0:
110,39,116844,2,0,L|176:131,1,106.25,2|0,0:0|0:0,0:0:0:0:
271,250,117183,5,8,0:0:0:0:
319,319,117352,1,0,0:0:0:0:
358,243,117522,1,0,0:0:0:0:
251,124,117691,1,0,0:0:0:0:
181,267,117861,1,8,0:0:0:0:
313,179,118030,1,0,0:0:0:0:
99,182,118200,5,0,0:0:0:0:
297,257,118369,1,0,0:0:0:0:
62,269,118539,1,8,0:0:0:0:
251,124,118708,1,0,0:0:0:0:
10,17,118878,1,0,0:0:0:0:
160,235,119047,1,0,0:0:0:0:
282,0,119217,1,8,0:0:0:0:
33,198,119386,1,0,0:0:0:0:
246,201,119556,1,0,0:0:0:0:
119,30,119725,1,0,0:0:0:0:
95,272,119895,5,4,0:0:0:0:
103,307,119979,1,0,0:0:0:0:
120,339,120064,1,0,0:0:0:0:
147,364,120149,1,0,0:0:0:0:
183,372,120234,1,4,0:0:0:0:
217,359,120318,1,0,0:0:0:0:
252,348,120403,1,0,0:0:0:0:
289,348,120488,1,0,0:0:0:0:
325,357,120573,5,4,0:0:0:0:
360,366,120657,1,0,0:0:0:0:
397,364,120742,1,0,0:0:0:0:
432,353,120827,1,0,0:0:0:0:
462,333,120911,1,4,0:0:0:0:
476,298,120996,1,0,0:0:0:0:
465,262,121081,1,0,0:0:0:0:
438,235,121166,1,0,0:0:0:0:
405,217,121250,6,0,P|384:136|489:65,1,212.5,4|0,0:0|0:0,0:0:0:0:
462,150,121759,1,0,0:0:0:0:
339,251,121928,2,0,L|302:294,2,53.125
236,359,122267,2,0,B|119:350|23:240,1,223.125002127886,4|0,0:0|0:0,0:0:0:0:
112,224,122606,6,0,P|168:267|218:278,1,106.25,2|0,0:0|0:0,0:0:0:0:
117,140,122945,2,0,P|51:162|24:206,1,106.25,2|0,0:0|0:0,0:0:0:0:
25,349,123284,1,2,0:0:0:0:
112,224,123454,1,0,0:0:0:0:
184,365,123623,1,2,0:0:0:0:
51,275,123793,1,0,0:0:0:0:
209,290,123962,6,0,P|256:335|261:382,1,106.25,2|0,0:0|0:0,0:0:0:0:
112,224,124301,2,0,P|188:193|239:207,1,106.25,2|0,0:0|0:0,0:0:0:0:
402,285,124640,1,2,0:0:0:0:
262,373,124810,1,0,0:0:0:0:
337,174,124979,1,2,0:0:0:0:
442,358,125149,1,0,0:0:0:0:
279,222,125318,6,0,B|253:166|253:166|266:101,1,106.25,2|0,0:0|0:0,0:0:0:0:
453,28,125657,2,0,B|476:91|476:91|478:138,1,106.25,2|0,0:0|0:0,0:0:0:0:
336,289,125996,2,0,B|280:300|280:300|213:281,1,106.25,2|0,0:0|0:0,0:0:0:0:
310,88,126335,2,0,B|374:78|374:78|436:95,1,106.25,2|0,0:0|0:0,0:0:0:0:
492,228,126674,5,2,0:0:0:0:
346,160,126844,1,0,0:0:0:0:
465,55,127013,1,2,0:0:0:0:
431,156,127183,1,0,0:0:0:0:
251,42,127352,2,0,B|282:25|282:25|384:42,1,106.25,2|0,0:0|0:0,0:0:0:0:
235,145,127691,2,0,B|202:169|202:169|110:163,1,106.25,2|0,0:0|0:0,0:0:0:0:
10,66,128030,6,0,B|46:26|46:26|46:113,1,106.25,2|0,0:0|0:0,0:0:0:0:
37,238,128369,1,2,0:0:0:0:
37,238,128539,2,0,B|48:302|11:368|11:368|51:312|86:310,1,212.5,8|0,0:0|0:0,0:0:0:0:
210,246,129047,1,2,0:0:0:0:
362,298,129217,2,0,B|314:266|234:298|290:314|210:354|146:298,1,212.5,8|0,0:0|0:0,0:0:0:0:
103,162,129725,1,2,0:0:0:0:
223,71,129895,6,0,B|248:128|248:128|184:192|184:192|224:275,1,212.5,8|0,0:0|0:0,0:0:0:0:
291,223,130403,1,2,0:0:0:0:
331,68,130573,1,0,0:0:0:0:
454,168,130742,2,0,B|473:248|473:248|452:288,1,106.25,2|0,0:0|0:0,0:0:0:0:
334,365,131081,1,2,0:0:0:0:
302,365,131166,1,0,0:0:0:0:
270,366,131250,2,0,B|194:356|145:371|145:371|151:314|115:262,1,212.5,8|0,0:0|0:0,0:0:0:0:
96,129,131759,6,0,L|88:216,2,53.125,2|0|0,0:0|0:0|0:0,0:0:0:0:
70,357,132098,2,0,P|55:311|22:260,1,106.25,2|0,0:0|0:0,0:0:0:0:
14,135,132437,2,0,P|27:81|176:107,1,212.5,2|0,0:0|0:0,0:0:0:0:
263,197,132945,1,0,0:0:0:0:
263,197,133030,1,0,0:0:0:0:
263,197,133115,1,2,0:0:0:0:
96,129,133284,1,0,0:0:0:0:
224,33,133454,6,0,B|280:14|280:14|371:23,1,106.25,2|0,0:0|0:0,0:0:0:0:
397,161,133793,2,0,B|345:118|345:118|299:102,1,106.25,2|0,0:0|0:0,0:0:0:0:
160,75,134132,1,2,0:0:0:0:
137,232,134301,1,0,0:0:0:0:
237,107,134471,1,2,0:0:0:0:
137,232,134640,2,0,B|149:187|97:135|97:135|54:196|75:241|75:241,1,212.5,8|0,0:0|0:0,0:0:0:0:
137,378,135149,1,2,0:0:0:0:
137,378,135318,2,0,B|182:390|234:338|234:338|173:295|128:316|128:316,1,212.5,8|0,0:0|0:0,0:0:0:0:
43,373,135827,6,0,P|26:315|64:248,2,106.25,2|0|2,0:0|0:0|0:0,0:0:0:0:
137,313,136335,1,0,0:0:0:0:
226,254,136505,1,2,0:0:0:0:
313,314,136674,2,0,B|420:384|420:384|410:306|450:272,1,212.5,8|0,0:0|0:0,0:0:0:0:
483,149,137183,1,2,0:0:0:0:
327,181,137352,2,0,B|293:241|293:241|401:220|416:157,1,212.5,8|0,0:0|0:0,0:0:0:0:
448,13,137861,5,2,0:0:0:0:
262,115,138030,1,0,0:0:0:0:
473,89,138200,1,2,0:0:0:0:
269,28,138369,1,0,0:0:0:0:
411,170,138539,1,2,0:0:0:0:
349,23,138708,1,0,0:0:0:0:
349,23,138878,6,0,P|348:100|340:143,1,106.25,2|0,0:0|0:0,0:0:0:0:
151,222,139217,2,0,P|162:106|171:82,1,106.25,2|0,0:0|0:0,0:0:0:0:
312,264,139556,2,0,P|232:343|219:348,1,106.25,2|0,0:0|0:0,0:0:0:0:
29,373,139895,1,2,0:0:0:0:
105,175,140064,1,0,0:0:0:0:
235,339,140234,6,0,L|110:339,1,106.25,2|0,0:0|0:0,0:0:0:0:
203,139,140573,2,0,L|331:139,1,106.25,2|0,0:0|0:0,0:0:0:0:
207,261,140911,5,2,0:0:0:0:
101,273,141081,1,0,0:0:0:0:
130,62,141250,1,2,0:0:0:0:
203,139,141420,1,0,0:0:0:0:
5,215,141589,5,8,0:0:0:0:
50,6,141759,1,0,0:0:0:0:
175,239,141928,1,0,0:0:0:0:
50,6,142098,1,0,0:0:0:0:
175,239,142267,1,8,0:0:0:0:
322,17,142437,1,0,0:0:0:0:
77,118,142606,1,0,0:0:0:0:
336,176,142776,1,0,0:0:0:0:
116,44,142945,5,10,0:0:0:0:
265,90,143115,1,0,0:0:0:0:
265,90,143200,1,0,0:0:0:0:
265,90,143284,1,0,0:0:0:0:
471,36,143454,1,0,0:0:0:0:
471,36,143539,1,0,0:0:0:0:
471,36,143623,1,0,0:0:0:0:
410,240,143793,1,0,0:0:0:0:
410,240,143878,1,0,0:0:0:0:
410,240,143962,6,0,P|376:145|385:46,1,191.250007295609,4|0,0:0|0:0,0:0:0:0:
455,133,144301,6,0,P|495:232|530:263,1,106.25
407,365,144640,2,0,P|343:346|295:357,1,106.25
146,373,144979,1,0,0:0:0:0:
200,281,145149,1,0,0:0:0:0:
359,260,145318,1,0,0:0:0:0:
305,352,145488,1,0,0:0:0:0:
269,197,145657,6,0,L|390:156,1,106.25
313,13,145996,2,0,L|205:48,1,106.25
82,139,146335,2,0,L|118:184,2,53.125
105,35,146674,2,0,P|32:9|-6:19,1,106.25
7,152,147013,6,0,P|8:231|-2:280,1,106.25
112,374,147352,2,0,P|103:306|117:252,1,106.25
184,128,147691,1,0,0:0:0:0:
261,55,147861,1,0,0:0:0:0:
108,10,148030,1,0,0:0:0:0:
31,83,148200,1,0,0:0:0:0:
138,200,148369,6,0,P|207:203|255:175,1,106.25
370,96,148708,2,0,P|433:70|485:71,1,106.25
496,226,149047,2,0,L|452:192,2,53.125
370,96,149386,1,0,0:0:0:0:
292,259,149556,1,0,0:0:0:0:
292,259,149725,6,0,L|341:159,1,106.25
238,199,150064,2,0,L|291:93,1,106.25
485,30,150403,2,0,L|435:144,1,106.25
408,26,150742,2,0,L|360:132,1,106.25
272,315,151081,5,0,0:0:0:0:
479,358,151250,2,0,L|436:327,2,53.125
468,198,151589,1,0,0:0:0:0:
354,310,151759,1,0,0:0:0:0:
298,161,151928,2,0,L|345:196,2,53.125
448,106,152267,1,0,0:0:0:0:
309,27,152437,5,0,0:0:0:0:
271,26,152522,1,0,0:0:0:0:
234,26,152606,1,0,0:0:0:0:
196,26,152691,1,0,0:0:0:0:
158,25,152776,2,0,B|86:24|86:24|43:33,1,106.25
16,186,153115,5,0,0:0:0:0:
54,187,153200,1,0,0:0:0:0:
91,187,153284,1,0,0:0:0:0:
129,187,153369,1,0,0:0:0:0:
167,188,153454,2,0,B|239:189|239:189|282:180,1,106.25
405,92,153793,5,0,0:0:0:0:
193,104,153962,1,0,0:0:0:0:
305,284,154132,2,0,B|346:264|390:287|390:287|336:155,1,212.5
232,288,154640,2,0,P|258:346|279:355,2,53.125
445,338,154979,2,0,P|381:361|336:341,1,106.25
237,156,155318,5,0,0:0:0:0:
50,259,155488,1,0,0:0:0:0:
247,336,155657,1,0,0:0:0:0:
110,172,155827,2,0,P|34:172|-7:175,1,106.25
205,245,156166,2,0,P|287:245|331:242,1,106.25
453,170,156505,5,0,0:0:0:0:
453,170,156674,1,0,0:0:0:0:
490,14,156844,1,0,0:0:0:0:
490,14,157013,1,0,0:0:0:0:
347,85,157183,2,0,L|261:108,2,53.125
192,125,157522,2,0,P|220:59|275:29,1,106.25
340,168,157861,6,0,L|273:267,1,106.25
128,210,158200,2,0,L|202:111,1,106.25
347,85,158539,1,0,0:0:0:0:
410,42,158708,6,0,B|442:90|410:170|394:114|354:194|410:258,1,212.5
491,371,159217,1,0,0:0:0:0:
460,193,159386,1,0,0:0:0:0:
330,320,159556,2,0,B|258:348|258:348|195:336,1,106.25
62,273,159895,2,0,B|133:236|133:236|268:270,1,212.5
111,369,160403,1,0,0:0:0:0:
7,220,160573,6,0,P|15:152|7:65,1,106.25
162,12,160911,2,0,P|176:77|201:121,1,106.25
302,229,161250,1,0,0:0:0:0:
381,158,161420,1,0,0:0:0:0:
252,63,161589,1,0,0:0:0:0:
308,153,161759,1,0,0:0:0:0:
456,97,161928,6,0,L|400:0,1,106.25
381,158,162267,2,0,L|444:278,1,106.25
488,365,162606,2,0,P|401:369|368:356,1,106.25
264,317,162945,2,0,P|332:293|379:295,1,106.25
365,293,163284,5,8,0:0:0:0:
202,368,163454,1,0,0:0:0:0:
197,156,163623,1,0,0:0:0:0:
237,254,163793,1,0,0:0:0:0:
52,358,163962,1,8,0:0:0:0:
152,233,164132,1,0,0:0:0:0:
307,376,164301,1,0,0:0:0:0:
106,303,164471,1,0,0:0:0:0:
226,112,164640,6,0,L|190:165,2,53.125
114,61,164979,2,0,L|159:1,2,53.125
388,38,165318,1,2,0:0:0:0:
390,69,165403,1,0,0:0:0:0:
390,100,165488,1,0,0:0:0:0:
390,131,165573,1,0,0:0:0:0:
390,162,165657,2,0,B|394:202|394:202|366:367,1,191.250007295609,4|0,0:0|0:0,0:0:0:0:
293,315,165996,6,0,B|316:217|316:217|286:145,2,159.375,2|0|0,0:0|0:0|0:0,0:0:0:0:
208,360,166674,1,2,0:0:0:0:
170,359,166759,1,0,0:0:0:0:
132,358,166844,1,0,0:0:0:0:
95,356,166928,1,0,0:0:0:0:
57,355,167013,2,0,B|28:323|28:323|4:241,1,106.25,2|0,0:0|0:0,0:0:0:0:
121,148,167352,5,2,0:0:0:0:
228,266,167522,1,0,0:0:0:0:
283,116,167691,1,2,0:0:0:0:
259,137,167776,1,0,0:0:0:0:
233,156,167861,1,0,0:0:0:0:
209,176,167945,1,0,0:0:0:0:
183,195,168030,2,0,L|135:238,1,53.125,2|0,0:0|0:0,0:0:0:0:
102,160,168200,2,0,L|150:117,1,53.125
224,57,168369,2,0,P|286:39|342:60,1,106.25,2|0,0:0|0:0,0:0:0:0:
407,245,168708,6,0,P|459:199|460:87,2,159.375,2|0|0,0:0|0:0|0:0,0:0:0:0:
332,103,169386,2,0,L|386:147,1,53.125,2|0,0:0|0:0,0:0:0:0:
315,193,169556,2,0,L|261:149,1,53.125
178,65,169725,2,0,B|117:36|117:36|59:32,1,106.25,2|0,0:0|0:0,0:0:0:0:
42,189,170064,1,2,0:0:0:0:
155,301,170234,1,0,0:0:0:0:
192,146,170403,6,0,L|145:186,4,53.125,2|0|0|0|2,0:0|0:0|0:0|0:0|0:0,0:0:0:0:
23,276,170911,1,0,0:0:0:0:
119,360,171081,1,0,0:0:0:0:
241,327,171250,1,0,0:0:0:0:
155,231,171420,6,0,B|201:208|201:208|319:206,2,159.375,2|0|0,0:0|0:0|0:0,0:0:0:0:
76,370,172098,2,0,L|4:370,1,53.125
56,297,172267,2,0,L|120:297,1,53.125
189,298,172437,2,0,B|255:300|255:300|335:320,1,106.25
445,360,172776,1,2,0:0:0:0:
459,201,172945,2,0,P|400:264|400:305,1,106.25,0|2,0:0|0:0,0:0:0:0:
501,303,173284,1,0,0:0:0:0:
509,143,173454,5,2,0:0:0:0:
497,113,173539,1,0,0:0:0:0:
479,86,173623,1,0,0:0:0:0:
456,63,173708,1,0,0:0:0:0:
428,46,173793,2,0,B|385:29|385:29|308:24,1,106.25,2|0,0:0|0:0,0:0:0:0:
113,50,174132,6,0,B|186:72|186:72|281:69,2,159.375,2|0|0,0:0|0:0|0:0,0:0:0:0:
16,177,174810,1,2,0:0:0:0:
43,160,174895,1,0,0:0:0:0:
71,146,174979,1,0,0:0:0:0:
99,131,175064,1,0,0:0:0:0:
129,120,175149,2,0,B|171:172|215:204,1,106.25,2|0,0:0|0:0,0:0:0:0:
347,264,175488,2,0,P|271:165|254:152,1,106.25,2|0,0:0|0:0,0:0:0:0:
147,257,175827,2,0,P|127:366|128:385,1,106.25,2|0,0:0|0:0,0:0:0:0:
286,348,176166,6,0,L|355:334,1,53.125,2|0,0:0|0:0,0:0:0:0:
450,305,176335,2,0,L|460:234,1,53.125
467,111,176505,2,0,B|412:86|412:86|247:105,1,191.250007295609,4|0,0:0|0:0,0:0:0:0:
185,56,176844,6,0,L|295:26,1,106.25,2|0,0:0|0:0,0:0:0:0:
133,174,177183,2,0,L|23:204,1,106.25,2|0,0:0|0:0,0:0:0:0:
243,206,177522,2,0,P|280:296|266:362,2,159.375,2|0|0,0:0|0:0|0:0,0:0:0:0:
106,122,178200,1,2,0:0:0:0:
124,333,178369,2,0,L|136:272,2,53.125,0|0|2,0:0|0:0|0:0,0:0:0:0:
248,108,178708,1,0,0:0:0:0:
106,122,178878,2,0,L|74:67,3,53.125,2|0|0|0,0:0|0:0|0:0|0:0,0:0:0:0:
15,124,179217,6,0,B|35:174|35:174|85:229,1,106.25,2|0,0:0|0:0,0:0:0:0:
292,139,179556,2,0,L|243:105,3,53.125,2|0|0|0,0:0|0:0|0:0|0:0,0:0:0:0:
215,210,179895,2,0,B|232:267|232:267|277:329,1,106.25,2|0,0:0|0:0,0:0:0:0:
466,354,180234,2,0,L|479:289,2,53.125,2|0|0,0:0|0:0|0:0,0:0:0:0:
490,132,180573,6,0,P|443:80|347:140,1,191.250007295609,2|0,0:0|0:0,0:0:0:0:
322,230,180911,2,0,L|318:307,3,53.125,2|0|0|0,0:0|0:0|0:0|0:0,0:0:0:0:
256,369,181250,2,0,P|184:364|136:369,1,106.25,2|0,0:0|0:0,0:0:0:0:
18,276,181589,1,2,0:0:0:0:
49,278,181674,1,0,0:0:0:0:
80,280,181759,2,0,L|137:288,1,53.125
238,296,181928,5,2,0:0:0:0:
228,265,182013,1,0,0:0:0:0:
217,234,182098,1,0,0:0:0:0:
204,204,182183,1,0,0:0:0:0:
194,173,182267,2,0,B|179:107|179:107|159:63,1,106.25,2|0,0:0|0:0,0:0:0:0:
13,168,182606,2,0,B|67:180|67:180|123:178,1,106.25,2|0,0:0|0:0,0:0:0:0:
276,162,182945,6,0,P|293:62|376:40,2,159.375,2|0|0,0:0|0:0|0:0,0:0:0:0:
388,144,183623,2,0,L|334:112,2,53.125,2|0|0,0:0|0:0|0:0,0:0:0:0:
311,284,183962,2,0,L|375:320,2,53.125,2|0|0,0:0|0:0|0:0,0:0:0:0:
502,190,184301,5,2,0:0:0:0:
499,158,184386,1,0,0:0:0:0:
497,126,184471,1,0,0:0:0:0:
494,94,184556,1,0,0:0:0:0:
489,62,184640,2,0,B|446:35|446:35|347:20,1,106.25,2|0,0:0|0:0,0:0:0:0:
231,23,184979,6,0,L|211:81,3,53.125,2|0|0|0,0:0|0:0|0:0|0:0,0:0:0:0:
105,150,185318,2,0,L|146:49,1,106.25,2|0,0:0|0:0,0:0:0:0:
16,147,185657,2,0,L|8:217,2,53.125,2|0|0,0:0|0:0|0:0,0:0:0:0:
105,351,185996,2,0,L|88:294,2,53.125,2|0|0,0:0|0:0|0:0,0:0:0:0:
0,326,186335,2,0,P|18:258|176:260,1,255.000009727478,2|0,0:0|0:0,0:0:0:0:
226,327,187183,5,8,0:0:0:0:
292,372,187352,2,0,P|376:357|390:218,1,191.250007295609,4|0,0:0|0:0,0:0:0:0:
341,187,187691,6,0,P|316:261|339:317,1,106.25
456,200,188030,1,0,0:0:0:0:
397,51,188200,1,0,0:0:0:0:
280,264,188369,2,0,P|329:228|339:169,1,106.25
252,53,188708,1,0,0:0:0:0:
164,186,188878,1,0,0:0:0:0:
252,358,189047,6,0,P|286:296|271:248,1,106.25
162,102,189386,2,0,P|101:141|83:192,1,106.25
133,322,189725,2,0,P|161:267|161:210,1,106.25
8,261,190064,2,0,P|6:341|18:380,1,106.25
99,231,190403,5,0,0:0:0:0:
33,176,190573,1,0,0:0:0:0:
42,91,190742,1,0,0:0:0:0:
108,38,190911,1,0,0:0:0:0:
192,51,191081,2,0,P|254:110|270:146,1,106.25
257,212,191420,2,0,P|195:168|178:132,1,106.25
298,34,191759,5,0,0:0:0:0:
382,38,191928,1,0,0:0:0:0:
457,78,192098,1,0,0:0:0:0:
482,158,192267,1,0,0:0:0:0:
451,237,192437,2,0,P|388:298|334:305,1,106.25
287,300,192776,2,0,P|339:234|377:225,1,106.25
393,163,193115,6,0,B|345:131|265:163|321:179|241:219|177:163,1,212.5
104,118,193623,1,0,0:0:0:0:
177,40,193793,2,0,P|238:99|246:145,1,106.25
273,274,194132,5,0,0:0:0:0:
121,224,194301,1,0,0:0:0:0:
243,117,194471,2,0,L|345:164,1,106.25
485,226,194810,1,0,0:0:0:0:
400,360,194979,1,0,0:0:0:0:
240,373,195149,2,0,L|299:276,1,106.25
376,144,195488,5,0,0:0:0:0:
255,40,195657,1,0,0:0:0:0:
180,181,195827,2,0,B|237:171|237:171|283:131,1,106.25
146,42,196166,1,0,0:0:0:0:
27,147,196335,1,0,0:0:0:0:
180,181,196505,2,0,B|143:134|143:134|91:101,1,106.25
47,258,196844,1,0,0:0:0:0:
170,357,197013,6,0,B|43:357|43:357|11:326,1,159.375
115,288,197352,2,0,B|249:289|249:289|291:309,1,159.375
395,348,197691,2,0,B|349:367|349:367|231:367,1,159.375
347,289,198030,2,0,B|409:267|409:267|521:267,1,159.375
475,345,198369,1,0,0:0:0:0:
476,185,198539,6,0,P|482:109|493:53,1,106.25
335,28,198878,2,0,P|250:37|202:27,1,106.25
70,18,199217,1,0,0:0:0:0:
179,132,199386,1,0,0:0:0:0:
20,152,199556,1,0,0:0:0:0:
146,56,199725,1,0,0:0:0:0:
157,215,199895,6,0,L|148:345,1,106.25
12,257,200234,2,0,L|21:127,1,106.25
146,56,200573,1,0,0:0:0:0:
247,178,200742,1,0,0:0:0:0:
99,238,200911,2,0,L|156:144,1,106.25
255,22,201250,1,0,0:0:0:0:
397,180,201420,1,0,0:0:0:0:
202,274,201589,2,0,L|258:152,1,106.25
333,43,201928,5,0,0:0:0:0:
333,43,202098,1,0,0:0:0:0:
470,122,202267,1,0,0:0:0:0:
470,122,202437,1,0,0:0:0:0:
382,254,202606,2,0,L|272:199,1,106.25
380,336,202945,2,0,L|270:281,1,106.25
137,226,203284,2,0,L|137:301,2,53.125
17,348,203623,6,0,P|102:358|160:328,1,106.25
222,165,203962,2,0,B|236:105|270:81|270:81|184:97|137:39,1,212.5
7,15,204471,2,0,B|-17:77|40:152|40:152|97:119|75:57,1,212.5
230,13,204979,2,0,P|304:15|342:45,1,106.25
426,158,205318,2,0,B|455:218|458:270|458:270|502:229|501:180|501:180,1,212.5
500,27,205827,2,0,B|505:74|495:116|495:116|441:62|363:98,1,212.5
232,148,206335,2,0,B|189:180|189:180|242:169,1,106.25
372,184,206674,6,0,B|416:211|416:211|352:216,1,106.25,8|0,0:0|0:0,0:0:0:0:
204,244,207013,1,8,0:0:0:0:
250,339,207183,1,0,0:0:0:0:
308,250,207352,2,0,P|267:187|234:175,1,106.25,8|0,0:0|0:0,0:0:0:0:
134,173,207691,1,8,0:0:0:0:
63,252,207861,1,0,0:0:0:0:
6,328,208030,6,0,P|43:362|178:348,1,191.250007295609,4|0,0:0|0:0,0:0:0:0:
63,252,208708,2,0,L|104:316,2,42.5
190,252,209047,2,0,L|65:55,1,191.250007295609
58,45,209386,5,0,0:0:0:0:
270,33,209725,2,0,P|341:42|410:14,1,106.25
479,22,210064,2,0,L|446:68,3,53.125
397,126,210403,2,0,L|462:166,3,53.125
509,197,210742,2,0,P|470:270|475:316,1,106.25
329,365,211081,2,0,P|381:323|399:265,1,106.25
397,126,211420,1,0,0:0:0:0:
267,218,211589,1,0,0:0:0:0:
182,22,211759,5,0,0:0:0:0:
300,128,211928,1,0,0:0:0:0:
204,126,212098,2,0,B|147:110|147:110|99:125,1,95.6250036478044
20,149,212437,2,0,B|61:229|61:229|63:349,1,191.250007295609
136,361,212776,2,0,L|133:252,1,106.25
101,98,213115,2,0,B|172:122|172:122|243:130,1,106.25
360,99,213454,2,0,B|297:76|297:76|235:66,1,106.25
258,229,213793,2,0,B|251:297|251:297|261:358,1,106.25
413,367,214132,5,0,0:0:0:0:
486,225,214301,2,0,L|431:244,2,53.125
333,273,214640,1,0,0:0:0:0:
360,99,214810,1,8,0:0:0:0:
462,126,214979,1,0,0:0:0:0:
261,199,215149,1,0,0:0:0:0:
241,94,215318,1,0,0:0:0:0:
83,118,215488,6,0,L|108:230,1,106.25,8|0,0:0|0:0,0:0:0:0:
208,344,215827,2,0,L|177:230,1,106.25
111,39,216166,2,0,B|52:42|52:42|0:61,1,106.25,8|0,0:0|0:0,0:0:0:0:
61,264,216505,2,0,B|125:274|125:274|197:256,1,106.25
337,60,216844,2,0,B|276:98|276:98|240:156,1,106.25,8|0,0:0|0:0,0:0:0:0:
410,345,217183,2,0,B|454:297|454:297|461:207,1,106.25
461,42,217522,5,8,0:0:0:0:
326,205,217691,1,0,0:0:0:0:
461,42,217861,1,8,0:0:0:0:
326,205,218030,1,0,0:0:0:0:
261,1,218200,1,8,0:0:0:0:
470,163,218369,1,0,0:0:0:0:
216,244,218539,1,8,0:0:0:0:
366,26,218708,1,0,0:0:0:0:
383,291,218878,6,0,L|351:229,3,53.125,4|0|0|0,0:0|0:0|0:0|0:0,0:0:0:0:
241,135,219217,2,0,L|262:194,3,53.125,4|0|0|0,0:0|0:0|0:0|0:0,0:0:0:0:
256,340,219556,2,0,L|227:295,3,53.125,4|0|0|0,0:0|0:0|0:0|0:0,0:0:0:0:
105,194,219895,2,0,L|116:274,3,53.125,4|0|0|0,0:0|0:0|0:0|0:0,0:0:0:0:
43,378,220234,5,4,0:0:0:0:
30,349,220318,1,0,0:0:0:0:
21,318,220403,1,0,0:0:0:0:
19,286,220488,1,0,0:0:0:0:
17,254,220573,1,4,0:0:0:0:
16,222,220657,1,0,0:0:0:0:
16,190,220742,1,0,0:0:0:0:
14,158,220827,1,0,0:0:0:0:
14,126,220911,5,4,0:0:0:0:
25,96,220996,1,0,0:0:0:0:
52,71,221081,1,0,0:0:0:0:
83,63,221166,1,0,0:0:0:0:
112,75,221250,1,4,0:0:0:0:
138,93,221335,1,0,0:0:0:0:
169,93,221420,1,0,0:0:0:0:
199,83,221505,1,0,0:0:0:0:
224,64,221589,1,4,0:0:0:0:
478,24,221759,5,0,0:0:0:0:
478,24,221844,1,0,0:0:0:0:
478,24,221929,1,0,0:0:0:0:
383,213,222098,1,0,0:0:0:0:
383,213,222183,1,0,0:0:0:0:
383,213,222267,2,0,P|348:146|358:92,1,106.25
501,234,222606,2,0,B|439:322|439:322|365:375,1,191.250007295609
237,375,222945,1,0,0:0:0:0:
431,37,233793,5,0,0:0:0:0:
374,126,234132,1,0,0:0:0:0:
293,56,234471,1,0,0:0:0:0:
217,130,234810,1,0,0:0:0:0:
173,99,234979,1,0,0:0:0:0:
127,70,235149,2,0,B|74:50|27:52|27:52|40:111|69:130,2,191.250007295609
174,255,236505,2,0,B|99:254|40:206|40:206|12:292|64:316,1,255.000009727478
232,370,237522,5,0,0:0:0:0:
359,370,237861,2,0,B|382:330|473:355|473:355|355:277|355:277,1,255.000009727478
254,214,238878,1,0,0:0:0:0:
178,233,239217,2,0,P|197:161|331:210,1,255.000009727478
333,244,240234,1,0,0:0:0:0:
370,237,240573,2,0,P|429:198|356:62,1,255.000009727478
323,63,241589,1,0,0:0:0:0:
287,76,241928,2,0,B|236:97|176:11|176:11|54:42|54:161|54:161|142:120|173:60|173:60|233:148|149:302|149:302|115:217|123:155,1,892.500034046174
80,337,244640,6,0,P|61:277|52:211,1,106.25,2|0,0:0|0:0,0:0:0:0:
206,282,244979,2,0,P|195:366|188:386,1,106.25,2|0,0:0|0:0,0:0:0:0:
147,231,245318,2,0,P|200:151|218:132,1,106.25,2|0,0:0|0:0,0:0:0:0:
366,134,245657,2,0,P|316:196|292:218,1,106.25,2|0,0:0|0:0,0:0:0:0:
261,58,245996,5,2,0:0:0:0:
340,26,246166,1,0,0:0:0:0:
424,37,246335,1,2,0:0:0:0:
476,103,246505,1,0,0:0:0:0:
482,261,246674,2,0,L|467:373,1,106.25,2|0,0:0|0:0,0:0:0:0:
308,377,247013,2,0,L|323:265,1,106.25,2|0,0:0|0:0,0:0:0:0:
337,112,247352,5,2,0:0:0:0:
340,5,247522,1,0,0:0:0:0:
185,42,247691,1,2,0:0:0:0:
248,127,247861,2,0,B|262:172|262:172|232:302|232:302|248:359,1,212.5,8|0,0:0|0:0,0:0:0:0:
179,185,248369,1,2,0:0:0:0:
179,185,248539,2,0,B|167:123|167:123|39:13,1,212.5,8|0,0:0|0:0,0:0:0:0:
104,200,249047,2,0,L|127:309,1,106.25,2|0,0:0|0:0,0:0:0:0:
21,183,249386,2,0,P|59:134|105:125,1,106.25,2|0,0:0|0:0,0:0:0:0:
269,141,249725,2,0,P|220:180|151:177,1,106.25,2|0,0:0|0:0,0:0:0:0:
42,100,250064,5,2,0:0:0:0:
201,113,250234,1,0,0:0:0:0:
82,6,250403,1,2,0:0:0:0:
116,162,250573,6,0,B|148:210|116:290|100:234|60:314|116:378,1,212.5,8|0,0:0|0:0,0:0:0:0:
54,208,251081,1,2,0:0:0:0:
169,316,251250,2,0,P|211:350|238:241,1,212.5,8|0,0:0|0:0,0:0:0:0:
173,171,251759,1,2,0:0:0:0:
63,56,251928,2,0,P|152:22|255:93,1,212.5,8|0,0:0|0:0,0:0:0:0:
323,219,252437,1,2,0:0:0:0:
463,293,252606,1,0,0:0:0:0:
487,134,252776,6,0,L|406:210,1,106.25,2|0,0:0|0:0,0:0:0:0:
286,309,253115,1,2,0:0:0:0:
250,154,253284,2,0,B|216:33|216:33|156:124,1,212.5,8|0,0:0|0:0,0:0:0:0:
71,233,253793,1,2,0:0:0:0:
165,360,253962,2,0,B|213:371|213:371|345:313|345:313|375:324,1,212.5,8|0,0:0|0:0,0:0:0:0:
206,286,254471,2,0,B|154:271|154:271|163:209,1,106.25,2|0,0:0|0:0,0:0:0:0:
178,60,254810,5,2,0:0:0:0:
272,187,254979,1,0,0:0:0:0:
121,133,255149,1,2,0:0:0:0:
314,45,255318,1,0,0:0:0:0:
354,250,255488,6,0,P|305:223|271:185,1,106.25,2|0,0:0|0:0,0:0:0:0:
377,176,255827,2,0,P|436:214|467:256,1,106.25,2|0,0:0|0:0,0:0:0:0:
318,318,256166,2,0,P|234:305|198:285,1,106.25,2|0,0:0|0:0,0:0:0:0:
296,158,256505,2,0,P|347:104|400:96,1,106.25,2|0,0:0|0:0,0:0:0:0:
491,274,256844,2,0,P|431:313|385:321,1,106.25,2|0,0:0|0:0,0:0:0:0:
224,196,257183,2,0,P|219:113|237:62,1,106.25,2|0,0:0|0:0,0:0:0:0:
416,184,257522,2,0,P|368:252|318:274,1,106.25,2|0,0:0|0:0,0:0:0:0:
354,50,257861,2,0,P|428:17|470:21,1,106.25,2|0,0:0|0:0,0:0:0:0:
451,17,258200,5,2,0:0:0:0:
493,225,258369,1,0,0:0:0:0:
290,159,258539,1,2,0:0:0:0:
496,113,258708,1,0,0:0:0:0:
302,23,258878,1,2,0:0:0:0:
334,232,259047,1,0,0:0:0:0:
483,11,259217,1,2,0:0:0:0:
236,108,259386,1,0,0:0:0:0:
413,226,259556,5,2,0:0:0:0:
364,39,259725,1,0,0:0:0:0:
413,226,259895,1,2,0:0:0:0:
364,39,260064,1,0,0:0:0:0:
507,263,260234,1,2,0:0:0:0:
275,134,260403,1,0,0:0:0:0:
496,158,260573,1,2,0:0:0:0:
245,242,260742,1,0,0:0:0:0:
418,120,260911,6,0,L|330:186,1,106.25,8|0,0:0|0:0,0:0:0:0:
122,149,261250,2,0,L|210:83,1,106.25
169,295,261589,2,0,L|81:361,1,106.25,8|0,0:0|0:0,0:0:0:0:
38,96,261928,2,0,L|126:30,1,106.25
335,49,262267,5,8,0:0:0:0:
252,186,262437,1,0,0:0:0:0:
40,181,262606,1,8,0:0:0:0:
182,108,262776,1,0,0:0:0:0:
280,354,262945,1,8,0:0:0:0:
166,241,263115,1,0,0:0:0:0:
399,115,263284,1,8,0:0:0:0:
314,250,263454,1,0,0:0:0:0:
186,345,263623,5,4,0:0:0:0:
150,335,263708,1,0,0:0:0:0:
116,318,263793,1,0,0:0:0:0:
92,289,263878,1,0,0:0:0:0:
77,255,263962,1,4,0:0:0:0:
76,217,264047,1,0,0:0:0:0:
81,180,264132,1,0,0:0:0:0:
86,143,264217,1,0,0:0:0:0:
116,122,264301,5,4,0:0:0:0:
150,107,264386,1,0,0:0:0:0:
186,97,264471,1,0,0:0:0:0:
221,86,264556,1,0,0:0:0:0:
255,74,264640,1,4,0:0:0:0:
290,62,264725,1,0,0:0:0:0:
326,53,264810,1,0,0:0:0:0:
362,44,264895,1,0,0:0:0:0:
397,35,264979,1,4,0:0:0:0:
498,337,265318,5,0,0:0:0:0:
313,231,265488,1,0,0:0:0:0:
313,231,265573,1,0,0:0:0:0:
313,231,265657,2,0,B|360:189|360:189|416:165,1,106.25
341,354,265996,2,0,B|240:375|240:375|130:350,1,191.250007295609,4|0,0:0|0:0,0:0:0:0:
53,320,266335,6,0,L|147:205,1,106.25,2|0,0:0|0:0,0:0:0:0:
215,109,266674,1,2,0:0:0:0:
258,262,266844,1,0,0:0:0:0:
147,148,267013,2,0,P|138:81|175:30,1,106.25,2|0,0:0|0:0,0:0:0:0:
307,3,267352,1,2,0:0:0:0:
317,162,267522,1,0,0:0:0:0:
225,32,267691,2,0,P|281:78|332:78,1,106.25,2|0,0:0|0:0,0:0:0:0:
383,69,268030,2,0,P|341:16|264:4,1,106.25,2|0,0:0|0:0,0:0:0:0:
225,32,268369,5,2,0:0:0:0:
183,131,268539,1,0,0:0:0:0:
47,215,268708,1,2,0:0:0:0:
91,119,268878,1,0,0:0:0:0:
152,205,269047,2,0,L|99:309,1,106.25,2|0,0:0|0:0,0:0:0:0:
0,311,269386,2,0,L|51:205,1,106.25,2|0,0:0|0:0,0:0:0:0:
183,131,269725,2,0,L|307:170,1,106.25,2|0,0:0|0:0,0:0:0:0:
367,299,270064,2,0,L|243:260,1,106.25,2|0,0:0|0:0,0:0:0:0:
112,222,270403,5,2,0:0:0:0:
22,89,270573,1,0,0:0:0:0:
180,87,270742,2,0,B|213:136|213:136|233:194,1,106.25,2|0,0:0|0:0,0:0:0:0:
262,336,271081,1,2,0:0:0:0:
106,369,271250,1,0,0:0:0:0:
112,222,271420,2,0,B|171:230|171:230|222:264,1,106.25,2|0,0:0|0:0,0:0:0:0:
332,357,271759,6,0,P|425:372|456:372,1,106.25,2|0,0:0|0:0,0:0:0:0:
493,222,272098,1,2,0:0:0:0:
376,113,272267,2,0,B|357:87|331:80|299:85|281:109|281:139|294:167|321:190|356:220,1,212.5,8|0,0:0|0:0,0:0:0:0:
412,265,272776,1,2,0:0:0:0:
450,143,272945,2,0,P|441:70|301:24,1,212.5,8|0,0:0|0:0,0:0:0:0:
222,46,273454,1,2,0:0:0:0:
136,108,273623,2,0,B|110:127|103:153|108:185|132:203|162:203|190:190|213:163|243:128,1,212.5,8|0,0:0|0:0,0:0:0:0:
97,40,274132,2,0,P|52:90|38:136,1,106.25,2|0,0:0|0:0,0:0:0:0:
33,285,274471,6,0,B|94:311|94:311|175:310,1,106.25,2|0,0:0|0:0,0:0:0:0:
281,249,274810,2,0,B|326:305|326:305|347:352,1,106.25,2|0,0:0|0:0,0:0:0:0:
174,376,275149,1,2,0:0:0:0:
124,224,275318,1,0,0:0:0:0:
281,249,275488,1,2,0:0:0:0:
93,347,275657,1,0,0:0:0:0:
235,188,275827,2,0,P|309:178|347:209,2,106.25,2|0|2,0:0|0:0|0:0,0:0:0:0:
273,343,276335,1,0,0:0:0:0:
432,351,276505,5,2,0:0:0:0:
437,192,276674,2,0,L|396:226,2,53.125,0|0|2,0:0|0:0|0:0,0:0:0:0:
502,276,277013,1,0,0:0:0:0:
508,168,277183,6,0,P|466:122|402:126,1,106.25,2|0,0:0|0:0,0:0:0:0:
462,17,277522,2,0,P|379:60|360:102,1,106.25,2|0,0:0|0:0,0:0:0:0:
214,86,277861,2,0,P|256:132|320:128,1,106.25,2|0,0:0|0:0,0:0:0:0:
260,237,278200,2,0,P|343:194|362:152,1,106.25,2|0,0:0|0:0,0:0:0:0:
288,61,278539,5,2,0:0:0:0:
154,28,278708,1,0,0:0:0:0:
65,186,278878,1,2,0:0:0:0:
185,118,279047,1,0,0:0:0:0:
46,111,279217,2,0,P|-3:155|-8:205,1,106.25,2|0,0:0|0:0,0:0:0:0:
38,322,279556,2,0,P|69:270|64:208,1,106.25,2|0,0:0|0:0,0:0:0:0:
0,252,279895,5,2,0:0:0:0:
38,322,280064,1,0,0:0:0:0:
112,362,280234,1,2,0:0:0:0:
196,364,280403,2,0,B|244:396|324:364|268:348|348:308|412:364,1,212.5,8|0,0:0|0:0,0:0:0:0:
442,367,280911,1,2,0:0:0:0:
438,290,281081,2,0,P|350:263|223:317,1,212.5,8|0,0:0|0:0,0:0:0:0:
442,367,281589,2,0,P|496:341|509:272,1,106.25,2|0,0:0|0:0,0:0:0:0:
505,215,281928,5,2,0:0:0:0:
484,132,282098,1,0,0:0:0:0:
343,57,282267,1,2,0:0:0:0:
372,136,282437,1,0,0:0:0:0:
505,16,282606,2,0,B|453:32|453:32|409:78,1,106.25,2|0,0:0|0:0,0:0:0:0:
291,128,282945,5,2,0:0:0:0:
343,57,283115,2,0,P|269:42|178:155,1,212.5,8|0,0:0|0:0,0:0:0:0:
174,184,283623,1,2,0:0:0:0:
174,184,283793,1,0,0:0:0:0:
118,332,283962,2,0,B|65:362|65:362|16:369,1,106.25,2|0,0:0|0:0,0:0:0:0:
79,220,284301,1,2,0:0:0:0:
199,325,284471,2,0,B|247:357|327:325|271:309|351:269|415:325,1,212.5,8|0,0:0|0:0,0:0:0:0:
347,373,284979,5,2,0:0:0:0:
243,263,285149,1,0,0:0:0:0:
444,196,285318,1,2,0:0:0:0:
484,294,285488,1,0,0:0:0:0:
298,192,285657,1,2,0:0:0:0:
255,94,285827,1,0,0:0:0:0:
455,25,285996,6,0,B|488:70|488:70|496:150,1,106.25,2|0,0:0|0:0,0:0:0:0:
298,192,286335,2,0,B|236:197|236:197|163:155,1,106.25,2|0,0:0|0:0,0:0:0:0:
377,60,286674,1,2,0:0:0:0:
310,243,286844,2,0,L|293:173,2,53.125
190,66,287183,2,0,L|246:80,2,53.125
12,183,287522,2,0,L|97:168,1,53.125
197,175,287691,2,0,B|213:279|213:279|199:405,1,191.250007295609,4|0,0:0|0:0,0:0:0:0:
97,350,288030,6,0,B|113:286|100:226,1,106.25
28,49,288369,2,0,P|101:55|151:45,1,106.25
291,25,288708,1,0,0:0:0:0:
386,152,288878,1,0,0:0:0:0:
227,161,289047,1,0,0:0:0:0:
408,49,289217,2,0,P|454:101|447:252,1,212.5
242,242,289725,2,0,P|297:195|311:148,1,106.25
142,30,290064,6,0,L|142:109,2,53.125
130,242,290403,2,0,B|169:294|169:294|206:327,1,106.25
71,151,290742,2,0,B|24:91|24:91|-17:63,1,106.25
52,280,291081,2,0,B|36:350|36:350|35:390,1,106.25
160,211,291420,2,0,B|207:182|207:182|277:170,1,106.25
417,173,291759,5,0,0:0:0:0:
404,331,291928,1,0,0:0:0:0:
270,243,292098,1,0,0:0:0:0:
481,255,292267,1,0,0:0:0:0:
292,353,292437,1,0,0:0:0:0:
303,141,292606,2,0,L|343:101,2,53.125
413,25,292945,1,0,0:0:0:0:
479,170,293115,2,0,B|435:200|435:200|372:219,1,106.25
227,248,293454,5,0,0:0:0:0:
151,209,293623,1,0,0:0:0:0:
98,141,293793,1,0,0:0:0:0:
68,61,293962,1,0,0:0:0:0:
226,42,294132,2,0,P|247:120|235:167,1,106.25
170,99,294471,2,0,P|147:45|155:-3,1,106.25
312,20,294810,5,0,0:0:0:0:
395,35,294979,1,0,0:0:0:0:
468,77,295149,1,0,0:0:0:0:
498,156,295318,1,0,0:0:0:0:
400,282,295488,2,0,P|327:243|305:215,1,106.25
393,199,295827,2,0,P|460:230|484:276,1,106.25
354,357,296166,6,0,L|281:360,4,53.125
228,258,296674,1,0,0:0:0:0:
117,142,296844,1,0,0:0:0:0:
97,167,296928,1,0,0:0:0:0:
78,192,297013,1,0,0:0:0:0:
60,218,297098,1,0,0:0:0:0:
42,245,297183,2,0,B|16:307|16:307|13:374,1,106.25
224,383,297522,2,0,B|177:351|177:351|222:331,1,106.25
375,285,297861,6,0,B|484:238|484:238|462:162|394:192,1,212.5
316,214,298369,2,0,P|335:138|348:132,2,53.125
339,55,298708,1,0,0:0:0:0:
512,14,298878,2,0,B|512:74|512:74|492:152,1,106.25
339,55,299217,2,0,B|396:32|396:32|442:24,1,106.25
411,170,299556,5,0,0:0:0:0:
288,254,299725,1,0,0:0:0:0:
262,107,299895,1,0,0:0:0:0:
402,265,300064,1,0,0:0:0:0:
402,265,300234,2,0,P|444:327|473:357,1,106.25
458,136,300573,1,0,0:0:0:0:
288,254,300742,2,0,B|240:222|160:254|216:270|136:310|72:254,1,212.5
2,131,301250,5,0,0:0:0:0:
141,208,301420,1,0,0:0:0:0:
141,208,301589,2,0,P|156:129|134:63,1,106.25
31,209,301928,2,0,P|8:273|25:330,1,106.25
74,376,302267,1,0,0:0:0:0:
183,383,302437,2,0,B|233:386|292:376|333:344|340:298|320:260|302:230,2,212.5
248,293,303284,2,0,P|254:234|304:193,1,106.25
419,114,303623,6,0,L|473:174,2,53.125
453,270,303962,2,0,L|374:176,1,106.25
270,77,304301,1,8,0:0:0:0:
383,188,304471,1,0,0:0:0:0:
270,77,304640,1,0,0:0:0:0:
383,188,304810,1,0,0:0:0:0:
171,181,304979,5,8,0:0:0:0:
360,82,305149,1,0,0:0:0:0:
171,181,305318,1,0,0:0:0:0:
360,82,305488,1,0,0:0:0:0:
309,287,305657,6,0,B|289:232|289:232|252:188,1,106.25,8|0,0:0|0:0,0:0:0:0:
129,25,305996,2,0,B|92:76|92:76|80:132,1,106.25
83,331,306335,2,0,B|145:342|145:342|229:325,1,106.25,8|0,0:0|0:0,0:0:0:0:
277,140,306674,2,0,B|228:120|228:120|165:127,1,106.25
8,258,307013,5,8,0:0:0:0:
215,209,307183,1,0,0:0:0:0:
6,172,307352,1,8,0:0:0:0:
188,281,307522,1,0,0:0:0:0:
179,69,307691,1,8,0:0:0:0:
73,313,307861,1,0,0:0:0:0:
311,198,308030,1,8,0:0:0:0:
72,79,308200,1,0,0:0:0:0:
263,261,308369,5,8,0:0:0:0:
179,69,308539,2,0,L|177:142,2,53.125
188,281,308878,2,0,L|122:208,2,53.125
395,331,309217,2,0,L|328:347,1,53.125
326,266,309386,2,0,B|435:233|435:233|494:168,1,191.250007295609,4|0,0:0|0:0,0:0:0:0:
499,96,309725,6,0,P|431:93|388:171,1,159.375,2|0,0:0|0:0,0:0:0:0:
372,85,310064,2,0,P|370:40|268:1,1,159.375,2|0,0:0|0:0,0:0:0:0:
260,100,310403,2,0,L|303:63,3,53.125,2|0|0|0,0:0|0:0|0:0|0:0,0:0:0:0:
225,36,310742,2,0,L|142:108,1,106.25,2|0,0:0|0:0,0:0:0:0:
17,202,311081,1,2,0:0:0:0:
171,240,311250,1,0,0:0:0:0:
70,116,311420,2,0,B|72:150|72:150|111:232,1,106.25,2|0,0:0|0:0,0:0:0:0:
181,354,311759,5,2,0:0:0:0:
212,355,311844,1,0,0:0:0:0:
243,356,311928,1,0,0:0:0:0:
274,357,312013,1,0,0:0:0:0:
305,358,312098,2,0,B|376:355|376:355|451:330,1,106.25,2|0,0:0|0:0,0:0:0:0:
501,213,312437,6,0,P|467:149|386:115,1,159.375,2|0,0:0|0:0,0:0:0:0:
323,71,312776,2,0,P|311:155|368:222,1,159.375,2|0,0:0|0:0,0:0:0:0:
428,233,313115,2,0,L|410:285,3,53.125,2|0|0|0,0:0|0:0|0:0|0:0,0:0:0:0:
330,282,313454,2,0,B|270:289|270:289|206:276,1,106.25,2|0,0:0|0:0,0:0:0:0:
81,209,313793,5,2,0:0:0:0:
171,78,313962,1,0,0:0:0:0:
273,201,314132,1,2,0:0:0:0:
76,121,314301,1,0,0:0:0:0:
264,21,314471,2,0,L|318:47,3,53.125,2|0|0|0,0:0|0:0|0:0|0:0,0:0:0:0:
355,141,314810,2,0,L|232:84,1,106.25,2|0,0:0|0:0,0:0:0:0:
171,78,315149,6,0,P|161:193|200:247,2,159.375,2|0|0,0:0|0:0|0:0,0:0:0:0:
378,27,315827,1,2,0:0:0:0:
401,47,315911,1,0,0:0:0:0:
422,70,315996,1,0,0:0:0:0:
434,99,316081,1,0,0:0:0:0:
442,129,316166,2,0,L|466:245,1,106.25,2|0,0:0|0:0,0:0:0:0:
386,373,316505,6,0,L|363:249,1,106.25,2|0,0:0|0:0,0:0:0:0:
285,130,316844,1,2,0:0:0:0:
164,233,317013,1,0,0:0:0:0:
268,353,317183,1,2,0:0:0:0:
264,321,317267,1,0,0:0:0:0:
259,289,317352,1,0,0:0:0:0:
254,257,317437,1,0,0:0:0:0:
248,225,317522,2,0,B|218:168|218:168|201:99,1,106.25,2|0,0:0|0:0,0:0:0:0:
317,31,317861,6,0,B|279:16|279:16|252:44|286:134,2,159.375,2|0|0,0:0|0:0|0:0,0:0:0:0:
470,74,318539,1,2,0:0:0:0:
482,102,318623,1,0,0:0:0:0:
494,131,318708,1,0,0:0:0:0:
505,160,318793,1,0,0:0:0:0:
497,191,318878,2,0,L|480:307,1,106.25,2|0,0:0|0:0,0:0:0:0:
335,362,319217,5,2,0:0:0:0:
256,223,319386,1,0,0:0:0:0:
414,203,319556,1,2,0:0:0:0:
414,203,319725,1,0,0:0:0:0:
246,334,319895,5,2,0:0:0:0:
215,327,319979,1,0,0:0:0:0:
183,320,320064,1,0,0:0:0:0:
152,311,320149,1,0,0:0:0:0:
121,301,320234,2,0,B|51:267|51:267|20:235,1,106.25,2|0,0:0|0:0,0:0:0:0:
28,86,320573,6,0,P|75:28|155:64,2,159.375,2|0|0,0:0|0:0|0:0,0:0:0:0:
123,152,321250,2,0,L|179:112,1,53.125,2|0,0:0|0:0,0:0:0:0:
273,130,321420,2,0,L|217:170,1,53.125
251,56,321589,2,0,B|306:24|306:24|373:17,1,106.25,2|0,0:0|0:0,0:0:0:0:
486,182,321928,6,0,P|456:251|425:288,1,106.25,2|0,0:0|0:0,0:0:0:0:
331,285,322267,2,0,P|361:216|392:179,1,106.25
415,358,322606,2,0,L|361:368,3,53.125,2|0|0|0,0:0|0:0|0:0|0:0,0:0:0:0:
256,375,322945,2,0,B|186:374|186:374|122:358,1,106.25,2|0,0:0|0:0,0:0:0:0:
66,299,323284,6,0,B|72:232|72:232|139:140,2,159.375,2|0|0,0:0|0:0|0:0,0:0:0:0:
188,196,323962,2,0,L|156:244,1,53.125,2|0,0:0|0:0,0:0:0:0:
222,289,324132,2,0,L|253:243,1,53.125
250,119,324301,2,0,B|290:173|290:173|351:201,1,106.25,2|0,0:0|0:0,0:0:0:0:
419,59,324640,1,2,0:0:0:0:
265,13,324810,1,0,0:0:0:0:
114,65,324979,2,0,P|60:102|26:147,1,106.25,2|0,0:0|0:0,0:0:0:0:
120,267,325318,5,2,0:0:0:0:
143,245,325403,1,0,0:0:0:0:
167,224,325488,1,0,0:0:0:0:
190,202,325573,1,0,0:0:0:0:
211,178,325657,2,0,P|236:74|235:68,1,106.25,2|0,0:0|0:0,0:0:0:0:
164,106,325996,5,8,0:0:0:0:
53,221,326166,1,0,0:0:0:0:
199,281,326335,1,0,0:0:0:0:
99,155,326505,1,0,0:0:0:0:
30,355,326674,2,0,P|95:314|124:279,1,106.25,8|0,0:0|0:0,0:0:0:0:
255,150,327013,2,0,P|193:108|133:113,1,106.25
57,109,327352,5,8,0:0:0:0:
142,304,327522,1,0,0:0:0:0:
57,109,327691,1,0,0:0:0:0:
142,304,327861,1,0,0:0:0:0:
275,75,328030,1,8,0:0:0:0:
51,220,328200,1,0,0:0:0:0:
311,267,328369,1,0,0:0:0:0:
153,52,328539,1,0,0:0:0:0:
225,306,328708,5,4,0:0:0:0:
248,327,328793,1,0,0:0:0:0:
272,347,328878,1,0,0:0:0:0:
294,368,328962,1,0,0:0:0:0:
335,377,329047,1,4,0:0:0:0:
373,359,329132,1,0,0:0:0:0:
415,350,329217,1,0,0:0:0:0:
457,351,329301,1,0,0:0:0:0:
479,314,329386,5,4,0:0:0:0:
486,272,329471,1,0,0:0:0:0:
482,229,329556,1,0,0:0:0:0:
462,191,329640,1,0,0:0:0:0:
442,153,329725,1,4,0:0:0:0:
441,110,329810,1,0,0:0:0:0:
452,68,329895,1,0,0:0:0:0:
468,29,329979,1,0,0:0:0:0:
431,7,330064,6,0,P|364:12|311:46,1,106.25
36,195,330742,5,0,0:0:0:0:
36,195,330911,2,0,L|71:236,2,53.125
157,370,331250,1,0,0:0:0:0:
297,210,331420,1,0,0:0:0:0:
