osu file format v14

[General]
AudioFilename: Stella-rium.mp3
AudioLeadIn: 0
PreviewTime: 52141
Countdown: 0
SampleSet: None
StackLeniency: 0.7
Mode: 0
LetterboxInBreaks: 0
WidescreenStoryboard: 1

[Editor]
DistanceSpacing: 1.3
BeatDivisor: 4
GridSize: 4
TimelineZoom: 1.8

[Metadata]
Title:Stella-rium
TitleUnicode:Stella-rium
Artist:Kano
ArtistUnicode:Kano
Creator:vick
Version:Hard
Source:Houkago no Pleiades
Tags:kano stellarium houkago no pleiades opening tv size
BeatmapID:889293
BeatmapSetID:352053

[Difficulty]
HPDrainRate:5
CircleSize:3.8
OverallDifficulty:6
ApproachRate:8
SliderMultiplier:1.3
SliderTickRate:1

[Events]
//Background and Video events
0,0,"Subaruuuuuuuuuuuu.jpg",0,0
//Break Periods
//Storyboard Layer 0 (Background)
//Storyboard Layer 1 (Fail)
//Storyboard Layer 2 (Pass)
//Storyboard Layer 3 (Foreground)
//Storyboard Sound Samples

[TimingPoints]
955,338.983050847458,4,2,1,60,1,0
5870,-133.333333333333,4,2,1,70,0,0
6378,-100,4,2,1,60,0,0
14514,-100,4,2,1,60,0,0
17226,-133.333333333333,4,2,1,60,0,0
26378,-100,4,2,1,70,0,0
28073,-100,4,2,1,80,0,0
33497,-100,4,2,1,75,0,0
38921,-133.333333333333,4,2,1,60,0,0
44344,-100,4,2,1,80,0,0
49429,-133.333333333333,4,2,1,80,0,0
49768,-133.333333333333,4,2,1,60,0,0
51124,-100,4,2,1,75,0,0
52141,-100,4,2,1,85,0,1
52480,-100,4,2,1,85,0,1
62480,-100,4,3,1,80,0,1
63327,-100,4,2,1,80,0,1
72819,-100,4,3,1,80,0,1
74175,-100,4,2,1,70,0,0
78921,-100,4,3,1,70,0,0
79599,-83.3333333333333,4,2,1,70,0,0
80785,-90.9090909090909,4,2,1,70,0,0
81463,-83.3333333333333,4,2,1,70,0,0
81971,-100,4,2,1,70,0,0

[Colours]
Combo1 : 36,26,132
Combo2 : 11,181,244
Combo3 : 252,109,227
Combo4 : 232,191,253
Combo5 : 250,238,129

[HitObjects]
104,228,955,6,0,L|124:304,1,65
196,232,1293,2,0,P|180:172|96:136,1,130
224,140,1802,5,0,0:0:0:0:
224,140,1971,2,0,L|312:148,1,65
364,212,2310,1,0,0:0:0:0:
364,212,2479,2,0,L|276:220,1,65
428,284,2819,2,0,P|456:240|440:156,1,130
372,100,3327,1,0,0:0:0:0:
372,100,3497,1,0,0:0:0:0:
280,136,3666,6,0,L|200:104,1,65
224,208,4005,2,0,P|288:228|352:184,1,130
280,280,4514,1,0,0:0:0:0:
280,280,4683,2,0,L|224:344,1,65
96,192,5192,5,0,0:0:0:0:
212,36,5531,1,0,0:0:0:0:
212,36,6378,6,0,P|192:84|224:176,1,130
288,216,6887,1,0,0:0:0:0:
220,288,7056,2,0,L|128:308,1,65
76,248,7395,1,0,0:0:0:0:
76,248,7565,1,0,0:0:0:0:
128,164,7734,6,0,P|140:124|136:80,2,65
76,248,8243,2,0,B|112:284|112:284|208:304,1,130
284,268,8751,2,0,P|320:240|336:212,1,65
256,160,9090,6,0,P|212:100|144:84,1,130
160,180,9599,1,0,0:0:0:0:
108,260,9768,2,0,B|92:360|92:360|68:328,1,130
172,324,10277,1,0,0:0:0:0:
201,228,10446,6,0,P|177:192|141:172,2,65
252,312,10955,2,0,P|312:336|376:320,1,130
316,240,11463,2,0,L|340:164,1,65
268,108,11802,6,0,P|208:84|120:108,1,130
196,176,12310,1,0,0:0:0:0:
184,272,12480,2,0,P|164:308|124:336,1,65
48,328,12819,1,0,0:0:0:0:
48,328,12988,1,0,0:0:0:0:
92,237,13158,6,0,P|132:189|216:181,1,130
184,272,13666,1,0,0:0:0:0:
268,320,13836,2,0,L|348:332,1,65
408,268,14175,1,0,0:0:0:0:
408,268,14344,1,0,0:0:0:0:
392,172,14514,6,0,L|336:228,1,65
248,232,14853,2,0,P|196:212|168:132,1,130
264,132,15361,1,0,0:0:0:0:
348,84,15531,1,0,0:0:0:0:
392,172,15700,1,0,0:0:0:0:
396,268,15870,6,0,L|328:336,1,65
392,172,16209,1,0,0:0:0:0:
264,132,16378,1,0,0:0:0:0:
264,132,16463,1,0,0:0:0:0:
264,132,16548,2,0,P|220:124|176:128,1,65
148,208,16887,2,0,P|115:207|83:200,1,65
200,284,17226,6,0,P|240:300|312:284,1,97.50000371933
252,206,17734,2,0,L|188:106,1,97.50000371933
116,76,18243,1,0,0:0:0:0:
40,140,18412,6,0,P|72:168|140:176,1,97.50000371933
199,123,18921,1,0,0:0:0:0:
199,123,19260,1,0,0:0:0:0:
199,123,19599,1,0,0:0:0:0:
199,123,19938,6,0,P|224:160|232:224,1,97.50000371933
156,272,20446,2,0,B|196:308|196:308|260:324,1,97.50000371933
324,272,20955,1,0,0:0:0:0:
300,180,21124,6,0,B|288:136|288:136|304:100|300:72,1,97.50000371933
204,84,21632,1,0,0:0:0:0:
164,172,21802,2,0,B|132:212|132:212|68:236,1,97.50000371933
76,132,22310,1,0,0:0:0:0:
76,132,22480,1,0,0:0:0:0:
164,172,22649,6,0,P|196:192|224:260,1,97.50000371933
172,328,23158,2,0,B|232:352|232:352|284:348,1,97.50000371933
376,255,23666,2,0,L|316:283,1,48.750001859665
340,180,24005,6,0,B|388:156|388:156|416:104,1,97.50000371933
216,152,24683,1,0,0:0:0:0:
216,152,25022,1,0,0:0:0:0:
216,152,25361,6,0,B|200:208|200:208|232:248,1,97.50000371933
308,168,25870,2,0,P|308:128|272:80,1,97.50000371933
308,168,26717,5,0,0:0:0:0:
308,168,26887,2,0,L|392:184,1,65
268,236,27226,2,0,L|184:252,1,65
136,180,27565,2,0,L|100:125,2,65
184,76,28073,6,0,P|144:40|60:40,1,130
100,125,28582,2,0,B|140:173|140:173|152:240,1,130
84,312,29090,1,0,0:0:0:0:
84,312,29260,1,0,0:0:0:0:
180,320,29429,6,0,P|248:300|280:236,2,130
84,312,30277,1,0,0:0:0:0:
52,220,30446,2,0,L|28:152,1,65
100,92,30785,6,0,P|156:120|236:108,1,130
288,44,31293,1,0,0:0:0:0:
288,44,31463,2,0,P|312:80|320:128,1,65
264,180,31802,2,0,P|274:210|294:236,1,65
212,184,32141,6,0,P|176:152|88:140,1,130
124,232,32649,2,0,L|68:272,1,65
208,248,32988,1,0,0:0:0:0:
294,236,33158,2,0,L|350:196,1,65
380,108,33497,6,0,P|312:120|204:48,2,195
436,28,34683,1,0,0:0:0:0:
496,104,34853,6,0,L|512:176,1,65
436,28,35192,1,0,0:0:0:0:
416,180,35361,2,0,B|372:228|372:228|292:244,1,130
184,151,35870,2,0,L|248:164,1,65
144,64,36209,6,0,P|108:96|100:184,1,130
184,151,36887,2,0,L|248:164,1,65
96,173,37226,1,0,0:0:0:0:
184,151,37565,6,0,L|248:164,1,65
332,116,37904,1,0,0:0:0:0:
392,192,38073,2,0,L|424:228,2,32.5
332,116,38412,1,0,0:0:0:0:
256,56,38582,1,0,0:0:0:0:
160,72,38751,1,0,0:0:0:0:
120,152,38921,6,0,B|88:224|88:224|88:260,1,97.50000371933
148,308,39429,1,0,0:0:0:0:
148,308,39599,1,0,0:0:0:0:
248,164,39938,1,0,0:0:0:0:
248,164,40107,1,0,0:0:0:0:
316,108,40277,2,0,L|360:68,1,48.750001859665
248,164,40785,5,0,0:0:0:0:
316,108,40955,2,0,L|360:68,1,48.750001859665
316,108,41632,6,0,P|336:152|328:212,1,97.50000371933
248,164,42141,1,0,0:0:0:0:
160,164,42310,2,0,B|92:156|92:156|60:176,1,97.50000371933
67,171,42988,5,0,0:0:0:0:
67,171,43158,1,0,0:0:0:0:
144,216,43327,2,0,L|164:280,1,48.750001859665
240,296,43666,1,0,0:0:0:0:
320,332,43836,1,0,0:0:0:0:
320,332,43921,1,0,0:0:0:0:
320,332,44006,2,0,L|344:364,3,24.3750009298325
352,296,44344,6,0,P|344:236|384:176,1,130
152,120,45022,2,0,L|84:92,1,65
232,84,45361,1,0,0:0:0:0:
232,84,45700,6,0,P|244:124|216:212,1,130
104,228,46209,2,0,B|116:276|116:276|188:332,1,130
284,276,46717,1,0,0:0:0:0:
208,56,47056,6,0,L|192:128,1,65
312,136,47395,2,0,L|328:208,1,65
216,236,47734,2,0,L|132:248,1,65
284,280,48073,1,0,0:0:0:0:
108,328,48412,6,0,P|76:304|60:220,1,130
151,245,48921,2,0,B|183:233|183:233|243:137,1,130
200,60,49429,1,0,0:0:0:0:
324,144,49768,5,0,0:0:0:0:
256,192,49853,12,0,51124,0:0:0:0:
372,120,52480,6,0,P|360:164|364:192,1,65
416,264,52819,2,0,P|416:296|405:326,1,65
292,356,53158,1,0,0:0:0:0:
292,356,53327,1,0,0:0:0:0:
188,300,53497,2,0,P|140:300|100:308,1,65
196,212,53836,6,0,L|232:148,1,65
188,44,54175,1,0,0:0:0:0:
188,44,54344,1,0,0:0:0:0:
296,92,54514,2,0,P|340:136|340:216,1,130
252,272,55022,1,0,0:0:0:0:
160,200,55192,6,0,P|100:176|20:188,1,130
80,292,55700,1,0,0:0:0:0:
192,332,55870,2,0,P|240:316|264:284,1,65
300,200,56209,2,0,P|252:216|228:248,1,65
132,180,56548,6,0,L|52:136,1,65
80,32,56887,1,0,0:0:0:0:
180,92,57056,2,0,B|228:148|228:148|240:216,1,130
148,280,57565,1,0,0:0:0:0:
334,270,57904,6,0,P|386:254|406:242,1,65
298,182,58243,2,0,P|246:198|226:210,1,65
172,300,58582,2,0,L|192:368,1,65
88,288,58921,2,0,L|68:220,1,65
176,180,59260,6,0,P|216:144|228:116,1,65
172,28,59599,1,0,0:0:0:0:
172,28,59768,1,0,0:0:0:0:
221,134,59938,2,0,P|239:160|266:179,1,65
380,152,60277,1,0,0:0:0:0:
380,152,60446,1,0,0:0:0:0:
308,244,60616,6,0,B|260:276|260:276|256:292|256:292|200:332,1,130
96,308,61124,1,0,0:0:0:0:
92,192,61293,2,0,B|140:160|140:160|144:144|144:144|200:104,1,130
308,104,61802,1,0,0:0:0:0:
272,216,61971,6,0,P|296:272|376:304,1,130
384,192,62480,1,0,0:0:0:0:
292,120,62649,2,0,L|232:108,3,32.5
216,116,62988,2,0,L|156:104,3,32.5
124,112,63327,6,0,P|88:144|72:176,1,65
92,256,63666,2,0,P|128:224|144:192,1,65
232,188,64005,1,0,0:0:0:0:
232,188,64175,1,0,0:0:0:0:
308,248,64344,2,0,L|384:264,1,65
248,304,64683,6,0,L|172:320,1,65
96,276,65022,1,0,0:0:0:0:
96,276,65192,1,0,0:0:0:0:
168,212,65361,2,0,P|196:184|192:88,1,130
104,132,65870,1,0,0:0:0:0:
104,132,66039,6,0,L|36:160,1,65
120,40,66378,1,0,0:0:0:0:
120,40,66548,1,0,0:0:0:0:
168,212,66887,1,0,0:0:0:0:
296,64,67226,6,0,P|280:112|324:200,1,130
400,208,67734,1,0,0:0:0:0:
400,208,67904,1,0,0:0:0:0:
328,272,68073,2,0,B|264:296|264:296|192:288,1,130
128,228,68582,1,0,0:0:0:0:
196,160,68751,6,0,P|244:120|260:40,1,130
316,244,69429,2,0,P|268:284|252:364,1,130
416,244,70107,6,0,P|392:180|316:148,1,130
96,140,70785,2,0,P|120:204|196:236,1,130
320,104,71463,6,0,B|344:88|344:88|328:196,1,130
144,248,72141,2,0,L|68:276,1,65
188,168,72480,1,0,0:0:0:0:
348,276,72819,6,0,L|360:236,3,32.5
340,200,73158,2,0,L|328:160,3,32.5
320,120,73497,2,0,L|304:36,2,65
244,300,74175,6,0,P|208:252|204:172,1,130
256,104,74683,1,0,0:0:0:0:
320,180,74853,2,0,B|368:204|368:204|456:184,1,130
468,92,75361,1,0,0:0:0:0:
300,80,75531,6,0,P|260:100|224:180,1,130
396,264,76209,2,0,L|468:304,1,65
304,288,76548,1,0,0:0:0:0:
179,289,76887,6,0,P|233:273|319:297,1,130
376,352,77395,1,0,0:0:0:0:
380,256,77565,2,0,B|384:192|384:192|424:136,1,130
328,112,78073,2,0,P|264:116|208:172,2,130
308,208,78921,6,0,L|304:252,3,32.5
328,284,79260,2,0,L|332:328,3,32.5
368,360,79599,6,0,P|412:336|444:232,1,155.999995239258
308,208,80107,2,0,P|264:184|232:80,1,155.999995239258
128,244,80785,6,0,B|132:284|132:284|192:188,1,143.000004364014
384,140,81463,2,0,B|380:100|380:100|320:196,1,143.000004364014
284,96,81971,1,0,0:0:0:0:
216,252,82310,2,0,L|344:308,1,130
224,176,82988,2,0,L|96:120,1,130
272,104,83666,6,0,L|324:52,2,65
224,176,84175,1,0,0:0:0:0:
64,232,84514,1,0,0:0:0:0:
204,324,84853,1,0,0:0:0:0:
256,192,85022,12,0,87733,0:0:0:0:
