osu file format v14

[General]
AudioFilename: Stella-rium.mp3
AudioLeadIn: 0
PreviewTime: 52141
Countdown: 0
SampleSet: Soft
StackLeniency: 0.7
Mode: 0
LetterboxInBreaks: 0
WidescreenStoryboard: 1

[Editor]
Bookmarks: 81463
DistanceSpacing: 1.3
BeatDivisor: 4
GridSize: 4
TimelineZoom: 1.8

[Metadata]
Title:Stella-rium
TitleUnicode:Stella-rium
Artist:Kano
ArtistUnicode:Kano
Creator:vick
Version:Easy
Source:Houkago no Pleiades
Tags:
BeatmapID:780153
BeatmapSetID:352053

[Difficulty]
HPDrainRate:2
CircleSize:3
OverallDifficulty:4
ApproachRate:3
SliderMultiplier:0.8
SliderTickRate:1

[Events]
//Background and Video events
0,0,"Subaruuuuuuuuuuuu.jpg",0,0
//Break Periods
//Storyboard Layer 0 (Background)
//Storyboard Layer 1 (Fail)
//Storyboard Layer 2 (Pass)
//Storyboard Layer 3 (Foreground)
//Storyboard Sound Samples

[TimingPoints]
955,338.983050847458,4,2,0,60,1,0
5870,-100,4,2,0,70,0,0
6378,-100,4,2,0,60,0,0
17226,-100,4,2,0,60,0,0
26378,-100,4,2,0,70,0,0
28073,-100,4,2,0,80,0,0
33497,-100,4,2,0,75,0,0
38921,-100,4,2,0,60,0,0
44344,-100,4,2,0,80,0,0
49768,-100,4,2,0,60,0,0
51124,-100,4,2,0,85,0,0
52480,-100,4,2,0,85,0,1
61293,-100,4,2,0,85,0,1
61971,-100,4,2,0,85,0,1
62480,-100,4,3,0,80,0,1
63327,-100,4,2,0,80,0,1
63327,-100,4,2,0,80,0,1
63327,-100,4,2,0,80,0,1
74175,-100,4,2,0,70,0,0
78921,-100,4,3,0,70,0,0
78921,-100,4,3,0,70,0,0
78921,-100,4,3,0,70,0,0
79599,-100,4,2,0,70,0,0
79599,-100,4,2,0,70,0,0
79599,-100,4,2,0,70,0,0
80785,-100,4,2,0,70,0,0
81463,-100,4,2,0,70,0,0
81971,-100,4,2,0,70,0,0

[Colours]
Combo1 : 36,26,132
Combo2 : 11,181,244
Combo3 : 252,109,227
Combo4 : 232,191,253
Combo5 : 250,238,129

[HitObjects]
100,72,955,6,0,L|76:180,1,80,4|4,0:0|0:0,0:0:0:0:
128,244,1632,1,0,0:0:0:0:
220,292,1971,2,0,B|296:316|296:316|324:280,1,120
260,200,2819,2,0,B|235:124|235:124|271:96,1,120
360,144,3666,6,0,P|423:190|487:204,2,120
204,156,5192,2,0,L|100:180,1,80
52,248,5870,1,0,0:0:0:0:
196,304,6378,6,0,P|244:336|336:352,2,120
168,204,7734,2,0,P|120:172|28:156,2,120
272,192,9090,2,0,P|328:180|404:126,2,120
208,108,10446,2,0,P|160:76|68:60,2,120
272,192,11802,5,0,0:0:0:0:
188,252,12141,2,0,L|160:336,2,80
160,152,13158,1,0,0:0:0:0:
60,180,13497,2,0,L|32:264,2,80
76,72,14514,6,0,P|148:36|232:60,1,160
292,132,15531,1,2,0:0:0:0:
256,192,15870,12,0,17226,0:0:0:0:
360,184,18412,6,0,P|296:164|232:184,1,120
296,264,19260,1,0,0:0:0:0:
192,264,19599,1,0,0:0:0:0:
116,336,19938,6,0,P|88:268|96:220,1,120,4|0,0:0|0:0,0:0:0:0:
176,156,20785,1,0,0:0:0:0:
104,80,21124,2,0,P|188:56|264:96,1,160
472,220,22649,6,0,P|420:244|356:236,1,120,4|0,0:0|0:0,0:0:0:0:
400,140,23497,1,0,0:0:0:0:
376,40,23836,1,0,0:0:0:0:
292,172,24344,1,0,0:0:0:0:
196,136,24683,2,0,L|104:156,1,80
72,248,25361,5,0,0:0:0:0:
172,272,25700,2,0,L|204:224,1,40
196,136,26209,1,0,0:0:0:0:
272,208,26548,1,0,0:0:0:0:
320,116,26887,2,0,L|356:24,1,80
36,136,28073,5,0,0:0:0:0:
108,212,28412,2,0,L|124:308,1,80
216,332,29090,1,0,0:0:0:0:
304,276,29429,6,0,P|376:232|420:220,2,120
216,332,30785,1,4,0:0:0:0:
144,256,31124,2,0,L|96:176,1,80
148,92,31802,1,0,0:0:0:0:
220,16,32141,6,0,P|252:72|228:164,1,160
164,240,33158,1,0,0:0:0:0:
252,300,33497,1,0,0:0:0:0:
380,212,34005,1,0,0:0:0:0:
296,80,34514,1,0,0:0:0:0:
204,132,34853,6,0,B|143:157|143:157|106:216,2,120
257,221,36209,2,0,P|349:313|405:177,1,320
339,231,38921,6,0,B|281:207|281:207|211:231,1,120,4|0,0:0|0:0,0:0:0:0:
115,335,39938,1,0,0:0:0:0:
140,234,40277,2,0,B|164:176|164:176|140:106,1,120,4|0,0:0|0:0,0:0:0:0:
36,10,41294,1,0,0:0:0:0:
136,33,41632,2,0,B|194:57|194:57|264:33,1,120,4|0,0:0|0:0,0:0:0:0:
286,189,42649,1,0,0:0:0:0:
389,176,42988,1,0,0:0:0:0:
312,92,44344,6,0,P|234:64|152:104,1,160,4|0,0:0|0:0,0:0:0:0:
236,167,45361,1,0,0:0:0:0:
156,236,45700,1,0,0:0:0:0:
242,293,46039,2,0,L|261:346,1,40
236,167,46717,1,0,0:0:0:0:
336,192,47056,6,0,P|396:164|427:107,2,120,4|0|4,0:0|0:0|0:0,0:0:0:0:
236,167,48412,1,0,0:0:0:0:
136,136,48751,2,0,L|86:126,1,40
184,256,49429,1,0,0:0:0:0:
256,192,49768,12,0,51124,0:0:0:0:
160,152,52480,6,0,B|236:111|236:111|323:134,1,160,4|8,0:0|0:0,0:0:0:0:
367,214,53497,1,0,0:0:0:0:
294,288,53836,2,0,B|218:329|218:329|131:306,1,160,4|8,0:0|0:0,0:0:0:0:
92,220,54853,1,0,0:0:0:0:
193,197,55192,6,0,P|247:178|283:74,1,160
181,89,56209,1,0,0:0:0:0:
87,133,56548,2,0,P|61:206|97:275,1,160
200,295,57565,1,8,0:0:0:0:
250,203,57904,6,0,L|290:125,1,80
353,211,58582,2,0,L|415:273,1,80,0|8,0:0|0:0,0:0:0:0:
321,323,59260,2,0,B|265:341|265:341|193:319,2,120,4|0|8,0:0|0:0|0:0,0:0:0:0:
263,236,60616,2,0,L|263:67,2,160,12|0|0,0:0|0:0|0:0,0:0:0:0:
206,323,62310,1,0,0:0:0:0:
82,36,63327,6,0,P|53:81|50:123,1,80
152,115,64005,2,0,P|142:153|118:185,1,80
42,255,64683,2,0,P|56:287|139:335,2,120
143,229,66039,6,0,P|189:162|269:177,1,160
397,243,67226,2,0,P|404:150|365:49,1,200
267,21,68412,1,0,0:0:0:0:
205,104,68751,6,0,L|147:172,1,80
221,243,69429,2,0,L|163:311,1,80
65,319,70107,1,0,0:0:0:0:
60,215,70446,1,0,0:0:0:0:
153,164,70785,1,0,0:0:0:0:
256,177,71124,1,0,0:0:0:0:
256,192,71463,12,0,72819,0:0:0:0:
84,150,74175,6,0,P|153:101|235:111,1,160
177,199,75192,1,8,0:0:0:0:
269,247,75531,2,0,P|200:296|118:286,1,160
177,199,76548,1,0,0:0:0:0:
144,100,76887,6,0,B|116:51|116:51|52:17,2,120
177,199,78243,2,0,P|200:257|300:295,1,160
288,88,79599,5,0,0:0:0:0:
177,199,80107,2,0,L|150:293,1,80
260,268,80785,2,0,L|233:362,1,80
365,260,81463,2,0,L|338:354,1,80
296,188,82310,5,0,0:0:0:0:
244,100,82649,1,0,0:0:0:0:
296,20,82988,1,0,0:0:0:0:
400,32,83327,1,0,0:0:0:0:
472,108,83666,6,0,L|496:144,3,40,4|2|0|2,0:0|0:0|0:0|0:0,0:0:0:0:
472,243,84514,1,0,0:0:0:0:
372,271,84853,1,4,0:0:0:0:
256,192,85022,12,0,87903,0:0:0:0:
