osu file format v14

[General]
AudioFilename: audio.mp3
AudioLeadIn: 0
PreviewTime: -1
Countdown: 0
SampleSet: None
StackLeniency: 0.7
Mode: 3
LetterboxInBreaks: 0
SpecialStyle: 0
WidescreenStoryboard: 0

[Editor]
DistanceSpacing: 1
BeatDivisor: 4
GridSize: 4
TimelineZoom: 0.9

[Metadata]
Title:Stella-rium
TitleUnicode:Stella-rium
Artist:Kano
ArtistUnicode:鹿乃
Creator:indyinyou
Version:Drum track
Source:放課後のプレアデス
Tags:houkago no pleiades karen flask frey
BeatmapID:1108451
BeatmapSetID:521877

[Difficulty]
HPDrainRate:9
CircleSize:7
OverallDifficulty:9
ApproachRate:5
SliderMultiplier:1.4
SliderTickRate:1

[Events]
//Background and Video events
0,0,"Kano.png",0,0
Video,160,"Stella-rium.avi"
//Break Periods
//Storyboard Layer 0 (Background)
//Storyboard Layer 1 (Fail)
//Storyboard Layer 2 (Pass)
//Storyboard Layer 3 (Foreground)
//Storyboard Sound Samples

[TimingPoints]
612,338.983050847458,4,2,0,100,1,0
119399,338.983050847458,4,2,0,100,1,0
119623,338.983050847458,4,2,0,100,1,0
119934,338.983050847458,4,2,0,100,1,0

[HitObjects]
475,192,612,5,0,0:0:0:35:cymbol.wav
256,192,612,1,0,0:0:0:70:bassdrum.wav
182,192,612,1,0,0:0:0:35:hihat02.wav
475,192,781,1,0,0:0:0:35:cymbol.wav
256,192,781,1,0,0:0:0:70:bassdrum.wav
182,192,781,1,0,0:0:0:35:hihat02.wav
475,192,950,1,0,0:0:0:35:cymbol.wav
182,192,950,1,0,0:0:0:35:hihat02.wav
256,192,950,1,0,0:0:0:70:bassdrum.wav
36,192,1289,1,0,0:0:0:70:hihat.wav
36,192,1459,1,0,0:0:0:70:hihat.wav
36,192,1628,1,0,0:0:0:70:hihat.wav
36,192,1798,1,0,0:0:0:70:hihat.wav
36,192,1967,1,0,0:0:0:70:hihat.wav
36,192,2137,1,0,0:0:0:70:hihat.wav
36,192,2306,1,0,0:0:0:70:hihat.wav
36,192,2476,1,0,0:0:0:70:hihat.wav
36,192,2645,1,0,0:0:0:70:hihat.wav
36,192,2815,1,0,0:0:0:70:hihat.wav
36,192,2984,1,0,0:0:0:70:hihat.wav
36,192,3154,1,0,0:0:0:70:hihat.wav
256,192,3323,1,0,0:0:0:70:bassdrum.wav
182,192,3323,1,0,0:0:0:35:hihat02.wav
475,192,3323,1,0,0:0:0:35:cymbol.wav
182,192,3493,1,0,0:0:0:35:hihat02.wav
256,192,3493,1,0,0:0:0:70:bassdrum.wav
475,192,3493,1,0,0:0:0:35:cymbol.wav
182,192,3662,1,0,0:0:0:35:hihat02.wav
256,192,3662,1,0,0:0:0:70:bassdrum.wav
475,192,3662,1,0,0:0:0:35:cymbol.wav
36,192,3832,1,0,0:0:0:70:hihat.wav
36,192,4001,1,0,0:0:0:70:hihat.wav
36,192,4171,1,0,0:0:0:70:hihat.wav
36,192,4340,1,0,0:0:0:70:hihat.wav
36,192,4510,1,0,0:0:0:70:hihat.wav
329,192,4679,1,0,0:0:0:70:snare.wav
109,192,4679,1,0,0:0:0:35:tom01.wav
256,192,4849,1,0,0:0:0:70:bassdrum.wav
182,192,4849,1,0,0:0:0:35:hihat02.wav
475,192,4849,1,0,0:0:0:45:cymbol.wav
256,192,5188,1,0,0:0:0:70:bassdrum.wav
182,192,5188,1,0,0:0:0:35:hihat02.wav
475,192,5188,1,0,0:0:0:45:cymbol.wav
256,192,6035,5,0,0:0:0:70:bassdrum.wav
36,192,6035,1,0,0:0:0:70:cymbol.wav
475,192,6035,1,0,0:0:0:70:cymbol.wav
329,192,6374,1,0,0:0:0:70:snare.wav
36,192,6374,1,0,0:0:0:70:hihat03.wav
402,192,6713,1,0,0:0:0:70:bassdrum.wav
36,192,6713,1,0,0:0:0:70:hihat03.wav
402,192,6883,1,0,0:0:0:70:bassdrum.wav
329,192,7052,1,0,0:0:0:70:snare.wav
36,192,7052,1,0,0:0:0:70:hihat03.wav
402,192,7391,1,0,0:0:0:70:bassdrum.wav
36,192,7391,1,0,0:0:0:70:hihat03.wav
329,192,7730,1,0,0:0:0:70:snare.wav
36,192,7730,1,0,0:0:0:70:hihat03.wav
402,192,8069,1,0,0:0:0:70:bassdrum.wav
36,192,8069,1,0,0:0:0:70:hihat03.wav
402,192,8239,1,0,0:0:0:70:bassdrum.wav
329,192,8408,1,0,0:0:0:70:snare.wav
36,192,8408,1,0,0:0:0:70:hihat03.wav
256,192,8747,1,0,0:0:0:70:bassdrum.wav
36,192,8747,1,0,0:0:0:70:hihat03.wav
329,192,9086,1,0,0:0:0:70:snare.wav
36,192,9086,1,0,0:0:0:70:hihat03.wav
402,192,9425,1,0,0:0:0:70:bassdrum.wav
36,192,9425,1,0,0:0:0:70:hihat03.wav
402,192,9595,1,0,0:0:0:70:bassdrum.wav
329,192,9764,1,0,0:0:0:70:snare.wav
36,192,9764,1,0,0:0:0:70:hihat03.wav
402,192,10103,1,0,0:0:0:70:bassdrum.wav
36,192,10103,1,0,0:0:0:70:hihat03.wav
329,192,10442,1,0,0:0:0:70:snare.wav
36,192,10442,1,0,0:0:0:70:hihat03.wav
402,192,10781,1,0,0:0:0:70:bassdrum.wav
36,192,10781,1,0,0:0:0:70:hihat03.wav
402,192,10950,1,0,0:0:0:70:bassdrum.wav
329,192,11120,1,0,0:0:0:70:snare.wav
36,192,11120,1,0,0:0:0:70:hihat03.wav
256,192,11459,1,0,0:0:0:70:bassdrum.wav
475,192,11459,1,0,0:0:0:70:cymbol.wav
36,192,11459,1,0,0:0:0:70:cymbol.wav
329,192,11798,1,0,0:0:0:70:snare.wav
36,192,11798,1,0,0:0:0:70:hihat03.wav
402,192,12137,1,0,0:0:0:70:bassdrum.wav
36,192,12137,1,0,0:0:0:70:hihat03.wav
402,192,12306,1,0,0:0:0:70:bassdrum.wav
329,192,12476,1,0,0:0:0:70:snare.wav
36,192,12476,1,0,0:0:0:70:hihat03.wav
402,192,12815,1,0,0:0:0:70:bassdrum.wav
36,192,12815,1,0,0:0:0:70:hihat03.wav
329,192,13154,1,0,0:0:0:70:snare.wav
36,192,13154,1,0,0:0:0:70:hihat03.wav
402,192,13493,1,0,0:0:0:70:bassdrum.wav
36,192,13493,1,0,0:0:0:70:hihat03.wav
402,192,13662,1,0,0:0:0:70:bassdrum.wav
329,192,13832,1,0,0:0:0:70:snare.wav
36,192,13832,1,0,0:0:0:70:hihat03.wav
256,192,14171,1,0,0:0:0:70:bassdrum.wav
36,192,14171,1,0,0:0:0:70:hihat03.wav
329,192,14510,1,0,0:0:0:70:snare.wav
36,192,14510,1,0,0:0:0:70:hihat03.wav
402,192,14849,1,0,0:0:0:70:bassdrum.wav
36,192,14849,1,0,0:0:0:70:hihat03.wav
402,192,15018,1,0,0:0:0:70:bassdrum.wav
329,192,15188,1,0,0:0:0:70:snare.wav
36,192,15188,1,0,0:0:0:70:hihat03.wav
402,192,15527,1,0,0:0:0:70:bassdrum.wav
36,192,15527,1,0,0:0:0:70:hihat03.wav
402,192,15696,1,0,0:0:0:70:bassdrum.wav
329,192,15866,1,0,0:0:0:70:snare.wav
329,192,16035,1,0,0:0:0:70:snare.wav
329,192,16120,1,0,0:0:0:70:snare.wav
329,192,16205,1,0,0:0:0:70:snare.wav
109,192,16374,1,0,0:0:0:70:tom01.wav
402,192,16374,1,0,0:0:0:70:bassdrum.wav
182,192,16544,1,0,0:0:0:70:tom02.wav
402,192,16544,1,0,0:0:0:70:bassdrum.wav
109,192,16713,1,0,0:0:0:70:tom01.wav
402,192,16713,1,0,0:0:0:70:bassdrum.wav
475,192,16883,1,0,0:0:0:70:cymbol.wav
36,192,16883,1,0,0:0:0:70:cymbol.wav
256,192,16883,1,0,0:0:0:70:bassdrum.wav
36,192,17222,1,0,0:0:0:70:hihat.wav
36,192,17900,1,0,0:0:0:70:hihat.wav
36,192,18578,1,0,0:0:0:70:hihat.wav
36,192,19256,1,0,0:0:0:70:hihat.wav
256,192,19425,1,0,0:0:0:70:bassdrum.wav
256,192,19595,1,0,0:0:0:70:bassdrum.wav
36,192,19934,1,0,0:0:0:70:hihat.wav
36,192,20612,1,0,0:0:0:70:hihat.wav
36,192,21289,1,0,0:0:0:70:hihat.wav
36,192,21967,1,0,0:0:0:70:hihat.wav
256,192,22306,1,0,0:0:0:70:bassdrum.wav
475,192,22306,1,0,0:0:0:45:ride.wav
36,192,22645,1,0,0:0:0:70:hihat.wav
36,192,23323,1,0,0:0:0:70:hihat.wav
36,192,24001,1,0,0:0:0:70:hihat.wav
36,192,24679,1,0,0:0:0:70:hihat.wav
256,192,24849,1,0,0:0:0:70:bassdrum.wav
256,192,25018,1,0,0:0:0:70:bassdrum.wav
182,192,25018,1,0,0:0:0:25:hihat03.wav
36,192,25357,1,0,0:0:0:70:hihat.wav
36,192,25696,1,0,0:0:0:70:hihat.wav
36,192,26035,1,0,0:0:0:70:hihat.wav
329,192,26374,1,0,0:0:0:70:snare.wav
109,192,26374,1,0,0:0:0:45:tom01.wav
256,192,26544,1,0,0:0:0:70:bassdrum.wav
182,192,26544,1,0,0:0:0:55:hihat02.wav
256,192,26883,1,0,0:0:0:70:bassdrum.wav
182,192,26883,1,0,0:0:0:55:hihat02.wav
329,192,27222,1,0,0:0:0:70:snare.wav
109,192,27222,1,0,0:0:0:45:tom01.wav
329,192,27391,1,0,0:0:0:70:snare.wav
109,192,27391,1,0,0:0:0:45:tom01.wav
109,192,27561,1,0,0:0:0:45:tom01.wav
329,192,27561,1,0,0:0:0:70:snare.wav
256,192,27730,1,0,0:0:0:70:bassdrum.wav
36,192,27730,1,0,0:0:0:70:cymbol.wav
475,192,27730,1,0,0:0:0:70:cymbol.wav
329,192,28069,1,0,0:0:0:70:snare.wav
329,192,28747,1,0,0:0:0:70:snare.wav
329,192,29425,1,0,0:0:0:70:snare.wav
329,192,30103,1,0,0:0:0:70:snare.wav
329,192,30781,1,0,0:0:0:70:snare.wav
329,192,31459,1,0,0:0:0:70:snare.wav
329,192,32137,1,0,0:0:0:70:snare.wav
329,192,32815,1,0,0:0:0:70:snare.wav
256,192,33154,1,0,0:0:0:0:
36,192,33154,1,0,0:0:0:0:
475,192,33154,1,0,0:0:0:0:
329,192,33493,1,0,0:0:0:70:snare.wav
329,192,34171,1,0,0:0:0:70:snare.wav
329,192,34849,1,0,0:0:0:70:snare.wav
329,192,35527,1,0,0:0:0:70:snare.wav
329,192,36205,1,0,0:0:0:70:snare.wav
