osu file format v14

[General]
AudioFilename: audio.mp3
AudioLeadIn: 0
PreviewTime: 51550
Countdown: 1
SampleSet: Soft
StackLeniency: 0.7
Mode: 0
LetterboxInBreaks: 0
WidescreenStoryboard: 0

[Editor]
Bookmarks: 364,5787,16635,27482,38330,43753,49177,50533,51889,62736,73584,84431,95279,106126,111550,116974,118330,119686,130533,141380,152228,157652,160364,163075,184770,187482,190194,195618,201041,206465,217313,228160,233584,238838,241635
DistanceSpacing: 2
BeatDivisor: 4
GridSize: 4
TimelineZoom: 1.8

[Metadata]
Title:Stella-rium
TitleUnicode:Stella-rium
Artist:Kano
ArtistUnicode:鹿乃
Creator:WillCookie
Version:stars yeah
Source:放課後のプレアデス
Tags:
BeatmapID:1956595
BeatmapSetID:936623

[Difficulty]
HPDrainRate:5.5
CircleSize:4.2
OverallDifficulty:8.5
ApproachRate:9.4
SliderMultiplier:2.2
SliderTickRate:1

[Events]
//Background and Video events
0,0,"stars.jpg",0,0
//Break Periods
2,141580,151674
//Storyboard Layer 0 (Background)
//Storyboard Layer 1 (Fail)
//Storyboard Layer 2 (Pass)
//Storyboard Layer 3 (Foreground)
//Storyboard Sound Samples

[TimingPoints]
364,338.983050847458,4,2,0,100,1,0
16635,-133.333333333333,4,2,0,100,0,0
27482,-100,4,2,0,100,0,0
51889,-83.3333333333333,4,2,0,100,0,1
73584,-100,4,2,0,100,0,0
119686,-83.3333333333333,4,2,0,100,0,1
141380,-133.333333333333,4,2,0,100,0,0
157652,-100,4,2,0,100,0,0
206465,-83.3333333333333,4,2,0,100,0,1
228160,-100,4,2,0,100,0,0

[HitObjects]
73,182,364,5,0,0:0:0:0:
192,264,533,1,0,0:0:0:0:
266,151,702,2,0,P|321:166|361:210,1,110
421,331,1041,5,0,0:0:0:0:
421,331,1211,1,0,0:0:0:0:
477,213,1380,2,0,L|452:92,1,110
372,232,1719,5,0,0:0:0:0:
294,83,1889,2,0,P|252:117|191:133,1,110
231,292,2228,2,0,P|163:311|108:306,1,110
108,158,2567,1,0,0:0:0:0:
108,158,2652,1,0,0:0:0:0:
108,158,2736,1,0,0:0:0:0:
259,217,2906,1,0,0:0:0:0:
384,121,3075,5,0,0:0:0:0:
385,338,3245,1,0,0:0:0:0:
301,25,3414,2,0,P|277:94|218:136,1,110
312,260,3753,5,0,0:0:0:0:
312,260,3923,1,0,0:0:0:0:
182,158,4092,2,0,P|196:97|228:48,1,110
234,241,4431,5,0,0:0:0:0:
360,357,4601,6,0,L|388:349,1,27.5
361,51,4940,6,0,L|389:43,1,27.5
90,293,5279,6,0,B|148:291|183:326|183:326|252:258|252:258|341:289|417:246,1,330
243,80,6126,5,0,0:0:0:0:
181,249,6296,1,0,0:0:0:0:
366,162,6465,2,0,P|356:91|375:18,1,110
483,175,6804,1,0,0:0:0:0:
388,294,6974,5,0,0:0:0:0:
388,294,7058,1,0,0:0:0:0:
388,294,7143,1,0,0:0:0:0:
229,293,7313,1,0,0:0:0:0:
334,189,7482,2,0,P|279:151|259:96,1,110
330,320,7821,5,0,0:0:0:0:
414,124,7991,1,0,0:0:0:0:
211,228,8160,2,0,P|159:187|133:120,1,110
402,288,8499,5,0,0:0:0:0:
363,88,8669,1,0,0:0:0:0:
324,316,8838,5,0,0:0:0:0:
440,97,9008,1,0,0:0:0:0:
472,338,9177,5,0,0:0:0:0:
194,138,9347,1,0,0:0:0:0:
205,288,9516,5,0,0:0:0:0:
287,16,9686,1,0,0:0:0:0:
340,334,9855,6,0,P|393:291|414:233,3,110
272,253,10533,6,0,P|204:232|175:203,1,110
401,159,10872,2,0,P|374:111|380:48,1,110
392,282,11211,5,0,0:0:0:0:
286,64,11380,1,0,0:0:0:0:
287,243,11550,1,0,0:0:0:0:
173,158,11719,1,0,0:0:0:0:
117,250,11889,5,0,0:0:0:0:
232,335,12058,1,0,0:0:0:0:
248,154,12228,1,0,0:0:0:0:
465,108,12397,1,0,0:0:0:0:
425,301,12567,6,0,P|359:300|315:274,3,110
232,164,13245,2,0,P|172:186|139:238,3,110
248,352,13923,5,0,0:0:0:0:
73,294,14092,1,0,0:0:0:0:
270,262,14262,2,0,L|210:146,1,110
382,328,14601,5,0,0:0:0:0:
350,128,14770,1,0,0:0:0:0:
467,238,14940,5,0,0:0:0:0:
337,50,15109,1,0,0:0:0:0:
330,262,15279,5,0,0:0:0:0:
128,300,15448,1,0,0:0:0:0:
128,300,15533,1,0,0:0:0:0:
128,300,15618,1,0,0:0:0:0:
402,347,15787,1,0,0:0:0:0:
81,225,15957,5,0,0:0:0:0:
435,216,16126,1,0,0:0:0:0:
84,88,16296,1,0,0:0:0:0:
461,298,16465,1,0,0:0:0:0:
293,78,16635,6,0,P|259:146|170:202,1,165.000006294251
339,237,17143,1,0,0:0:0:0:
339,237,17482,1,0,0:0:0:0:
158,315,17821,2,0,P|252:348|346:333,1,165.000006294251
434,273,18330,1,0,0:0:0:0:
272,34,18669,1,0,0:0:0:0:
475,203,19008,2,0,P|413:195|368:204,1,82.5000031471254
353,318,19347,6,0,P|257:277|216:203,1,165.000006294251
110,275,19855,1,0,0:0:0:0:
110,275,20194,1,0,0:0:0:0:
110,275,20533,1,0,0:0:0:0:
74,149,20702,2,0,P|190:130|257:104,1,165.000006294251
244,223,21211,1,0,0:0:0:0:
336,269,21380,1,0,0:0:0:0:
334,169,21550,1,0,0:0:0:0:
422,226,21719,1,0,0:0:0:0:
424,126,21889,1,0,0:0:0:0:
333,69,22058,6,0,P|262:129|176:154,1,165.000006294251
276,218,22567,2,0,P|252:304|202:370,2,165.000006294251
148,48,23753,5,0,0:0:0:0:
148,48,24092,1,0,0:0:0:0:
148,48,24431,2,0,L|236:58,1,82.5000031471254
155,161,24770,6,0,P|243:210|334:207,1,165.000006294251
386,111,25279,1,0,0:0:0:0:
348,364,25618,5,0,0:0:0:0:
486,283,25787,1,0,0:0:0:0:
463,64,25957,1,0,0:0:0:0:
295,281,26126,5,0,0:0:0:0:
175,47,26296,6,0,L|142:55,1,20.6250007867813
460,181,26635,6,0,L|427:189,1,20.6250007867813
301,331,26974,5,0,0:0:0:0:
276,75,27143,1,0,0:0:0:0:
232,369,27313,1,0,0:0:0:0:
399,178,27482,6,0,P|302:156|188:204,1,220
348,246,27991,1,0,0:0:0:0:
134,304,28330,5,0,0:0:0:0:
12,206,28499,1,0,0:0:0:0:
262,142,28669,1,0,0:0:0:0:
239,373,28838,6,0,P|362:358|454:297,1,220
108,25,29516,6,0,P|173:64|222:71,1,110
302,280,29855,2,0,P|360:252|388:197,1,110
168,211,30194,5,0,0:0:0:0:
315,68,30364,1,0,0:0:0:0:
230,287,30533,1,0,0:0:0:0:
428,132,30702,2,0,L|413:4,1,110
365,331,31041,2,0,L|414:218,1,110
222,349,31380,1,0,0:0:0:0:
379,170,31550,5,0,0:0:0:0:
230,131,31719,1,0,0:0:0:0:
481,268,31889,5,0,0:0:0:0:
222,263,32058,1,0,0:0:0:0:
469,114,32228,5,0,0:0:0:0:
186,34,32397,1,0,0:0:0:0:
446,351,32567,5,0,0:0:0:0:
186,166,32736,1,0,0:0:0:0:
432,9,32906,6,0,P|428:82|406:127,1,110
224,86,33245,1,0,0:0:0:0:
84,231,33414,2,0,P|128:264|195:271,1,110
120,88,33753,1,0,0:0:0:0:
283,264,33923,5,0,0:0:0:0:
345,24,34092,1,0,0:0:0:0:
463,237,34262,6,0,P|434:294|392:337,1,110
348,113,34601,1,0,0:0:0:0:
253,307,34770,2,0,P|212:353|166:377,1,110
188,143,35109,2,0,P|181:215|159:251,1,110
114,29,35448,1,0,0:0:0:0:
313,242,35618,2,0,B|375:185|330:117|330:117|406:86|406:86|451:180|421:313|272:337|272:337|205:290|128:328|128:328|79:237|160:146,1,880
225,231,37143,6,0,P|248:177|225:97,1,110
300,313,37482,1,0,0:0:0:0:
300,313,37567,1,0,0:0:0:0:
300,313,37652,1,0,0:0:0:0:
183,120,37821,1,0,0:0:0:0:
388,293,37991,1,0,0:0:0:0:
415,60,38160,1,0,0:0:0:0:
288,238,38330,6,0,P|157:222|78:159,1,220
216,133,38838,1,0,0:0:0:0:
350,172,39008,2,0,P|392:110|394:56,1,110
480,182,39347,1,0,0:0:0:0:
264,355,39686,5,0,0:0:0:0:
379,245,39855,2,0,P|388:178|365:138,1,110
252,180,40194,1,0,0:0:0:0:
252,180,40279,1,0,0:0:0:0:
252,180,40364,1,0,0:0:0:0:
453,175,40533,1,0,0:0:0:0:
285,74,40702,1,0,0:0:0:0:
421,75,40872,1,0,0:0:0:0:
349,193,41041,6,0,P|330:264|279:288,1,110
214,187,41380,1,0,0:0:0:0:
136,311,41550,1,0,0:0:0:0:
162,120,41719,1,0,0:0:0:0:
231,275,41889,1,0,0:0:0:0:
245,34,42058,5,0,0:0:0:0:
279,335,42228,1,0,0:0:0:0:
343,105,42397,5,0,0:0:0:0:
336,295,42567,1,0,0:0:0:0:
147,115,42736,2,0,P|221:166|255:162,1,110
66,228,43075,5,0,0:0:0:0:
101,248,43159,1,0,0:0:0:0:
141,260,43244,1,0,0:0:0:0:
182,261,43329,1,0,0:0:0:0:
222,252,43413,5,0,0:0:0:0:
270,278,43498,1,0,0:0:0:0:
323,293,43583,1,0,0:0:0:0:
378,295,43668,1,0,0:0:0:0:
432,286,43752,5,0,0:0:0:0:
446,51,43923,1,0,0:0:0:0:
399,222,44092,5,0,0:0:0:0:
356,73,44262,1,0,0:0:0:0:
246,282,44431,5,0,0:0:0:0:
283,37,44601,1,0,0:0:0:0:
184,230,44770,5,0,0:0:0:0:
143,85,44940,1,0,0:0:0:0:
131,346,45109,5,0,0:0:0:0:
311,299,45279,1,0,0:0:0:0:
370,64,45448,1,0,0:0:0:0:
461,272,45618,2,0,P|430:335|387:364,1,110
447,18,45957,1,0,0:0:0:0:
302,198,46126,2,0,P|215:180|183:154,1,110
284,325,46465,5,0,0:0:0:0:
366,188,46635,1,0,0:0:0:0:
226,271,46804,1,0,0:0:0:0:
414,266,46974,1,0,0:0:0:0:
212,187,47143,5,0,0:0:0:0:
359,366,47313,1,0,0:0:0:0:
312,127,47482,1,0,0:0:0:0:
258,364,47652,1,0,0:0:0:0:
446,269,47821,5,0,0:0:0:0:
213,300,47991,1,0,0:0:0:0:
425,173,48160,1,0,0:0:0:0:
185,199,48330,5,0,0:0:0:0:
495,278,48499,1,0,0:0:0:0:
132,285,48669,1,0,0:0:0:0:
483,115,48838,5,0,0:0:0:0:
229,368,49008,1,0,0:0:0:0:
326,160,49177,5,0,0:0:0:0:
256,192,49262,12,0,50194,0:0:0:0:
163,309,50533,5,0,0:0:0:0:
174,275,50618,1,0,0:0:0:0:
161,242,50702,2,0,L|197:193,1,55
275,231,50872,5,0,0:0:0:0:
296,180,50957,1,0,0:0:0:0:
346,158,51041,1,0,0:0:0:0:
271,336,51719,5,0,0:0:0:0:
292,88,51889,5,0,0:0:0:0:
376,277,52058,1,0,0:0:0:0:
193,28,52228,5,0,0:0:0:0:
135,297,52397,1,0,0:0:0:0:
372,42,52567,5,0,0:0:0:0:
142,144,52736,1,0,0:0:0:0:
437,175,52906,1,0,0:0:0:0:
190,249,53075,1,0,0:0:0:0:
427,308,53245,5,0,0:0:0:0:
327,27,53414,1,0,0:0:0:0:
328,353,53584,1,0,0:0:0:0:
481,91,53753,2,0,P|417:166|356:189,1,131.99999597168
473,291,54092,5,0,0:0:0:0:
279,16,54262,1,0,0:0:0:0:
210,189,54431,1,0,0:0:0:0:
383,345,54601,6,0,L|214:326,1,131.99999597168
330,71,54940,2,0,L|143:104,1,131.99999597168
238,260,55279,2,0,L|63:244,1,131.99999597168
284,153,55618,1,0,0:0:0:0:
90,86,55787,5,0,0:0:0:0:
405,175,55957,1,0,0:0:0:0:
35,173,56126,1,0,0:0:0:0:
467,246,56296,5,0,0:0:0:0:
205,60,56465,2,0,P|286:93|339:157,1,131.99999597168
192,238,56804,1,0,0:0:0:0:
294,4,56974,5,0,0:0:0:0:
339,346,57143,1,0,0:0:0:0:
161,67,57313,6,0,P|239:118|328:129,1,131.99999597168
480,131,57652,2,0,P|423:204|364:231,1,131.99999597168
183,171,57991,1,0,0:0:0:0:
471,320,58160,1,0,0:0:0:0:
86,305,58330,2,0,P|188:286|252:242,1,131.99999597168
388,359,58669,5,0,0:0:0:0:
336,51,58838,1,0,0:0:0:0:
274,298,59008,6,0,P|351:248|381:175,1,131.99999597168
95,232,59347,5,0,0:0:0:0:
153,91,59516,1,0,0:0:0:0:
327,238,59686,6,0,P|239:223|181:167,1,131.99999597168
354,357,60025,5,0,0:0:0:0:
239,304,60194,1,0,0:0:0:0:
407,289,60364,5,0,0:0:0:0:
183,355,60533,1,0,0:0:0:0:
446,379,60702,5,0,0:0:0:0:
130,283,60872,1,0,0:0:0:0:
500,267,61041,5,0,0:0:0:0:
74,378,61211,1,0,0:0:0:0:
450,184,61380,5,0,0:0:0:0:
104,222,61550,1,0,0:0:0:0:
460,97,61719,5,0,0:0:0:0:
46,65,61889,1,0,0:0:0:0:
415,353,62058,5,0,0:0:0:0:
438,297,62142,1,0,0:0:0:0:
423,238,62227,1,0,0:0:0:0:
376,200,62312,1,0,0:0:0:0:
314,198,62397,1,0,0:0:0:0:
253,197,62482,1,0,0:0:0:0:
206,159,62567,1,0,0:0:0:0:
191,100,62652,1,0,0:0:0:0:
215,45,62736,5,0,0:0:0:0:
414,102,62906,1,0,0:0:0:0:
139,32,63075,5,0,0:0:0:0:
414,102,63245,1,0,0:0:0:0:
66,47,63414,5,0,0:0:0:0:
414,102,63584,1,0,0:0:0:0:
5,89,63753,5,0,0:0:0:0:
414,102,63923,1,0,0:0:0:0:
33,193,64092,5,0,0:0:0:0:
195,14,64262,1,0,0:0:0:0:
458,171,64431,1,0,0:0:0:0:
221,128,64601,2,0,P|265:296|387:348,1,263.99999194336
158,351,65109,5,0,0:0:0:0:
348,71,65279,1,0,0:0:0:0:
56,263,65448,5,0,0:0:0:0:
416,251,65618,1,0,0:0:0:0:
118,60,65787,1,0,0:0:0:0:
292,324,65957,5,0,0:0:0:0:
292,324,66296,1,0,0:0:0:0:
86,75,66635,6,0,P|248:127|390:109,1,263.99999194336
76,182,67143,1,0,0:0:0:0:
337,226,67313,1,0,0:0:0:0:
126,271,67482,5,0,0:0:0:0:
436,290,67652,1,0,0:0:0:0:
211,335,67821,1,0,0:0:0:0:
510,316,67991,1,0,0:0:0:0:
419,60,68160,6,0,P|405:158|358:226,1,131.99999597168
249,12,68499,2,0,P|261:103|241:177,1,131.99999597168
167,341,68838,5,0,0:0:0:0:
153,166,69008,1,0,0:0:0:0:
239,372,69177,5,0,0:0:0:0:
291,118,69347,1,0,0:0:0:0:
331,348,69516,6,0,L|525:348,1,131.99999597168
235,255,69855,2,0,L|404:232,1,131.99999597168
145,184,70194,5,0,0:0:0:0:
333,128,70364,1,0,0:0:0:0:
59,131,70533,5,0,0:0:0:0:
269,18,70702,1,0,0:0:0:0:
74,238,70872,6,0,P|90:333|146:380,1,131.99999597168
175,189,71211,1,0,0:0:0:0:
389,111,71380,1,0,0:0:0:0:
188,306,71550,6,0,P|277:346|352:344,1,131.99999597168
225,203,71889,1,0,0:0:0:0:
352,4,72058,1,0,0:0:0:0:
400,272,72228,5,0,0:0:0:0:
350,259,72312,1,0,0:0:0:0:
313,224,72397,1,0,0:0:0:0:
298,175,72482,1,0,0:0:0:0:
309,125,72566,1,0,0:0:0:0:
343,87,72651,1,0,0:0:0:0:
391,70,72736,1,0,0:0:0:0:
441,79,72821,1,0,0:0:0:0:
480,111,72905,5,0,0:0:0:0:
496,171,72990,1,0,0:0:0:0:
491,232,73075,1,0,0:0:0:0:
465,288,73160,1,0,0:0:0:0:
422,332,73244,1,0,0:0:0:0:
366,359,73329,1,0,0:0:0:0:
305,365,73414,1,0,0:0:0:0:
245,350,73499,1,0,0:0:0:0:
194,316,73583,5,0,0:0:0:0:
137,94,73753,1,0,0:0:0:0:
249,252,73923,5,0,0:0:0:0:
290,125,74092,1,0,0:0:0:0:
354,260,74262,6,0,L|414:366,1,110
407,162,74601,2,0,L|543:141,1,110
261,189,74940,5,0,0:0:0:0:
446,255,75109,1,0,0:0:0:0:
245,101,75279,1,0,0:0:0:0:
439,327,75448,6,0,L|316:370,1,110
397,116,75787,2,0,P|385:185|354:217,1,110
284,74,76126,1,0,0:0:0:0:
245,311,76296,5,0,0:0:0:0:
210,149,76465,1,0,0:0:0:0:
155,359,76635,2,0,P|134:289|100:251,1,110
319,285,76974,5,0,0:0:0:0:
358,142,77143,1,0,0:0:0:0:
489,190,77313,1,0,0:0:0:0:
362,22,77482,1,0,0:0:0:0:
402,239,77652,5,0,0:0:0:0:
208,153,77821,1,0,0:0:0:0:
406,279,77991,5,0,0:0:0:0:
175,193,78160,1,0,0:0:0:0:
414,319,78330,5,0,0:0:0:0:
141,227,78499,1,0,0:0:0:0:
421,358,78669,5,0,0:0:0:0:
106,262,78838,1,0,0:0:0:0:
473,247,79008,5,0,0:0:0:0:
406,28,79177,1,0,0:0:0:0:
342,218,79347,2,0,L|212:234,1,110
454,328,79686,5,0,0:0:0:0:
365,24,79855,1,0,0:0:0:0:
331,285,80025,2,0,L|210:313,1,110
239,29,80364,5,0,0:0:0:0:
498,291,80533,1,0,0:0:0:0:
205,111,80702,1,0,0:0:0:0:
445,160,80872,1,0,0:0:0:0:
223,229,81041,5,0,0:0:0:0:
330,45,81211,1,0,0:0:0:0:
115,172,81380,1,0,0:0:0:0:
401,291,81550,1,0,0:0:0:0:
79,318,81719,6,0,P|166:333|203:318,7,110
261,371,83075,1,0,0:0:0:0:
253,44,83245,5,0,0:0:0:0:
369,313,83414,1,0,0:0:0:0:
101,147,83584,1,0,0:0:0:0:
414,154,83753,5,0,0:0:0:0:
137,301,83923,1,0,0:0:0:0:
253,44,84092,5,0,0:0:0:0:
369,313,84262,1,0,0:0:0:0:
101,147,84431,5,0,0:0:0:0:
314,252,84770,6,0,P|356:205|366:146,1,110
369,342,85109,1,0,0:0:0:0:
190,278,85279,1,0,0:0:0:0:
216,110,85448,2,0,P|272:101|332:121,1,110
174,188,85787,5,0,0:0:0:0:
297,249,85957,2,0,P|356:228|403:192,1,110
104,257,86296,5,0,0:0:0:0:
244,333,86465,2,0,P|309:348|357:329,1,110
435,218,86804,2,0,P|457:159|442:87,1,110
306,165,87143,6,0,P|226:143|197:114,2,110
186,216,87652,1,0,0:0:0:0:
373,267,87821,1,0,0:0:0:0:
114,325,87991,1,0,0:0:0:0:
449,182,88330,5,0,0:0:0:0:
395,56,88499,1,0,0:0:0:0:
426,317,88669,1,0,0:0:0:0:
342,135,88838,2,0,P|276:155|253:192,1,110
390,248,89177,5,0,0:0:0:0:
161,317,89347,1,0,0:0:0:0:
412,343,89516,5,0,0:0:0:0:
270,311,89686,1,0,0:0:0:0:
326,188,89855,6,0,P|218:120|107:117,1,220
196,227,90364,1,0,0:0:0:0:
196,227,90702,1,0,0:0:0:0:
196,227,91041,1,0,0:0:0:0:
122,340,91211,5,0,0:0:0:0:
281,233,91380,2,0,P|360:229|408:266,1,110
281,81,91719,1,0,0:0:0:0:
105,130,91889,6,0,P|97:188|113:253,1,110
239,10,92228,2,0,P|267:78|263:129,1,110
205,245,92567,5,0,0:0:0:0:
356,197,92736,1,0,0:0:0:0:
435,27,92906,1,0,0:0:0:0:
188,18,93075,6,0,L|58:44,1,110
457,104,93414,2,0,L|305:71,1,110
116,116,93753,1,0,0:0:0:0:
134,328,93923,5,0,0:0:0:0:
300,15,94092,6,0,L|297:60,1,27.5
392,320,94431,6,0,L|389:365,1,27.5
217,117,94770,5,0,0:0:0:0:
255,320,94940,1,0,0:0:0:0:
268,33,95109,1,0,0:0:0:0:
74,208,95279,5,0,0:0:0:0:
235,237,95448,1,0,0:0:0:0:
142,106,95618,1,0,0:0:0:0:
299,155,95787,2,0,P|356:137|401:96,1,110
337,268,96126,2,0,P|408:286|451:277,1,110
293,353,96465,1,0,0:0:0:0:
128,253,96635,5,0,0:0:0:0:
139,93,96804,1,0,0:0:0:0:
221,200,96974,1,0,0:0:0:0:
307,148,97143,1,0,0:0:0:0:
353,257,97313,5,0,0:0:0:0:
441,138,97482,1,0,0:0:0:0:
481,302,97652,1,0,0:0:0:0:
362,164,97821,1,0,0:0:0:0:
323,328,97991,6,0,P|257:329|210:309,1,110
236,162,98330,1,0,0:0:0:0:
433,235,98499,6,0,P|367:247|309:242,1,110
489,287,98838,2,0,P|423:299|365:294,1,110
230,244,99177,1,0,0:0:0:0:
81,341,99347,5,0,0:0:0:0:
125,126,99516,1,0,0:0:0:0:
330,149,99686,2,0,P|381:105|394:57,1,110
380,277,100025,5,0,0:0:0:0:
263,40,100194,1,0,0:0:0:0:
227,200,100364,2,0,P|210:263|225:339,1,110
365,352,100702,5,0,0:0:0:0:
144,281,100872,1,0,0:0:0:0:
423,296,101041,1,0,0:0:0:0:
115,193,101211,2,0,P|170:167|214:117,1,110
265,324,101550,1,0,0:0:0:0:
330,42,101719,2,0,P|360:107|360:162,1,110
199,259,102058,5,0,0:0:0:0:
238,39,102228,1,0,0:0:0:0:
428,240,102397,1,0,0:0:0:0:
272,363,102567,6,0,P|295:309|304:238,1,110
130,248,102906,2,0,P|132:182|115:132,1,110
285,184,103245,1,0,0:0:0:0:
451,140,103414,6,0,P|425:86|386:53,2,110
290,97,103923,1,0,0:0:0:0:
352,246,104092,2,0,P|380:320|382:366,2,110
220,153,104601,1,0,0:0:0:0:
230,334,104770,5,0,0:0:0:0:
119,200,104940,1,0,0:0:0:0:
307,295,105109,5,0,0:0:0:0:
366,114,105279,1,0,0:0:0:0:
206,215,105448,6,0,L|160:294,2,73.3333333333333
175,85,105787,2,0,L|139:8,2,73.3333333333333
312,289,106126,6,0,P|384:198|294:15,1,330
258,171,106804,1,0,0:0:0:0:
258,171,107143,1,0,0:0:0:0:
155,204,107313,5,0,0:0:0:0:
155,204,107397,1,0,0:0:0:0:
155,204,107482,2,0,L|108:307,1,110
246,270,107821,1,0,0:0:0:0:
354,332,107991,2,0,L|248:379,1,110
434,262,108499,5,0,0:0:0:0:
292,191,108669,1,0,0:0:0:0:
292,191,108753,1,0,0:0:0:0:
292,191,108838,2,0,P|195:297|23:249,1,330
148,191,109516,1,0,0:0:0:0:
28,84,109686,1,0,0:0:0:0:
275,115,109855,1,0,0:0:0:0:
155,349,110025,1,0,0:0:0:0:
195,78,110194,5,0,0:0:0:0:
303,343,110364,2,0,P|356:328|388:274,1,110
271,21,110702,1,0,0:0:0:0:
461,55,110872,5,0,0:0:0:0:
449,108,110956,1,0,0:0:0:0:
416,151,111041,1,0,0:0:0:0:
367,176,111126,1,0,0:0:0:0:
313,179,111210,5,0,0:0:0:0:
246,195,111295,1,0,0:0:0:0:
189,232,111380,1,0,0:0:0:0:
147,287,111465,1,0,0:0:0:0:
125,351,111549,5,0,0:0:0:0:
107,148,111719,1,0,0:0:0:0:
268,308,111889,5,0,0:0:0:0:
290,47,112058,1,0,0:0:0:0:
468,266,112228,5,0,0:0:0:0:
399,16,112397,1,0,0:0:0:0:
176,179,112567,5,0,0:0:0:0:
459,117,112736,1,0,0:0:0:0:
385,318,112906,5,0,0:0:0:0:
266,83,113075,1,0,0:0:0:0:
68,299,113245,1,0,0:0:0:0:
314,371,113414,6,0,P|274:287|284:229,1,110
221,22,113753,1,0,0:0:0:0:
375,222,113923,2,0,P|370:148|393:82,1,110
459,280,114262,5,0,0:0:0:0:
249,191,114431,1,0,0:0:0:0:
449,173,114601,5,0,0:0:0:0:
138,189,114770,1,0,0:0:0:0:
368,51,114940,5,0,0:0:0:0:
55,246,115109,1,0,0:0:0:0:
370,330,115279,1,0,0:0:0:0:
186,22,115448,1,0,0:0:0:0:
174,255,115618,5,0,0:0:0:0:
297,146,115787,1,0,0:0:0:0:
490,111,115957,1,0,0:0:0:0:
91,147,116126,5,0,0:0:0:0:
254,42,116296,1,0,0:0:0:0:
510,49,116465,1,0,0:0:0:0:
278,298,116635,5,0,0:0:0:0:
390,17,116804,1,0,0:0:0:0:
423,189,116974,5,0,0:0:0:0:
256,192,117058,12,0,117991,0:0:0:0:
108,240,118330,5,0,0:0:0:0:
132,211,118414,1,0,0:0:0:0:
179,186,118499,5,0,0:0:0:0:
212,209,118584,1,0,0:0:0:0:
272,179,118669,5,0,0:0:0:0:
302,146,118753,1,0,0:0:0:0:
370,205,118838,5,0,0:0:0:0:
161,351,119177,5,0,0:0:0:0:
223,342,119262,1,0,0:0:0:0:
292,304,119347,2,0,L|344:175,1,110
406,342,119686,5,0,0:0:0:0:
403,120,119855,1,0,0:0:0:0:
222,227,120025,1,0,0:0:0:0:
329,17,120194,1,0,0:0:0:0:
111,135,120364,5,0,0:0:0:0:
170,347,120533,1,0,0:0:0:0:
241,24,120702,5,0,0:0:0:0:
101,262,120872,2,0,P|170:244|219:197,1,131.99999597168
320,355,121211,1,0,0:0:0:0:
170,110,121380,1,0,0:0:0:0:
345,193,121550,2,0,P|405:154|443:94,1,131.99999597168
443,277,121889,1,0,0:0:0:0:
158,24,122058,1,0,0:0:0:0:
90,203,122228,1,0,0:0:0:0:
243,320,122397,6,0,P|327:317|388:281,1,131.99999597168
161,215,122736,2,0,P|238:183|269:140,1,131.99999597168
102,123,123075,1,0,0:0:0:0:
357,81,123245,1,0,0:0:0:0:
27,50,123414,1,0,0:0:0:0:
357,203,123584,6,0,P|426:182|476:133,1,131.99999597168
419,313,123923,1,0,0:0:0:0:
298,26,124092,1,0,0:0:0:0:
237,351,124262,6,0,P|301:324|347:265,1,131.99999597168
137,287,124601,1,0,0:0:0:0:
430,75,124770,1,0,0:0:0:0:
248,116,124940,1,0,0:0:0:0:
396,195,125109,5,0,0:0:0:0:
160,217,125279,1,0,0:0:0:0:
477,315,125448,2,0,P|399:311|344:280,1,131.99999597168
296,46,125787,5,0,0:0:0:0:
232,344,125957,1,0,0:0:0:0:
419,98,126126,2,0,P|379:171|314:215,1,131.99999597168
190,252,126465,5,0,0:0:0:0:
436,352,126635,1,0,0:0:0:0:
236,84,126804,5,0,0:0:0:0:
405,49,126974,1,0,0:0:0:0:
139,317,127143,5,0,0:0:0:0:
481,315,127313,1,0,0:0:0:0:
192,13,127482,5,0,0:0:0:0:
388,109,127652,1,0,0:0:0:0:
108,117,127821,6,0,P|108:198|134:246,2,131.99999597168
448,167,128330,1,0,0:0:0:0:
184,18,128499,6,0,P|105:46|46:91,2,131.99999597168
412,261,129008,1,0,0:0:0:0:
85,125,129177,5,0,0:0:0:0:
277,153,129347,1,0,0:0:0:0:
106,360,129516,2,0,P|191:351|237:318,1,131.99999597168
72,209,129855,5,0,0:0:0:0:
92,155,129939,1,0,0:0:0:0:
126,108,130024,1,0,0:0:0:0:
170,71,130109,1,0,0:0:0:0:
221,46,130193,1,0,0:0:0:0:
278,34,130278,1,0,0:0:0:0:
335,37,130363,1,0,0:0:0:0:
390,54,130448,1,0,0:0:0:0:
440,84,130532,5,0,0:0:0:0:
188,145,130702,1,0,0:0:0:0:
392,168,130872,5,0,0:0:0:0:
138,88,131041,1,0,0:0:0:0:
334,107,131211,5,0,0:0:0:0:
64,176,131380,1,0,0:0:0:0:
295,190,131550,5,0,0:0:0:0:
1,100,131719,1,0,0:0:0:0:
258,66,131889,5,0,0:0:0:0:
11,191,132058,1,0,0:0:0:0:
386,210,132228,1,0,0:0:0:0:
99,282,132397,2,0,P|191:256|243:211,1,131.99999597168
272,362,132736,1,0,0:0:0:0:
365,4,132906,1,0,0:0:0:0:
492,113,133075,1,0,0:0:0:0:
441,302,133245,5,0,0:0:0:0:
354,99,133414,1,0,0:0:0:0:
106,45,133584,1,0,0:0:0:0:
153,308,133753,5,0,0:0:0:0:
153,308,134092,1,0,0:0:0:0:
374,308,134431,6,0,P|332:169|212:133,1,263.99999194336
281,266,134940,1,0,0:0:0:0:
405,84,135109,1,0,0:0:0:0:
446,249,135279,5,0,0:0:0:0:
490,37,135448,1,0,0:0:0:0:
447,341,135618,5,0,0:0:0:0:
368,129,135787,1,0,0:0:0:0:
288,315,135957,6,0,P|225:289|137:287,1,131.99999597168
408,205,136296,2,0,P|456:149|527:116,1,131.99999597168
128,170,136635,2,0,P|55:188|-11:241,1,131.99999597168
297,16,136974,2,0,P|392:17|448:33,1,131.99999597168
202,71,137313,5,0,0:0:0:0:
441,157,137482,1,0,0:0:0:0:
190,159,137652,1,0,0:0:0:0:
366,100,137821,1,0,0:0:0:0:
322,217,137991,5,0,0:0:0:0:
107,200,138160,1,0,0:0:0:0:
385,280,138330,1,0,0:0:0:0:
183,268,138499,1,0,0:0:0:0:
422,361,138669,5,0,0:0:0:0:
203,208,138838,1,0,0:0:0:0:
448,225,139008,5,0,0:0:0:0:
159,135,139177,1,0,0:0:0:0:
430,78,139347,5,0,0:0:0:0:
104,71,139516,1,0,0:0:0:0:
337,264,139686,5,0,0:0:0:0:
46,18,139855,1,0,0:0:0:0:
290,63,140025,6,0,L|262:169,2,87.9999973144532
183,135,140364,6,0,L|201:242,2,87.9999973144532
335,187,140702,6,0,L|298:290,2,87.9999973144532
123,230,141041,6,0,L|139:319,2,87.9999973144532
216,286,141380,1,0,0:0:0:0:
63,216,152228,6,0,P|144:243|237:221,1,165.000006294251
277,299,152736,2,0,P|358:262|409:173,1,165.000006294251
190,31,153414,5,0,0:0:0:0:
272,88,153584,2,0,P|235:133|126:162,1,165.000006294251
62,220,154092,2,0,P|99:265|208:294,1,165.000006294251
266,226,154601,1,0,0:0:0:0:
330,298,154770,1,0,0:0:0:0:
399,234,154940,6,0,P|427:149|406:60,1,165.000006294251
316,157,155448,1,0,0:0:0:0:
304,166,155533,1,0,0:0:0:0:
290,171,155618,2,0,L|270:256,2,55.0000020980836
226,111,155957,2,0,L|215:28,2,55.0000020980836
170,174,156296,5,0,0:0:0:0:
202,267,156635,5,0,0:0:0:0:
288,116,156974,5,0,0:0:0:0:
342,340,157313,5,0,0:0:0:0:
423,50,157652,5,0,0:0:0:0:
431,155,157821,1,0,0:0:0:0:
382,40,157991,5,0,0:0:0:0:
388,197,158160,1,0,0:0:0:0:
343,29,158330,5,0,0:0:0:0:
346,236,158499,1,0,0:0:0:0:
301,20,158669,5,0,0:0:0:0:
306,272,158838,1,0,0:0:0:0:
259,9,159008,5,0,0:0:0:0:
332,315,159177,1,0,0:0:0:0:
191,53,159347,5,0,0:0:0:0:
385,325,159516,1,0,0:0:0:0:
117,140,159686,5,0,0:0:0:0:
432,303,159855,1,0,0:0:0:0:
69,277,160025,5,0,0:0:0:0:
461,258,160194,1,0,0:0:0:0:
123,378,160364,5,0,0:0:0:0:
163,373,160448,1,0,0:0:0:0:
197,350,160533,1,0,0:0:0:0:
215,313,160618,1,0,0:0:0:0:
213,273,160702,1,0,0:0:0:0:
192,238,160787,1,0,0:0:0:0:
156,217,160872,1,0,0:0:0:0:
116,217,160957,1,0,0:0:0:0:
80,236,161041,5,0,0:0:0:0:
78,194,161125,1,0,0:0:0:0:
86,154,161210,1,0,0:0:0:0:
105,118,161295,1,0,0:0:0:0:
133,87,161379,1,0,0:0:0:0:
168,65,161464,1,0,0:0:0:0:
207,53,161549,1,0,0:0:0:0:
248,52,161634,1,0,0:0:0:0:
288,61,161718,5,0,0:0:0:0:
251,78,161803,1,0,0:0:0:0:
220,105,161888,1,0,0:0:0:0:
196,138,161973,1,0,0:0:0:0:
181,177,162057,1,0,0:0:0:0:
177,218,162142,1,0,0:0:0:0:
182,258,162227,1,0,0:0:0:0:
198,296,162312,1,0,0:0:0:0:
222,329,162396,5,0,0:0:0:0:
271,304,162481,1,0,0:0:0:0:
305,262,162566,1,0,0:0:0:0:
320,209,162651,1,0,0:0:0:0:
314,155,162735,1,0,0:0:0:0:
286,108,162820,1,0,0:0:0:0:
242,75,162905,1,0,0:0:0:0:
189,63,162990,1,0,0:0:0:0:
135,72,163075,5,0,0:0:0:0:
221,226,163245,1,0,0:0:0:0:
312,36,163414,1,0,0:0:0:0:
391,208,163584,2,0,P|459:169|486:117,1,110
330,145,163923,1,0,0:0:0:0:
493,255,164092,1,0,0:0:0:0:
284,302,164262,1,0,0:0:0:0:
447,324,164431,5,0,0:0:0:0:
313,203,164601,1,0,0:0:0:0:
190,329,164770,1,0,0:0:0:0:
58,226,164940,2,0,P|115:183|145:137,1,110
246,215,165279,1,0,0:0:0:0:
208,60,165448,1,0,0:0:0:0:
371,140,165618,1,0,0:0:0:0:
304,4,165787,5,0,0:0:0:0:
346,216,165957,1,0,0:0:0:0:
408,58,166126,1,0,0:0:0:0:
381,305,166296,5,0,0:0:0:0:
356,92,166465,1,0,0:0:0:0:
312,346,166635,1,0,0:0:0:0:
237,62,166804,5,0,0:0:0:0:
225,340,166974,1,0,0:0:0:0:
115,130,167143,5,0,0:0:0:0:
248,239,167313,1,0,0:0:0:0:
414,251,167482,1,0,0:0:0:0:
62,217,167652,5,0,0:0:0:0:
231,120,167821,1,0,0:0:0:0:
424,139,167991,1,0,0:0:0:0:
119,18,168160,6,0,P|214:30|255:19,1,110
78,100,168499,5,0,0:0:0:0:
114,302,168669,1,0,0:0:0:0:
307,48,168838,1,0,0:0:0:0:
241,375,169008,2,0,P|304:349|339:308,1,110
231,161,169347,5,0,0:0:0:0:
366,263,169516,1,0,0:0:0:0:
385,69,169686,1,0,0:0:0:0:
260,251,169855,5,0,0:0:0:0:
455,204,170025,1,0,0:0:0:0:
134,198,170194,5,0,0:0:0:0:
363,180,170364,1,0,0:0:0:0:
97,280,170533,5,0,0:0:0:0:
293,118,170702,1,0,0:0:0:0:
211,344,170872,5,0,0:0:0:0:
201,48,171041,1,0,0:0:0:0:
337,223,171211,2,0,P|334:289|305:350,2,110
305,98,171719,1,0,0:0:0:0:
429,142,171889,2,0,P|490:180|514:224,2,110
305,98,172397,1,0,0:0:0:0:
242,215,172567,5,0,0:0:0:0:
190,87,172736,1,0,0:0:0:0:
379,111,172906,1,0,0:0:0:0:
483,24,173075,1,0,0:0:0:0:
285,15,173245,5,0,0:0:0:0:
269,45,173329,1,0,0:0:0:0:
253,76,173414,1,0,0:0:0:0:
238,106,173499,1,0,0:0:0:0:
222,137,173584,2,0,P|245:197|265:208,4,55
342,183,174092,5,0,0:0:0:0:
169,257,174262,5,0,0:0:0:0:
328,302,174431,1,0,0:0:0:0:
129,349,174601,5,0,0:0:0:0:
254,198,174770,1,0,0:0:0:0:
410,337,174940,5,0,0:0:0:0:
510,173,175109,1,0,0:0:0:0:
323,255,175279,5,0,0:0:0:0:
406,103,175448,1,0,0:0:0:0:
246,6,175618,1,0,0:0:0:0:
246,6,175787,1,0,0:0:0:0:
301,343,175957,5,0,0:0:0:0:
317,137,176126,1,0,0:0:0:0:
95,115,176296,1,0,0:0:0:0:
95,115,176465,1,0,0:0:0:0:
349,236,176635,5,0,0:0:0:0:
154,264,176804,1,0,0:0:0:0:
390,167,176974,1,0,0:0:0:0:
121,188,177143,5,0,0:0:0:0:
337,84,177313,1,0,0:0:0:0:
148,331,177482,1,0,0:0:0:0:
242,30,177652,5,0,0:0:0:0:
225,364,177821,1,0,0:0:0:0:
380,18,177991,6,0,L|379:160,1,110
157,136,178330,2,0,L|156:278,1,110
377,283,178669,6,0,L|357:339,3,55
329,348,179008,1,0,0:0:0:0:
296,350,179093,1,0,0:0:0:0:
265,340,179178,1,0,0:0:0:0:
239,319,179262,1,0,0:0:0:0:
224,291,179347,5,0,0:0:0:0:
364,208,179516,1,0,0:0:0:0:
180,204,179686,5,0,0:0:0:0:
400,280,179855,1,0,0:0:0:0:
146,319,180025,5,0,0:0:0:0:
430,181,180194,1,0,0:0:0:0:
86,215,180364,5,0,0:0:0:0:
469,315,180533,1,0,0:0:0:0:
74,329,180702,6,0,L|190:366,1,110
132,103,181041,2,0,L|248:140,1,110
305,306,181380,2,0,L|421:343,1,110
307,8,181719,2,0,L|423:45,1,110
251,301,182058,5,0,0:0:0:0:
229,109,182228,1,0,0:0:0:0:
251,301,182397,1,0,0:0:0:0:
327,158,182567,1,0,0:0:0:0:
251,301,182736,1,0,0:0:0:0:
192,145,182906,1,0,0:0:0:0:
251,301,183075,1,0,0:0:0:0:
296,35,183245,1,0,0:0:0:0:
366,264,183414,6,0,L|354:329,1,55
300,211,183584,2,0,L|262:260,1,55
266,136,183753,2,0,L|205:171,1,55
279,57,183923,2,0,L|190:65,1,55
347,101,184092,6,0,L|359:162,1,55
465,45,184262,2,0,L|450:115,1,55
357,154,184431,2,0,L|369:215,1,55
453,98,184601,2,0,L|438:168,1,55
332,26,184770,5,0,0:0:0:0:
115,350,184940,1,0,0:0:0:0:
112,77,185957,5,0,0:0:0:0:
340,364,186296,5,0,0:0:0:0:
405,13,186635,5,0,0:0:0:0:
96,249,187482,5,0,0:0:0:0:
468,166,187652,1,0,0:0:0:0:
108,49,188669,5,0,0:0:0:0:
459,250,189008,5,0,0:0:0:0:
90,349,189347,5,0,0:0:0:0:
332,77,189686,5,0,0:0:0:0:
332,77,189770,1,0,0:0:0:0:
332,77,189855,2,0,P|337:143|311:190,1,110
177,241,190194,5,0,0:0:0:0:
239,68,190533,5,0,0:0:0:0:
248,198,190702,1,0,0:0:0:0:
142,114,190871,6,0,L|105:240,1,110
320,126,191211,1,0,0:0:0:0:
43,148,191380,5,0,0:0:0:0:
43,148,191465,1,0,0:0:0:0:
43,148,191550,1,0,0:0:0:0:
283,240,191719,1,0,0:0:0:0:
138,29,191889,2,0,L|276:56,1,110
36,245,192228,5,0,0:0:0:0:
345,319,192397,1,0,0:0:0:0:
59,21,192567,5,0,0:0:0:0:
427,103,192736,1,0,0:0:0:0:
70,349,192906,5,0,0:0:0:0:
261,324,193075,1,0,0:0:0:0:
161,229,193245,2,0,P|237:211|277:168,1,110
362,290,193584,5,0,0:0:0:0:
359,111,193753,1,0,0:0:0:0:
477,198,193923,5,0,0:0:0:0:
444,53,194092,1,0,0:0:0:0:
444,53,194177,1,0,0:0:0:0:
444,53,194262,1,0,0:0:0:0:
408,174,194431,1,0,0:0:0:0:
374,74,194601,1,0,0:0:0:0:
339,139,194770,1,0,0:0:0:0:
257,100,194940,6,0,L|263:182,3,55
210,175,195279,2,0,L|232:238,3,55
281,234,195618,6,0,P|263:291|221:328,7,110
148,255,196974,2,0,P|97:278|30:265,7,110
50,173,198330,6,0,P|99:137|166:126,1,110
232,180,198669,1,0,0:0:0:0:
239,80,198838,2,0,P|304:64|350:28,1,110
362,131,199177,1,0,0:0:0:0:
449,26,199347,1,0,0:0:0:0:
427,257,199516,6,0,P|349:224|405:308,1,220
481,314,200025,1,0,0:0:0:0:
455,144,200194,1,0,0:0:0:0:
259,221,200364,5,0,0:0:0:0:
36,172,200533,1,0,0:0:0:0:
337,129,200702,2,0,P|291:67|241:54,1,110
128,48,201041,5,0,0:0:0:0:
108,135,201211,1,0,0:0:0:0:
128,48,201380,5,0,0:0:0:0:
245,84,201550,1,0,0:0:0:0:
128,48,201719,5,0,0:0:0:0:
145,213,201889,1,0,0:0:0:0:
128,48,202058,5,0,0:0:0:0:
294,138,202228,1,0,0:0:0:0:
128,48,202397,5,0,0:0:0:0:
201,262,202567,1,0,0:0:0:0:
128,48,202736,5,0,0:0:0:0:
332,212,202906,1,0,0:0:0:0:
128,48,203075,5,0,0:0:0:0:
282,304,203245,1,0,0:0:0:0:
128,48,203414,5,0,0:0:0:0:
378,292,203584,1,0,0:0:0:0:
378,292,203669,1,0,0:0:0:0:
378,292,203753,1,0,0:0:0:0:
256,192,203838,12,0,204770,0:0:0:0:
24,360,205109,5,0,0:0:0:0:
6,300,205193,1,0,0:0:0:0:
3,239,205278,1,0,0:0:0:0:
16,178,205363,1,0,0:0:0:0:
43,123,205447,1,0,0:0:0:0:
83,76,205532,1,0,0:0:0:0:
134,41,205617,1,0,0:0:0:0:
192,19,205702,1,0,0:0:0:0:
253,13,205786,5,0,0:0:0:0:
314,21,205871,1,0,0:0:0:0:
371,45,205956,1,0,0:0:0:0:
421,82,206041,1,0,0:0:0:0:
459,130,206125,1,0,0:0:0:0:
485,187,206210,1,0,0:0:0:0:
495,247,206295,1,0,0:0:0:0:
490,309,206380,1,0,0:0:0:0:
471,367,206464,5,0,0:0:0:0:
383,131,206635,1,0,0:0:0:0:
41,367,206804,5,0,0:0:0:0:
129,131,206975,1,0,0:0:0:0:
376,311,207143,5,0,0:0:0:0:
434,24,207313,1,0,0:0:0:0:
180,359,207482,5,0,0:0:0:0:
250,18,207652,2,0,P|272:104|197:270,1,263.99999194336
369,3,208160,5,0,0:0:0:0:
325,369,208330,2,0,P|378:235|371:95,1,263.99999194336
258,280,208838,5,0,0:0:0:0:
235,68,209008,1,0,0:0:0:0:
75,329,209177,5,0,0:0:0:0:
189,312,209347,1,0,0:0:0:0:
88,237,209516,1,0,0:0:0:0:
273,227,209686,1,0,0:0:0:0:
64,140,209855,5,0,0:0:0:0:
335,169,210025,1,0,0:0:0:0:
34,59,210194,1,0,0:0:0:0:
250,356,210364,6,0,P|332:317|380:277,1,131.99999597168
214,48,210702,1,0,0:0:0:0:
214,48,210872,1,0,0:0:0:0:
96,324,211041,6,0,P|95:248|132:196,1,131.99999597168
306,277,211380,1,0,0:0:0:0:
452,26,211550,1,0,0:0:0:0:
473,255,211719,1,0,0:0:0:0:
343,66,211889,5,0,0:0:0:0:
130,281,212058,1,0,0:0:0:0:
406,137,212228,5,0,0:0:0:0:
393,373,212397,1,0,0:0:0:0:
213,24,212567,5,0,0:0:0:0:
1,183,212736,1,0,0:0:0:0:
475,98,212906,5,0,0:0:0:0:
505,380,213075,1,0,0:0:0:0:
286,46,213245,6,0,P|332:124|338:198,1,131.99999597168
128,208,213584,2,0,P|165:272|164:335,1,131.99999597168
352,8,213923,6,0,P|400:71|425:171,1,131.99999597168
75,285,214262,2,0,P|125:341|141:395,1,131.99999597168
252,335,214601,5,0,0:0:0:0:
201,102,214770,1,0,0:0:0:0:
306,347,214940,5,0,0:0:0:0:
328,80,215109,1,0,0:0:0:0:
221,367,215279,5,0,0:0:0:0:
179,48,215448,1,0,0:0:0:0:
355,373,215618,5,0,0:0:0:0:
383,30,215787,1,0,0:0:0:0:
100,339,215957,5,0,0:0:0:0:
143,137,216126,1,0,0:0:0:0:
225,263,216296,1,0,0:0:0:0:
253,162,216465,1,0,0:0:0:0:
294,344,216635,5,0,0:0:0:0:
345,318,216719,1,0,0:0:0:0:
384,276,216804,1,0,0:0:0:0:
405,223,216889,1,0,0:0:0:0:
406,165,216973,1,0,0:0:0:0:
386,112,217058,1,0,0:0:0:0:
347,69,217143,1,0,0:0:0:0:
296,42,217228,1,0,0:0:0:0:
239,36,217312,5,0,0:0:0:0:
269,227,217482,1,0,0:0:0:0:
167,49,217652,5,0,0:0:0:0:
146,281,217821,1,0,0:0:0:0:
370,20,217991,5,0,0:0:0:0:
437,297,218160,1,0,0:0:0:0:
52,10,218330,5,0,0:0:0:0:
2,364,218499,1,0,0:0:0:0:
476,66,218669,5,0,0:0:0:0:
39,174,218838,1,0,0:0:0:0:
344,268,219008,1,0,0:0:0:0:
121,35,219177,2,0,P|232:6|284:41,1,131.99999597168
239,210,219516,1,0,0:0:0:0:
405,13,219686,5,0,0:0:0:0:
285,366,219855,1,0,0:0:0:0:
497,110,220025,5,0,0:0:0:0:
277,297,220194,1,0,0:0:0:0:
4,189,220364,1,0,0:0:0:0:
331,63,220533,5,0,0:0:0:0:
331,63,220872,1,0,0:0:0:0:
380,343,221211,6,0,P|281:169|179:157,1,263.99999194336
261,302,221719,1,0,0:0:0:0:
281,40,221889,1,0,0:0:0:0:
132,333,222058,5,0,0:0:0:0:
26,166,222228,1,0,0:0:0:0:
259,208,222397,5,0,0:0:0:0:
467,103,222567,1,0,0:0:0:0:
376,347,222736,6,0,L|237:311,1,131.99999597168
397,191,223075,2,0,L|359:46,1,131.99999597168
159,242,223414,2,0,L|28:299,1,131.99999597168
240,91,223753,2,0,L|325:-46,1,131.99999597168
292,321,224092,5,0,0:0:0:0:
332,86,224262,1,0,0:0:0:0:
341,282,224431,1,0,0:0:0:0:
272,48,224601,1,0,0:0:0:0:
205,318,224770,5,0,0:0:0:0:
226,86,224940,1,0,0:0:0:0:
117,282,225109,5,0,0:0:0:0:
187,21,225279,1,0,0:0:0:0:
323,371,225448,6,0,L|461:386,1,131.99999597168
366,254,225787,2,0,L|506:224,1,131.99999597168
293,92,226126,2,0,L|362:-29,1,131.99999597168
45,140,226465,2,0,L|-32:-11,1,131.99999597168
24,239,226804,6,0,L|86:262,1,65.9999979858399
105,137,226974,2,0,L|175:126,1,65.9999979858399
85,261,227143,2,0,L|148:284,1,65.9999979858399
170,126,227313,2,0,L|240:115,1,65.9999979858399
146,283,227482,2,0,L|209:306,1,65.9999979858399
235,115,227652,2,0,L|305:104,1,65.9999979858399
207,305,227821,2,0,L|270:328,1,65.9999979858399
300,104,227991,2,0,L|370:93,1,65.9999979858399
361,366,228160,5,0,0:0:0:0:
254,175,228330,1,0,0:0:0:0:
400,237,228499,2,0,P|430:168|418:106,1,110
241,271,228838,5,0,0:0:0:0:
312,61,229008,1,0,0:0:0:0:
114,174,229177,1,0,0:0:0:0:
171,68,229347,1,0,0:0:0:0:
155,328,229516,6,0,P|163:253|198:209,1,110
335,273,229855,2,0,P|348:217|328:152,1,110
135,138,230194,1,0,0:0:0:0:
395,120,230364,1,0,0:0:0:0:
137,68,230533,1,0,0:0:0:0:
464,106,230702,1,0,0:0:0:0:
282,13,230872,6,0,L|232:135,1,110
430,58,231211,1,0,0:0:0:0:
227,195,231380,1,0,0:0:0:0:
134,17,231550,6,0,L|130:142,1,110
195,296,231889,1,0,0:0:0:0:
310,11,232058,1,0,0:0:0:0:
306,248,232228,6,0,L|426:280,1,110
114,205,232567,2,0,L|-11:226,1,110
348,159,232906,5,0,0:0:0:0:
321,152,232990,1,0,0:0:0:0:
294,145,233075,1,0,0:0:0:0:
268,138,233160,1,0,0:0:0:0:
241,131,233245,5,0,0:0:0:0:
279,115,233329,1,0,0:0:0:0:
317,99,233414,1,0,0:0:0:0:
355,83,233499,1,0,0:0:0:0:
393,67,233583,5,0,0:0:0:0:
368,266,233753,1,0,0:0:0:0:
313,8,233923,1,0,0:0:0:0:
285,315,234092,2,0,L|167:340,1,110
197,17,234431,5,0,0:0:0:0:
100,332,234601,1,0,0:0:0:0:
300,91,234770,2,0,L|419:86,1,110
285,362,235109,5,0,0:0:0:0:
136,98,235279,1,0,0:0:0:0:
363,280,235448,2,0,L|354:154,1,110
73,217,235787,5,0,0:0:0:0:
402,331,235957,1,0,0:0:0:0:
43,126,236126,1,0,0:0:0:0:
392,26,236296,5,0,0:0:0:0:
328,359,236465,1,0,0:0:0:0:
392,26,236635,5,0,0:0:0:0:
235,293,236804,1,0,0:0:0:0:
392,26,236974,5,0,0:0:0:0:
95,329,237143,1,0,0:0:0:0:
392,26,237313,5,0,0:0:0:0:
68,137,237482,1,0,0:0:0:0:
239,224,237652,5,0,0:0:0:0:
423,175,237821,1,0,0:0:0:0:
132,92,237991,1,0,0:0:0:0:
406,284,238160,5,0,0:0:0:0:
406,284,238499,1,0,0:0:0:0:
406,284,238838,1,0,0:0:0:0:
256,192,238923,12,0,241380,0:0:0:0:
243,228,241635,5,0,0:0:0:0:
219,179,241719,1,0,0:0:0:0:
268,155,241804,1,0,0:0:0:0:
292,204,241889,1,0,0:0:0:0:
