osu file format v14

[General]
AudioFilename: stella-rium.mp3
AudioLeadIn: 1000
PreviewTime: 52141
Countdown: 0
SampleSet: Soft
StackLeniency: 0.7
Mode: 0
LetterboxInBreaks: 0
WidescreenStoryboard: 0

[Editor]
DistanceSpacing: 0.8
BeatDivisor: 4
GridSize: 4
TimelineZoom: 1.4

[Metadata]
Title:Stella-rium
TitleUnicode:Stella-rium
Artist:Kano
ArtistUnicode:鹿乃
Creator:Tsukuyomi
Version:Pleiades
Source:放課後のプレアデス
Tags:Houkago no pleiades M45 opening TV Size tvsize Minakami Yuki -Yuzuriha Crystal baldrace
BeatmapID:843155
BeatmapSetID:386117

[Difficulty]
HPDrainRate:6.5
CircleSize:4.5
OverallDifficulty:8.5
ApproachRate:9.2
SliderMultiplier:2
SliderTickRate:1

[Events]
//Background and Video events
Video,0,"pleiades.avi"
0,0,"BG.jpg",0,0
//Break Periods
//Storyboard Layer 0 (Background)
//Storyboard Layer 1 (Fail)
//Storyboard Layer 2 (Pass)
//Storyboard Layer 3 (Foreground)
//Storyboard Sound Samples

[TimingPoints]
955,338.983050847458,4,2,1,30,1,0
4683,-100,4,2,1,40,0,0
5870,-200,4,2,1,40,0,0
6378,-100,4,2,1,40,0,0
17226,-200,4,2,1,30,0,0
28073,-133.333333333333,4,2,1,40,0,0
38921,-200,4,2,1,30,0,0
44344,-133.333333333333,4,2,1,40,0,0
51039,-133.333333333333,4,2,1,20,0,0
51124,-133.333333333333,4,2,1,50,0,0
52480,-90.9090909090909,4,2,1,60,0,1
72904,-100,4,2,1,60,0,1
73497,-100,4,2,1,50,0,1
74175,-100,4,2,1,50,0,0
84853,-200,4,2,1,50,0,0
87904,-200,4,2,1,30,0,0

[Colours]
Combo1 : 128,128,128
Combo2 : 255,128,192
Combo3 : 241,230,14
Combo4 : 22,216,243
Combo5 : 128,128,255

[HitObjects]
232,180,955,5,0,1:0:0:0:
88,72,1124,1,0,1:0:0:0:
232,180,1293,2,0,L|368:152,1,100,0|0,1:0|0:0,0:0:0:0:
252,320,1632,1,2,0:0:0:0:
164,268,1802,1,0,0:0:0:0:
252,320,1971,2,0,L|388:292,1,100,2|0,0:0|3:0,0:0:0:0:
380,292,2226,1,0,3:0:0:0:
380,292,2310,5,2,3:2:0:0:
164,268,2480,1,2,0:0:0:0:
336,216,2649,1,0,0:0:0:0:
164,360,2819,1,2,0:0:0:0:
292,136,2988,1,0,0:0:0:0:
164,268,3158,1,2,0:0:0:0:
380,292,3327,1,2,0:0:0:0:
164,176,3497,2,0,L|164:120,1,50,2|0,3:2|3:0,0:0:0:0:
304,64,3666,5,0,1:0:0:0:
164,176,3836,1,0,1:0:0:0:
304,64,4005,2,0,L|368:76,2,50,2|2|2,1:2|0:0|0:0,0:0:0:0:
336,240,4344,1,2,0:0:0:0:
424,292,4514,1,0,0:0:0:0:
336,240,4683,2,0,L|200:268,1,100,2|0,0:0|3:0,0:0:0:0:
208,268,4938,1,0,3:0:0:0:
208,268,5022,5,8,3:2:0:0:
416,260,5192,1,0,1:0:0:0:
96,124,5531,1,0,1:0:0:0:
416,260,5870,2,0,P|440:216|440:168,1,100,0|0,0:0|0:0,0:0:0:0:
188,328,6378,6,0,L|304:304,1,100,4|0,0:0|0:0,0:0:0:0:
108,272,6717,1,8,0:0:0:0:
264,144,6887,1,2,3:2:0:0:
264,144,6971,1,0,3:0:0:0:
264,144,7056,2,0,L|148:120,1,100,2|0,3:2|0:0,0:0:0:0:
344,88,7395,1,8,0:0:0:0:
285,307,7565,1,2,0:0:0:0:
476,240,7734,5,2,0:0:0:0:
304,300,7904,1,0,0:0:0:0:
356,104,8073,1,8,0:0:0:0:
184,164,8243,1,2,0:0:0:0:
360,120,8412,5,0,0:0:0:0:
188,176,8582,1,2,0:0:0:0:
320,296,8751,1,8,0:0:0:0:
488,228,8921,1,0,3:0:0:0:
188,176,9090,6,0,L|200:296,1,100,2|0,3:2|0:0,0:0:0:0:
100,124,9429,1,8,0:0:0:0:
304,124,9599,1,0,3:0:0:0:
304,124,9683,1,0,3:0:0:0:
304,124,9768,2,0,L|292:4,1,100,2|0,3:2|0:0,0:0:0:0:
392,176,10107,1,10,0:0:0:0:
188,176,10277,1,0,0:0:0:0:
304,124,10446,5,0,0:0:0:0:
197,275,10616,1,2,0:0:0:0:
448,172,10785,1,8,0:0:0:0:
188,176,10955,1,2,0:0:0:0:
294,24,11124,1,2,0:0:0:0:
197,275,11293,1,2,0:0:0:0:
360,120,11463,1,8,0:0:0:0:
100,124,11632,1,0,3:0:0:0:
100,124,11717,1,0,3:0:0:0:
100,124,11802,6,0,P|144:84|192:72,1,100,6|0,3:2|0:0,0:0:0:0:
441,171,12141,2,0,P|397:131|349:119,1,100,8|0,0:0|0:0,0:0:0:0:
192,172,12480,1,2,0:0:0:0:
360,120,12649,1,2,0:0:0:0:
240,260,12819,2,0,P|184:272|128:248,1,100,8|0,0:0|3:0,0:0:0:0:
72,224,13073,1,0,3:0:0:0:
72,224,13158,6,0,P|65:286|113:329,1,100,2|0,3:2|0:0,0:0:0:0:
368,224,13497,2,0,P|376:288|329:335,1,100,8|0,0:0|0:0,0:0:0:0:
172,360,13836,1,2,0:0:0:0:
358,316,14005,1,2,0:0:0:0:
144,259,14175,2,0,P|136:195|176:147,1,100,8|0,0:0|3:1,0:0:0:0:
192,96,14429,1,0,3:0:0:0:
192,96,14514,5,2,3:2:0:0:
376,168,14683,1,2,0:0:0:0:
152,165,14853,1,8,0:0:0:0:
256,44,15022,1,2,3:2:0:0:
256,44,15107,1,0,3:0:0:0:
256,44,15192,1,0,3:0:0:0:
252,276,15361,1,2,0:0:0:0:
192,96,15531,1,8,0:0:0:0:
376,168,15700,1,0,0:0:0:0:
180,240,15870,5,2,0:0:0:0:
272,64,16039,1,2,0:0:0:0:
368,196,16209,1,10,0:0:0:0:
196,252,16378,5,2,3:2:0:0:
196,252,16463,1,0,3:0:0:0:
196,252,16548,1,4,3:1:0:0:
388,204,16717,1,4,0:1:0:0:
244,64,16887,1,4,0:1:0:0:
408,208,17056,1,4,0:1:0:0:
192,264,17226,6,0,L|64:244,1,100,4|0,0:0|0:0,0:0:0:0:
240,344,17734,2,0,P|272:320|280:252,1,100,2|0,0:0|0:0,0:0:0:0:
128,96,18243,1,0,0:0:0:0:
128,96,18412,6,0,L|226:111,1,100,2|0,0:0|0:0,0:0:0:0:
192,264,18921,2,0,L|120:252,1,50,2|0,3:2|0:0,0:0:0:0:
226,110,19260,2,0,L|258:72,1,50,2|0,0:0|0:0,0:0:0:0:
346,207,19599,2,0,L|396:216,1,50,2|0,3:2|0:0,0:0:0:0:
258,71,19938,6,0,P|226:95|218:163,1,100,2|0,0:0|0:0,0:0:0:0:
448,60,20446,2,0,L|349:44,1,100,2|0,0:0|0:0,0:0:0:0:
296,144,20955,1,2,0:0:0:0:
452,224,21124,1,0,0:0:0:0:
448,60,21293,6,0,L|398:52,1,50,2|0,0:0|0:0,0:0:0:0:
452,224,21632,1,0,0:0:0:0:
304,232,21802,2,0,L|205:217,1,100,2|0,0:0|0:0,0:0:0:0:
100,112,22310,1,2,0:0:0:0:
212,13,22480,1,0,0:0:0:0:
297,136,22649,6,0,P|313:192|293:248,1,100,2|0,0:0|0:0,0:0:0:0:
84,304,23158,2,0,L|183:319,1,100,2|0,0:0|0:0,0:0:0:0:
168,168,23666,1,2,0:0:0:0:
284,332,23836,1,0,0:0:0:0:
168,168,24005,6,0,L|236:180,1,50,2|0,0:2|0:0,0:0:0:0:
284,332,24344,2,0,L|352:320,1,50,2|0,0:0|0:0,0:0:0:0:
392,184,24683,2,0,L|460:196,1,50,2|0,0:0|0:0,0:0:0:0:
508,300,25022,1,2,0:0:0:0:
508,300,25192,1,0,3:0:0:0:
304,208,25361,6,0,P|304:160|344:104,1,100,2|0,0:0|0:0,0:0:0:0:
328,292,25870,2,0,P|280:292|268:288,1,50,2|0,0:0|0:0,0:0:0:0:
460,204,26209,2,0,P|427:239|416:245,1,50,2|0,0:0|0:0,0:0:0:0:
496,108,26548,1,2,0:0:0:0:
496,108,26717,5,8,0:0:0:0:
256,32,26887,1,0,0:0:0:0:
236,48,27226,1,0,0:0:0:0:
216,64,27565,5,8,1:2:0:0:
112,132,27734,1,8,1:2:0:0:
312,140,27904,1,8,1:2:0:0:
96,244,28073,6,0,P|100:308|120:344,1,75.0000028610231,6|0,0:0|0:0,0:0:0:0:
280,240,28412,1,8,0:0:0:0:
188,268,28582,1,0,0:0:0:0:
376,264,28751,2,0,P|372:200|352:164,1,75.0000028610231,2|0,0:0|0:0,0:0:0:0:
188,268,29090,1,8,0:0:0:0:
280,240,29260,1,0,0:0:0:0:
96,244,29429,5,2,0:0:0:0:
368,190,29599,2,0,P|364:126|344:90,1,75.0000028610231,2|8,0:0|0:0,0:0:0:0:
188,268,29938,2,0,P|192:332|212:368,1,75.0000028610231,2|0,0:0|0:0,0:0:0:0:
376,272,30277,1,2,0:0:0:0:
280,292,30446,1,8,0:0:0:0:
468,252,30616,1,2,0:0:0:0:
188,268,30785,6,0,L|152:196,1,75.0000028610231,2|0,0:0|0:0,0:0:0:0:
304,76,31124,1,8,0:0:0:0:
228,136,31293,1,0,0:0:0:0:
400,60,31463,2,0,L|433:127,1,75.0000028610231,2|0,0:0|0:0,0:0:0:0:
228,136,31802,1,8,0:0:0:0:
304,76,31971,1,0,0:0:0:0:
154,200,32141,5,2,0:0:0:0:
433,127,32310,2,0,L|424:201,1,75.0000028610231,2|8,0:0|0:0,0:0:0:0:
228,136,32649,2,0,L|237:62,1,75.0000028610231,2|0,0:0|0:0,0:0:0:0:
396,172,32988,1,2,0:0:0:0:
324,104,33158,1,12,0:0:0:0:
472,232,33327,1,2,0:0:0:0:
227,136,33497,6,0,P|205:163|197:206,1,75.0000028610231,6|0,0:0|0:0,0:0:0:0:
367,266,33836,1,8,0:0:0:0:
269,269,34005,1,0,0:0:0:0:
453,318,34175,2,0,P|475:345|483:388,1,75.0000028610231,2|0,0:0|0:0,0:0:0:0:
269,269,34514,1,8,0:0:0:0:
367,266,34683,1,0,0:0:0:0:
184,313,34853,5,2,0:0:0:0:
453,220,35022,2,0,L|471:135,1,75.0000028610231,2|8,0:0|0:0,0:0:0:0:
269,269,35361,2,0,L|287:184,1,75.0000028610231,2|0,0:0|0:0,0:0:0:0:
119,239,35700,1,2,0:0:0:0:
184,313,35870,1,8,0:0:0:0:
53,167,36039,1,2,0:0:0:0:
269,269,36209,5,2,0:0:0:0:
119,239,36378,1,0,0:0:0:0:
269,269,36548,2,0,L|364:257,1,75.0000028610231,12|0,0:0|0:0,0:0:0:0:
274,127,36887,1,6,0:0:0:0:
124,97,37056,1,0,0:0:0:0:
274,127,37226,2,0,L|369:115,1,75.0000028610231,12|0,0:0|0:0,0:0:0:0:
124,97,37565,5,6,0:0:0:0:
269,269,37734,2,0,L|364:257,1,75.0000028610231,2|12,0:0|0:0,0:0:0:0:
116,307,38073,2,0,L|158:326,1,37.5000014305115,2|0,3:2|3:0,0:0:0:0:
220,352,38243,1,4,3:1:0:0:
340,136,38412,1,4,0:1:0:0:
157,179,38582,2,0,P|224:182|256:164,1,75.0000028610231,4|0,0:1|0:0,0:0:0:0:
432,155,38921,6,0,P|383:159|340:136,1,100,4|0,0:0|0:0,0:0:0:0:
272,76,39429,1,2,0:0:0:0:
316,224,39599,1,8,0:0:0:0:
151,299,39768,2,0,P|200:303|244:280,1,100,0|2,0:0|3:2,0:0:0:0:
244,280,40192,1,0,3:0:0:0:
244,280,40277,5,0,3:0:0:0:
408,204,40446,2,0,P|358:199|315:223,1,100,8|2,0:0|0:0,0:0:0:0:
244,280,40955,1,10,0:0:0:0:
176,132,41124,1,0,0:0:0:0:
148,268,41293,1,2,0:0:0:0:
272,144,41462,1,0,0:0:0:0:
112,61,41632,6,0,P|133:106|176:132,1,100,0|0,0:0|0:0,0:0:0:0:
272,144,42141,1,2,0:0:0:0:
140,216,42310,1,8,0:0:0:0:
291,310,42480,2,0,P|270:265|228:240,1,100,0|2,0:0|3:2,0:0:0:0:
228,240,42904,1,0,3:0:0:0:
228,240,42988,5,0,3:0:0:0:
76,145,43158,2,0,P|96:189|139:215,1,100,8|2,0:0|0:0,0:0:0:0:
436,145,43666,2,0,P|415:189|396:200,1,50,8|0,0:0|3:0,0:0:0:0:
415,188,43921,1,0,3:0:0:0:
415,188,44005,2,0,L|376:212,1,25,4|0,3:1|3:0,0:0:0:0:
285,235,44175,2,0,L|306:247,1,25,4|0,3:1|3:0,0:0:0:0:
276,80,44344,6,0,P|235:89|196:124,1,75.0000028610231,4|0,0:0|0:0,0:0:0:0:
360,111,44683,1,10,0:0:0:0:
360,111,44853,1,0,0:0:0:0:
131,152,45022,2,0,P|111:189|113:241,1,75.0000028610231,2|0,0:0|0:0,0:0:0:0:
80,72,45361,1,8,0:0:0:0:
80,72,45531,1,0,0:0:0:0:
269,195,45700,6,0,P|288:232|286:284,1,75.0000028610231,2|0,0:1|0:0,0:0:0:0:
363,151,46039,1,2,0:0:0:0:
180,112,46209,2,0,P|160:149|162:201,1,75.0000028610231,10|0,1:0|0:0,0:0:0:0:
107,56,46548,1,2,0:0:0:0:
341,81,46717,2,0,P|360:118|358:170,1,75.0000028610231,10|0,0:1|0:0,0:0:0:0:
326,326,47056,6,0,P|367:317|406:282,1,75.0000028610231,4|0,0:0|0:0,0:0:0:0:
242,311,47395,1,10,0:0:0:0:
242,311,47565,1,0,0:0:0:0:
471,254,47734,2,0,P|490:216|488:164,1,75.0000028610231,2|2,0:0|0:0,0:0:0:0:
501,334,48073,1,8,0:0:0:0:
501,334,48243,1,0,0:0:0:0:
326,124,48412,6,0,P|306:86|308:34,1,75.0000028610231,2|0,0:1|0:0,0:0:0:0:
230,204,48751,1,2,0:0:0:0:
440,226,48921,2,0,P|459:188|457:136,1,75.0000028610231,10|0,1:1|0:0,0:0:0:0:
461,345,49260,1,2,0:0:0:0:
252,273,49429,2,0,P|232:235|234:183,1,75.0000028610231,10|0,1:1|0:0,0:0:0:0:
461,345,49768,5,4,0:0:0:0:
461,345,51124,6,0,L|395:335,1,37.5000014305115,0|0,3:0|3:0,0:0:0:0:
307,243,51293,2,0,L|373:233,1,37.5000014305115,0|0,3:0|3:0,0:0:0:0:
470,151,51463,2,0,L|404:141,1,37.5000014305115,0|0,3:0|3:0,0:0:0:0:
313,53,51632,1,0,3:0:0:0:
313,53,52480,5,4,0:0:0:0:
208,197,52650,1,2,0:0:0:0:
377,142,52819,1,8,0:0:0:0:
208,87,52988,1,2,0:0:0:0:
313,231,53158,1,2,0:0:0:0:
187,102,53327,1,2,0:0:0:0:
208,277,53497,1,8,0:0:0:0:
395,165,53666,1,2,0:0:0:0:
219,299,53836,5,2,0:0:0:0:
394,278,54006,1,2,0:0:0:0:
282,91,54175,1,10,0:0:0:0:
110,244,54344,1,2,3:2:0:0:
340,222,54514,1,2,3:2:0:0:
140,106,54683,1,0,0:0:0:0:
236,320,54853,1,10,0:0:0:0:
282,91,55022,1,2,3:2:0:0:
282,91,55107,1,0,3:0:0:0:
282,91,55192,5,2,3:2:0:0:
444,164,55361,1,0,0:0:0:0:
342,22,55531,1,8,0:0:0:0:
222,233,55700,1,2,0:0:0:0:
219,33,55870,1,2,0:0:0:0:
376,214,56039,1,2,0:0:0:0:
156,181,56209,1,8,0:0:0:0:
342,22,56378,1,2,0:0:0:0:
373,239,56548,5,2,0:0:0:0:
153,206,56718,1,2,0:0:0:0:
339,47,56887,1,8,0:0:0:0:
370,266,57056,1,2,3:2:0:0:
370,266,57141,1,0,3:0:0:0:
370,266,57226,1,2,3:2:0:0:
189,122,57396,1,2,0:0:0:0:
252,344,57565,1,8,0:0:0:0:
332,123,57735,1,0,3:0:0:0:
139,256,57904,6,0,P|81:218|57:160,1,110.000003356934,2|0,3:2|0:0,0:0:0:0:
370,266,58243,2,0,P|437:236|466:193,1,110.000003356934,8|0,0:0|0:0,0:0:0:0:
252,344,58582,2,0,L|259:191,1,110.000003356934,2|0,0:0|0:0,0:0:0:0:
464,98,58921,2,0,L|458:207,1,110.000003356934,8|0,0:0|0:0,0:0:0:0:
150,125,59260,6,0,P|83:155|54:198,1,110.000003356934,2|0,0:0|0:0,0:0:0:0:
381,135,59599,2,0,P|439:173|463:231,1,110.000003356934,8|0,0:0|0:0,0:0:0:0:
268,47,59938,2,0,L|261:200,1,110.000003356934,2|0,0:0|0:0,0:0:0:0:
56,293,60277,2,0,L|62:184,1,110.000003356934,8|0,0:0|0:0,0:0:0:0:
369,139,60616,5,2,0:0:0:0:
455,291,60785,1,0,0:0:0:0:
369,139,60955,2,0,L|246:148,1,110.000003356934,8|0,0:0|0:0,0:0:0:0:
109,271,61293,1,2,0:0:0:0:
23,119,61462,1,0,0:0:0:0:
109,271,61632,2,0,L|232:262,1,110.000003356934,8|0,0:0|0:0,0:0:0:0:
259,147,61971,5,2,0:0:0:0:
218,262,62141,1,0,0:0:0:0:
369,139,62310,1,12,0:0:0:0:
109,271,62480,1,0,0:0:0:0:
109,271,62565,1,0,0:0:0:0:
109,271,62649,6,0,L|111:198,1,55.0000016784668,0|0,3:0|3:0,0:0:0:0:
218,262,62819,2,0,L|315:271,1,55.0000016784668,0|0,3:0|3:0,0:0:0:0:
259,147,62988,2,0,L|161:138,1,55.0000016784668,0|0,3:0|3:0,0:0:0:0:
369,139,63158,2,0,L|368:200,1,55.0000016784668,0|0,3:0|3:0,0:0:0:0:
470,185,63327,6,0,L|472:68,1,110.000003356934,4|2,3:2|0:0,0:0:0:0:
204,141,63666,2,0,L|204:28,1,110.000003356934,8|2,0:0|0:0,0:0:0:0:
301,195,64005,1,2,0:0:0:0:
123,215,64175,1,2,0:0:0:0:
279,302,64344,1,8,0:0:0:0:
204,141,64513,1,2,0:0:0:0:
170,315,64683,5,2,0:0:0:0:
384,268,64853,1,2,0:0:0:0:
123,215,65022,1,8,0:0:0:0:
279,302,65192,1,2,0:0:0:0:
120,108,65361,1,2,0:0:0:0:
352,95,65531,1,2,0:0:0:0:
174,241,65701,1,8,0:0:0:0:
228,14,65870,1,0,0:0:0:0:
316,231,66039,5,2,0:0:0:0:
212,36,66209,1,2,0:0:0:0:
448,96,66378,1,8,0:0:0:0:
214,141,66548,2,0,L|160:152,2,55.0000016784668,2|0|0,3:2|3:0|1:2,0:0:0:0:
368,296,66887,2,0,L|448:276,1,55.0000016784668,4|0,0:1|0:0,0:0:0:0:
160,152,67226,6,0,P|76:184|164:244,1,220.000006713867,6|0,0:0|0:0,0:0:0:0:
248,88,67734,1,8,0:0:0:0:
212,328,67904,1,0,0:0:0:0:
344,132,68073,1,2,0:0:0:0:
312,320,68243,1,2,0:0:0:0:
436,168,68412,1,8,0:0:0:0:
412,308,68582,1,0,3:0:0:0:
412,308,68666,1,0,3:0:0:0:
412,308,68751,5,6,3:2:0:0:
268,136,68921,1,0,0:0:0:0:
196,300,69090,1,8,0:0:0:0:
264,112,69260,1,0,0:0:0:0:
404,280,69429,1,2,0:0:0:0:
260,88,69599,1,2,0:0:0:0:
184,316,69768,1,8,0:0:0:0:
256,64,69938,1,0,0:0:0:0:
412,248,70107,5,2,3:2:0:0:
148,168,70277,1,0,3:0:0:0:
368,168,70446,1,8,0:0:0:0:
104,248,70616,1,0,0:0:0:0:
320,248,70785,1,2,0:0:0:0:
56,168,70955,1,2,0:0:0:0:
272,168,71124,1,8,0:0:0:0:
8,248,71294,1,0,0:0:0:0:
320,248,71463,5,6,3:2:0:0:
56,168,71633,1,0,3:0:0:0:
368,168,71802,1,8,0:0:0:0:
104,248,71972,1,0,3:0:0:0:
412,248,72141,1,2,0:0:0:0:
148,168,72311,1,2,0:0:0:0:
328,88,72480,1,8,0:0:0:0:
204,16,72649,1,0,3:0:0:0:
204,16,72734,1,0,3:0:0:0:
204,16,72819,6,0,L|180:84,1,55.0000016784668,0|0,3:0|3:0,0:0:0:0:
328,88,72988,2,0,L|352:152,1,50,0|0,3:0|3:0,0:0:0:0:
131,215,73158,2,0,L|148:168,1,50,0|0,3:0|0:0,0:0:0:0:
412,248,73327,2,0,L|429:294,1,50,0|0,3:0|3:0,0:0:0:0:
88,308,73497,5,4,0:1:0:0:
88,308,73666,1,4,0:1:0:0:
88,308,73836,1,4,0:1:0:0:
88,308,74005,1,4,0:1:0:0:
88,308,74175,6,0,L|204:284,1,100,4|0,0:0|0:0,0:0:0:0:
8,252,74514,1,8,0:0:0:0:
176,144,74684,1,2,3:2:0:0:
176,144,74768,1,0,3:0:0:0:
176,144,74853,2,0,L|60:120,1,100,2|0,3:2|0:0,0:0:0:0:
256,88,75192,1,8,0:0:0:0:
185,287,75361,1,2,0:0:0:0:
336,144,75531,6,0,L|452:120,1,100,2|2,0:0|0:0,0:0:0:0:
256,88,75870,1,8,0:0:0:0:
368,232,76039,1,2,0:0:0:0:
144,236,76209,1,0,0:0:0:0:
252,116,76378,1,2,0:0:0:0:
368,256,76548,1,8,0:0:0:0:
216,212,76717,1,0,3:0:0:0:
216,212,76802,1,0,3:0:0:0:
216,212,76887,6,0,L|204:332,1,100,0|0,3:0|0:0,0:0:0:0:
304,160,77226,1,8,0:0:0:0:
144,140,77396,1,0,3:0:0:0:
144,140,77480,1,0,3:0:0:0:
144,140,77565,1,2,3:2:0:0:
304,136,77734,1,0,0:0:0:0:
144,116,77904,1,10,0:0:0:0:
304,112,78073,1,0,0:0:0:0:
460,140,78243,5,0,0:0:0:0:
304,136,78412,1,2,0:0:0:0:
460,168,78582,1,8,0:0:0:0:
304,160,78751,1,2,0:0:0:0:
460,196,78921,6,0,L|400:216,1,50,0|0,3:0|3:0,0:0:0:0:
376,304,79090,2,0,L|316:284,1,50,0|0,3:0|3:0,0:0:0:0:
248,224,79260,2,0,L|188:244,1,50,0|0,3:0|3:0,0:0:0:0:
136,316,79429,2,0,L|76:296,1,50,0|0,3:0|3:0,0:0:0:0:
52,180,79599,6,0,B|100:92|100:92|208:40,1,200,4|8,0:0|0:0,0:0:0:0:
460,180,80107,2,0,B|412:92|412:92|304:40,1,200,6|2,0:0|0:0,0:0:0:0:
256,196,80616,1,8,0:0:0:0:
183,317,80785,6,0,B|95:269|95:269|43:161,1,200,6|2,0:0|0:0,0:0:0:0:
256,372,81293,1,8,0:0:0:0:
329,317,81463,2,0,B|417:269|417:269|469:161,1,200,6|2,0:0|0:0,0:0:0:0:
256,372,81971,1,8,0:0:0:0:
256,192,82141,1,0,3:0:0:0:
256,192,82226,1,0,3:0:0:0:
256,192,82310,5,12,3:2:0:0:
392,108,82480,1,2,0:0:0:0:
256,192,82649,2,0,L|144:176,1,100,8|2,0:0|3:2,0:0:0:0:
276,316,82988,1,8,3:2:0:0:
412,232,83158,1,2,0:0:0:0:
276,316,83327,2,0,L|164:300,1,100,8|2,0:0|0:0,0:0:0:0:
412,232,83666,5,0,1:0:0:0:
177,301,83836,1,0,1:0:0:0:
320,104,84005,1,0,1:0:0:0:
320,348,84175,1,0,1:0:0:0:
192,36,84514,1,0,1:0:0:0:
320,348,84853,6,0,B|264:244|164:263|164:263|208:208|176:128|176:128|285:141|285:141|336:60|336:60|378:132|452:135|452:135|375:203|400:272|400:272,1,825,4|4,0:0|3:1,0:0:0:0:
397,277,87734,5,4,3:1:0:0:
398,296,87819,1,4,3:1:0:0:
404,315,87904,1,4,3:1:0:0:
