osu file format v14

[General]
AudioFilename: stella-rium.mp3
AudioLeadIn: 1000
PreviewTime: 52141
Countdown: 0
SampleSet: Soft
StackLeniency: 0.7
Mode: 0
LetterboxInBreaks: 0
WidescreenStoryboard: 0

[Editor]
DistanceSpacing: 0.4
BeatDivisor: 4
GridSize: 4
TimelineZoom: 1.4

[Metadata]
Title:Stella-rium
TitleUnicode:Stella-rium
Artist:Kano
ArtistUnicode:鹿乃
Creator:Tsukuyomi
Version:Normal
Source:放課後のプレアデス
Tags:Houkago no pleiades M45 opening TV Size tvsize Minakami Yuki -Yuzuriha Crystal baldrace
BeatmapID:843920
BeatmapSetID:386117

[Difficulty]
HPDrainRate:4
CircleSize:3.5
OverallDifficulty:4
ApproachRate:5
SliderMultiplier:1.2
SliderTickRate:1

[Events]
//Background and Video events
Video,0,"pleiades.avi"
0,0,"BG4.jpg",0,0
//Break Periods
//Storyboard Layer 0 (Background)
//Storyboard Layer 1 (Fail)
//Storyboard Layer 2 (Pass)
//Storyboard Layer 3 (Foreground)
//Storyboard Sound Samples

[TimingPoints]
955,338.983050847458,4,2,1,40,1,0
6378,-100,4,2,1,55,0,0
52480,-100,4,2,1,70,0,1
74175,-100,4,2,1,50,0,0
84853,-200,4,2,1,50,0,0
87904,-200,4,2,1,30,0,0

[Colours]
Combo1 : 128,128,128
Combo2 : 255,128,192
Combo3 : 241,230,14
Combo4 : 22,216,243
Combo5 : 128,128,255

[HitObjects]
120,312,955,6,0,L|80:268,2,60,0|0|0,1:0|1:0|1:0,0:0:0:0:
260,348,1632,2,0,L|400:316,1,120,2|2,0:0|0:0,0:0:0:0:
428,184,2310,2,0,L|288:216,1,120,2|0,3:2|0:0,0:0:0:0:
256,80,2988,2,0,L|116:112,1,120,0|2,0:0|0:0,0:0:0:0:
68,232,3666,6,0,L|116:272,1,60,0|0,1:0|1:0,0:0:0:0:
150,301,4005,1,2,1:2:0:0:
290,333,4344,2,0,P|325:323|381:255,1,120,2|2,0:0|0:0,0:0:0:0:
255,192,5022,1,8,3:2:0:0:
255,192,5192,2,0,P|289:143|343:121,1,120,0|0,0:0|0:0,0:0:0:0:
481,79,5870,2,0,L|472:212,1,120,0|0,0:0|0:0,0:0:0:0:
472,247,6378,6,0,P|419:271|343:267,1,120,4|8,0:0|0:0,0:0:0:0:
217,250,7056,2,0,P|199:295|200:320,2,60,2|0|8,3:2|0:0|0:0,0:0:0:0:
254,218,7565,1,2,0:0:0:0:
295,194,7734,2,0,P|305:157|296:72,1,120,2|8,0:0|0:0,0:0:0:0:
157,54,8412,2,0,P|114:68|88:86,1,60,0|2,0:0|0:0,0:0:0:0:
65,108,8751,2,0,P|89:147|98:187,1,60,8|0,0:0|3:0,0:0:0:0:
106,207,9090,6,0,P|179:215|237:194,1,120,2|8,3:2|0:0,0:0:0:0:
351,142,9768,2,0,L|355:77,2,60,2|0|10,3:2|0:0|0:0,0:0:0:0:
386,176,10277,1,0,0:0:0:0:
419,213,10446,2,0,P|418:257|383:327,1,120,2|8,0:0|0:0,0:0:0:0:
243,325,11124,2,0,P|212:307|182:299,1,60,2|2,0:0|0:0,0:0:0:0:
140,303,11463,2,0,P|121:279|112:239,1,60,8|0,0:0|3:0,0:0:0:0:
111,203,11802,6,0,L|246:149,1,120,6|8,3:2|0:0,0:0:0:0:
350,89,12480,2,0,L|413:108,1,60,2|2,0:0|0:0,0:0:0:0:
454,120,12819,1,8,0:0:0:0:
406,259,13158,2,0,L|281:221,1,120,2|8,0:0|0:0,0:0:0:0:
159,170,13836,2,0,L|95:209,1,60,2|2,0:0|0:0,0:0:0:0:
67,226,14175,1,8,0:0:0:0:
147,342,14514,6,0,P|193:351|290:328,1,120,2|8,3:2|0:0,0:0:0:0:
310,324,15022,1,2,3:2:0:0:
353,303,15192,2,0,P|364:256|356:229,1,60,0|2,3:0|0:0,0:0:0:0:
342,202,15531,2,0,P|339:165|350:129,1,60,8|0,0:0|0:0,0:0:0:0:
256,192,15870,12,4,17226,0:0:0:0:
146,83,18243,5,0,0:0:0:0:
146,83,18412,2,0,B|116:137|116:137|133:259,1,180,2|2,0:0|3:2,0:0:0:0:
264,309,19260,2,0,P|278:252|340:216,1,120,2|2,0:0|3:2,0:0:0:0:
456,152,19938,6,0,P|460:100|400:36,1,120,2|0,0:0|0:0,0:0:0:0:
138,79,20955,2,0,P|105:116|98:136,1,60,2|0,0:0|0:0,0:0:0:0:
103,174,21293,2,0,B|100:238|36:278|36:278|48:352,2,180,2|2|2,0:0|0:0|0:0,0:0:0:0:
192,60,22649,6,0,P|238:46|322:53,1,120,2|0,0:0|0:0,0:0:0:0:
470,289,23666,2,0,L|413:324,1,60,0|2,0:0|0:0,0:0:0:0:
382,339,24005,2,0,B|346:343|346:343|255:313,1,120
126,272,24683,1,2,0:0:0:0:
81,138,25022,2,0,P|99:104|119:88,1,60,2|0,0:0|3:0,0:0:0:0:
162,96,25361,6,0,P|213:95|279:74,1,120,2|0,0:0|0:0,0:0:0:0:
328,68,25870,2,0,P|381:61|449:75,2,120,2|2|2,0:0|0:0|0:0,0:0:0:0:
341,114,26717,2,0,L|336:176,1,60,8|0,0:0|1:0,0:0:0:0:
192,180,27226,1,0,1:0:0:0:
79,267,27565,2,0,L|56:204,2,60,8|8|8,1:2|1:2|1:2,0:0:0:0:
96,312,28073,6,0,P|152:328|220:316,1,120,6|8,0:0|0:0,0:0:0:0:
260,304,28582,1,0,0:0:0:0:
304,288,28751,2,0,L|324:220,2,60,2|0|8,0:0|0:0|0:0,0:0:0:0:
448,308,29429,2,0,L|468:248,1,60,2|2,0:0|0:0,0:0:0:0:
476,204,29768,2,0,P|456:156|392:104,1,120,8|0,0:0|0:0,0:0:0:0:
360,128,30277,1,2,0:0:0:0:
312,136,30446,2,0,P|272:140|236:128,1,60,8|2,0:0|0:0,0:0:0:0:
204,128,30785,6,0,B|168:148|168:148|136:244,1,120,2|8,0:0|0:0,0:0:0:0:
104,360,31463,2,0,P|56:364|36:356,1,60,2|0,0:0|0:0,0:0:0:0:
20,320,31802,2,0,L|32:244,1,60,8|0,0:0|0:0,0:0:0:0:
36,212,32141,2,0,L|24:152,2,60,2|2|8,0:0|0:0|0:0,0:0:0:0:
176,236,32819,2,0,L|168:300,2,60,0|2|12,0:0|0:0|0:0,0:0:0:0:
252,112,33497,6,0,B|284:136|284:136|276:244,1,120,6|8,0:0|0:0,0:0:0:0:
272,264,34005,1,0,0:0:0:0:
272,264,34175,2,0,P|280:304|340:368,1,120,2|8,0:0|0:0,0:0:0:0:
448,280,34853,2,0,B|475:249|475:249|482:148,1,120,2|8,0:0|0:0,0:0:0:0:
392,60,35531,2,0,L|436:12,2,60,0|2|8,0:0|0:0|0:0,0:0:0:0:
356,92,36039,1,2,0:0:0:0:
320,124,36209,6,0,L|248:108,1,60,2|0,0:0|0:0,0:0:0:0:
216,100,36548,1,12,0:0:0:0:
184,240,36887,2,0,L|112:224,1,60,6|0,0:0|0:0,0:0:0:0:
80,216,37226,1,12,0:0:0:0:
44,76,37565,2,0,P|72:72|100:44,1,60,6|2,0:0|0:0,0:0:0:0:
144,44,37904,2,0,L|208:76,1,60,12|2,0:0|3:2,0:0:0:0:
244,88,38243,2,0,L|300:44,2,60,4|4|4,3:1|0:1|0:1,0:0:0:0:
148,192,38921,6,0,P|144:236|216:348,1,180,4|2,0:0|0:0,0:0:0:0:
260,352,39599,2,0,L|320:332,1,60,8|0,0:0|0:0,0:0:0:0:
456,164,40277,1,0,3:0:0:0:
456,164,40446,2,0,P|400:176|332:152,1,120,8|2,0:0|0:0,0:0:0:0:
317,115,40955,2,0,P|295:92|251:64,1,60,10|0,0:0|0:0,0:0:0:0:
224,65,41293,2,0,P|182:53|149:49,1,60,2|0,0:0|0:0,0:0:0:0:
117,46,41632,6,0,L|56:226,1,180,0|2,0:0|0:0,0:0:0:0:
45,261,42310,2,0,L|93:314,1,60,8|0,0:0|0:0,0:0:0:0:
290,367,42989,1,0,3:0:0:0:
290,367,43158,2,0,L|411:335,1,120,8|2,0:0|0:0,0:0:0:0:
452,322,43667,1,8,0:0:0:0:
483,181,44005,2,0,P|431:174|400:181,1,60,4|4,3:1|3:1,0:0:0:0:
378,193,44344,6,0,P|329:203|249:192,1,120,4|10,0:0|0:0,0:0:0:0:
212,184,44853,1,0,0:0:0:0:
163,182,45022,2,0,P|117:183|93:189,2,60,2|2|8,0:0|0:0|0:0,0:0:0:0:
256,74,45700,2,0,P|317:62|384:79,1,120,2|2,0:1|0:0,0:0:0:0:
418,89,46209,2,0,B|443:127|443:127|419:215,1,120,10|2,1:0|0:0,0:0:0:0:
406,243,46717,1,10,0:1:0:0:
285,320,47056,6,0,P|267:287|278:195,1,120,4|10,0:0|0:0,0:0:0:0:
295,165,47565,1,0,0:0:0:0:
295,165,47734,2,0,P|308:129|306:88,1,60,2|2,0:0|0:0,0:0:0:0:
308,59,48073,1,8,0:0:0:0:
175,111,48412,2,0,B|138:114|138:114|66:67,1,120,2|2,0:1|0:0,0:0:0:0:
22,84,48921,2,0,P|9:121|14:208,1,120,2|2,1:1|0:0,0:0:0:0:
27,246,49429,1,10,1:1:0:0:
144,330,49768,6,0,B|176:279|168:224|168:224|236:327|359:349|440:258|439:166,1,480,4|0,0:0|3:0,0:0:0:0:
432,132,51293,1,0,3:0:0:0:
406,91,51463,2,0,L|406:24,1,60,0|0,3:0|3:0,0:0:0:0:
53,95,52480,6,0,L|112:132,1,60,4|2,0:0|0:0,0:0:0:0:
140,132,52819,2,0,L|206:114,1,60,8|2,0:0|0:0,0:0:0:0:
244,104,53158,2,0,L|252:44,2,60,2|2|8,0:0|0:0|0:0,0:0:0:0:
384,148,53836,2,0,P|396:181|420:209,1,60,2|2,0:0|0:0,0:0:0:0:
446,233,54175,2,0,P|421:270|394:288,1,60,8|2,0:0|3:2,0:0:0:0:
372,312,54514,2,0,L|421:347,2,60,2|0|10,3:2|0:0|0:0,0:0:0:0:
252,236,55192,6,0,B|225:201|225:201|251:104,1,120,2|8,3:2|0:0,0:0:0:0:
260,82,55700,1,2,0:0:0:0:
306,67,55870,2,0,P|347:59|380:36,2,60,2|2|8,0:0|0:0|0:0,0:0:0:0:
164,80,56548,2,0,P|132:88|104:108,1,60,2|2,0:0|0:0,0:0:0:0:
68,128,56887,2,0,P|88:160|88:208,1,60,8|2,0:0|0:0,0:0:0:0:
93,229,57226,2,0,L|76:289,1,60,2|0,0:0|0:0,0:0:0:0:
61,332,57565,1,8,0:0:0:0:
200,368,57904,6,0,P|216:336|308:304,1,120,2|8,3:2|0:0,0:0:0:0:
428,344,58582,2,0,L|464:292,1,60,2|0,0:0|0:0,0:0:0:0:
488,255,58921,1,8,0:0:0:0:
504,112,59260,2,0,P|464:100|380:112,1,120,2|8,0:0|0:0,0:0:0:0:
284,208,59938,2,0,P|232:204|176:160,1,120,2|8,0:0|0:0,0:0:0:0:
92,48,60616,6,0,B|60:76|60:76|44:172,1,120,2|8,0:0|0:0,0:0:0:0:
72,296,61293,2,0,L|4:288,2,60,2|0|8,0:0|0:0|0:0,0:0:0:0:
193,374,61971,2,0,L|261:366,2,60,2|0|12,0:0|0:0|0:0,0:0:0:0:
178,227,62649,2,0,P|187:189|209:159,1,60,0|0,3:0|3:0,0:0:0:0:
226,133,62988,2,0,P|254:108|292:95,1,60,0|0,3:0|3:0,0:0:0:0:
319,81,63327,6,0,B|355:81|355:81|418:158,1,120,4|8,3:2|0:0,0:0:0:0:
490,265,64005,2,0,P|461:283|444:314,1,60,2|0,0:0|0:0,0:0:0:0:
412,337,64344,2,0,P|377:351|341:348,1,60,8|2,0:0|0:0,0:0:0:0:
307,352,64683,2,0,L|234:335,1,60,2|2,0:0|0:0,0:0:0:0:
203,355,65022,1,8,0:0:0:0:
175,215,65361,2,0,L|219:167,2,60,2|2|8,0:0|0:0|0:0,0:0:0:0:
37,176,66039,6,0,L|46:243,2,60,2|2|8,0:0|0:0|0:0,0:0:0:0:
62,134,66548,1,2,3:2:0:0:
171,43,66887,1,4,0:1:0:0:
315,43,67226,2,0,P|360:51|422:104,1,120,6|0,0:0|0:0,0:0:0:0:
430,143,67734,2,0,P|420:178|428:229,1,60,8|0,0:0|0:0,0:0:0:0:
431,250,68073,2,0,P|440:281|431:329,2,60,2|2|8,0:0|0:0|0:0,0:0:0:0:
290,282,68751,6,0,P|244:283|155:258,1,120,6|8,0:0|0:0,0:0:0:0:
52,186,69429,2,0,L|46:122,1,60,2|0,0:0|0:0,0:0:0:0:
43,78,69768,1,8,0:0:0:0:
185,52,70107,2,0,P|231:51|320:76,1,120,2|8,3:2|0:0,0:0:0:0:
423,148,70785,2,0,L|429:212,1,60,2|0,0:0|0:0,0:0:0:0:
432,256,71124,1,8,0:0:0:0:
291,234,71463,6,0,B|252:221|252:221|220:134,1,120,6|8,3:2|0:0,0:0:0:0:
341,56,72141,2,0,L|365:130,2,60,2|2|8,0:0|0:0|0:0,0:0:0:0:
195,42,72819,2,0,P|139:39|144:154,1,180,0|0,3:0|3:0,0:0:0:0:
161,170,73497,2,0,P|196:177|230:171,1,60,4|4,0:1|0:1,0:0:0:0:
269,167,73836,2,0,P|309:163|338:168,1,60,4|4,0:1|0:1,0:0:0:0:
377,165,74175,6,0,B|407:192|407:192|402:283,1,120,4|8,0:0|0:0,0:0:0:0:
260,301,74853,2,0,L|292:365,2,60,2|0|8,3:2|0:0|0:0,0:0:0:0:
128,369,75531,2,0,P|84:349|31:285,1,120,2|8,0:0|0:0,0:0:0:0:
62,160,76209,2,0,P|68:118|89:88,1,60,0|2,0:0|0:0,0:0:0:0:
111,71,76548,2,0,P|152:79|179:74,1,60,8|0,0:0|3:0,0:0:0:0:
216,65,76887,6,0,P|229:102|217:200,1,120,0|8,3:0|0:0,0:0:0:0:
284,312,77565,2,0,P|258:341|231:351,2,60,2|0|10,3:2|0:0|0:0,0:0:0:0:
390,211,78243,2,0,P|419:189|456:186,1,60,0|2,0:0|0:0,0:0:0:0:
490,184,78582,2,0,L|501:113,1,60,8|2,0:0|0:0,0:0:0:0:
488,78,78921,2,0,B|423:79|423:79|373:51|373:51|313:50,1,180,0|0,3:0|3:0,0:0:0:0:
267,49,79599,6,0,B|231:73|231:73|195:171,1,120,4|8,0:0|0:0,0:0:0:0:
234,183,80107,2,0,P|202:206|98:207,1,120,6|2,0:0|0:0,0:0:0:0:
76,214,80616,1,8,0:0:0:0:
76,214,80785,2,0,B|54:293|54:293|72:340,1,120,6|2,0:0|0:0,0:0:0:0:
113,347,81293,1,8,0:0:0:0:
113,347,81463,2,0,L|239:328,1,120,6|2,0:0|0:0,0:0:0:0:
280,322,81971,1,8,0:0:0:0:
423,310,82310,6,0,L|432:240,1,60,8|2,0:0|3:2,0:0:0:0:
437,204,82649,1,8,3:2:0:0:
295,189,82988,2,0,L|304:119,1,60,8|2,0:0|3:2,0:0:0:0:
309,83,83327,1,8,3:2:0:0:
167,47,83666,2,0,L|103:37,2,60,0|0|0,1:0|1:0|1:0,0:0:0:0:
176,94,84175,2,0,L|155:216,2,120,0|0|4,1:0|1:0|0:0,0:0:0:0:
256,192,84938,12,4,87904,0:1:0:0:
