osu file format v14

[General]
AudioFilename: stella-rium.mp3
AudioLeadIn: 1000
PreviewTime: 52141
Countdown: 0
SampleSet: Soft
StackLeniency: 0.7
Mode: 0
LetterboxInBreaks: 0
WidescreenStoryboard: 0

[Editor]
DistanceSpacing: 0.4
BeatDivisor: 4
GridSize: 4
TimelineZoom: 1.4

[Metadata]
Title:Stella-rium
TitleUnicode:Stella-rium
Artist:Kano
ArtistUnicode:鹿乃
Creator:Tsukuyomi
Version:Easy
Source:放課後のプレアデス
Tags:Houkago no pleiades M45 opening TV Size tvsize Minakami Yuki -Yuzuriha Crystal baldrace
BeatmapID:843832
BeatmapSetID:386117

[Difficulty]
HPDrainRate:2
CircleSize:3
OverallDifficulty:2
ApproachRate:3
SliderMultiplier:0.8
SliderTickRate:1

[Events]
//Background and Video events
Video,0,"pleiades.avi"
0,0,"bg8.jpg",0,0
//Break Periods
//Storyboard Layer 0 (Background)
//Storyboard Layer 1 (Fail)
//Storyboard Layer 2 (Pass)
//Storyboard Layer 3 (Foreground)
//Storyboard Sound Samples

[TimingPoints]
955,338.983050847458,4,2,1,40,1,0
6378,-100,4,2,1,55,0,0
52480,-100,4,2,1,70,0,1
74175,-100,4,2,1,50,0,0
87904,-200,4,2,1,30,0,0

[Colours]
Combo1 : 128,128,128
Combo2 : 255,128,192
Combo3 : 241,230,14
Combo4 : 22,216,243
Combo5 : 128,128,255

[HitObjects]
130,301,955,6,0,L|222:286,1,80,0|0,1:0|1:0,0:0:0:0:
211,201,1632,2,0,L|41:233,2,160,2|2|0,0:0|3:2|0:0,0:0:0:0:
297,185,3327,1,2,0:0:0:0:
384,171,3666,6,0,L|403:88,1,80,0|2,1:0|1:2,0:0:0:0:
479,138,4344,2,0,L|461:215,1,80,2|2,0:0|0:0,0:0:0:0:
446,303,5022,2,0,L|401:300,1,40,8|0,3:2|0:0,0:0:0:0:
317,292,5531,2,0,P|268:277|241:253,1,80,0|0,0:0|0:0,0:0:0:0:
153,167,6378,6,0,P|125:179|66:181,2,80,4|8|2,0:0|0:0|3:2,0:0:0:0:
224,115,7395,1,8,0:0:0:0:
302,73,7734,2,0,P|353:61|396:68,2,80,2|8|0,0:0|0:0|0:0,0:0:0:0:
224,115,8751,1,8,0:0:0:0:
222,203,9090,6,0,P|223:260|237:295,2,80,2|8|2,3:2|0:0|3:2,0:0:0:0:
224,115,10107,1,10,0:0:0:0:
307,143,10446,2,0,P|353:152|401:148,1,80,0|8,0:0|0:0,0:0:0:0:
474,162,11124,2,0,P|483:209|471:252,1,80,2|8,0:0|0:0,0:0:0:0:
425,310,11802,6,0,B|380:314|350:288|350:288|311:314|259:294,1,160,6|2,3:2|0:0,0:0:0:0:
299,215,12819,1,8,0:0:0:0:
322,131,13158,2,0,B|284:115|245:141|245:141|215:115|170:119,1,160,2|2,0:0|0:0,0:0:0:0:
183,209,14175,1,8,0:0:0:0:
104,251,14514,6,0,P|92:298|96:341,2,80,2|8|0,3:2|0:0|3:0,0:0:0:0:
183,209,15531,1,8,0:0:0:0:
256,192,15870,12,4,17226,0:0:0:0:
258,340,18921,6,0,P|209:333|177:307,1,80,2|0,0:0|0:0,0:0:0:0:
136,240,19599,1,2,3:2:0:0:
163,155,19938,6,0,P|182:114|216:87,1,80,2|0,0:0|0:0,0:0:0:0:
379,49,20955,1,2,0:0:0:0:
467,202,21632,1,0,0:0:0:0:
359,339,22310,1,2,0:0:0:0:
336,252,22649,6,0,L|321:173,1,80,2|0,0:0|0:0,0:0:0:0:
183,64,23666,1,2,0:0:0:0:
58,187,24344,1,0,0:0:0:0:
150,335,25022,1,2,0:0:0:0:
237,346,25361,6,0,P|277:343|319:319,1,80,2|0,0:0|0:0,0:0:0:0:
324,239,26039,2,0,P|284:242|242:266,1,80,0|2,0:0|0:0,0:0:0:0:
159,254,26717,2,0,L|145:211,1,40,8|0,0:0|1:0,0:0:0:0:
117,133,27226,2,0,L|189:96,1,80,0|8,1:0|1:2,0:0:0:0:
306,38,28073,5,6,0:0:0:0:
391,57,28412,2,0,B|442:74|442:74|442:189,1,160,8|8,0:0|0:0,0:0:0:0:
420,266,29429,2,0,B|403:317|403:317|288:317,1,160,2|0,0:0|0:0,0:0:0:0:
208,315,30446,2,0,P|179:308|143:263,1,80,8|2,0:0|0:0,0:0:0:0:
132,185,31124,6,0,B|149:134|149:134|264:134,1,160,8|8,0:0|0:0,0:0:0:0:
333,90,32141,2,0,B|316:39|316:39|201:39,1,160,2|0,0:0|0:0,0:0:0:0:
122,37,33158,1,12,0:0:0:0:
62,105,33497,6,0,P|46:147|54:232,2,120,6|0|8,0:0|0:0|0:0,0:0:0:0:
143,137,34853,2,0,P|159:95|151:10,2,120,2|2|8,0:0|0:0|0:0,0:0:0:0:
163,225,36209,6,0,B|180:276|180:276|295:276,1,160,2|2,0:0|0:0,0:0:0:0:
374,277,37226,1,8,0:0:0:0:
449,231,37565,2,0,P|474:194|485:104,2,120,2|2|4,0:0|3:2|0:1,0:0:0:0:
374,277,38921,6,0,L|218:355,1,160,4|8,0:0|0:0,0:0:0:0:
83,250,40277,2,0,L|239:172,1,160,0|10,3:0|0:0,0:0:0:0:
389,249,41632,6,0,P|406:203|385:86,1,160,0|8,0:0|0:0,0:0:0:0:
222,32,42988,2,0,P|203:108|223:185,1,160,0|8,3:0|0:0,0:0:0:0:
275,351,44344,6,0,P|326:330|343:305,2,80,4|10|2,0:0|0:0|0:0,0:0:0:0:
186,348,45361,1,8,0:0:0:0:
108,306,45700,2,0,P|81:272|67:185,1,120,2|10,0:1|1:0,0:0:0:0:
86,112,46548,2,0,L|132:107,1,40,2|10,0:0|0:1,0:0:0:0:
217,101,47056,6,0,P|243:64|289:49,2,80,4|10|2,0:0|0:0|0:0,0:0:0:0:
300,134,48073,1,8,0:0:0:0:
382,167,48412,2,0,P|400:224|382:314,1,120,2|2,0:1|1:1,0:0:0:0:
323,337,49260,2,0,L|266:331,1,40,2|10,0:0|1:1,0:0:0:0:
195,320,49768,5,4,0:0:0:0:
256,192,51124,1,0,3:0:0:0:
256,192,52480,6,0,P|224:240|112:304,1,160,4|2,0:0|0:0,0:0:0:0:
61,254,53497,1,8,0:0:0:0:
56,168,53836,2,0,P|88:120|200:56,1,160,2|2,0:0|3:2,0:0:0:0:
256,32,54853,1,10,0:0:0:0:
340,63,55192,6,0,P|408:104|456:168,1,160,2|2,3:2|0:0,0:0:0:0:
451,254,56209,1,8,0:0:0:0:
371,296,56548,2,0,P|303:255|256:192,1,160,2|2,0:0|0:0,0:0:0:0:
256,104,57565,1,8,0:0:0:0:
340,73,57904,6,0,L|439:35,2,80,2|8|2,3:2|0:0|0:0,0:0:0:0:
256,104,58921,1,8,0:0:0:0:
172,73,59260,2,0,L|73:35,2,80,2|8|2,0:0|0:0|0:0,0:0:0:0:
256,104,60277,1,8,0:0:0:0:
256,192,60616,6,0,L|256:360,2,160,2|2|2,0:0|0:0|0:0,0:0:0:0:
256,104,62310,2,0,P|285:108|329:142,1,80,12|0,0:0|3:0,0:0:0:0:
384,300,63327,6,0,P|360:340|320:360,1,80,4|8,3:2|0:0,0:0:0:0:
300,276,64005,2,0,P|324:236|364:216,1,80,2|8,0:0|0:0,0:0:0:0:
416,156,64683,2,0,P|400:104|296:40,1,160,2|2,0:0|0:0,0:0:0:0:
256,108,65700,1,8,0:0:0:0:
256,196,66039,6,0,L|256:320,1,120,2|2,0:0|3:2,0:0:0:0:
172,348,66887,1,4,0:1:0:0:
100,296,67226,2,0,P|76:248|80:168,1,120,6|8,0:0|0:0,0:0:0:0:
96,96,68073,2,0,P|136:120|160:160,1,80,2|8,0:0|0:0,0:0:0:0:
196,224,68751,6,0,P|207:282|266:368,2,160,6|2|0,0:0|0:0|0:0,0:0:0:0:
280,191,70446,2,0,L|343:245,1,80,8|2,0:0|0:0,0:0:0:0:
412,296,71124,1,8,0:0:0:0:
432,212,71463,6,0,L|460:48,2,160,6|2|4,3:2|0:0|3:2,0:0:0:0:
359,167,74175,6,0,P|387:179|446:181,2,80,4|8|2,0:0|0:0|3:2,0:0:0:0:
288,115,75192,1,8,0:0:0:0:
210,73,75531,2,0,P|159:61|116:68,2,80,2|8|2,0:0|0:0|0:0,0:0:0:0:
288,115,76548,1,8,0:0:0:0:
290,203,76887,6,0,P|289:260|275:295,2,80,2|8|2,3:2|0:0|3:2,0:0:0:0:
288,115,77904,1,8,0:0:0:0:
205,143,78243,2,0,P|159:152|111:148,1,80,2|8,0:0|0:0,0:0:0:0:
38,162,78921,2,0,P|29:209|64:324,1,160,2|4,3:2|0:0,0:0:0:0:
232,352,80107,6,0,L|344:328,1,80,6|2,0:0|0:0,0:0:0:0:
392,304,80785,2,0,L|400:220,1,80,6|2,0:0|0:0,0:0:0:0:
316,192,81463,2,0,L|300:88,1,80,6|2,0:0|0:0,0:0:0:0:
192,48,82310,6,0,B|148:64|148:64|112:132|112:132|128:200|128:200|172:240,1,240,12|8,3:2|0:0,0:0:0:0:
248,252,83666,2,0,L|380:216,1,120,0|0,1:0|1:0,0:0:0:0:
448,196,84514,2,0,L|460:112,1,80,0|4,1:0|0:0,0:0:0:0:
256,192,84938,12,4,87904,0:1:0:0:
