osu file format v14

[General]
AudioFilename: audio.mp3
AudioLeadIn: 0
PreviewTime: 52259
Countdown: 0
SampleSet: Soft
StackLeniency: 0.7
Mode: 3
LetterboxInBreaks: 0
SpecialStyle: 0
WidescreenStoryboard: 1

[Editor]
DistanceSpacing: 1
BeatDivisor: 4
GridSize: 32
TimelineZoom: 1.9

[Metadata]
Title:Stella-rium (TV Size)
TitleUnicode:Stella-rium (TV Size)
Artist:Kano
ArtistUnicode:鹿乃
Creator:Paran
Version:Hard
Source:放課後のプレアデス
Tags:houkago no pleiades op fresh chicken m45 歌い手 utaite opening stellarium Anime samfree Japanese J-pop pop jpop
BeatmapID:2742556
BeatmapSetID:1324035

[Difficulty]
HPDrainRate:8
CircleSize:4
OverallDifficulty:8
ApproachRate:5
SliderMultiplier:1.4
SliderTickRate:1

[Events]
//Background and Video events
Video,981,"pleiades.avi"
0,0,"houkago no pleides.jpg",0,0
//Break Periods
//Storyboard Layer 0 (Background)
//Storyboard Layer 1 (Fail)
//Storyboard Layer 2 (Pass)
//Storyboard Layer 3 (Foreground)
//Storyboard Layer 4 (Overlay)
//Storyboard Sound Samples

[TimingPoints]
988,338.983050847458,4,2,1,50,1,0
52513,-100,4,2,1,50,0,1
74208,-100,4,2,1,50,0,0

[HitObjects]
448,192,988,5,4,0:0:0:0:
320,192,988,1,2,0:0:0:0:
192,192,1157,1,4,0:0:0:0:
64,192,1157,1,2,0:0:0:0:
448,192,1326,128,4,1665:0:0:0:0:
320,192,1326,1,2,0:0:0:0:
64,192,1665,1,0,0:0:0:0:
320,192,1835,1,0,0:0:0:0:
192,192,2004,128,0,2174:0:0:0:0:
448,192,2174,1,0,0:0:0:0:
64,192,2343,128,0,2513:0:0:0:0:
320,192,2513,128,0,2682:0:0:0:0:
448,192,2682,1,0,0:0:0:0:
64,192,2852,128,0,3021:0:0:0:0:
320,192,3021,1,0,0:0:0:0:
192,192,3191,128,0,3360:0:0:0:0:
448,192,3360,128,0,3530:0:0:0:0:
64,192,3530,128,0,3699:0:0:0:0:
448,192,3699,1,4,0:0:0:0:
320,192,3699,1,2,0:0:0:0:
192,192,3869,1,4,0:0:0:0:
64,192,3869,1,2,0:0:0:0:
448,192,4038,128,4,4377:0:0:0:0:
320,192,4038,1,2,0:0:0:0:
64,192,4377,1,0,0:0:0:0:
320,192,4547,1,0,0:0:0:0:
192,192,4716,128,0,4886:0:0:0:0:
448,192,4886,1,0,0:0:0:0:
64,192,5055,1,0,0:0:0:0:
320,192,5055,1,8,0:0:0:0:
448,192,5225,128,0,5394:0:0:0:0:
192,192,5225,128,2,5394:0:0:0:0:
448,192,5564,128,2,5733:0:0:0:0:
192,192,5564,128,0,5733:0:0:0:0:
320,192,5903,128,0,6411:0:0:0:0:
448,192,6411,1,4,0:0:0:0:
64,192,6411,1,2,0:0:0:0:
192,192,6411,1,0,0:0:0:0:
320,192,6581,1,0,0:0:0:0:
192,192,6750,1,8,0:0:0:0:
448,192,6750,1,0,0:0:0:0:
64,192,6920,1,0,0:0:0:0:
448,192,7089,1,0,0:0:0:0:
320,192,7089,1,2,0:0:0:0:
192,192,7259,1,2,0:0:0:0:
64,192,7259,1,0,0:0:0:0:
448,192,7428,1,0,0:0:0:0:
192,192,7428,1,8,0:0:0:0:
320,192,7598,1,0,0:0:0:0:
448,192,7767,1,2,0:0:0:0:
64,192,7767,1,0,0:0:0:0:
192,192,7937,1,0,0:0:0:0:
64,192,8106,1,8,0:0:0:0:
320,192,8106,1,0,0:0:0:0:
448,192,8276,1,0,0:0:0:0:
64,192,8445,1,0,0:0:0:0:
192,192,8445,1,2,0:0:0:0:
320,192,8615,1,2,0:0:0:0:
448,192,8615,1,0,0:0:0:0:
64,192,8784,1,0,0:0:0:0:
320,192,8784,1,8,0:0:0:0:
192,192,8954,1,0,0:0:0:0:
448,192,9123,1,0,0:0:0:0:
64,192,9123,1,2,0:0:0:0:
320,192,9293,1,0,0:0:0:0:
448,192,9462,1,0,0:0:0:0:
192,192,9462,1,8,0:0:0:0:
64,192,9632,1,0,0:0:0:0:
448,192,9801,1,0,0:0:0:0:
320,192,9801,1,2,0:0:0:0:
192,192,9971,1,2,0:0:0:0:
64,192,9971,1,0,0:0:0:0:
448,192,10140,1,8,0:0:0:0:
64,192,10140,1,0,0:0:0:0:
320,192,10310,1,0,0:0:0:0:
448,192,10479,1,2,0:0:0:0:
64,192,10479,1,0,0:0:0:0:
192,192,10649,1,0,0:0:0:0:
320,192,10818,1,8,0:0:0:0:
64,192,10818,1,0,0:0:0:0:
448,192,10988,1,0,0:0:0:0:
64,192,11157,1,2,0:0:0:0:
192,192,11157,1,0,0:0:0:0:
320,192,11326,1,2,0:0:0:0:
448,192,11326,1,0,0:0:0:0:
448,192,11496,1,8,0:0:0:0:
64,192,11496,1,0,0:0:0:0:
192,192,11665,128,0,11835:0:0:0:0:
64,192,11835,1,2,0:0:0:0:
448,192,11835,1,4,0:0:0:0:
320,192,11835,128,0,12004:0:0:0:0:
192,192,12004,1,0,0:0:0:0:
64,192,12174,128,0,12343:0:0:0:0:
448,192,12174,1,8,0:0:0:0:
192,192,12343,1,0,0:0:0:0:
448,192,12513,1,2,0:0:0:0:
320,192,12513,128,0,12682:0:0:0:0:
192,192,12682,1,2,0:0:0:0:
64,192,12682,1,0,0:0:0:0:
64,192,12852,1,0,0:0:0:0:
448,192,12852,128,8,13021:0:0:0:0:
320,192,13021,1,0,0:0:0:0:
64,192,13191,1,0,0:0:0:0:
192,192,13191,128,2,13360:0:0:0:0:
320,192,13360,1,0,0:0:0:0:
64,192,13530,1,0,0:0:0:0:
448,192,13530,128,8,13699:0:0:0:0:
320,192,13699,1,0,0:0:0:0:
64,192,13869,1,0,0:0:0:0:
192,192,13869,128,2,14038:0:0:0:0:
320,192,14038,1,2,0:0:0:0:
448,192,14038,1,0,0:0:0:0:
448,192,14208,1,8,0:0:0:0:
64,192,14208,128,0,14377:0:0:0:0:
192,192,14377,1,0,0:0:0:0:
448,192,14547,1,2,0:0:0:0:
320,192,14547,128,0,14716:0:0:0:0:
192,192,14716,1,0,0:0:0:0:
64,192,14886,1,0,0:0:0:0:
448,192,14886,1,8,0:0:0:0:
192,192,15055,1,0,0:0:0:0:
448,192,15225,1,0,0:0:0:0:
320,192,15225,1,2,0:0:0:0:
192,192,15394,1,2,0:0:0:0:
64,192,15394,1,0,0:0:0:0:
448,192,15564,1,8,0:0:0:0:
64,192,15564,1,0,0:0:0:0:
320,192,15733,1,0,0:0:0:0:
64,192,15903,1,0,0:0:0:0:
192,192,15903,1,2,0:0:0:0:
320,192,16072,1,2,0:0:0:0:
448,192,16072,1,0,0:0:0:0:
64,192,16242,1,0,0:0:0:0:
448,192,16242,1,8,0:0:0:0:
64,192,16411,1,8,0:0:0:0:
192,192,16496,1,8,0:0:0:0:
320,192,16581,1,8,0:0:0:0:
448,192,16581,1,0,0:0:0:0:
64,192,16750,1,0,0:0:0:0:
192,192,16750,1,0,0:0:0:70:Tom1.wav
448,192,16920,1,0,0:0:0:70:Tom2.wav
64,192,16920,1,0,0:0:0:0:
192,192,17089,1,0,0:0:0:70:Tom3.wav
320,192,17089,1,0,0:0:0:0:
448,192,17259,1,4,0:0:0:0:
64,192,17259,128,2,19971:0:0:0:0:
320,192,17259,1,0,0:0:0:0:
448,192,17598,1,0,0:0:0:0:
192,192,17937,1,0,0:0:0:0:
448,192,18276,1,0,0:0:0:0:
192,192,18615,1,0,0:0:0:0:
448,192,18954,1,0,0:0:0:0:
192,192,19293,1,0,0:0:0:0:
448,192,19632,1,0,0:0:0:0:
192,192,19801,1,2,0:0:0:0:
192,192,19971,1,2,0:0:0:0:
448,192,19971,128,0,22682:0:0:0:0:
64,192,20310,1,0,0:0:0:0:
320,192,20649,1,0,0:0:0:0:
64,192,20988,1,0,0:0:0:0:
320,192,21326,1,0,0:0:0:0:
64,192,21665,1,0,0:0:0:0:
320,192,22004,1,0,0:0:0:0:
64,192,22343,1,0,0:0:0:0:
320,192,22513,1,2,0:0:0:0:
64,192,22682,128,0,25394:0:0:0:0:
320,192,22682,1,2,0:0:0:0:
448,192,23021,1,0,0:0:0:0:
192,192,23360,1,0,0:0:0:0:
448,192,23699,1,0,0:0:0:0:
192,192,24038,1,0,0:0:0:0:
448,192,24377,1,0,0:0:0:0:
192,192,24716,1,0,0:0:0:0:
448,192,25055,1,0,0:0:0:0:
192,192,25225,1,2,0:0:0:0:
448,192,25394,128,0,26750:0:0:0:0:
192,192,25394,1,2,0:0:0:0:
64,192,25733,1,0,0:0:0:0:
320,192,25903,1,0,0:0:0:0:
64,192,26072,1,0,0:0:0:0:
320,192,26242,1,0,0:0:0:0:
64,192,26411,1,0,0:0:0:0:
320,192,26581,1,0,0:0:0:0:
64,192,26750,1,0,0:0:0:0:
192,192,26750,1,8,0:0:0:0:
320,192,26920,128,2,27089:0:0:0:0:
448,192,26920,128,0,27089:0:0:0:0:
320,192,27259,128,2,27428:0:0:0:0:
448,192,27259,128,0,27428:0:0:0:0:
192,192,27598,1,8,0:0:0:0:
64,192,27598,1,0,0:0:0:0:
320,192,27767,1,8,0:0:0:0:
448,192,27767,1,0,0:0:0:0:
192,192,27937,1,8,0:0:0:0:
64,192,27937,1,0,0:0:0:0:
320,192,28106,1,0,0:0:0:0:
448,192,28106,1,4,0:0:0:0:
64,192,28106,1,2,0:0:0:0:
192,192,28276,1,0,0:0:0:0:
64,192,28445,1,0,0:0:0:0:
448,192,28445,128,8,28615:0:0:0:0:
320,192,28615,1,0,0:0:0:0:
64,192,28784,1,0,0:0:0:0:
192,192,28784,1,2,0:0:0:0:
448,192,28954,1,0,0:0:0:0:
320,192,28954,1,2,0:0:0:0:
192,192,29123,128,8,29293:0:0:0:0:
64,192,29123,1,0,0:0:0:0:
320,192,29293,1,0,0:0:0:0:
64,192,29462,1,0,0:0:0:0:
448,192,29462,128,2,29632:0:0:0:0:
64,192,29632,128,0,29801:0:0:0:0:
192,192,29801,1,8,0:0:0:0:
448,192,29801,1,0,0:0:0:0:
320,192,29971,128,0,30140:0:0:0:0:
192,192,30140,1,2,0:0:0:0:
64,192,30140,1,0,0:0:0:0:
448,192,30310,128,0,30479:0:0:0:0:
320,192,30310,1,2,0:0:0:0:
64,192,30479,1,8,0:0:0:0:
192,192,30479,128,0,30649:0:0:0:0:
448,192,30649,128,0,30818:0:0:0:0:
192,192,30818,1,0,0:0:0:0:
64,192,30818,1,2,0:0:0:0:
320,192,30988,1,0,0:0:0:0:
448,192,31157,1,8,0:0:0:0:
64,192,31157,128,0,31326:0:0:0:0:
192,192,31326,1,0,0:0:0:0:
448,192,31496,1,0,0:0:0:0:
320,192,31496,1,2,0:0:0:0:
64,192,31665,1,0,0:0:0:0:
192,192,31665,1,2,0:0:0:0:
320,192,31835,128,0,32004:0:0:0:0:
448,192,31835,1,8,0:0:0:0:
192,192,32004,1,0,0:0:0:0:
64,192,32174,128,0,32343:0:0:0:0:
448,192,32174,1,2,0:0:0:0:
448,192,32343,128,0,32513:0:0:0:0:
320,192,32513,1,8,0:0:0:0:
64,192,32513,1,0,0:0:0:0:
192,192,32682,128,0,32852:0:0:0:0:
320,192,32852,1,2,0:0:0:0:
448,192,32852,1,0,0:0:0:0:
64,192,33021,128,0,33191:0:0:0:0:
192,192,33021,1,2,0:0:0:0:
320,192,33191,128,0,33360:0:0:0:0:
448,192,33191,1,8,0:0:0:0:
64,192,33360,128,0,33530:0:0:0:0:
320,192,33530,1,2,0:0:0:0:
448,192,33530,1,4,0:0:0:0:
192,192,33699,1,0,0:0:0:0:
64,192,33869,1,0,0:0:0:0:
448,192,33869,1,8,0:0:0:0:
320,192,34038,1,0,0:0:0:0:
192,192,34208,1,2,0:0:0:0:
64,192,34208,1,0,0:0:0:0:
320,192,34377,1,0,0:0:0:0:
448,192,34377,1,2,0:0:0:0:
64,192,34547,1,0,0:0:0:0:
192,192,34547,1,8,0:0:0:0:
448,192,34716,1,0,0:0:0:0:
192,192,34886,1,2,0:0:0:0:
64,192,34886,1,0,0:0:0:0:
320,192,35055,1,0,0:0:0:0:
64,192,35225,1,0,0:0:0:0:
448,192,35225,1,8,0:0:0:0:
192,192,35394,1,0,0:0:0:0:
448,192,35564,1,2,0:0:0:0:
320,192,35564,1,0,0:0:0:0:
192,192,35733,1,2,0:0:0:0:
64,192,35733,1,0,0:0:0:0:
320,192,35903,1,8,0:0:0:0:
448,192,35903,1,0,0:0:0:0:
64,192,36072,1,0,0:0:0:0:
448,192,36242,1,2,0:0:0:0:
320,192,36242,1,0,0:0:0:0:
192,192,36411,1,0,0:0:0:0:
64,192,36581,1,0,0:0:0:0:
448,192,36581,1,8,0:0:0:0:
320,192,36750,1,0,0:0:0:0:
192,192,36920,1,2,0:0:0:0:
64,192,36920,1,0,0:0:0:0:
448,192,37089,1,2,0:0:0:0:
320,192,37089,1,0,0:0:0:0:
192,192,37259,1,8,0:0:0:0:
64,192,37259,1,0,0:0:0:0:
448,192,37428,1,0,0:0:0:0:
192,192,37598,1,0,0:0:0:0:
320,192,37598,1,2,0:0:0:0:
192,192,37767,1,2,0:0:0:0:
320,192,37767,1,0,0:0:0:0:
448,192,37937,1,8,0:0:0:0:
64,192,37937,1,0,0:0:0:0:
448,192,38106,1,8,0:0:0:0:
320,192,38191,1,8,0:0:0:0:
64,192,38276,1,0,0:0:0:0:
192,192,38276,1,8,0:0:0:0:
448,192,38445,1,0,0:0:0:0:
320,192,38445,1,0,0:0:0:70:Tom1.wav
64,192,38615,1,0,0:0:0:0:
448,192,38615,1,0,0:0:0:70:Tom2.wav
320,192,38784,1,0,0:0:0:70:Tom3.wav
192,192,38784,1,4,0:0:0:0:
64,192,38954,1,2,0:0:0:0:
448,192,38954,128,4,39462:0:0:0:0:
192,192,38954,1,0,0:0:0:0:
64,192,39462,1,2,0:0:0:0:
192,192,39462,1,0,0:0:0:0:
448,192,39632,1,0,0:0:0:0:
320,192,39632,1,8,0:0:0:0:
192,192,39801,1,2,0:0:0:0:
64,192,39801,1,0,0:0:0:0:
448,192,39971,128,0,40310:0:0:0:0:
64,192,40310,1,0,0:0:0:0:
192,192,40310,1,2,0:0:0:0:
320,192,40479,1,8,0:0:0:0:
448,192,40479,1,0,0:0:0:0:
192,192,40649,1,0,0:0:0:0:
64,192,40818,1,2,0:0:0:0:
448,192,40818,1,0,0:0:0:0:
192,192,40988,1,0,0:0:0:0:
320,192,40988,1,8,0:0:0:0:
448,192,41157,1,0,0:0:0:0:
64,192,41157,1,2,0:0:0:0:
320,192,41326,128,0,41665:0:0:0:0:
192,192,41665,1,2,0:0:0:0:
64,192,41665,128,0,42174:0:0:0:0:
448,192,42174,1,0,0:0:0:0:
320,192,42174,1,2,0:0:0:0:
192,192,42343,1,8,0:0:0:0:
64,192,42343,1,0,0:0:0:0:
448,192,42513,1,2,0:0:0:0:
320,192,42513,1,0,0:0:0:0:
64,192,42682,128,0,43021:0:0:0:0:
448,192,43021,1,0,0:0:0:0:
320,192,43021,1,2,0:0:0:0:
192,192,43191,1,8,0:0:0:0:
64,192,43191,1,0,0:0:0:0:
320,192,43360,1,0,0:0:0:0:
192,192,43530,1,2,0:0:0:0:
64,192,43530,1,0,0:0:0:0:
448,192,43699,1,0,0:0:0:0:
320,192,43699,1,8,0:0:0:0:
192,192,43869,1,0,0:0:0:70:Tom1.wav
448,192,43954,1,0,0:0:0:70:Tom1.wav
64,192,44038,1,0,0:0:0:70:Tom2.wav
320,192,44123,1,0,0:0:0:70:Tom2.wav
192,192,44208,1,0,0:0:0:70:Tom3.wav
448,192,44293,1,0,0:0:0:70:Tom3.wav
64,192,44377,128,2,44716:0:0:0:0:
192,192,44377,1,0,0:0:0:0:
320,192,44377,1,4,0:0:0:0:
448,192,44716,128,0,45055:0:0:0:0:
320,192,44716,1,8,0:0:0:0:
192,192,45055,1,2,0:0:0:0:
64,192,45055,128,0,45394:0:0:0:0:
320,192,45225,1,2,0:0:0:0:
448,192,45225,1,0,0:0:0:0:
192,192,45394,1,8,0:0:0:0:
448,192,45394,128,0,45733:0:0:0:0:
192,192,45733,1,2,0:0:0:0:
64,192,45733,1,0,0:0:0:0:
320,192,45903,1,2,0:0:0:0:
448,192,45903,1,0,0:0:0:0:
192,192,46072,1,0,0:0:0:0:
64,192,46242,128,0,46581:0:0:0:0:
448,192,46242,1,8,0:0:0:0:
320,192,46581,1,0,0:0:0:0:
192,192,46581,1,2,0:0:0:0:
448,192,46750,1,8,0:0:0:0:
64,192,46750,128,0,47089:0:0:0:0:
448,192,47089,128,4,47428:0:0:0:0:
320,192,47089,1,0,0:0:0:0:
192,192,47089,1,2,0:0:0:0:
192,192,47428,1,8,0:0:0:0:
64,192,47428,128,0,47767:0:0:0:0:
320,192,47767,1,2,0:0:0:0:
448,192,47767,128,0,48106:0:0:0:0:
192,192,47937,1,2,0:0:0:0:
64,192,47937,1,0,0:0:0:0:
320,192,48106,1,8,0:0:0:0:
64,192,48106,128,0,48445:0:0:0:0:
320,192,48445,1,2,0:0:0:0:
448,192,48445,1,0,0:0:0:0:
192,192,48615,1,2,0:0:0:0:
64,192,48615,1,0,0:0:0:0:
320,192,48784,1,0,0:0:0:0:
64,192,48954,1,8,0:0:0:0:
448,192,48954,128,0,49293:0:0:0:0:
320,192,49293,1,0,0:0:0:0:
192,192,49293,1,2,0:0:0:0:
448,192,49462,128,8,49801:0:0:0:0:
64,192,49462,1,0,0:0:0:0:
320,192,49801,1,4,0:0:0:0:
64,192,49801,128,2,51157:0:0:0:0:
192,192,49801,1,0,0:0:0:0:
320,192,51157,1,8,0:0:0:0:
192,192,51242,1,8,0:0:0:0:
448,192,51326,1,0,0:0:0:70:Tom1.wav
64,192,51411,1,0,0:0:0:70:Tom1.wav
320,192,51496,1,8,0:0:0:0:
192,192,51581,1,8,0:0:0:0:
448,192,51665,1,2,0:0:0:0:
64,192,51665,1,0,0:0:0:0:
448,192,52343,128,0,52513:0:0:0:0:
64,192,52513,1,2,0:0:0:0:
320,192,52513,1,4,0:0:0:0:
192,192,52513,128,0,52682:0:0:0:0:
448,192,52682,128,0,52852:0:0:0:0:
64,192,52852,128,0,53021:0:0:0:0:
192,192,52852,1,8,0:0:0:0:
320,192,53021,128,0,53191:0:0:0:0:
64,192,53191,128,0,53360:0:0:0:0:
192,192,53191,1,2,0:0:0:0:
448,192,53360,128,0,53530:0:0:0:0:
320,192,53360,1,2,0:0:0:0:
64,192,53530,1,8,0:0:0:0:
192,192,53530,128,0,53699:0:0:0:0:
448,192,53699,128,0,53869:0:0:0:0:
64,192,53869,128,0,54038:0:0:0:0:
192,192,53869,1,2,0:0:0:0:
448,192,54038,1,2,0:0:0:0:
320,192,54038,128,0,54208:0:0:0:0:
64,192,54208,128,0,54377:0:0:0:0:
192,192,54208,1,8,0:0:0:0:
448,192,54377,128,0,54716:0:0:0:0:
320,192,54547,1,2,0:0:0:0:
64,192,54716,1,2,0:0:0:0:
192,192,54716,1,0,0:0:0:0:
448,192,54886,1,0,0:0:0:0:
320,192,54886,1,8,0:0:0:0:
192,192,55055,128,0,55225:0:0:0:0:
448,192,55225,1,2,0:0:0:0:
64,192,55225,128,0,55564:0:0:0:0:
448,192,55564,128,0,55733:0:0:0:0:
320,192,55564,1,8,0:0:0:0:
192,192,55733,128,0,55903:0:0:0:0:
448,192,55903,128,0,56072:0:0:0:0:
320,192,55903,1,2,0:0:0:0:
64,192,56072,128,0,56242:0:0:0:0:
192,192,56072,1,2,0:0:0:0:
448,192,56242,1,8,0:0:0:0:
320,192,56242,128,0,56411:0:0:0:0:
64,192,56411,128,0,56581:0:0:0:0:
448,192,56581,128,0,56750:0:0:0:0:
320,192,56581,1,2,0:0:0:0:
64,192,56750,1,2,0:0:0:0:
192,192,56750,128,0,56920:0:0:0:0:
448,192,56920,128,0,57089:0:0:0:0:
320,192,56920,1,8,0:0:0:0:
64,192,57089,128,0,57428:0:0:0:0:
192,192,57259,1,2,0:0:0:0:
448,192,57428,1,2,0:0:0:0:
320,192,57428,1,0,0:0:0:0:
64,192,57598,1,0,0:0:0:0:
192,192,57598,1,8,0:0:0:0:
320,192,57767,128,0,57937:0:0:0:0:
64,192,57937,1,2,0:0:0:0:
448,192,57937,128,0,58276:0:0:0:0:
192,192,58106,1,0,0:0:0:0:
320,192,58276,1,8,0:0:0:0:
64,192,58276,128,0,58615:0:0:0:0:
192,192,58445,1,0,0:0:0:0:
448,192,58615,1,2,0:0:0:0:
320,192,58615,128,0,58954:0:0:0:0:
192,192,58784,1,2,0:0:0:0:
64,192,58784,1,0,0:0:0:0:
448,192,58954,1,8,0:0:0:0:
192,192,58954,128,0,59293:0:0:0:0:
64,192,59123,1,0,0:0:0:0:
320,192,59293,1,2,0:0:0:0:
448,192,59293,128,0,59632:0:0:0:0:
64,192,59462,1,0,0:0:0:0:
192,192,59462,1,2,0:0:0:0:
320,192,59632,1,8,0:0:0:0:
64,192,59632,128,0,59971:0:0:0:0:
192,192,59801,1,0,0:0:0:0:
448,192,59971,1,2,0:0:0:0:
320,192,59971,128,0,60310:0:0:0:0:
192,192,60140,1,0,0:0:0:0:
64,192,60140,1,2,0:0:0:0:
448,192,60310,1,8,0:0:0:0:
192,192,60310,128,0,60649:0:0:0:0:
64,192,60479,1,0,0:0:0:0:
448,192,60649,1,2,0:0:0:0:
320,192,60649,128,0,60988:0:0:0:0:
192,192,60818,1,0,0:0:0:0:
64,192,60988,1,8,0:0:0:0:
448,192,60988,1,0,0:0:0:0:
320,192,61157,1,0,0:0:0:0:
64,192,61326,1,0,0:0:0:0:
192,192,61326,128,2,61665:0:0:0:0:
320,192,61496,1,2,0:0:0:0:
448,192,61496,1,0,0:0:0:0:
448,192,61665,1,8,0:0:0:0:
64,192,61665,1,0,0:0:0:0:
192,192,61835,1,0,0:0:0:0:
448,192,62004,1,2,0:0:0:0:
320,192,62004,128,0,62343:0:0:0:0:
64,192,62174,1,0,0:0:0:0:
192,192,62174,1,2,0:0:0:0:
448,192,62343,1,8,0:0:0:0:
64,192,62343,1,4,0:0:0:0:
320,192,62513,1,0,0:0:0:0:
64,192,62682,1,0,0:0:0:0:
192,192,62682,1,2,0:0:0:0:
448,192,62767,1,8,0:0:0:0:
320,192,62852,1,8,0:0:0:0:
192,192,62937,1,8,0:0:0:0:
64,192,63021,1,8,0:0:0:0:
448,192,63021,1,0,0:0:0:0:
320,192,63106,1,8,0:0:0:0:
192,192,63191,1,8,0:0:0:0:
64,192,63276,1,8,0:0:0:0:
320,192,63360,1,4,0:0:0:0:
448,192,63360,128,2,63699:0:0:0:0:
192,192,63699,1,8,0:0:0:0:
64,192,63699,128,0,63869:0:0:0:0:
320,192,63869,128,0,64038:0:0:0:0:
64,192,64038,128,0,64208:0:0:0:0:
192,192,64038,1,2,0:0:0:0:
320,192,64208,1,2,0:0:0:0:
448,192,64208,128,0,64377:0:0:0:0:
64,192,64377,1,8,0:0:0:0:
192,192,64377,128,0,64547:0:0:0:0:
448,192,64547,128,0,64716:0:0:0:0:
192,192,64716,1,2,0:0:0:0:
64,192,64716,128,0,64886:0:0:0:0:
320,192,64886,128,0,65055:0:0:0:0:
448,192,64886,1,2,0:0:0:0:
192,192,65055,1,8,0:0:0:0:
64,192,65055,128,0,65225:0:0:0:0:
448,192,65225,128,0,65564:0:0:0:0:
320,192,65394,1,2,0:0:0:0:
64,192,65564,1,2,0:0:0:0:
192,192,65564,1,0,0:0:0:0:
448,192,65733,1,0,0:0:0:0:
320,192,65733,1,8,0:0:0:0:
192,192,65903,128,0,66072:0:0:0:0:
320,192,66072,1,2,0:0:0:0:
448,192,66072,128,0,66242:0:0:0:0:
192,192,66242,1,2,0:0:0:0:
64,192,66242,128,0,66411:0:0:0:0:
320,192,66411,128,0,66581:0:0:0:0:
448,192,66411,1,8,0:0:0:0:
64,192,66581,1,2,0:0:0:0:
192,192,66665,1,2,0:0:0:0:
320,192,66750,1,8,0:0:0:0:
448,192,66750,1,0,0:0:0:0:
192,192,66920,1,0,0:0:0:0:
64,192,66920,1,2,0:0:0:0:
64,192,67259,1,2,0:0:0:0:
448,192,67259,1,4,0:0:0:0:
192,192,67259,1,0,0:0:0:0:
320,192,67259,1,0,0:0:0:0:
320,192,67598,1,0,0:0:0:0:
192,192,67598,1,2,0:0:0:0:
448,192,67767,1,8,0:0:0:0:
64,192,67767,1,0,0:0:0:0:
448,192,68106,1,0,0:0:0:0:
320,192,68106,1,2,0:0:0:0:
192,192,68276,1,2,0:0:0:0:
64,192,68276,1,0,0:0:0:0:
320,192,68445,1,0,0:0:0:0:
448,192,68445,1,8,0:0:0:0:
192,192,68615,128,0,68784:0:0:0:0:
448,192,68784,1,4,0:0:0:0:
64,192,68784,128,2,69123:0:0:0:0:
320,192,68954,1,0,0:0:0:0:
192,192,69123,1,8,0:0:0:0:
448,192,69123,128,0,69462:0:0:0:0:
320,192,69293,1,0,0:0:0:0:
64,192,69462,1,2,0:0:0:0:
192,192,69462,128,0,69801:0:0:0:0:
320,192,69632,1,2,0:0:0:0:
448,192,69632,1,0,0:0:0:0:
64,192,69801,1,8,0:0:0:0:
320,192,69801,128,0,70140:0:0:0:0:
448,192,69971,1,0,0:0:0:0:
192,192,70140,1,2,0:0:0:0:
64,192,70140,128,0,70479:0:0:0:0:
448,192,70310,1,0,0:0:0:0:
320,192,70310,1,2,0:0:0:0:
192,192,70479,1,8,0:0:0:0:
448,192,70479,128,0,70818:0:0:0:0:
320,192,70649,1,0,0:0:0:0:
64,192,70818,1,2,0:0:0:0:
192,192,70818,128,0,71157:0:0:0:0:
320,192,70988,1,0,0:0:0:0:
448,192,70988,1,2,0:0:0:0:
64,192,71157,1,8,0:0:0:0:
320,192,71157,128,0,71496:0:0:0:0:
448,192,71326,1,0,0:0:0:0:
64,192,71496,1,2,0:0:0:0:
192,192,71496,128,4,71835:0:0:0:0:
320,192,71665,1,0,0:0:0:0:
448,192,71835,1,8,0:0:0:0:
64,192,71835,1,0,0:0:0:0:
320,192,72004,1,0,0:0:0:0:
64,192,72174,1,0,0:0:0:0:
192,192,72174,1,2,0:0:0:0:
448,192,72343,1,0,0:0:0:0:
320,192,72343,1,2,0:0:0:0:
64,192,72513,1,0,0:0:0:0:
320,192,72513,1,8,0:0:0:0:
192,192,72682,1,0,0:0:0:0:
320,192,72852,5,2,0:0:0:0:
448,192,72852,1,0,0:0:0:0:
64,192,72937,1,8,0:0:0:0:
192,192,73021,1,8,0:0:0:0:
320,192,73106,1,8,0:0:0:0:
64,192,73191,1,0,0:0:0:0:
448,192,73191,1,8,0:0:0:0:
192,192,73276,1,8,0:0:0:0:
320,192,73360,1,8,0:0:0:0:
448,192,73445,1,8,0:0:0:0:
64,192,73530,1,0,0:0:0:0:
192,192,73530,1,0,0:0:0:70:Tom1.wav
320,192,73699,1,0,0:0:0:70:Tom2.wav
448,192,73699,1,0,0:0:0:0:
448,192,73869,1,0,0:0:0:70:Tom3.wav
64,192,73869,1,0,0:0:0:0:
320,192,74038,1,0,0:0:0:70:Tom2.wav
192,192,74038,1,0,0:0:0:0:
64,192,74208,1,2,0:0:0:0:
192,192,74208,1,0,0:0:0:0:
448,192,74208,1,4,0:0:0:0:
320,192,74377,1,0,0:0:0:0:
192,192,74547,1,8,0:0:0:0:
448,192,74547,1,4,0:0:0:0:
64,192,74716,1,0,0:0:0:0:
448,192,74886,1,0,0:0:0:0:
320,192,74886,1,2,0:0:0:0:
192,192,75055,1,2,0:0:0:0:
64,192,75055,1,0,0:0:0:0:
64,192,75225,1,0,0:0:0:0:
448,192,75225,1,8,0:0:0:0:
320,192,75394,1,0,0:0:0:0:
448,192,75564,1,2,0:0:0:0:
64,192,75564,1,0,0:0:0:0:
192,192,75733,1,0,0:0:0:0:
64,192,75903,1,0,0:0:0:0:
320,192,75903,1,8,0:0:0:0:
448,192,76072,1,0,0:0:0:0:
64,192,76242,1,0,0:0:0:0:
192,192,76242,1,2,0:0:0:0:
448,192,76411,1,0,0:0:0:0:
320,192,76411,1,2,0:0:0:0:
64,192,76581,1,0,0:0:0:0:
320,192,76581,1,8,0:0:0:0:
192,192,76750,1,0,0:0:0:0:
448,192,76920,1,2,0:0:0:0:
64,192,76920,1,0,0:0:0:0:
320,192,77089,1,0,0:0:0:0:
448,192,77259,1,8,0:0:0:0:
192,192,77259,1,0,0:0:0:0:
64,192,77428,1,0,0:0:0:0:
448,192,77598,1,0,0:0:0:0:
320,192,77598,1,2,0:0:0:0:
64,192,77767,1,0,0:0:0:0:
192,192,77767,1,2,0:0:0:0:
64,192,77937,1,0,0:0:0:0:
448,192,77937,1,8,0:0:0:0:
320,192,78106,1,0,0:0:0:0:
192,192,78276,1,2,0:0:0:0:
64,192,78276,1,0,0:0:0:0:
448,192,78445,1,2,0:0:0:0:
320,192,78445,1,0,0:0:0:0:
320,192,78615,1,8,0:0:0:0:
64,192,78615,1,0,0:0:0:0:
192,192,78784,1,0,0:0:0:0:
448,192,78954,1,0,0:0:0:0:
320,192,78954,1,2,0:0:0:0:
64,192,79038,1,8,0:0:0:0:
192,192,79123,1,8,0:0:0:0:
320,192,79208,1,8,0:0:0:0:
64,192,79293,1,0,0:0:0:0:
192,192,79293,1,8,0:0:0:0:
448,192,79377,1,8,0:0:0:0:
320,192,79462,1,8,0:0:0:0:
192,192,79547,1,8,0:0:0:0:
320,192,79632,1,2,0:0:0:0:
448,192,79632,128,4,79971:0:0:0:0:
64,192,79632,1,0,0:0:0:0:
192,192,79971,1,8,0:0:0:0:
64,192,79971,1,0,0:0:0:0:
64,192,80140,1,2,0:0:0:0:
320,192,80140,128,0,80479:0:0:0:0:
448,192,80140,1,4,0:0:0:0:
64,192,80479,1,2,0:0:0:0:
192,192,80479,1,0,0:0:0:0:
320,192,80649,1,8,0:0:0:0:
448,192,80649,1,0,0:0:0:0:
64,192,80818,1,2,0:0:0:0:
448,192,80818,1,4,0:0:0:0:
192,192,80818,128,0,81157:0:0:0:0:
448,192,81157,1,0,0:0:0:0:
320,192,81157,1,2,0:0:0:0:
64,192,81326,1,0,0:0:0:0:
192,192,81326,1,8,0:0:0:0:
320,192,81496,1,0,0:0:0:0:
448,192,81496,1,4,0:0:0:0:
64,192,81496,128,2,81835:0:0:0:0:
320,192,81835,1,2,0:0:0:0:
448,192,81835,1,0,0:0:0:0:
64,192,82004,1,0,0:0:0:0:
192,192,82004,1,8,0:0:0:0:
448,192,82174,1,2,0:0:0:0:
320,192,82174,1,0,0:0:0:0:
448,192,82343,1,4,0:0:0:0:
64,192,82343,1,0,0:0:0:0:
192,192,82343,1,8,0:0:0:0:
320,192,82513,1,2,0:0:0:0:
192,192,82513,1,0,0:0:0:0:
64,192,82682,1,0,0:0:0:0:
448,192,82682,1,8,0:0:0:0:
320,192,82682,1,0,0:0:0:0:
320,192,82852,1,0,0:0:0:0:
192,192,82852,1,2,0:0:0:0:
64,192,83021,1,0,0:0:0:0:
448,192,83021,1,8,0:0:0:0:
192,192,83021,1,0,0:0:0:0:
320,192,83191,1,0,0:0:0:0:
192,192,83191,1,2,0:0:0:0:
64,192,83360,1,0,0:0:0:0:
448,192,83360,1,0,0:0:0:0:
320,192,83360,1,8,0:0:0:0:
448,192,83699,1,8,0:0:0:0:
320,192,83699,1,2,0:0:0:0:
192,192,83869,1,8,0:0:0:0:
64,192,83869,1,2,0:0:0:0:
320,192,84038,1,2,0:0:0:0:
448,192,84038,1,8,0:0:0:0:
192,192,84208,128,0,84377:0:0:0:0:
64,192,84208,128,2,84377:0:0:0:0:
448,192,84208,1,0,0:0:0:0:
320,192,84377,1,0,0:0:0:0:
192,192,84547,128,0,84716:0:0:0:0:
448,192,84547,1,2,0:0:0:0:
64,192,84547,128,0,84716:0:0:0:0:
320,192,84716,1,0,0:0:0:0:
64,192,84886,1,2,0:0:0:0:
192,192,84886,1,0,0:0:0:0:
448,192,84886,128,4,87682:0:0:0:0:
64,192,87682,1,0,0:0:0:70:Tom1.wav
192,192,87767,1,0,0:0:0:70:Tom1.wav
320,192,87852,1,0,0:0:0:70:Tom2.wav
64,192,87937,1,2,0:0:0:0:
192,192,87937,1,0,0:0:0:0:
