osu file format v14

[General]
AudioFilename: audio.mp3
AudioLeadIn: 0
PreviewTime: 52230
Countdown: 0
SampleSet: Soft
StackLeniency: 0.7
Mode: 0
LetterboxInBreaks: 0
WidescreenStoryboard: 1

[Editor]
DistanceSpacing: 0.8
BeatDivisor: 4
GridSize: 4
TimelineZoom: 1

[Metadata]
Title:Stella-rium
TitleUnicode:Stella-rium
Artist:Kano
ArtistUnicode:Kano
Creator:SevenFrenzy
Version:Hard
Source:Houkago no Pleiades
Tags:Afterschool pleiades wish upon the pleiades houkago no pleiades stella rium kano
BeatmapID:1156110
BeatmapSetID:544975

[Difficulty]
HPDrainRate:5
CircleSize:3.6
OverallDifficulty:6
ApproachRate:7
SliderMultiplier:1.7
SliderTickRate:1

[Events]
//Background and Video events
Video,840,"pleiades.avi"
0,0,"Hikaru.png",0,0
//Break Periods
//Storyboard Layer 0 (Background)
//Storyboard Layer 1 (Fail)
//Storyboard Layer 2 (Pass)
//Storyboard Layer 3 (Foreground)
//Storyboard Sound Samples

[TimingPoints]
33,338.944752005423,4,2,1,60,1,0
52569,-100,4,2,1,60,0,1
74263,-100,4,2,1,60,0,0

[HitObjects]
144,156,965,6,0,P|200:116|244:108,2,85
116,256,1642,1,0,0:0:0:0:
116,256,1812,1,0,0:0:0:0:
116,256,1981,2,0,P|180:256|204:240,1,85
264,188,2320,1,0,0:0:0:0:
332,120,2490,2,0,P|352:160|336:216,1,85
272,276,2829,1,0,0:0:0:0:
152,164,3168,6,0,P|120:200|112:248,2,85
232,96,3676,1,0,0:0:0:0:
248,104,3846,1,0,0:0:0:0:
264,112,4015,1,0,0:0:0:0:
400,192,4354,6,0,P|352:212|280:224,1,85
196,228,4693,1,0,0:0:0:0:
196,228,4862,1,0,0:0:0:0:
268,276,5032,2,0,P|328:272|336:256,1,85
384,184,5540,1,0,0:0:0:0:
296,116,5879,1,0,0:0:0:0:
188,128,6218,6,0,P|180:176|204:228,1,85
344,188,6557,2,0,P|304:136|272:116,1,85
128,164,6896,1,0,0:0:0:0:
184,268,7066,2,0,P|240:264|276:248,1,85
376,184,7405,1,0,0:0:0:0:
376,184,7574,1,0,0:0:0:0:
256,144,7743,6,0,P|180:116|176:100,1,85
96,172,8082,2,0,P|88:220|112:268,1,85
244,224,8421,2,0,P|268:280|252:316,1,85
396,288,8760,2,0,P|356:256|340:220,1,85
140,112,9099,1,0,0:0:0:0:
140,112,9269,1,0,0:0:0:0:
240,84,9438,5,0,0:0:0:0:
240,84,9608,1,0,0:0:0:0:
332,104,9777,2,0,P|348:152|336:188,1,85
232,216,10116,2,0,P|172:200|136:216,1,85
124,284,10455,2,0,P|200:300|232:280,1,85
228,216,10794,2,0,P|236:172|264:136,1,85
380,152,11133,2,0,P|412:216|396:240,1,85
364,300,11472,2,0,P|304:288|284:264,1,85
232,184,11811,5,0,0:0:0:0:
232,184,11980,1,0,0:0:0:0:
160,120,12150,2,0,L|60:136,1,85
100,232,12489,1,0,0:0:0:0:
100,232,12658,1,0,0:0:0:0:
168,280,12828,2,0,L|268:304,1,85
320,224,13167,5,0,0:0:0:0:
320,224,13336,1,0,0:0:0:0:
292,136,13506,2,0,L|196:168,1,85
112,108,13844,1,0,0:0:0:0:
112,108,14014,1,0,0:0:0:0:
192,80,14183,2,0,P|240:64|284:64,1,85
380,128,14522,6,0,P|372:192|324:208,2,85
264,136,15031,2,0,L|208:236,1,85
128,264,15370,2,0,P|180:292|220:284,1,85
316,264,15709,1,0,0:0:0:0:
316,264,15878,1,0,0:0:0:0:
392,192,16048,2,0,L|348:152,2,42.5
256,192,16387,2,0,P|204:180|176:152,1,85
252,84,16726,2,0,P|304:96|324:128,1,85
384,216,17064,1,0,0:0:0:0:
320,288,17234,6,0,P|252:296|176:232,1,170
224,152,17742,1,0,0:0:0:0:
336,120,18081,2,0,P|392:156|408:200,2,85
232,88,18590,1,0,0:0:0:0:
100,168,18929,6,0,P|144:216|172:220,1,85
256,188,19268,2,0,P|200:140|160:144,1,85
112,80,19607,1,0,0:0:0:0:
220,80,19946,2,0,P|264:68|344:172,1,170
332,232,20454,2,0,P|272:264|176:232,1,170
200,144,20962,1,0,0:0:0:0:
292,112,21132,2,0,L|380:136,4,85
152,160,22488,5,0,0:0:0:0:
152,160,22657,1,0,0:0:0:0:
164,252,22996,2,0,P|216:248|240:228,1,85
416,116,23504,1,0,0:0:0:0:
336,88,23674,2,0,P|272:88|252:100,1,85
280,172,24013,2,0,P|340:176|376:156,1,85
392,252,24352,2,0,P|324:280|296:280,1,85
156,240,24691,5,0,0:0:0:0:
156,240,24860,2,0,P|184:200|220:184,1,85
268,256,25199,2,0,P|324:232|344:196,1,85
304,128,25538,2,0,P|260:120|216:132,1,85
136,192,25877,1,0,0:0:0:0:
252,260,26216,1,0,0:0:0:0:
356,188,26555,1,0,0:0:0:0:
332,100,26894,5,0,0:0:0:0:
332,100,27233,1,0,0:0:0:0:
208,116,27572,5,0,0:0:0:0:
208,116,27656,1,0,0:0:0:0:
208,116,27741,1,0,0:0:0:0:
120,192,27911,6,0,P|168:240|208:240,1,85
284,248,28250,2,0,P|348:208|352:180,1,85
232,168,28589,2,0,P|184:128|184:104,1,85
336,116,28928,1,0,0:0:0:0:
336,116,29097,1,0,0:0:0:0:
396,180,29266,2,0,P|352:212|316:216,1,85
216,196,29605,6,0,P|196:248|208:276,1,85
308,304,29944,1,0,0:0:0:0:
368,224,30114,1,0,0:0:0:0:
384,120,30283,2,0,P|328:140|272:140,1,85
224,96,30622,1,0,0:0:0:0:
216,192,30792,1,0,0:0:0:0:
132,144,30961,6,0,P|104:204|120:248,1,85
208,296,31300,2,0,P|248:280|280:248,1,85
192,184,31639,2,0,P|168:124|172:80,1,85
276,100,31978,2,0,P|312:136|324:184,1,85
204,192,32317,2,0,P|164:228|144:260,1,85
252,296,32656,1,0,0:0:0:0:
260,184,32825,5,0,0:0:0:0:
392,292,32995,2,0,P|348:244|316:240,1,85
196,232,33334,2,0,P|148:204|136:172,1,85
208,96,33673,2,0,P|276:96|320:128,1,85
372,160,34012,1,0,0:0:0:0:
372,160,34181,1,0,0:0:0:0:
272,208,34351,6,0,P|228:228|196:256,1,85
108,224,34690,2,0,P|104:148|132:128,1,85
180,72,35029,2,0,P|228:68|276:96,1,85
256,176,35367,2,0,P|224:224|184:244,1,85
228,312,35706,2,0,P|300:304|320:288,1,85
392,200,36045,2,0,P|364:164|316:152,1,85
248,212,36384,5,0,0:0:0:0:
192,136,36554,1,0,0:0:0:0:
132,212,36723,1,0,0:0:0:0:
80,136,36893,1,0,0:0:0:0:
120,56,37062,2,0,P|176:44|232:52,1,85
292,76,37401,2,0,P|328:116|336:176,1,85
324,244,37740,1,0,0:0:0:0:
224,232,37910,2,0,L|184:248,2,42.5
168,168,38249,2,0,P|104:144|92:112,1,85
216,68,38587,5,0,0:0:0:0:
296,96,38757,2,0,P|344:144|340:192,1,85
216,176,39096,2,0,P|240:240|340:280,1,170
384,212,39604,1,0,0:0:0:0:
396,108,39943,2,0,P|332:80|224:76,1,170
168,136,40452,1,0,0:0:0:0:
124,236,40791,6,0,P|176:260|284:240,1,170
283,240,41299,1,0,0:0:0:0:
372,200,41638,2,0,P|348:136|164:104,1,255
96,200,42655,5,0,0:0:0:0:
180,268,42994,2,0,P|256:248|288:220,1,85
208,164,43333,2,0,P|248:148|292:140,1,85
376,204,43672,2,0,P|332:228|268:236,1,85
164,160,44011,2,0,L|164:256,2,85
248,76,44519,1,0,0:0:0:0:
332,140,44688,6,0,P|336:192|304:220,1,85
176,248,45027,2,0,B|140:224|112:232|132:200|136:164,1,85
228,40,45366,2,0,B|288:56|296:48|284:96,1,85
244,180,45705,1,0,0:0:0:0:
244,180,45875,1,0,0:0:0:0:
344,248,46044,2,0,P|300:276|256:288,1,85
156,256,46383,6,0,P|120:208|120:160,1,85
224,116,46722,2,0,P|204:88|128:80,2,85
180,204,47231,2,0,P|240:220|288:204,1,85
308,112,47570,2,0,P|356:148|360:196,1,85
312,260,47908,1,0,0:0:0:0:
312,260,48078,1,0,0:0:0:0:
192,284,48247,6,0,P|152:232|152:196,1,85
240,164,48586,2,0,P|276:128|280:88,1,85
192,52,48925,1,0,0:0:0:0:
124,120,49095,2,0,P|124:180|148:208,1,85
212,248,49434,2,0,P|272:240|320:216,2,85
256,192,49942,12,0,51976,0:0:0:0:
120,152,52315,6,0,P|184:116|224:112,1,85
208,208,52654,2,0,L|128:264,1,85
228,312,52993,1,0,0:0:0:0:
228,312,53162,1,0,0:0:0:0:
352,268,53332,2,0,P|360:220|352:172,1,85
252,156,53671,2,0,P|208:144|172:116,1,85
248,52,54009,6,0,P|292:56|352:84,1,85
388,176,54348,2,0,P|352:204|292:224,1,85
188,224,54687,1,0,0:0:0:0:
188,224,54857,1,0,0:0:0:0:
104,264,55026,2,0,P|144:304|184:308,1,85
328,276,55365,2,0,B|356:260|368:268|376:232|368:212,1,85
244,144,55704,6,0,B|196:156|188:152|180:184|208:196,1,85
216,264,56043,2,0,P|228:316|196:320,1,85
96,296,56382,2,0,L|96:188,1,85
160,112,56721,1,0,0:0:0:0:
256,96,56890,2,0,P|312:128|328:180,1,85
288,216,57229,2,0,P|256:256|220:264,1,85
100,224,57568,6,0,P|120:172|168:136,1,85
248,208,57907,2,0,P|308:192|380:104,1,170
260,296,58585,2,0,P|328:288|412:196,1,170
248,152,59263,2,0,B|200:148|176:100|120:128|136:172|152:228,1,170
300,264,59941,2,0,B|240:288|240:320|192:284|172:336|128:288,1,170
100,192,60619,2,0,P|104:140|208:120,1,170
280,176,61297,6,0,P|340:184|432:120,1,170
336,88,61805,1,0,0:0:0:0:
212,84,61975,1,0,0:0:0:0:
140,148,62144,2,0,P|152:208|176:232,1,85
252,176,62483,2,0,P|292:228|292:276,1,85
212,304,62822,2,0,P|252:328|296:332,1,85
400,280,63161,5,0,0:0:0:0:
384,176,63330,2,0,P|320:192|288:232,1,85
200,232,63669,2,0,P|156:200|140:156,1,85
240,112,64008,2,0,P|288:92|336:100,1,85
368,184,64347,1,0,0:0:0:0:
368,184,64517,1,0,0:0:0:0:
288,256,64686,6,0,P|244:268|208:256,2,85
420,320,65195,2,0,P|384:316|320:356,1,85
240,340,65534,2,0,L|144:340,1,85
96,272,65873,2,0,P|128:224|160:200,1,85
240,168,66211,2,0,P|288:148|320:104,1,85
256,48,66550,2,0,P|200:76|160:120,1,85
116,172,66889,1,0,0:0:0:0:
192,272,67228,6,0,P|244:264|324:184,1,170
304,88,67737,2,0,P|248:120|232:172,2,85
440,184,68245,2,0,P|412:224|368:240,1,85
260,232,68584,1,0,0:0:0:0:
144,232,68754,2,0,P|140:280|160:320,1,85
248,328,69092,2,0,P|312:312|352:276,1,85
376,200,69431,5,0,0:0:0:0:
376,200,69601,1,0,0:0:0:0:
336,104,69770,2,0,P|292:128|260:164,1,85
152,196,70109,1,0,0:0:0:0:
304,252,70279,2,0,P|252:276|220:280,1,85
128,336,70618,2,0,P|100:300|112:240,1,85
136,172,70957,2,0,P|176:152|236:140,1,85
312,132,71296,2,0,P|336:192|312:220,1,85
256,192,71635,12,0,73668,0:0:0:0:
128,152,74177,6,0,P|196:120|236:124,1,85
212,212,74516,2,0,P|168:240|152:284,1,85
256,300,74855,1,0,0:0:0:0:
348,296,75024,2,0,P|368:236|360:184,1,85
280,172,75363,2,0,P|240:144|220:112,1,85
304,68,75702,1,0,0:0:0:0:
304,68,75871,1,0,0:0:0:0:
384,140,76041,6,0,P|380:204|352:232,1,85
268,184,76380,2,0,P|212:184|176:208,1,85
132,256,76719,2,0,P|180:288|232:288,1,85
304,276,77058,1,0,0:0:0:0:
384,220,77227,2,0,P|344:164|308:156,1,85
228,180,77566,2,0,P|196:144|192:104,1,85
116,200,77905,5,0,0:0:0:0:
116,200,78075,1,0,0:0:0:0:
128,300,78244,2,0,P|204:300|224:280,1,85
292,248,78583,2,0,P|296:192|268:156,1,85
200,128,79600,6,0,P|164:160|160:288,1,170
296,184,80108,2,0,P|256:244|272:336,1,170
412,172,80786,2,0,P|440:232|408:328,1,170
316,191,81464,2,0,P|328:263|280:344,1,170
192,296,81972,1,0,0:0:0:0:
192,296,82142,1,0,0:0:0:0:
108,228,82311,6,0,P|176:188|204:188,1,85
272,200,82650,2,0,P|328:192|360:176,1,85
432,116,82989,2,0,P|372:84|324:88,1,85
272,120,83328,2,0,P|208:104|184:88,1,85
96,112,83667,2,0,P|88:164|120:204,1,85
180,232,84006,2,0,P|248:240|280:212,1,85
364,204,84514,5,0,0:0:0:0:
364,204,84853,1,0,0:0:0:0:
256,192,85023,12,0,87904,0:0:0:0:
