osu file format v14

[General]
AudioFilename: bbgbgbbbg.mp3
AudioLeadIn: 2000
PreviewTime: 119431
Countdown: 0
SampleSet: Soft
StackLeniency: 0.7
Mode: 0
LetterboxInBreaks: 0
WidescreenStoryboard: 1

[Editor]
DistanceSpacing: 1
BeatDivisor: 2
GridSize: 4
TimelineZoom: 1.2

[Metadata]
Title:Stella-rium
TitleUnicode:Stella-rium
Artist:Kano
ArtistUnicode:鹿乃
Creator:Moeka
Version:Easy
Source:放課後のプレアデス
Tags:houkago no pleiades opening full version sekai-nyan scanter anais setz a_mystery dap shioi no_dap
BeatmapID:785647
BeatmapSetID:356821

[Difficulty]
HPDrainRate:2.5
CircleSize:3
OverallDifficulty:2.5
ApproachRate:3.5
SliderMultiplier:0.999999999999999
SliderTickRate:1

[Events]
//Background and Video events
0,0,"bbgbgbbbg.jpg",0,0
//Break Periods
2,84631,92712
2,141380,150848
2,184970,188814
//Storyboard Layer 0 (Background)
//Storyboard Layer 1 (Fail)
//Storyboard Layer 2 (Pass)
//Storyboard Layer 3 (Foreground)
//Storyboard Sound Samples

[TimingPoints]
364,338.983050847458,4,2,1,70,1,0
5787,-100,4,2,1,70,0,0
16635,-100,4,2,1,40,0,0
26126,-100,4,2,2,40,0,0
26296,-100,4,2,1,40,0,0
27482,-100,4,2,1,60,0,0
38330,-100,4,2,1,50,0,0
43753,-100,4,2,1,60,0,0
51889,-100,4,2,1,75,0,1
62058,-100,4,2,1,50,0,0
62736,-100,4,2,1,75,0,1
72228,-100,4,2,1,50,0,1
73584,-100,4,2,1,70,0,0
84431,-100,4,2,1,55,0,0
93923,-100,4,2,2,55,0,0
94092,-100,4,2,1,55,0,0
95279,-100,4,2,1,60,0,0
106126,-100,4,2,1,55,0,0
111550,-100,4,2,1,60,0,0
119686,-100,4,2,1,75,0,1
129855,-100,4,2,1,50,0,0
130533,-100,4,2,1,75,0,1
140025,-100,4,2,1,70,0,0
151380,-100,4,2,1,60,0,0
157652,-100,4,2,1,70,0,0
157991,-100,4,2,1,45,0,0
158499,-100,4,2,1,50,0,0
159008,-100,4,2,1,55,0,0
159516,-100,4,2,1,60,0,0
160025,-100,4,2,1,65,0,0
160364,-100,4,2,1,70,0,0
160533,-100,4,2,1,50,0,0
161380,-100,4,2,1,60,0,0
161889,-100,4,2,1,65,0,0
162397,-100,4,2,1,70,0,0
173923,-100,4,2,1,80,0,0
174092,-100,4,2,1,70,0,0
174262,-100,4,2,1,60,0,0
174431,-100,4,2,1,70,0,0
178669,-100,4,2,1,50,0,0
179347,-100,4,2,1,70,0,0
184770,-100,4,2,1,75,0,0
190194,-100,4,2,1,65,0,0
194940,-100,4,2,1,50,0,0
195618,-100,4,2,1,45,0,0
201041,-100,4,2,1,50,0,0
201719,-100,4,2,1,55,0,0
202397,-100,4,2,1,60,0,0
203075,-100,4,2,1,65,0,0
203753,-100,4,2,1,75,0,0
204940,-100,4,2,1,5,0,0
205109,-100,4,2,1,50,0,0
205618,-100,4,2,1,55,0,0
206465,-100,4,2,1,75,0,1
216635,-100,4,2,1,50,0,0
217313,-100,4,2,1,70,0,1
226804,-100,4,2,1,50,0,1
228160,-100,4,2,1,70,0,0
232906,-100,4,2,1,50,0,0
233245,-100,4,2,1,60,0,0
233584,-100,4,2,1,70,0,0

[Colours]
Combo1 : 255,60,60
Combo2 : 109,248,7
Combo3 : 255,128,255
Combo4 : 255,255,0
Combo5 : 3,215,252

[HitObjects]
143,115,364,6,0,L|154:235,1,99.9999999999999,8|8,0:0|0:0,0:0:0:0:
114,307,1041,2,0,B|169:327|215:291|215:291|282:291|296:358,2,200,8|10|8,0:1|0:1|0:1,0:0:0:0:
143,115,3075,6,0,L|287:88,1,99.9999999999999,8|8,0:0|0:0,0:0:0:0:
324,39,3753,2,0,P|341:85|334:134,1,99.9999999999999,8|10,0:1|0:1,0:0:0:0:
305,229,4431,6,0,L|488:205,1,150,8|8,0:0|0:0,0:0:0:0:
442,310,5279,2,0,L|293:329,1,150,2|12,0:0|0:1,0:0:0:0:
215,266,6126,5,8,0:0:0:0:
176,358,6465,2,0,P|132:317|151:185,1,200,8|8,0:1|0:1,0:0:0:0:
245,167,7482,6,0,B|314:157|314:157|358:108|358:108|449:97,1,200,8|8,0:0|0:0,0:0:0:0:
468,188,8499,1,8,0:1:0:0:
444,285,8838,2,0,B|380:292|380:292|336:341|336:341|267:351,1,200,8|8,0:0|0:0,0:0:0:0:
166,355,9855,6,0,P|176:306|211:272,1,99.9999999999999,8|8,0:1|0:0,0:0:0:0:
276,196,10533,2,0,P|283:125|265:90,1,99.9999999999999,8|8,0:1|0:0,0:0:0:0:
179,59,11211,6,0,P|116:72|110:209,1,200,12|8,0:1|0:1,0:0:0:0:
185,229,12228,1,8,0:0:0:0:
256,298,12567,2,0,P|338:278|456:264,1,200,8|8,0:1|0:1,0:0:0:0:
495,173,13584,1,8,0:0:0:0:
412,116,13923,6,0,L|403:16,1,99.9999999999999,8|8,0:1|0:0,0:0:0:0:
303,19,14601,2,0,L|311:118,1,99.9999999999999,8|8,0:1|0:0,0:0:0:0:
233,181,15279,2,0,L|114:172,2,99.9999999999999,8|8|8,0:1|0:0|0:0,0:0:0:0:
303,251,16296,1,8,0:1:0:0:
396,287,16635,6,0,P|415:214|409:140,1,150,12|2,0:1|0:0,0:0:0:0:
334,73,17482,1,2,0:0:0:0:
236,51,17821,2,0,P|144:53|108:119,1,150,2|2,0:0|0:0,0:0:0:0:
143,189,18669,2,0,L|119:305,1,99.9999999999999,2|0,0:0|0:0,0:0:0:0:
207,340,19347,6,0,P|285:318|374:304,1,150,10|2,0:1|0:0,0:0:0:0:
451,326,20194,1,2,0:0:0:0:
495,236,20533,2,0,P|422:216|296:125,1,200,2|2,0:0|0:0,0:0:0:0:
78,73,22058,6,0,P|127:111|134:208,1,150,10|2,0:1|0:0,0:0:0:0:
58,253,22906,1,2,0:0:0:0:
112,336,23245,2,0,L|287:300,1,150,2|2,0:0|0:0,0:0:0:0:
217,214,24092,2,0,P|202:163|197:101,1,99.9999999999999,2|0,0:0|0:0,0:0:0:0:
283,65,24770,6,0,L|435:31,1,150,10|2,0:1|0:0,0:0:0:0:
470,123,25618,1,2,0:0:0:0:
423,211,25957,2,0,P|428:260|438:309,2,99.9999999999999,2|8|8,0:0|0:0|0:0,0:0:0:0:
470,123,26974,2,0,P|341:173|315:161,1,150,8|12,0:0|0:1,0:0:0:0:
269,101,27821,5,8,0:0:0:0:
241,197,28160,2,0,L|261:320,1,99.9999999999999,8|8,0:1|0:0,0:0:0:0:
159,317,28838,2,0,L|142:218,1,99.9999999999999,8|8,0:1|0:0,0:0:0:0:
59,160,29516,2,0,P|96:118|147:87,1,99.9999999999999,8|8,0:1|0:0,0:0:0:0:
217,51,30194,6,0,P|303:46|414:31,2,150,8|0|8,0:1|0:0|0:0,0:0:0:0:
163,136,31550,1,8,0:1:0:0:
255,173,31889,2,0,P|298:266|198:312,1,200,8|8,0:0|0:0,0:0:0:0:
148,370,32906,6,0,P|134:272|135:189,2,150,12|0|8,0:1|0:0|0:0,0:0:0:0:
237,323,34262,1,8,0:1:0:0:
331,354,34601,2,0,B|435:344|435:344|470:303|463:229,1,200,8|8,0:0|0:0,0:0:0:0:
408,171,35618,6,0,L|423:63,1,99.9999999999999,0|8,0:0|0:0,0:0:0:0:
321,73,36296,2,0,L|307:172,1,99.9999999999999,8|8,0:1|0:0,0:0:0:0:
239,246,36974,2,0,P|183:185|74:218,1,200,8|8,0:1|0:0,0:0:0:0:
107,307,37991,1,8,0:1:0:0:
194,355,38330,6,0,P|292:334|406:319,1,200,12|8,0:1|0:0,0:0:0:0:
447,237,39347,1,0,0:0:0:0:
374,168,39686,2,0,P|370:74|462:13,2,200,8|8|8,0:1|0:0|0:1,0:0:0:0:
256,330,41719,5,8,0:0:0:0:
138,168,42397,2,0,P|142:74|50:13,2,200,8|8|12,0:1|0:0|0:1,0:0:0:0:
60,232,44092,5,8,0:0:0:0:
89,327,44431,2,0,P|138:327|187:317,1,99.9999999999999,8|8,0:1|0:0,0:0:0:0:
241,232,45109,2,0,P|228:152|220:76,2,150,8|8|8,0:1|0:0|0:0,0:0:0:0:
289,319,46465,6,0,P|385:339|437:227,1,200,12|8,0:1|0:1,0:0:0:0:
432,168,47482,1,8,0:0:0:0:
332,176,47821,2,0,P|233:168|155:148,2,150,8|8|8,0:1|0:0|0:0,0:0:0:0:
256,192,49177,12,8,50533,0:0:0:0:
406,105,51889,6,0,L|298:91,1,99.9999999999999,12|8,0:1|0:0,0:0:0:0:
214,52,52567,2,0,L|106:66,1,99.9999999999999,8|8,0:1|0:0,0:0:0:0:
51,143,53245,2,0,P|27:221|108:301,1,200,8|8,0:1|0:1,0:0:0:0:
192,258,54262,1,8,0:0:0:0:
272,317,54601,6,0,L|401:285,1,99.9999999999999,8|8,0:1|0:0,0:0:0:0:
377,192,55279,2,0,L|279:216,1,99.9999999999999,8|8,0:1|0:0,0:0:0:0:
192,258,55957,2,0,P|114:207|117:100,1,200,8|8,0:1|0:1,0:0:0:0:
194,51,56974,1,8,0:0:0:0:
276,107,57313,6,0,L|392:89,1,99.9999999999999,12|8,0:1|0:0,0:0:0:0:
377,192,57991,2,0,L|278:207,1,99.9999999999999,8|8,0:1|0:0,0:0:0:0:
212,282,58669,2,0,P|158:245|135:194,1,99.9999999999999,8|8,0:1|0:0,0:0:0:0:
190,128,59347,2,0,P|190:69|62:68,1,200,8|12,0:1|0:1,0:0:0:0:
26,139,60364,5,8,0:0:0:0:
50,235,60702,2,0,P|59:310|60:357,1,99.9999999999999,8|8,0:1|0:0,0:0:0:0:
159,340,61380,1,8,0:1:0:0:
189,244,61719,2,0,L|308:224,2,99.9999999999999,12|8|8,0:0|0:1|0:1,0:0:0:0:
159,340,62736,5,12,0:1:0:0:
76,284,63075,2,0,P|28:192|112:104,1,200,8|8,0:0|0:0,0:0:0:0:
174,100,64092,2,0,L|295:83,1,99.9999999999999,8|8,0:1|0:0,0:0:0:0:
362,40,64770,2,0,L|461:53,1,99.9999999999999,8|8,0:1|0:0,0:0:0:0:
483,150,65448,5,12,0:1:0:0:
421,228,65787,2,0,P|343:276|263:266,1,150,8|12,0:0|0:1,0:0:0:0:
216,202,66635,2,0,P|197:258|175:356,1,150,12|8,0:1|0:0,0:0:0:0:
79,329,67482,2,0,P|48:289|28:238,1,99.9999999999999,8|8,0:1|0:0,0:0:0:0:
111,185,68160,6,0,L|91:73,1,99.9999999999999,12|8,0:1|0:0,0:0:0:0:
177,32,68838,2,0,L|275:49,1,99.9999999999999,8|8,0:1|0:0,0:0:0:0:
360,102,69516,2,0,L|458:84,1,99.9999999999999,8|8,0:1|0:0,0:0:0:0:
499,176,70194,2,0,L|481:274,1,99.9999999999999,8|8,0:1|0:0,0:0:0:0:
256,192,70872,12,8,72228,0:1:0:0:
332,100,73584,6,0,P|388:140|369:254,2,150,12|0|8,0:1|0:0|0:0,0:0:0:0:
245,150,74940,2,0,L|111:133,1,99.9999999999999,8|8,0:1|0:0,0:0:0:0:
83,216,75618,2,0,L|95:315,1,99.9999999999999,8|8,0:1|0:0,0:0:0:0:
185,271,76296,6,0,B|241:252|285:286|285:286|323:252|334:194,1,200,8|8,0:1|0:1,0:0:0:0:
280,119,77313,1,8,0:0:0:0:
370,75,77652,2,0,P|461:106|432:204,1,200,8|8,0:1|0:1,0:0:0:0:
368,254,78669,1,8,0:0:0:0:
285,310,79008,6,0,L|260:200,1,99.9999999999999,8|8,0:1|0:0,0:0:0:0:
164,192,79686,2,0,L|186:289,1,99.9999999999999,8|8,0:1|0:0,0:0:0:0:
99,339,80364,2,0,L|76:241,1,99.9999999999999,8|8,0:1|0:0,0:0:0:0:
76,142,81041,2,0,L|99:45,1,99.9999999999999,8|8,0:1|0:0,0:0:0:0:
186,93,81719,6,0,P|273:104|376:34,1,200,8|8,0:1|0:1,0:0:0:0:
440,115,82736,2,0,L|418:281,1,150,8|8,0:1|0:0,0:0:0:0:
326,298,83584,1,8,0:0:0:0:
239,247,83923,2,0,B|169:244|132:269|132:269|116:233,1,150,8|12,0:0|0:1,0:0:0:0:
70,167,94092,6,0,P|78:216|97:263,1,99.9999999999999,8|8,0:0|0:0,0:0:0:0:
190,301,94770,2,0,L|369:260,1,150,8|12,0:0|0:1,0:0:0:0:
433,293,95618,6,0,B|456:198|456:198|360:105,1,200,8|8,0:0|0:0,0:0:0:0:
285,151,96635,2,0,L|258:47,2,99.9999999999999,8|8|8,0:1|0:0|0:1,0:0:0:0:
234,237,97652,1,8,0:0:0:0:
145,190,97991,6,0,P|68:206|57:317,1,200,8|8,0:1|0:1,0:0:0:0:
143,358,99008,1,8,0:0:0:0:
223,299,99347,2,0,P|323:281|425:272,1,200,8|8,0:1|0:1,0:0:0:0:
476,187,100364,1,8,0:0:0:0:
395,128,100702,6,0,P|378:70|458:13,2,150,8|0|8,0:1|0:0|0:0,0:0:0:0:
476,187,102058,2,0,L|426:338,2,150,8|0|8,0:1|0:0|0:0,0:0:0:0:
425,100,103414,6,0,P|377:84|327:83,1,99.9999999999999,8|8,0:1|0:0,0:0:0:0:
312,182,104092,2,0,P|263:192|219:216,1,99.9999999999999,8|8,0:1|0:0,0:0:0:0:
260,308,104770,2,0,P|176:309|124:190,1,200,8|8,0:1|0:0,0:0:0:0:
143,121,105787,1,8,0:0:0:0:
237,87,106126,6,0,P|323:93|455:66,1,200,12|8,0:1|0:0,0:0:0:0:
490,265,107482,2,0,P|390:259|292:278,1,200,8|8,0:1|0:0,0:0:0:0:
111,365,108838,6,0,L|86:131,1,200,8|8,0:1|0:0,0:0:0:0:
249,45,110194,2,0,L|270:243,1,200,8|8,0:1|0:0,0:0:0:0:
339,316,111211,1,8,0:1:0:0:
400,236,111550,6,0,P|462:199|497:195,2,99.9999999999999,12|8|8,0:1|0:0|0:1,0:0:0:0:
339,316,112567,1,8,0:0:0:0:
253,263,112906,2,0,P|181:242|106:242,2,150,8|8|8,0:1|0:0|0:0,0:0:0:0:
339,315,114262,6,0,L|462:306,1,99.9999999999999,8|8,0:1|0:0,0:0:0:0:
471,213,114940,2,0,L|371:221,1,99.9999999999999,8|8,0:1|0:0,0:0:0:0:
285,168,115618,2,0,P|255:98|239:25,2,150,8|8|8,0:1|0:0|0:0,0:0:0:0:
368,223,116974,5,12,0:1:0:0:
110,50,118330,2,0,P|134:120|145:194,1,150,8|8,0:0|0:0,0:0:0:0:
361,322,119686,6,0,L|368:206,1,99.9999999999999,12|8,0:1|0:0,0:0:0:0:
446,161,120364,2,0,L|439:61,1,99.9999999999999,8|8,0:1|0:0,0:0:0:0:
356,116,121041,2,0,P|240:100|211:79,2,150,8|0|8,0:1|0:0|0:0,0:0:0:0:
446,161,122397,6,0,P|439:214|419:275,1,99.9999999999999,8|8,0:1|0:0,0:0:0:0:
331,223,123075,2,0,P|298:265|250:308,1,99.9999999999999,8|8,0:1|0:0,0:0:0:0:
170,332,123753,2,0,B|177:241|119:200|119:200|70:215,1,200,8|8,0:1|0:1,0:0:0:0:
39,119,124770,1,8,0:0:0:0:
107,45,125109,6,0,P|185:32|246:37,1,99.9999999999999,12|8,0:1|0:0,0:0:0:0:
306,32,125787,2,0,P|356:34|405:45,1,99.9999999999999,8|8,0:1|0:0,0:0:0:0:
453,132,126465,2,0,L|436:247,1,99.9999999999999,8|8,0:1|0:0,0:0:0:0:
342,260,127143,2,0,L|356:161,1,99.9999999999999,8|8,0:1|0:0,0:0:0:0:
256,167,127821,6,0,P|150:155|118:63,2,200,12|8|8,0:1|0:1|0:1,0:0:0:0:
316,87,129516,1,12,0:0:0:0:
405,131,129855,2,0,P|450:153|438:304,1,200,8|12,0:1|0:1,0:0:0:0:
357,278,130872,5,8,0:0:0:0:
293,354,131211,2,0,P|240:342|184:332,1,99.9999999999999,8|8,0:1|0:0,0:0:0:0:
113,275,131889,2,0,P|103:225|92:177,2,99.9999999999999,8|8|8,0:1|0:0|0:1,0:0:0:0:
207,240,132906,1,8,0:0:0:0:
260,155,133245,6,0,B|331:127|331:127|438:141|444:273,1,250,12|12,0:1|0:1,0:0:0:0:
384,325,134431,2,0,P|310:311|235:302,1,150,12|8,0:1|0:0,0:0:0:0:
150,355,135279,2,0,L|115:222,1,99.9999999999999,8|8,0:1|0:0,0:0:0:0:
36,209,135957,6,0,P|52:162|78:120,1,99.9999999999999,12|8,0:1|0:0,0:0:0:0:
170,159,136635,2,0,L|299:139,1,99.9999999999999,8|8,0:1|0:0,0:0:0:0:
312,53,137313,2,0,L|411:68,1,99.9999999999999,8|8,0:1|0:0,0:0:0:0:
471,148,137991,2,0,P|486:195|475:243,1,99.9999999999999,8|8,0:1|0:0,0:0:0:0:
256,192,138669,12,8,140025,0:0:0:0:
72,167,152228,6,0,P|142:142|217:140,1,150,12|8,0:1|0:1,0:0:0:0:
287,210,153075,2,0,P|291:288|299:374,2,150,0|12|8,0:0|0:1|0:0,0:0:0:0:
442,46,154940,6,0,P|370:91|257:44,1,200,12|8,0:1|0:0,0:0:0:0:
182,109,155957,1,8,0:0:0:0:
99,52,156296,2,0,P|82:114|97:166,1,99.9999999999999,12|8,0:1|0:1,0:0:0:0:
172,202,156974,2,0,P|188:248|182:298,1,99.9999999999999,8|2,0:1|0:0,0:0:0:0:
87,332,157652,6,0,P|48:300|29:255,1,99.9999999999999,12|8,0:1|0:1,0:0:0:0:
75,164,158330,2,0,L|80:64,1,99.9999999999999,8|8,0:1|0:1,0:0:0:0:
176,36,159008,2,0,L|170:135,1,99.9999999999999,8|8,0:1|0:1,0:0:0:0:
205,229,159686,2,0,L|211:328,1,99.9999999999999,8|8,0:1|0:1,0:0:0:0:
298,279,160364,6,0,P|378:266|456:336,2,150,12|8|8,0:1|0:0|0:0,0:0:0:0:
212,329,161719,2,0,B|159:318|104:342|104:342|54:301|64:225,1,200,8|8,0:1|0:0,0:0:0:0:
135,195,162736,1,8,0:0:0:0:
49,140,163075,6,0,P|34:93|38:44,1,99.9999999999999,12|8,0:1|0:0,0:0:0:0:
130,85,163753,2,0,L|268:68,1,99.9999999999999,8|8,0:1|0:0,0:0:0:0:
318,118,164431,2,0,P|333:165|329:214,1,99.9999999999999,8|8,0:1|0:0,0:0:0:0:
267,295,165109,2,0,P|295:337|334:368,1,99.9999999999999,8|8,0:1|0:0,0:0:0:0:
420,317,165787,6,0,P|433:243|457:172,2,150,8|0|8,0:1|0:0|0:0,0:0:0:0:
335,369,167143,2,0,L|217:347,1,99.9999999999999,8|8,0:1|0:0,0:0:0:0:
175,270,167821,2,0,L|76:288,1,99.9999999999999,8|8,0:1|0:0,0:0:0:0:
27,201,168499,6,0,P|51:141|59:88,1,99.9999999999999,12|8,0:1|0:0,0:0:0:0:
155,138,169177,2,0,P|203:123|245:96,1,99.9999999999999,8|8,0:1|0:0,0:0:0:0:
326,36,169855,1,8,0:1:0:0:
402,100,170194,2,0,P|412:158|424:240,2,99.9999999999999,8|8|8,0:0|0:1|0:0,0:0:0:0:
326,36,171211,6,0,P|249:59|248:172,1,200,8|8,0:1|0:1,0:0:0:0:
313,236,172228,1,8,0:0:0:0:
253,316,172567,2,0,L|132:343,2,99.9999999999999,8|8|8,0:1|0:0|0:1,0:0:0:0:
313,236,173584,1,8,0:0:0:0:
263,148,173923,6,0,P|218:201|213:237,1,99.9999999999999,12|12,0:1|0:0,0:0:0:0:
139,298,174601,2,0,L|34:287,1,99.9999999999999,8|8,0:1|0:0,0:0:0:0:
98,206,175279,2,0,P|97:140|71:52,2,150,8|0|8,0:1|0:0|0:0,0:0:0:0:
139,298,176635,6,0,P|212:321|269:312,1,99.9999999999999,8|8,0:1|0:0,0:0:0:0:
311,256,177313,2,0,P|362:312|416:333,1,99.9999999999999,8|8,0:1|0:0,0:0:0:0:
445,244,177991,2,0,P|473:190|474:107,1,99.9999999999999,8|8,0:1|0:0,0:0:0:0:
427,65,178669,2,0,P|377:69|334:93,1,99.9999999999999,8|8,0:1|0:1,0:1:0:0:
335,193,179347,6,0,L|351:304,1,99.9999999999999,12|8,0:1|0:0,0:0:0:0:
261,337,180025,2,0,L|246:238,1,99.9999999999999,8|8,0:0|0:0,0:0:0:0:
147,222,180702,2,0,L|161:320,1,99.9999999999999,8|8,0:0|0:0,0:0:0:0:
72,366,181380,2,0,L|57:267,1,99.9999999999999,8|8,0:0|0:0,0:0:0:0:
16,175,182058,6,0,P|58:139|137:110,1,99.9999999999999,8|8,0:0|0:0,0:0:0:0:
169,49,182736,2,0,P|213:71|250:104,1,99.9999999999999,8|8,0:0|0:0,0:0:0:0:
347,135,183414,2,0,P|419:119|494:110,2,150,8|8|8,0:1|0:1|0:1,0:0:0:0:
267,194,184770,5,8,0:0:0:0:
96,209,190194,6,0,B|155:221|194:201|194:201|240:178|305:203,1,200,8|8,0:1|0:0,0:0:0:0:
244,286,191211,1,0,0:0:0:0:
323,346,191550,2,0,P|419:348|455:232,1,200,8|8,0:1|0:0,0:0:0:0:
408,180,192567,1,0,0:0:0:0:
314,214,192906,6,0,P|319:114|314:14,2,200,8|8|8,0:1|0:0|0:1,0:0:0:0:
227,264,194601,2,0,L|244:373,2,99.9999999999999,12|8|8,0:0|0:1|0:1,0:0:0:0:
144,206,195618,6,0,P|94:199|44:196,1,99.9999999999999,12|8,0:1|0:1,0:0:0:0:
37,296,196296,2,0,P|86:302|136:305,1,99.9999999999999,8|8,0:1|0:1,0:0:0:0:
228,264,196974,2,0,P|267:292|297:333,1,99.9999999999999,8|8,0:1|0:1,0:0:0:0:
368,262,197652,2,0,P|388:307|393:357,1,99.9999999999999,8|8,0:1|0:1,0:0:0:0:
475,299,198330,6,0,P|475:201|489:137,1,150,8|0,0:1|0:0,0:0:0:0:
461,53,199177,1,0,0:0:0:0:
383,116,199516,2,0,P|266:138|229:104,1,150,0|8,0:0|0:1,0:0:0:0:
161,75,200364,2,0,L|149:176,1,99.9999999999999,8|8,0:1|0:1,0:0:0:0:
169,272,201041,6,0,L|209:375,1,99.9999999999999,8|8,0:0|0:0,0:0:0:0:
306,365,201719,2,0,L|343:272,1,99.9999999999999,8|8,0:0|0:0,0:0:0:0:
435,234,202397,2,0,L|443:120,1,99.9999999999999,8|8,0:0|0:0,0:0:0:0:
344,111,203075,2,0,P|295:100|249:80,1,99.9999999999999,8|8,0:0|0:0,0:0:0:0:
256,192,203753,12,12,205109,0:1:0:0:
106,279,206465,6,0,L|214:293,1,99.9999999999999,12|8,0:1|0:0,0:0:0:0:
298,332,207143,2,0,L|406:318,1,99.9999999999999,8|8,0:1|0:0,0:0:0:0:
461,241,207821,2,0,P|485:163|404:83,1,200,8|8,0:1|0:1,0:0:0:0:
320,126,208838,1,8,0:0:0:0:
240,67,209177,6,0,L|111:99,1,99.9999999999999,8|8,0:1|0:0,0:0:0:0:
135,192,209855,2,0,L|233:168,1,99.9999999999999,8|8,0:1|0:0,0:0:0:0:
320,126,210533,2,0,P|398:177|395:284,1,200,8|8,0:1|0:1,0:0:0:0:
318,333,211550,1,8,0:0:0:0:
236,277,211889,6,0,L|120:295,1,99.9999999999999,12|8,0:1|0:0,0:0:0:0:
135,192,212567,2,0,L|234:177,1,99.9999999999999,8|8,0:1|0:0,0:0:0:0:
300,101,213245,2,0,P|343:130|383:183,1,99.9999999999999,8|8,0:1|0:0,0:0:0:0:
321,252,213923,2,0,P|318:310|446:316,1,200,8|12,0:1|0:1,0:0:0:0:
485,247,214940,5,8,0:0:0:0:
465,149,215279,2,0,P|456:74|455:27,1,99.9999999999999,8|8,0:1|0:0,0:0:0:0:
354,44,215956,1,8,0:1:0:0:
322,140,216296,2,0,B|245:152|209:119|209:119|190:51,2,150,12|8|12,0:0|0:1|0:1,0:0:0:0:
353,44,217652,6,0,P|420:111|383:227,1,200,8|8,0:0|0:0,0:0:0:0:
338,284,218669,2,0,L|217:301,1,99.9999999999999,8|8,0:1|0:0,0:0:0:0:
150,344,219347,2,0,L|51:331,1,99.9999999999999,8|8,0:1|0:0,0:0:0:0:
29,234,220024,5,12,0:1:0:0:
91,156,220363,2,0,P|169:108|249:118,1,150,8|12,0:0|0:1,0:0:0:0:
295,182,221211,2,0,P|318:116|336:28,1,150,12|8,0:1|0:0,0:0:0:0:
433,55,222058,2,0,P|464:95|484:146,1,99.9999999999999,8|8,0:1|0:0,0:0:0:0:
401,199,222736,6,0,L|421:311,1,99.9999999999999,12|8,0:1|0:0,0:0:0:0:
335,352,223414,2,0,L|237:335,1,99.9999999999999,8|8,0:1|0:0,0:0:0:0:
169,260,224092,2,0,L|151:162,1,99.9999999999999,12|8,0:1|0:0,0:0:0:0:
249,141,224770,2,0,L|267:239,1,99.9999999999999,8|8,0:1|0:0,0:0:0:0:
256,192,225448,12,8,226804,0:1:0:0:
180,284,228160,6,0,P|124:244|143:130,2,150,12|0|8,0:1|0:0|0:0,0:0:0:0:
267,234,229516,2,0,L|401:251,1,99.9999999999999,8|8,0:1|0:0,0:0:0:0:
429,168,230194,2,0,L|417:69,1,99.9999999999999,8|8,0:1|0:0,0:0:0:0:
327,113,230872,6,0,B|271:132|227:98|227:98|189:132|178:190,1,200,12|8,0:1|0:1,0:0:0:0:
232,265,231889,1,8,0:0:0:0:
142,309,232228,2,0,P|51:278|80:180,1,200,8|8,0:1|0:1,0:0:0:0:
144,130,233245,1,8,0:0:0:0:
239,159,233584,6,0,P|305:145|398:96,1,150,12|12,0:1|0:1,0:0:0:0:
455,174,234431,1,8,0:1:0:0:
480,270,234770,2,0,P|430:269|387:245,1,99.9999999999999,12|8,0:1|0:1,0:0:0:0:
286,248,235448,2,0,L|123:276,1,150,12|8,0:1|0:0,0:0:0:0:
75,194,236296,6,0,L|58:87,1,99.9999999999999,8|8,0:0|0:0,0:0:0:0:
142,39,236974,2,0,P|203:49|249:73,1,99.9999999999999,8|8,0:0|0:0,0:0:0:0:
265,162,237652,6,0,L|236:345,1,150,8|8,0:0|0:0,0:0:0:0:
341,304,238499,1,8,0:0:0:0:
256,192,238838,12,8,241889,0:1:0:0:
