osu file format v14

[General]
AudioFilename: audio.mp3
AudioLeadIn: 0
PreviewTime: 51851
Countdown: 0
SampleSet: Soft
StackLeniency: 0.7
Mode: 0
LetterboxInBreaks: 0
WidescreenStoryboard: 1

[Editor]
Bookmarks: 551,5975,16822,27670,38517,43941
DistanceSpacing: 1
BeatDivisor: 2
GridSize: 4
TimelineZoom: 1

[Metadata]
Title:Stella-rium
TitleUnicode:Stella-rium
Artist:Kano
ArtistUnicode:鹿乃
Creator:Kowari
Version:Normal
Source:放課後のプレアデス
Tags:houkago no pleiades opening stellarium full version size jpop j pop 歌い手 utaite Anime Japanese
BeatmapID:2315563
BeatmapSetID:1107950

[Difficulty]
HPDrainRate:3
CircleSize:3
OverallDifficulty:4
ApproachRate:5
SliderMultiplier:1.1
SliderTickRate:1

[Events]
//Background and Video events
0,0,"bg.jpg",0,0
//Break Periods
2,141795,150385
//Storyboard Layer 0 (Background)
//Storyboard Layer 1 (Fail)
//Storyboard Layer 2 (Pass)
//Storyboard Layer 3 (Foreground)
//Storyboard Layer 4 (Overlay)
//Storyboard Sound Samples

[TimingPoints]
580,338.983050847458,4,2,1,70,1,0
580,-111.111111111111,4,2,1,70,0,0
1257,-111.111111111111,4,2,1,60,0,0
3291,-111.111111111111,4,2,1,70,0,0
3969,-111.111111111111,4,2,1,60,0,0
4647,-111.111111111111,4,2,1,70,0,0
6003,-111.111111111111,4,2,1,75,0,0
16851,-125,4,2,1,55,0,0
27698,-111.111111111111,4,2,1,65,0,0
38546,-111.111111111111,4,2,1,60,0,0
43969,-111.111111111111,4,2,1,70,0,0
50749,-111.111111111111,4,2,1,75,0,0
52105,-100,4,2,1,80,0,1
73800,-111.111111111111,4,2,1,75,0,0
81935,-100,4,2,1,75,0,0
83207,425.531914893617,4,2,1,75,1,0
83207,-100,4,2,1,75,0,0
83313,338.983050847458,4,2,1,75,1,0
83313,-100,4,2,1,75,0,0
84668,318.302387267905,4,2,1,55,1,0
84668,-125,4,2,1,55,0,0
84986,338.983050847458,4,2,1,55,1,0
84986,-100,4,2,1,55,0,0
85155,-125,4,2,1,55,0,0
86003,338.983050847458,4,2,1,55,1,0
86003,-125,4,2,1,55,0,0
94308,-125,4,2,1,60,0,0
95494,-111.111111111111,4,2,1,65,0,0
111765,-111.111111111111,4,2,1,70,0,0
118714,-111.111111111111,4,2,1,75,0,0
119053,361.228175797712,4,2,1,80,1,0
119053,-100,4,2,1,80,0,0
119414,338.983050847458,4,2,1,70,1,0
119414,-100,4,2,1,70,0,0
119752,298.507462686567,4,2,1,70,1,0
119752,-100,4,2,1,70,0,0
119901,338.983050847458,4,2,1,80,1,1
119901,-100,4,2,1,80,0,1
140578,-100,4,2,1,75,0,1
140917,-100,4,2,1,70,0,1
141256,-100,4,2,1,65,0,1
141595,-100,4,2,1,70,0,0
151595,-125,4,2,1,60,0,0
155833,-125,4,2,1,65,0,0
156511,-125,4,2,1,60,0,0
158206,-111.111111111111,4,2,1,80,0,0
158375,-111.111111111111,4,2,1,50,0,0
158714,-111.111111111111,4,2,1,60,0,0
159223,-111.111111111111,4,2,1,70,0,0
159392,-111.111111111111,4,2,1,80,0,0
160070,-111.111111111111,4,2,1,90,0,0
160917,-111.111111111111,4,2,1,80,0,0
163290,-111.111111111111,4,2,1,75,0,0
179562,-111.111111111111,4,2,1,80,0,0
185155,-111.111111111111,4,2,1,70,0,0
190409,-111.111111111111,4,2,1,65,0,0
194816,-111.111111111111,4,2,1,60,0,0
201256,-111.111111111111,4,2,1,70,0,0
201765,-111.111111111111,4,2,1,55,0,0
202104,-111.111111111111,4,2,1,60,0,0
202612,-111.111111111111,4,2,1,65,0,0
202782,-111.111111111111,4,2,1,70,0,0
205324,-111.111111111111,4,2,1,75,0,0
206680,-100,4,2,1,80,0,1
228375,-100,4,2,1,75,0,0

[Colours]
Combo1 : 0,134,198
Combo2 : 255,128,192
Combo3 : 164,164,255
Combo4 : 79,167,255

[HitObjects]
119,316,580,6,0,L|65:306,2,49.4999984893799,12|8|12,2:0|2:0|2:0,2:0:0:0:
216,331,1257,2,0,L|325:314,1,98.9999969787599,0|0,3:0|2:0,2:0:0:0:
386,248,1935,2,0,L|453:263,2,49.4999984893799,0|0|0,3:0|3:0|2:0,2:0:0:0:
338,233,2444,1,0,2:0:0:0:
293,144,2783,1,0,3:0:0:0:
293,144,2952,2,0,L|305:78,1,49.4999984893799,0|0,2:0|2:0,2:0:0:0:
320,49,3291,6,0,L|397:32,2,49.4999984893799,12|8|12,2:0|2:0|2:0,2:0:0:0:
220,54,3969,2,0,L|150:41,1,49.4999984893799,0|0,3:0|3:0,2:0:0:0:
122,37,4308,2,0,P|82:90|97:136,1,98.9999969787599,0|8,2:0|2:0,2:0:0:0:
125,149,4817,2,0,L|244:140,2,98.9999969787599,0|0|2,3:0|3:0|2:0,2:0:0:0:
10,244,6003,6,0,P|0:287|27:343,1,98.9999969787599,6|8,3:2|2:0,2:0:0:0:
116,361,6681,2,0,L|180:347,1,49.4999984893799,2|0,3:2|3:0,2:0:0:0:
212,340,7020,1,8,2:0:0:0:
305,306,7359,2,0,L|368:319,2,49.4999984893799,2|2|8,3:2|2:0|2:0,2:0:0:0:
267,272,7868,2,0,P|240:212|261:170,1,98.9999969787599,2|2,2:0|3:2,2:0:0:0:
286,150,8376,1,8,2:0:0:0:
365,91,8715,6,0,L|478:109,1,98.9999969787599,2|8,3:2|2:0,2:0:0:0:
504,196,9393,2,0,P|508:233|500:267,1,49.4999984893799,2|2,3:2|3:2,2:0:0:0:
473,282,9732,1,8,2:0:0:0:
379,249,10071,1,2,3:2:0:0:
379,249,10241,2,0,L|268:233,1,98.9999969787599,2|2,2:0|2:0,2:0:0:0:
233,219,10749,2,0,L|160:230,2,49.4999984893799,2|2|10,3:2|3:2|2:0,2:0:0:0:
286,135,11427,6,0,P|306:79|283:17,2,98.9999969787599,6|10|2,3:2|2:0|3:2,2:0:0:0:
201,82,12444,1,10,2:0:0:0:
123,143,12783,2,0,P|103:87|126:25,2,98.9999969787599,2|10|2,3:2|2:0|3:2,2:0:0:0:
204,200,13800,1,10,2:0:0:0:
172,293,14139,6,0,L|63:275,1,98.9999969787599,6|8,3:2|2:0,2:0:0:0:
48,180,14817,2,0,L|-9:188,2,49.4999984893799,2|2|8,3:2|3:2|2:0,2:0:0:0:
122,113,15495,2,0,L|178:122,1,49.4999984893799,0|0,3:0|3:0,2:0:0:0:
214,144,15834,2,0,L|262:136,1,49.4999984893799,8|8,2:0|2:0,2:0:0:0:
303,107,16173,2,0,L|359:122,2,49.4999984893799,8|8|4,2:0|2:3|2:3,2:0:0:0:
307,7,16851,6,0,P|360:-5|406:15,1,88,6|2,3:2|2:0,2:0:0:0:
424,33,17359,2,0,L|433:133,2,88,2|2|2,2:0|2:0|2:0,2:0:0:0:
314,107,18546,2,0,L|302:210,2,88,2|2|2,2:0|2:0|2:0,2:0:0:0:
268,76,19393,1,0,3:0:0:0:
268,76,19563,6,0,P|218:50|173:68,1,88,2|0,3:2|2:0,2:0:0:0:
145,95,20071,2,0,L|156:199,2,88,2|2|2,2:0|2:0|2:0,2:0:0:0:
40,23,21257,1,0,2:0:0:0:
40,23,21427,2,0,L|27:116,1,88,2|0,2:0|2:0,2:0:0:0:
5,148,21935,2,0,L|13:210,1,44,0|2,2:0|3:2,2:0:0:0:
23,233,22274,6,0,P|79:249|116:234,1,88,2|2,3:2|2:0,2:0:0:0:
145,221,22783,1,2,2:0:0:0:
212,164,23122,1,2,2:0:0:0:
291,212,23461,1,2,2:0:0:0:
291,212,23630,2,0,L|277:308,2,88,0|2|2,2:0|2:0|2:0,2:0:0:0:
369,171,24647,2,0,L|424:169,1,44,2|0,2:0|3:0,2:0:0:0:
456,165,24986,6,0,P|473:102|458:75,1,88,2|2,3:2|2:0,2:0:0:0:
440,48,25495,2,0,L|337:61,1,88,2|2,2:0|2:0,2:0:0:0:
265,70,26173,2,0,L|201:62,1,44,2|8,3:2|2:0,2:0:0:0:
166,56,26512,1,0,3:0:0:0:
102,117,26851,1,0,3:0:0:0:
148,206,27190,2,0,L|209:194,2,44,8|8|10,2:0|2:0|2:0,2:0:0:0:
101,224,27698,6,0,P|83:283|106:323,1,98.9999969787599,6|10,3:2|2:0,2:0:0:0:
143,334,28207,2,0,L|244:320,1,98.9999969787599,2|2,2:0|3:2,2:0:0:0:
327,369,28885,2,0,B|360:301|360:301|308:235,1,148.49999546814,2|10,2:0|2:0,2:0:0:0:
233,186,29732,2,0,L|167:196,2,49.4999984893799,2|0|10,3:2|3:0|2:0,2:0:0:0:
266,92,30410,6,0,P|305:53|375:66,1,98.9999969787599,2|10,3:2|2:0,2:0:0:0:
387,78,30918,2,0,L|379:187,1,98.9999969787599,2|2,2:0|3:2,2:0:0:0:
429,262,31596,1,0,3:0:0:0:
429,262,31766,2,0,L|489:251,2,49.4999984893799,2|0|8,3:2|2:0|2:0,2:0:0:0:
398,300,32274,1,0,3:0:0:0:
314,352,32613,1,0,3:0:0:0:
314,352,32783,2,0,L|242:340,1,49.4999984893799,10|0,2:0|2:0,2:0:0:0:
215,338,33122,6,0,L|104:353,1,98.9999969787599,6|8,3:2|2:0,2:0:0:0:
67,358,33630,2,0,P|36:305|45:259,1,98.9999969787599,2|0,2:0|3:0,2:0:0:0:
75,234,34139,1,10,2:0:0:0:
145,163,34478,2,0,P|160:102|144:60,1,98.9999969787599,2|10,3:2|2:0,2:0:0:0:
109,39,34986,2,0,L|2:48,2,98.9999969787599,2|2|2,2:0|3:2|2:0,2:0:0:0:
147,7,35834,5,2,3:2:0:0:
246,7,36173,1,8,2:0:0:0:
295,92,36512,2,0,L|361:83,2,49.4999984893799,0|0|8,3:0|3:0|2:0,2:0:0:0:
222,159,37190,2,0,L|231:234,1,49.4999984893799,0|0,3:0|3:0,2:0:0:0:
232,257,37529,1,8,2:0:0:0:
233,355,37868,2,0,L|157:346,2,49.4999984893799,8|8|6,2:0|2:3|2:3,2:0:0:0:
332,359,38546,6,0,P|374:313|357:217,1,148.49999546814,6|2,3:2|3:2,2:0:0:0:
332,191,39224,2,0,L|336:127,1,49.4999984893799,8|0,2:0|3:0,2:0:0:0:
348,93,39563,1,0,2:0:0:0:
281,27,39902,1,2,3:2:0:0:
281,27,40071,2,0,P|223:3|170:30,1,98.9999969787599,8|2,2:0|3:2,2:0:0:0:
158,50,40580,2,0,L|169:110,1,49.4999984893799,8|0,2:0|3:0,2:0:0:0:
173,147,40918,1,0,2:0:0:0:
180,245,41257,6,0,P|122:291|41:265,1,148.49999546814,2|2,3:2|3:2,2:0:0:0:
29,233,41935,2,0,L|46:162,1,49.4999984893799,8|0,2:0|3:0,2:0:0:0:
52,136,42274,1,2,2:0:0:0:
78,40,42613,1,2,3:2:0:0:
78,40,42783,2,0,L|179:34,1,98.9999969787599,8|0,2:0|3:0,2:0:0:0:
226,32,43291,1,8,2:0:0:0:
296,101,43630,2,0,L|289:162,1,49.4999984893799,4|4,2:3|2:3,2:0:0:0:
287,199,43969,6,0,P|352:223|403:202,2,98.9999969787599,6|10|2,3:2|2:0|3:2,2:0:0:0:
208,139,44986,1,10,2:0:0:0:
150,219,45325,2,0,L|166:335,1,98.9999969787599,2|2,3:2|3:2,2:0:0:0:
172,366,45834,1,10,2:0:0:0:
270,372,46173,1,0,3:0:0:0:
270,372,46342,2,0,L|340:360,1,49.4999984893799,10|0,2:0|2:0,2:0:0:0:
358,334,46681,6,0,L|481:348,2,98.9999969787599,6|10|2,3:2|2:0|3:2,2:0:0:0:
309,247,47698,1,10,2:0:0:0:
386,185,48037,2,0,P|418:147|404:91,1,98.9999969787599,2|2,3:2|3:2,2:0:0:0:
376,65,48546,2,0,L|270:77,1,98.9999969787599,10|0,2:0|3:0,2:0:0:0:
228,83,49054,1,10,2:0:0:0:
162,8,49393,5,6,3:2:0:0:
71,307,50749,2,0,L|6:294,2,49.4999984893799,8|0|8,2:0|3:0|2:0,2:0:0:0:
119,316,51257,1,0,3:0:0:0:
392,350,52105,6,0,L|382:217,1,110,6|10,3:2|2:0,2:0:0:0:
368,187,52613,1,0,2:0:0:0:
368,187,52783,2,0,L|385:76,1,110,2|10,3:2|2:0,2:0:0:0:
290,20,53461,1,2,3:2:0:0:
290,20,53630,2,0,L|206:36,1,55,2|10,3:2|2:0,2:0:0:0:
181,37,53969,2,0,P|161:97|183:145,1,110,2|0,2:0|3:0,2:0:0:0:
224,167,54478,1,8,2:0:0:0:
325,210,54817,6,0,P|349:261|326:317,1,110,6|10,3:2|2:0,2:0:0:0:
285,337,55325,1,0,2:0:0:0:
285,337,55495,2,0,L|171:324,1,110,2|10,3:2|2:0,2:0:0:0:
121,314,56003,1,2,2:0:0:0:
11,303,56342,2,0,L|24:239,1,55,2|10,3:2|2:0,2:0:0:0:
54,204,56681,2,0,L|51:83,1,110,2|0,3:2|3:0,2:0:0:0:
47,38,57190,1,8,2:0:0:0:
151,3,57529,6,0,P|211:16|242:63,2,110,6|10|2,3:2|2:0|3:2,2:0:0:0:
157,113,58546,1,10,2:0:0:0:
251,169,58885,2,0,L|371:152,1,110,2|10,3:2|2:0,2:0:0:0:
469,143,59563,2,0,L|458:63,2,55,2|0|10,3:2|3:0|2:0,2:0:0:0:
502,247,60241,6,0,P|468:287|390:288,1,110,2|8,3:2|2:0,2:0:0:0:
373,334,60749,1,2,2:0:0:0:
373,334,60918,2,0,P|313:306|291:260,1,110,2|8,3:2|2:0,2:0:0:0:
286,218,61427,1,2,2:0:0:0:
286,218,61596,2,0,L|299:158,2,55,2|0|12,3:2|3:0|2:0,2:0:0:0:
189,271,62274,2,0,L|202:337,2,55,4|8|8,2:3|2:3|2:0,2:0:0:0:
173,161,62952,6,0,L|192:37,2,110,6|10|2,3:2|2:0|3:2,2:0:0:0:
131,196,63800,1,2,3:2:0:0:
131,196,63969,1,10,2:0:0:0:
87,297,64308,1,2,3:2:0:0:
87,297,64478,2,0,P|130:305|164:291,1,55,2|10,3:2|2:0,2:0:0:0:
186,272,64817,2,0,P|254:248|302:262,1,110,2|0,3:2|3:0,2:0:0:0:
333,289,65325,1,8,2:0:0:0:
440,311,65664,6,0,L|431:376,2,55,2|2|10,3:2|3:2|2:0,2:0:0:0:
478,270,66173,1,2,3:2:0:0:
508,164,66512,1,2,3:2:0:0:
446,72,66851,2,0,P|379:51|325:86,1,110,6|2,3:2|3:2,2:0:0:0:
319,114,67359,2,0,L|240:109,1,55,10|2,2:0|2:0,2:0:0:0:
209,101,67698,1,2,3:2:0:0:
120,166,68037,1,8,2:0:0:0:
194,246,68376,6,0,B|221:296|221:296|206:363,2,110,6|10|2,3:2|2:0|3:2,2:0:0:0:
108,315,69393,1,10,2:0:0:0:
20,247,69732,2,0,B|-7:297|-7:297|8:364,2,110,2|10|2,3:2|2:0|3:2,2:0:0:0:
95,166,70749,1,10,2:0:0:0:
37,72,71088,6,0,P|98:55|155:74,1,110,6|8,3:2|2:0,2:0:0:0:
222,141,71766,2,0,L|288:134,1,55,0|0,3:0|3:0,2:0:0:0:
331,132,72105,1,8,2:0:0:0:
440,129,72444,2,0,P|463:70|445:25,2,110,4|8|8,2:3|2:0|2:3,2:0:0:0:
384,224,73461,1,4,2:3:0:0:
450,297,73800,6,0,L|337:327,1,98.9999969787599,4|8,3:2|2:0,2:0:0:0:
260,354,74478,2,0,L|196:340,1,49.4999984893799,2|2,3:2|3:2,2:0:0:0:
164,333,74817,1,8,2:0:0:0:
75,289,75156,2,0,L|12:302,2,49.4999984893799,2|2|8,3:2|2:0|2:0,2:0:0:0:
117,263,75664,2,0,P|144:203|123:161,1,98.9999969787599,2|2,2:0|3:2,2:0:0:0:
98,141,76173,1,8,2:0:0:0:
167,70,76512,6,0,L|280:52,1,98.9999969787599,2|8,3:2|2:0,2:0:0:0:
357,88,77190,2,0,P|361:125|353:159,1,49.4999984893799,2|2,3:2|3:2,2:0:0:0:
326,174,77529,1,8,2:0:0:0:
235,205,77868,1,2,3:2:0:0:
235,205,78037,2,0,L|251:316,1,98.9999969787599,2|2,2:0|2:0,2:0:0:0:
238,351,78546,2,0,L|165:340,2,49.4999984893799,2|2|10,3:2|3:2|2:0,2:0:0:0:
337,345,79224,6,0,P|393:365|455:342,2,98.9999969787599,6|10|2,3:2|2:0|3:2,2:0:0:0:
392,262,80241,1,10,2:0:0:0:
344,175,80580,2,0,P|400:155|462:178,2,98.9999969787599,2|10|2,3:2|2:0|3:2,2:0:0:0:
271,243,81596,1,10,2:0:0:0:
173,224,81935,6,0,L|154:114,1,110,6|10,3:2|2:0,2:0:0:0:
72,42,82613,2,0,L|12:32,2,55,2|2|8,3:2|3:2|2:3,2:0:0:0:
173,21,83313,2,0,L|231:13,1,55,0|8,3:0|2:0,2:0:0:0:
272,1,83651,2,0,L|328:12,1,55,8|0,2:0|3:0,2:0:0:0:
361,28,83990,2,0,L|419:14,2,55,8|0|4,2:3|3:0|2:3,2:0:0:0:
290,98,84668,6,0,P|271:154|291:193,1,88,6|0,3:2|2:0,2:0:0:0:
313,207,85155,2,0,L|368:194,1,44,2|8,3:2|2:0,2:0:0:0:
399,188,85494,1,2,3:2:0:0:
465,254,85833,1,10,2:0:0:0:
465,254,86003,2,0,P|427:306|389:311,1,88,2|2,3:2|2:0,2:0:0:0:
319,303,86680,2,0,L|261:316,1,44,10|0,2:0|3:0,2:0:0:0:
235,330,87019,2,0,L|187:323,1,44,2|8,2:0|2:0,2:0:0:0:
148,315,87358,5,2,3:2:0:0:
66,337,87697,1,2,2:0:0:0:
66,337,87867,2,0,L|56:230,1,88,2|2,3:2|3:2,2:0:0:0:
44,167,88545,1,10,2:0:0:0:
44,167,88714,2,0,L|98:155,1,44,0|8,3:0|2:0,2:0:0:0:
147,93,89223,1,0,3:0:0:0:
147,93,89392,2,0,L|204:98,2,44,8|0|0,2:0|3:0|2:0,2:0:0:0:
171,177,90070,6,0,L|186:276,1,88,2|2,3:2|2:0,2:0:0:0:
223,284,90579,2,0,L|218:346,1,44,2|8,3:2|2:0,2:0:0:0:
215,371,90918,1,2,3:2:0:0:
325,363,91257,1,2,2:0:0:0:
325,363,91426,2,0,P|348:307|342:266,1,88,2|2,3:2|2:0,2:0:0:0:
268,238,92104,2,0,L|281:177,1,44,10|0,2:0|3:0,2:0:0:0:
285,151,92443,1,2,2:0:0:0:
372,152,92782,6,0,P|392:93|376:57,1,88,2|2,3:2|2:0,2:0:0:0:
352,40,93291,2,0,L|288:50,1,44,2|8,3:2|2:0,2:0:0:0:
265,54,93630,1,2,3:2:0:0:
181,26,93969,2,0,L|120:17,1,44,2|8,3:2|2:0,2:0:0:0:
93,14,94308,1,0,3:0:0:0:
25,70,94647,1,0,3:0:0:0:
81,137,94986,2,0,L|140:127,2,44,8|8|8,2:0|2:0|2:0,2:0:0:0:
62,186,95494,6,0,L|91:308,1,98.9999969787599,6|10,3:2|2:0,2:0:0:0:
103,328,96003,2,0,P|161:343|208:322,1,98.9999969787599,2|2,3:2|3:2,2:0:0:0:
254,250,96680,2,0,B|332:252|303:203|411:202,1,148.49999546814,2|10,2:0|2:0,2:0:0:0:
479,247,97528,2,0,L|492:309,2,49.4999984893799,2|0|10,3:2|3:0|2:0,2:0:0:0:
454,150,98206,6,0,L|469:46,1,98.9999969787599,2|10,3:2|2:0,2:0:0:0:
437,13,98714,2,0,P|378:-2|332:20,1,98.9999969787599,2|2,2:0|3:2,2:0:0:0:
284,89,99392,1,2,2:0:0:0:
284,89,99562,2,0,L|298:169,2,49.4999984893799,0|0|8,3:0|2:0|2:0,2:0:0:0:
243,60,100070,1,0,3:0:0:0:
149,26,100409,1,0,3:0:0:0:
149,26,100579,2,0,L|83:38,1,49.4999984893799,10|2,2:0|2:3,2:0:0:0:
54,52,100918,6,0,P|23:108|35:155,1,98.9999969787599,2|8,3:2|2:0,2:0:0:0:
64,174,101426,2,0,L|186:160,1,98.9999969787599,2|0,2:0|3:0,2:0:0:0:
211,156,101935,1,10,2:0:0:0:
307,176,102274,2,0,B|332:217|332:217|320:279,1,98.9999969787599,2|10,3:2|2:0,2:0:0:0:
297,310,102782,1,2,2:0:0:0:
297,310,102952,2,0,L|213:300,2,49.4999984893799,0|2|8,3:0|3:2|2:0,2:0:0:0:
385,354,103630,5,2,3:2:0:0:
477,318,103969,1,8,2:0:0:0:
453,221,104308,2,0,L|513:205,2,49.4999984893799,0|0|8,3:0|3:0|2:0,2:0:0:0:
362,181,104986,2,0,L|282:165,1,49.4999984893799,0|0,3:0|3:0,2:0:0:0:
265,159,105325,1,12,2:0:0:0:
203,81,105664,2,0,B|147:81|147:81|116:99|116:99|54:105,1,148.49999546814,4|0,3:2|2:0,2:0:0:0:
10,105,106341,6,0,P|-5:164|64:246,1,148.49999546814,6|2,3:2|3:2,2:0:0:0:
87,241,107019,2,0,L|157:226,1,49.4999984893799,8|0,2:0|3:0,2:0:0:0:
182,215,107358,1,0,2:0:0:0:
276,186,107697,1,2,3:2:0:0:
276,186,107867,2,0,P|316:245|301:301,1,98.9999969787599,8|2,2:0|3:2,2:0:0:0:
286,310,108375,2,0,L|211:304,2,49.4999984893799,8|0|2,2:0|3:0|2:0,2:0:0:0:
373,356,109053,6,0,P|461:365|516:289,1,148.49999546814,2|2,3:2|3:2,2:0:0:0:
500,280,109731,2,0,L|492:209,1,49.4999984893799,8|0,2:0|3:0,2:0:0:0:
487,181,110070,1,2,2:0:0:0:
474,82,110409,5,2,3:2:0:0:
474,82,110579,2,0,P|428:55|362:80,1,98.9999969787599,8|0,2:0|3:0,2:0:0:0:
359,104,111087,1,8,2:0:0:0:
294,178,111426,2,0,L|205:167,1,49.4999984893799,4|4,2:3|2:3,2:0:0:0:
202,145,111765,6,0,L|92:156,2,98.9999969787599,4|10|2,3:2|2:0|3:2,2:0:0:0:
262,66,112782,1,10,2:0:0:0:
176,16,113121,2,0,P|103:9|58:43,1,98.9999969787599,2|2,3:2|2:0,2:0:0:0:
46,53,113630,1,10,2:0:0:0:
19,148,113969,1,0,2:0:0:0:
19,148,114138,2,0,L|32:211,1,49.4999984893799,10|0,2:0|2:0,2:0:0:0:
59,235,114477,6,0,L|50:348,2,98.9999969787599,2|10|2,3:2|2:0|3:2,2:0:0:0:
143,183,115494,1,10,2:0:0:0:
225,238,115833,1,0,3:0:0:0:
225,238,116003,2,0,L|221:294,1,49.4999984893799,0|0,3:0|2:0,2:0:0:0:
219,336,116341,2,0,P|276:353|322:338,1,98.9999969787599,8|4,2:0|2:3,2:0:0:0:
342,302,116850,1,8,2:0:0:0:
369,206,117189,5,4,3:2:0:0:
175,20,118545,2,0,L|120:28,2,49.4999984893799,8|0|8,2:0|3:0|2:0,2:0:0:0:
220,39,119053,1,0,3:0:0:0:
319,17,119414,1,0,3:0:0:0:
319,17,119583,1,8,2:0:0:0:
412,75,119901,6,0,L|391:193,1,110,6|10,3:2|2:0,2:0:0:0:
361,229,120409,1,0,2:0:0:0:
361,229,120578,2,0,L|380:347,1,110,2|10,3:2|2:0,2:0:0:0:
274,373,121256,1,2,3:2:0:0:
274,373,121426,2,0,L|205:369,1,55,2|10,3:2|2:0,2:0:0:0:
164,362,121765,2,0,P|150:305|176:258,1,110,2|0,2:0|3:0,2:0:0:0:
223,241,122273,1,8,2:0:0:0:
330,218,122612,6,0,L|313:97,1,110,2|10,3:2|2:0,2:0:0:0:
298,55,123121,1,0,2:0:0:0:
298,55,123290,2,0,P|230:37|186:57,1,110,2|10,3:2|2:0,2:0:0:0:
158,91,123799,1,2,2:0:0:0:
48,97,124138,2,0,L|63:167,1,55,2|10,3:2|2:0,2:0:0:0:
92,195,124477,2,0,L|76:307,1,110,2|0,3:2|3:0,2:0:0:0:
73,358,124985,1,8,2:0:0:0:
181,376,125324,6,0,P|245:358|275:302,2,110,6|10|2,3:2|2:0|3:2,2:0:0:0:
185,265,126341,1,10,2:0:0:0:
270,195,126680,2,0,L|263:80,1,110,2|10,3:2|2:0,2:0:0:0:
369,55,127358,2,0,L|375:-10,2,55,2|0|10,3:2|3:0|2:0,2:0:0:0:
457,120,128036,6,0,P|481:172|465:234,1,110,2|8,3:2|2:0,2:0:0:0:
429,257,128545,1,2,2:0:0:0:
429,257,128714,2,0,B|383:249|383:249|367:235|367:235|315:228,1,110,2|8,3:2|2:0,2:0:0:0:
274,206,129223,1,2,2:0:0:0:
274,206,129392,2,0,L|211:217,2,55,2|0|12,3:2|3:0|2:0,2:0:0:0:
320,106,130070,2,0,L|383:117,2,55,4|8|8,2:3|2:3|2:0,2:0:0:0:
243,26,130748,6,0,P|186:1|121:39,2,110,6|10|2,3:2|2:0|3:2,2:0:0:0:
238,80,131595,1,2,3:2:0:0:
238,80,131765,1,10,2:0:0:0:
169,166,132104,1,2,3:2:0:0:
169,166,132273,2,0,L|104:149,1,55,2|10,3:2|2:0,2:0:0:0:
61,140,132612,2,0,B|27:186|27:186|42:244,1,110,2|0,3:2|3:0,2:0:0:0:
65,286,133121,1,8,2:0:0:0:
166,329,133460,6,0,L|153:386,2,55,2|2|10,3:2|3:2|2:0,2:0:0:0:
183,276,133968,1,2,3:2:0:0:
204,168,134307,1,2,3:2:0:0:
296,108,134646,2,0,P|367:90|410:113,1,110,6|2,3:2|3:2,2:0:0:0:
428,149,135155,2,0,L|416:210,1,55,10|2,2:0|2:0,2:0:0:0:
399,255,135494,1,2,3:2:0:0:
303,310,135833,1,8,2:0:0:0:
238,220,136172,6,0,L|259:103,2,110,6|10|2,3:2|2:0|3:2,2:0:0:0:
133,256,137189,1,10,2:0:0:0:
47,186,137528,2,0,L|68:69,2,110,2|10|2,3:2|2:0|3:2,2:0:0:0:
11,290,138545,1,10,2:0:0:0:
97,358,138884,6,0,P|171:363|201:335,1,110,6|8,3:2|2:0,2:0:0:0:
192,232,139562,2,0,L|182:156,1,55,0|0,3:0|3:0,2:0:0:0:
173,123,139901,1,8,2:0:0:0:
240,35,140239,6,0,B|290:64|290:64|361:48,1,110,8|8,2:0|2:3,2:0:0:0:
440,11,140917,2,0,B|457:68|457:68|427:132,1,110,8|8,2:0|2:3,2:0:0:0:
377,194,141595,5,6,3:2:0:0:
436,186,151595,6,0,P|393:158|343:171,1,88,8|8,2:3|2:3,2:0:0:0:
323,189,152104,1,4,2:3:0:0:
280,265,152443,5,6,3:2:0:0:
40,6,153799,2,0,L|18:150,1,132,4|8,3:2|2:3,2:0:0:0:
59,220,154646,1,8,2:3:0:0:
59,220,154816,1,4,2:3:0:0:
143,245,155155,6,0,P|183:196|180:159,1,88,6|2,3:2|2:0,2:0:0:0:
129,104,155833,2,0,B|173:80|173:80|221:97,1,88,8|8,2:0|2:3,2:0:0:0:
290,126,156511,2,0,P|356:112|374:90,2,88,6|0|2,3:2|2:0|2:0,2:0:0:0:
259,209,157528,1,2,2:0:0:0:
327,264,157867,5,14,3:2:0:0:
256,328,158206,2,0,L|176:312,1,49.4999984893799,8|8,2:0|2:0,2:0:0:0:
165,291,158545,2,0,L|92:306,1,49.4999984893799,8|8,2:0|2:0,2:0:0:0:
69,315,158884,1,8,2:0:0:0:
12,233,159223,6,0,P|7:196|17:162,1,49.4999984893799,8|8,2:0|2:0,2:0:0:0:
18,135,159562,2,0,P|48:92|68:80,1,49.4999984893799,8|8,2:0|2:0,2:0:0:0:
93,83,159901,2,0,L|161:99,1,49.4999984893799,8|8,2:0|2:0,2:0:0:0:
188,109,160239,1,8,2:0:0:0:
282,137,160578,6,0,L|407:117,1,98.9999969787599,12|8,2:0|2:0,2:0:0:0:
428,112,161087,2,0,P|459:156|453:207,1,98.9999969787599,0|8,3:0|2:0,2:0:0:0:
422,235,161595,1,0,3:0:0:0:
344,295,161934,2,0,L|225:275,1,98.9999969787599,0|8,3:0|2:0,2:0:0:0:
169,219,162612,1,8,2:3:0:0:
96,286,162951,1,8,2:3:0:0:
25,216,163290,6,0,P|16:159|49:110,1,98.9999969787599,6|8,3:2|2:0,2:0:0:0:
118,71,163968,2,0,L|176:89,1,49.4999984893799,0|0,3:0|3:0,2:0:0:0:
212,99,164307,1,8,2:0:0:0:
287,163,164646,2,0,P|340:178|400:149,1,98.9999969787599,2|8,3:2|2:0,2:0:0:0:
465,113,165324,2,0,L|458:50,1,49.4999984893799,0|0,3:0|3:0,2:0:0:0:
454,14,165663,1,10,2:0:0:0:
355,7,166002,6,0,P|291:13|256:65,1,98.9999969787599,6|8,3:2|2:0,2:0:0:0:
248,81,166511,1,2,3:2:0:0:
248,81,166680,2,0,L|263:199,1,98.9999969787599,0|10,3:0|2:0,2:0:0:0:
203,260,167358,2,0,L|145:249,1,49.4999984893799,2|2,3:2|2:0,2:0:0:0:
105,242,167697,1,10,2:0:0:0:
105,242,167867,2,0,P|81:183|107:129,1,98.9999969787599,2|0,3:2|3:0,2:0:0:0:
128,119,168375,1,8,2:0:0:0:
216,74,168714,6,0,L|272:81,1,49.4999984893799,6|2,3:2|2:0,2:0:0:0:
314,87,169053,1,10,2:0:0:0:
314,87,169223,2,0,L|420:73,1,98.9999969787599,2|2,2:0|3:2,2:0:0:0:
460,62,169731,1,10,2:0:0:0:
460,62,169901,1,2,2:0:0:0:
495,154,170239,1,2,2:0:0:0:
495,154,170409,2,0,L|483:211,1,49.4999984893799,10|0,2:0|2:0,2:0:0:0:
449,237,170748,2,0,L|461:294,1,49.4999984893799,2|0,3:2|3:0,2:0:0:0:
473,332,171087,1,10,2:0:0:0:
381,369,171426,6,0,P|314:364|288:323,1,98.9999969787599,6|8,3:2|2:0,2:0:0:0:
293,243,172104,2,0,L|306:181,1,49.4999984893799,2|0,3:2|3:0,2:0:0:0:
315,146,172443,1,8,2:0:0:0:
263,61,172782,2,0,L|193:72,1,49.4999984893799,6|2,3:2|3:2,2:0:0:0:
164,75,173121,1,10,2:0:0:0:
93,145,173460,2,0,L|16:133,2,49.4999984893799,0|8|8,3:0|2:0|2:3,2:0:0:0:
139,161,173968,1,4,2:3:0:0:
139,161,174138,6,0,P|167:210|146:263,1,98.9999969787599,6|12,3:2|2:0,2:0:0:0:
109,335,174816,2,0,L|157:346,1,49.4999984893799,2|0,3:2|3:0,2:0:0:0:
206,355,175155,1,10,2:0:0:0:
296,315,175494,1,0,3:0:0:0:
296,315,175663,2,0,L|371:305,1,49.4999984893799,2|10,2:0|2:0,2:0:0:0:
394,300,176002,2,0,P|408:240|388:197,1,98.9999969787599,2|0,3:2|3:0,2:0:0:0:
352,181,176511,1,8,2:0:0:0:
253,180,176850,6,0,L|248:63,1,98.9999969787599,2|8,3:2|2:0,2:0:0:0:
271,36,177358,2,0,P|322:17|372:28,1,98.9999969787599,2|0,2:0|3:0,2:0:0:0:
405,53,177867,1,8,2:0:0:0:
455,138,178206,1,2,3:2:0:0:
455,138,178375,2,0,L|442:214,1,49.4999984893799,2|10,3:2|2:0,2:0:0:0:
440,236,178714,1,2,3:2:0:0:
412,331,179053,1,4,2:3:0:0:
412,331,179223,2,0,L|348:320,1,49.4999984893799,8|0,2:0|3:0,2:0:0:0:
317,302,179562,6,0,L|209:311,1,98.9999969787599,12|8,2:0|2:0,2:0:0:0:
145,242,180239,1,8,2:0:0:0:
174,147,180578,1,8,2:0:0:0:
272,149,180917,2,0,L|378:148,1,98.9999969787599,12|8,2:0|2:0,2:0:0:0:
451,90,181595,1,8,2:0:0:0:
403,2,181934,1,8,2:0:0:0:
303,2,182273,6,0,P|248:26|224:66,1,98.9999969787599,12|12,2:0|2:0,2:0:0:0:
130,34,182951,2,0,P|130:95|152:137,1,98.9999969787599,12|12,2:0|2:0,2:0:0:0:
223,190,183629,2,0,L|293:181,2,49.4999984893799,8|8|8,3:0|2:0|2:0,2:0:0:0:
198,233,184138,1,8,2:3:0:0:
198,233,184307,2,0,L|128:224,2,49.4999984893799,8|8|8,2:0|2:0|2:0,2:0:0:0:
252,322,184985,5,4,3:2:0:0:
252,322,185155,1,4,3:2:0:0:
453,104,186172,5,4,3:2:0:0:
393,182,186511,1,4,3:2:0:0:
458,256,186850,1,4,3:2:0:0:
287,76,187697,5,4,3:2:0:0:
287,76,187867,1,4,3:2:0:0:
51,256,188884,5,4,3:2:0:0:
111,178,189223,1,4,3:2:0:0:
72,87,189562,1,4,3:2:0:0:
152,28,189901,5,0,3:0:0:0:
152,28,190070,1,12,3:2:0:0:
244,65,190409,6,0,L|226:166,1,98.9999969787599,6|2,3:2|2:0,2:0:0:0:
248,259,191087,2,0,P|301:279|352:260,1,98.9999969787599,10|2,2:0|2:0,2:0:0:0:
333,169,191765,1,2,3:2:0:0:
410,107,192104,1,2,2:0:0:0:
498,154,192443,2,0,L|492:263,1,98.9999969787599,10|2,2:0|2:0,2:0:0:0:
436,335,193121,6,0,P|371:364|293:343,1,148.49999546814,2|2,3:2|3:2,2:0:0:0:
256,317,193799,2,0,L|258:157,1,148.49999546814,10|10,2:0|2:0,2:0:0:0:
266,119,194477,1,2,3:2:0:0:
339,52,194816,1,12,2:0:0:0:
252,3,195155,2,0,P|186:-11|148:5,1,98.9999969787599,4|8,2:3|2:3,2:0:0:0:
61,30,195833,6,0,L|73:151,1,98.9999969787599,6|2,3:2|3:2,2:0:0:0:
165,156,196511,2,0,L|174:254,1,98.9999969787599,2|2,3:2|3:2,2:0:0:0:
161,353,197189,1,2,3:2:0:0:
256,378,197528,1,2,3:2:0:0:
337,322,197867,2,0,P|351:268|329:223,1,98.9999969787599,2|2,3:2|3:2,2:0:0:0:
278,147,198545,6,0,L|293:79,1,49.4999984893799,2|2,3:2|2:0,2:0:0:0:
294,49,198884,1,2,3:2:0:0:
294,49,199053,2,0,P|342:17|411:36,2,98.9999969787599,2|2|2,2:0|2:0|2:0,2:0:0:0:
199,66,200070,1,0,2:0:0:0:
199,66,200239,2,0,L|114:66,1,49.4999984893799,2|2,3:2|2:0,2:0:0:0:
101,47,200578,2,0,L|-10:58,1,98.9999969787599,2|2,3:2|3:0,2:0:0:0:
5,156,201256,5,12,2:0:0:0:
29,251,201595,2,0,L|89:264,1,49.4999984893799,8|8,2:0|2:0,2:0:0:0:
124,278,201934,2,0,L|189:270,1,49.4999984893799,8|8,2:0|2:0,2:0:0:0:
222,266,202273,1,8,2:0:0:0:
275,182,202612,6,0,P|327:194|343:209,1,49.4999984893799,8|8,2:0|2:0,2:0:0:0:
359,226,202951,2,0,P|377:264|376:284,1,49.4999984893799,8|8,2:0|2:0,2:0:0:0:
364,319,203290,1,8,2:0:0:0:
461,334,203629,2,0,L|473:274,1,49.4999984893799,0|4,2:0|2:3,2:0:0:0:
483,237,203968,1,4,3:2:0:0:
510,124,205324,5,4,3:2:0:0:
510,124,205494,2,0,L|448:132,1,49.4999984893799,8|8,2:0|2:0,2:0:0:0:
414,149,205833,2,0,L|307:136,1,98.9999969787599,8|8,2:3|2:3,2:0:0:0:
267,126,206341,1,8,2:0:0:0:
207,34,206680,6,0,P|145:25|101:50,1,110,6|10,3:2|2:0,2:0:0:0:
72,92,207189,1,0,2:0:0:0:
72,92,207358,2,0,L|91:212,1,110,2|10,3:2|2:0,2:0:0:0:
103,310,208036,1,2,3:2:0:0:
103,310,208206,2,0,L|162:298,1,55,2|10,3:2|2:0,2:0:0:0:
198,263,208545,2,0,P|249:233|318:248,1,110,2|0,2:0|3:0,2:0:0:0:
343,268,209053,1,8,2:0:0:0:
450,251,209392,6,0,L|440:129,1,110,2|10,3:2|2:0,2:0:0:0:
402,101,209901,1,0,2:0:0:0:
402,101,210070,2,0,P|345:85|297:107,1,110,2|10,3:2|2:0,2:0:0:0:
271,151,210578,1,2,2:0:0:0:
207,240,210917,2,0,L|220:318,1,55,2|10,3:2|2:0,2:0:0:0:
220,349,211256,2,0,B|164:366|164:366|113:342,1,110,2|0,3:2|3:0,2:0:0:0:
71,312,211765,1,8,2:0:0:0:
19,214,212104,6,0,L|36:98,2,110,6|10|2,3:2|2:0|3:2,2:0:0:0:
122,251,213121,1,10,2:0:0:0:
181,158,213460,2,0,P|236:131|287:137,1,110,2|10,3:2|2:0,2:0:0:0:
361,213,214138,2,0,L|349:277,2,55,2|0|10,3:2|3:0|2:0,2:0:0:0:
455,156,214816,6,0,B|479:108|479:108|437:44,1,110,2|8,3:2|2:0,2:0:0:0:
406,34,215324,1,2,2:0:0:0:
406,34,215494,2,0,L|294:41,1,110,2|8,3:2|2:0,2:0:0:0:
246,55,216002,1,2,2:0:0:0:
246,55,216172,2,0,L|171:43,2,55,2|0|12,3:2|3:0|2:0,2:0:0:0:
295,153,216850,2,0,L|370:141,2,55,8|8|8,2:0|2:0|2:3,2:0:0:0:
196,201,217528,6,0,P|161:263|176:313,2,110,6|8|2,3:2|2:0|3:2,2:0:0:0:
242,240,218375,1,2,3:2:0:0:
242,240,218545,1,10,2:0:0:0:
332,302,218884,1,2,3:2:0:0:
332,302,219053,2,0,L|407:295,1,55,2|10,3:2|2:0,2:0:0:0:
441,290,219392,2,0,P|457:228|431:176,1,110,2|0,3:2|3:0,2:0:0:0:
395,155,219901,1,8,2:0:0:0:
297,103,220239,6,0,L|310:21,2,55,6|2|10,3:2|3:2|2:0,2:0:0:0:
255,139,220748,1,2,3:2:0:0:
157,88,221087,1,2,3:2:0:0:
55,130,221426,2,0,L|72:251,1,110,6|2,3:2|3:2,2:0:0:0:
115,270,221934,2,0,L|109:341,1,55,10|2,2:0|2:0,2:0:0:0:
103,379,222273,1,2,3:2:0:0:
212,367,222612,1,8,2:0:0:0:
274,276,222951,6,0,P|269:206|237:174,2,110,6|10|2,3:2|2:0|3:2,2:0:0:0:
352,353,223968,1,10,2:0:0:0:
437,284,224307,2,0,P|442:214|474:182,2,110,2|10|2,3:2|2:0|3:2,2:0:0:0:
357,206,225324,1,10,2:0:0:0:
408,108,225663,6,0,B|354:88|354:88|293:113,1,110,6|8,3:2|2:0,2:0:0:0:
218,175,226341,2,0,L|156:167,1,55,0|0,3:0|3:0,2:0:0:0:
109,157,226680,1,12,2:0:0:0:
51,63,227019,2,0,P|106:25|160:32,2,110,8|8|8,2:3|2:0|2:3,2:0:0:0:
6,163,228036,1,4,2:3:0:0:
65,255,228375,6,0,L|187:242,1,110,6|8,3:2|2:0,2:0:0:0:
269,187,229053,2,0,L|341:198,1,55,2|2,3:2|3:2,2:0:0:0:
377,205,229392,1,8,2:0:0:0:
456,280,229731,2,0,L|519:273,2,55,2|2|8,3:2|2:0|2:0,2:0:0:0:
425,326,230239,2,0,P|361:354|314:338,1,110,2|2,2:0|3:2,2:0:0:0:
276,318,230748,1,10,2:0:0:0:
234,216,231087,6,8,L|255:89,1,110,2|8,3:2|2:0,2:0:0:0:
178,24,231765,2,0,L|103:36,1,55,2|2,3:2|3:2,2:0:0:0:
68,36,232104,1,8,2:0:0:0:
18,134,232443,1,2,3:2:0:0:
18,134,232612,2,0,L|39:257,1,110,2|2,3:2|2:0,2:0:0:0:
63,290,233121,2,0,L|53:355,2,55,4|8|8,2:3|2:3|2:0,2:0:0:0:
139,210,233799,6,0,P|193:177|258:202,1,110,4|8,3:2|2:0,2:0:0:0:
272,226,234307,1,4,3:2:0:0:
348,304,234646,2,0,L|422:291,1,55,0|8,3:0|2:0,2:0:0:0:
454,278,234985,2,0,B|475:228|475:228|441:170,1,110,4|0,3:2|3:0,2:0:0:0:
406,141,235494,1,8,2:0:0:0:
406,141,235663,1,4,3:2:0:0:
332,59,236002,1,0,3:0:0:0:
332,59,236172,2,0,L|276:72,1,55,8|0,2:0|3:0,2:0:0:0:
224,84,236511,5,12,2:0:0:0:
162,175,236850,1,8,2:0:0:0:
233,258,237189,1,8,2:0:0:0:
338,225,237528,1,8,2:0:0:0:
375,121,237867,5,8,2:0:0:0:
375,121,238036,2,0,L|458:129,1,55,8|8,2:0|2:0,2:0:0:0:
484,130,238375,1,2,3:2:0:0:
498,239,238714,1,2,3:2:0:0:
509,347,239053,1,6,3:2:0:0:
256,192,239223,12,0,242104,3:0:0:0:
