osu file format v14

[General]
AudioFilename: audio.mp3
AudioLeadIn: 0
PreviewTime: 51851
Countdown: 0
SampleSet: Soft
StackLeniency: 0.7
Mode: 0
LetterboxInBreaks: 0
WidescreenStoryboard: 1

[Editor]
Bookmarks: 551,5975,16822,27670,38517,43941
DistanceSpacing: 1
BeatDivisor: 4
GridSize: 4
TimelineZoom: 1

[Metadata]
Title:Stella-rium
TitleUnicode:Stella-rium
Artist:Kano
ArtistUnicode:鹿乃
Creator:Kowari
Version:Extra
Source:放課後のプレアデス
Tags:houkago no pleiades opening stellarium full version size jpop j pop 歌い手 utaite Anime Japanese
BeatmapID:2315560
BeatmapSetID:1107950

[Difficulty]
HPDrainRate:5.5
CircleSize:4
OverallDifficulty:8.5
ApproachRate:9.2
SliderMultiplier:1.65
SliderTickRate:1

[Events]
//Background and Video events
0,0,"bg.jpg",0,0
//Break Periods
2,141795,151015
//Storyboard Layer 0 (Background)
//Storyboard Layer 1 (Fail)
//Storyboard Layer 2 (Pass)
//Storyboard Layer 3 (Foreground)
//Storyboard Layer 4 (Overlay)
//Storyboard Sound Samples

[TimingPoints]
580,338.983050847458,4,2,1,70,1,0
580,-100,4,2,1,70,0,0
1257,-142.857142857143,4,2,1,60,0,0
3291,-142.857142857143,4,2,1,70,0,0
3969,-142.857142857143,4,2,1,60,0,0
4647,-142.857142857143,4,2,1,70,0,0
5918,-142.857142857143,4,2,1,5,0,0
6003,-100,4,2,1,75,0,0
16851,-125,4,2,1,55,0,0
27698,-111.111111111111,4,2,1,65,0,0
38546,-125,4,2,1,60,0,0
43969,-111.111111111111,4,2,1,70,0,0
49393,-142.857142857143,4,2,1,70,0,0
50749,-142.857142857143,4,2,1,75,0,0
50918,-99.9999999999999,4,2,1,75,0,0
52105,-99.9999999999999,4,2,1,80,0,1
54139,-90.9090909090909,4,2,1,80,0,1
73800,-100,4,2,1,75,0,0
83207,425.531914893617,4,2,1,75,1,0
83207,-100,4,2,1,75,0,0
83313,338.983050847458,4,2,1,75,1,0
83313,-100,4,2,1,75,0,0
84668,318.302387267905,4,2,1,55,1,0
84668,-125,4,2,1,55,0,0
84986,338.983050847458,4,2,1,55,1,0
84986,-100,4,2,1,55,0,0
85155,-125,4,2,1,55,0,0
86003,338.983050847458,4,2,1,55,1,0
86003,-100,4,2,1,55,0,0
86172,-125,4,2,1,55,0,0
94308,-125,4,2,1,60,0,0
95494,-111.111111111111,4,2,1,65,0,0
106341,-125,4,2,1,60,0,0
111765,-111.111111111111,4,2,1,70,0,0
117189,-166.666666666666,4,2,1,70,0,0
118630,-166.666666666666,4,2,1,75,0,0
118714,-100,4,2,1,75,0,0
119053,361.228175797712,4,2,1,80,1,0
119053,-100,4,2,1,80,0,0
119414,338.983050847458,4,2,1,70,1,0
119414,-100,4,2,1,70,0,0
119752,298.507462686567,4,2,1,70,1,0
119752,-100,4,2,1,70,0,0
119901,338.983050847458,4,2,1,80,1,1
119901,-100,4,2,1,80,0,1
121934,-90.9090909090909,4,2,1,80,0,1
140239,-90.9090909090909,4,2,1,75,0,1
140578,-90.9090909090909,4,2,1,70,0,1
140917,-90.9090909090909,4,2,1,65,0,1
141256,-90.9090909090909,4,2,1,60,0,1
141595,-90.9090909090909,4,2,1,70,0,0
151595,-125,4,2,1,60,0,0
152443,-200,4,2,1,60,0,0
153799,-142.857142857143,4,2,1,60,0,0
155833,-100,4,2,1,65,0,0
156511,-125,4,2,1,60,0,0
157867,-125,4,2,1,80,0,0
158375,-125,4,2,1,50,0,0
158714,-125,4,2,1,60,0,0
159053,-125,4,2,1,70,0,0
159392,-125,4,2,1,80,0,0
160070,-125,4,2,1,90,0,0
160409,-100,4,2,1,90,0,0
160748,-125,4,2,1,80,0,0
160917,-100,4,2,1,80,0,0
163290,-100,4,2,1,75,0,0
174477,-76.9230769230769,4,2,1,75,0,0
175155,-100,4,2,1,75,0,0
179562,-100,4,2,1,80,0,0
183968,-83.3333333333333,4,2,1,80,0,0
185155,-83.3333333333333,4,2,1,70,0,0
190070,-125,4,2,1,70,0,0
190409,-125,4,2,1,65,0,0
194816,-111.111111111111,4,2,1,60,0,0
201256,-111.111111111111,4,2,1,70,0,0
201765,-111.111111111111,4,2,1,55,0,0
202104,-111.111111111111,4,2,1,60,0,0
202443,-111.111111111111,4,2,1,65,0,0
202782,-111.111111111111,4,2,1,70,0,0
203968,-166.666666666666,4,2,1,70,0,0
205155,-166.666666666666,4,2,1,80,0,0
205324,-99.9999999999998,4,2,1,75,0,0
206680,-90.9090909090909,4,2,1,80,0,1
228375,-100,4,2,1,75,0,0
239053,-166.666666666667,4,2,1,75,0,0

[Colours]
Combo1 : 0,134,198
Combo2 : 255,128,192
Combo3 : 164,164,255
Combo4 : 79,167,255

[HitObjects]
254,301,580,5,12,2:0:0:0:
382,108,749,1,8,2:0:0:0:
455,322,918,1,12,2:0:0:0:
212,189,1257,6,0,P|246:185|288:182,1,57.7499982376099,0|0,3:0|3:0,2:0:0:0:
138,137,1596,2,0,P|109:134|80:131,1,57.7499982376099,0|0,2:0|2:0,2:0:0:0:
6,75,1935,1,0,3:0:0:0:
70,8,2105,2,0,P|104:15|136:42,1,57.7499982376099,0|0,3:0|2:0,2:0:0:0:
203,73,2444,2,0,B|251:70|251:70|272:57|272:57|323:53,1,115.49999647522,0|0,2:0|3:0,2:0:0:0:
384,114,2952,2,0,P|376:157|372:197,1,57.7499982376099,0|0,2:0|2:0,2:0:0:0:
427,348,3291,5,12,2:0:0:0:
228,231,3461,1,8,2:0:0:0:
457,157,3630,1,12,2:0:0:0:
292,345,3969,6,0,P|297:294|303:272,1,57.7499982376099,0|0,3:0|3:0,2:0:0:0:
221,173,4308,2,0,P|226:201|227:230,1,57.7499982376099,0|0,2:0|2:0,2:0:0:0:
153,337,4647,5,8,2:0:0:0:
81,133,4817,1,0,3:0:0:0:
331,218,5156,1,0,3:0:0:0:
250,2,5495,2,0,B|236:53|236:53|259:80|259:80|238:148,1,144.374995594025,2|0,2:0|2:0,2:0:0:0:
214,202,6003,6,0,B|117:173|117:173|64:190|63:231,1,165,6|8,3:2|2:0,2:0:0:0:
220,338,6512,1,2,2:0:0:0:
324,170,6681,1,2,3:2:0:0:
149,264,6851,1,0,3:0:0:0:
341,307,7020,2,0,P|406:297|436:294,1,82.5,8|0,2:0|2:0,2:0:0:0:
512,156,7359,5,2,3:2:0:0:
322,90,7529,2,0,P|314:140|329:179,1,82.5,2|8,2:0|2:0,2:0:0:0:
500,78,7868,2,0,P|508:28|493:-11,1,82.5,2|0,2:0|3:0,2:0:0:0:
412,177,8207,1,2,3:2:0:0:
310,7,8376,1,8,2:0:0:0:
229,188,8546,5,2,3:2:0:0:
229,188,8630,1,0,3:0:0:0:
229,188,8715,2,0,P|249:320|256:368,1,165,2|8,3:2|2:0,2:0:0:0:
136,189,9224,1,2,2:0:0:0:
324,246,9393,1,2,3:2:0:0:
147,336,9563,1,2,3:2:0:0:
226,155,9732,2,0,P|269:136|311:146,1,82.5,8|0,2:0|2:0,2:0:0:0:
162,317,10071,5,2,3:2:0:0:
49,154,10241,2,0,P|58:88|59:53,1,82.5,2|8,2:0|2:0,2:0:0:0:
224,182,10580,1,2,2:0:0:0:
50,275,10749,1,2,3:2:0:0:
152,106,10918,1,2,3:2:0:0:
247,280,11088,2,0,P|309:279|331:262,1,82.5,10|0,2:0|2:0,2:0:0:0:
485,152,11427,6,0,P|444:145|403:139,1,82.5,6|0,3:2|2:0,2:0:0:0:
232,38,11766,2,0,P|272:32|313:25,1,82.5,10|0,2:0|2:0,2:0:0:0:
356,219,12105,1,2,3:2:0:0:
446,43,12274,1,0,3:0:0:0:
275,144,12444,2,0,P|259:187|265:230,1,82.5,10|0,2:0|2:0,2:0:0:0:
432,324,12783,6,0,B|339:301|372:374|252:346,1,165,2|10,3:2|2:0,2:0:0:0:
109,240,13291,1,0,2:0:0:0:
306,263,13461,1,2,3:2:0:0:
146,378,13630,1,0,3:0:0:0:
214,191,13800,2,0,P|202:127|197:92,1,82.5,10|0,2:0|2:0,2:0:0:0:
14,36,14139,6,0,P|-18:81|39:190,1,165,6|8,3:2|2:0,2:0:0:0:
199,105,14647,1,2,2:0:0:0:
85,267,14817,1,2,3:2:0:0:
108,70,14986,1,2,3:2:0:0:
226,229,15156,2,0,P|307:218|339:214,1,82.5,8|2,2:0|2:0,2:0:0:0:
472,107,15495,5,0,3:0:0:0:
277,71,15664,1,0,3:0:0:0:
390,233,15834,1,8,2:0:0:0:
387,35,16003,1,8,2:0:0:0:
387,35,16088,1,8,2:0:0:0:
387,35,16173,2,0,P|376:90|365:123,1,82.5,8|8,2:0|2:3,2:0:0:0:
491,211,16512,2,0,P|495:252|503:292,1,82.5,4|6,2:3|2:3,2:0:0:0:
391,362,16851,6,0,P|343:317|268:335,1,132,6|2,3:2|2:0,2:0:0:0:
201,370,17359,2,0,P|181:276|171:226,2,132,2|2|2,2:0|2:0|2:0,2:0:0:0:
107,368,18207,2,0,P|72:326|93:236,1,132,0|2,2:0|2:0,2:0:0:0:
135,178,18715,1,0,2:0:0:0:
62,119,18885,2,0,P|11:130|-14:136,1,66,2|0,2:0|2:0,2:0:0:0:
116,46,19224,2,0,P|148:53|180:60,1,66,2|0,2:0|3:0,2:0:0:0:
268,31,19563,6,0,P|222:51|215:132,1,132,2|0,3:2|2:0,2:0:0:0:
292,170,20071,2,0,P|362:160|433:153,2,132,2|2|2,2:0|2:0|2:0,2:0:0:0:
217,224,20918,2,0,B|162:225|134:185|134:185|103:238|40:238,2,198,0|2|0,2:0|2:0|2:0,2:0:0:0:
280,292,22105,1,2,3:2:0:0:
382,217,22274,6,0,P|405:167|379:90,1,132,2|2,3:2|2:0,2:0:0:0:
317,30,22783,2,0,P|265:44|240:48,1,66,2|0,2:0|2:0,2:0:0:0:
173,93,23122,2,0,P|121:79|96:75,1,66,2|0,2:0|2:0,2:0:0:0:
30,125,23461,1,2,2:0:0:0:
88,196,23630,6,0,P|99:251|109:347,1,132,0|2,2:0|2:0,2:0:0:0:
183,380,24139,2,0,P|230:365|247:280,1,132,0|0,2:0|2:0,2:0:0:0:
191,221,24647,1,2,2:0:0:0:
191,221,24817,1,0,3:0:0:0:
315,161,24986,6,0,B|366:173|366:173|394:162|394:162|464:178,1,132,2|2,3:2|2:0,2:0:0:0:
503,103,25495,2,0,P|482:69|385:70,2,132,2|2|2,2:0|2:0|3:2,2:0:0:0:
414,265,26342,5,8,2:0:0:0:
304,136,26512,1,0,3:0:0:0:
229,354,26851,1,0,3:0:0:0:
72,184,27190,5,8,2:0:0:0:
244,251,27359,1,8,2:0:0:0:
65,338,27529,1,10,2:0:0:0:
165,218,27698,6,0,P|157:139|150:58,1,148.49999546814,6|10,3:2|2:0,2:0:0:0:
268,0,28207,1,2,3:2:0:0:
268,0,28291,1,0,3:0:0:0:
268,0,28376,2,0,P|315:-5|349:16,1,74.2499977340699,0|2,3:0|3:2,2:0:0:0:
417,114,28715,2,0,P|359:121|326:126,1,74.2499977340699,8|2,2:0|2:0,2:0:0:0:
217,168,29054,5,0,3:0:0:0:
326,246,29224,2,0,P|338:287|324:330,1,74.2499977340699,0|10,2:0|2:0,2:0:0:0:
210,374,29563,2,0,B|136:369|166:321|72:317,1,148.49999546814,0|0,2:0|3:0,2:0:0:0:
8,202,30071,1,10,2:0:0:0:
137,168,30241,1,0,2:0:0:0:
54,63,30410,6,0,P|92:34|191:57,1,148.49999546814,2|10,3:2|2:0,2:0:0:0:
258,163,30918,2,0,P|248:211|242:249,1,74.2499977340699,2|0,2:0|3:0,2:0:0:0:
366,104,31257,2,0,P|359:67|351:31,1,74.2499977340699,2|8,3:2|2:0,2:0:0:0:
489,178,31596,1,0,3:0:0:0:
375,248,31766,5,2,3:2:0:0:
445,361,31935,2,0,P|497:350|531:346,1,74.2499977340699,0|8,2:0|2:0,2:0:0:0:
375,248,32274,1,0,3:0:0:0:
375,248,32359,1,0,3:0:0:0:
375,248,32444,2,0,P|329:239|281:263,1,74.2499977340699,0|0,3:0|3:0,2:0:0:0:
221,352,32783,1,10,2:0:0:0:
221,352,33122,6,0,B|203:243|203:243|182:277,1,148.49999546814,6|8,3:2|2:0,2:0:0:0:
63,338,33630,2,0,P|38:289|78:206,1,148.49999546814,2|0,2:0|3:0,2:0:0:0:
190,141,34139,1,10,2:0:0:0:
88,54,34308,1,0,2:0:0:0:
213,6,34478,6,0,P|274:18|306:23,1,74.2499977340699,2|0,3:2|2:0,2:0:0:0:
393,99,34817,1,10,2:0:0:0:
281,169,34986,2,0,P|226:165|199:147,1,74.2499977340699,2|0,2:0|3:0,2:0:0:0:
131,60,35325,1,2,3:2:0:0:
131,60,35410,1,0,3:0:0:0:
131,60,35495,1,8,2:0:0:0:
28,145,35664,1,2,2:0:0:0:
117,235,35834,6,0,P|122:315|131:395,2,148.49999546814,2|8|0,3:2|2:0|3:0,2:0:0:0:
211,139,36681,1,0,3:0:0:0:
274,257,36851,2,0,P|325:268|359:251,1,74.2499977340699,8|0,2:0|2:0,2:0:0:0:
454,184,37190,1,0,3:0:0:0:
325,147,37359,1,0,3:0:0:0:
412,352,37529,5,8,2:0:0:0:
214,317,37698,1,8,2:0:0:0:
214,317,37783,1,8,2:0:0:0:
214,317,37868,1,8,2:0:0:0:
368,223,38037,1,8,2:3:0:0:
174,172,38207,2,0,B|119:186|80:194,1,74.2499977340699,6|0,2:3|2:0,2:0:0:0:
18,130,38546,6,0,P|10:92|68:21,1,132,6|0,3:2|2:0,2:0:0:0:
157,70,39054,1,2,3:2:0:0:
250,19,39224,1,8,2:0:0:0:
250,19,39393,2,0,B|334:24|334:24|348:52|373:62,1,132,0|0,3:0|2:0,2:0:0:0:
464,98,39902,5,2,3:2:0:0:
381,163,40071,2,0,P|356:200|383:289,1,132,8|2,2:0|3:2,2:0:0:0:
451,354,40580,1,8,2:0:0:0:
477,252,40749,1,0,3:0:0:0:
374,280,40918,2,0,P|332:292|298:302,1,66,0|0,2:0|2:0,2:0:0:0:
213,256,41257,6,0,P|227:164|235:103,1,132,2|0,3:2|2:0,2:0:0:0:
158,48,41766,1,2,3:2:0:0:
66,97,41935,1,8,2:0:0:0:
66,97,42105,2,0,P|50:140|98:214,1,132,0|0,3:0|2:0,2:0:0:0:
192,235,42613,5,2,3:2:0:0:
132,322,42783,2,0,P|70:331|45:338,1,66,8|0,2:0|2:0,2:0:0:0:
192,235,43122,1,0,3:0:0:0:
266,373,43291,1,8,2:0:0:0:
345,236,43461,1,4,2:3:0:0:
370,216,43546,1,4,2:3:0:0:
403,212,43630,1,4,2:3:0:0:
433,225,43715,1,4,2:3:0:0:
452,251,43800,1,4,2:3:0:0:
455,284,43885,1,4,2:3:0:0:
438,315,43969,6,0,B|347:337|347:337|279:283,2,148.49999546814,6|10|2,3:2|2:0|3:2,2:0:0:0:
509,200,44817,1,0,3:0:0:0:
389,140,44986,2,0,P|369:177|381:214,1,74.2499977340699,10|0,2:0|2:0,2:0:0:0:
498,68,45325,5,2,3:2:0:0:
498,68,45495,2,0,P|456:59|421:50,1,74.2499977340699,0|2,2:0|3:2,2:0:0:0:
307,112,45834,2,0,B|233:119|254:66|156:82,1,148.49999546814,10|0,2:0|3:0,2:0:0:0:
63,167,46342,1,10,2:0:0:0:
63,167,46681,6,0,P|74:223|81:269,1,74.2499977340699,6|0,3:2|2:0,2:0:0:0:
162,342,47020,2,0,P|168:305|175:269,1,74.2499977340699,10|0,2:0|2:0,2:0:0:0:
292,202,47359,1,2,3:2:0:0:
352,321,47529,1,0,3:0:0:0:
456,238,47698,2,0,P|465:196|455:160,1,74.2499977340699,10|0,2:0|2:0,2:0:0:0:
315,97,48037,5,2,3:2:0:0:
453,41,48207,1,2,2:0:0:0:
377,195,48376,1,2,3:2:0:0:
220,139,48546,2,0,P|205:67|277:16,1,148.49999546814,10|0,2:0|3:0,2:0:0:0:
299,219,49054,2,0,P|288:282|286:318,1,74.2499977340699,10|0,2:0|2:0,2:0:0:0:
207,359,49393,6,0,B|102:299|37:316|31:367|31:367|121:340|139:255|105:198,1,404.249987663269,6|0,3:2|2:0,2:0:0:0:
19,97,50749,5,8,2:0:0:0:
19,97,50834,1,8,2:0:0:0:
19,97,50918,2,0,L|72:106,1,41.25,0|0,3:0|3:0,2:0:0:0:
164,38,51088,1,8,2:0:0:0:
164,38,51173,1,8,2:0:0:0:
164,38,51257,1,0,3:0:0:0:
434,261,52105,5,6,3:2:0:0:
336,66,52274,1,0,2:0:0:0:
213,246,52444,1,10,2:0:0:0:
408,151,52613,1,0,2:0:0:0:
213,119,52783,5,2,3:2:0:0:
328,302,52952,1,2,3:2:0:0:
332,83,53122,1,10,2:0:0:0:
191,248,53291,1,0,2:0:0:0:
138,36,53461,5,2,3:2:0:0:
304,175,53630,1,2,3:2:0:0:
96,244,53800,1,10,2:0:0:0:
285,370,53969,1,2,3:2:0:0:
285,370,54054,1,0,3:2:0:0:
285,370,54139,2,0,P|364:377|401:381,1,90.7500027694703,0|0,3:0|3:0,2:0:0:0:
505,202,54478,2,0,P|459:206|414:210,1,90.7500027694703,8|2,2:0|2:0,2:0:0:0:
253,62,54817,6,0,P|298:37|352:40,1,90.7500027694703,6|0,3:2|2:0,2:0:0:0:
227,225,55156,1,10,2:0:0:0:
88,57,55325,1,0,2:0:0:0:
291,135,55495,1,2,3:2:0:0:
88,214,55664,1,2,3:2:0:0:
172,13,55834,1,10,2:0:0:0:
227,225,56003,6,0,P|212:289|205:326,1,90.7500027694703,2|0,2:0|3:0,2:0:0:0:
171,98,56342,1,2,3:2:0:0:
325,249,56512,1,10,2:0:0:0:
142,366,56681,1,2,3:2:0:0:
142,366,56766,1,0,3:0:0:0:
142,366,56851,2,0,P|87:353|58:318,1,90.7500027694703,0|0,3:0|3:0,2:0:0:0:
242,202,57190,2,0,P|297:215|326:250,1,90.7500027694703,8|2,2:0|2:0,2:0:0:0:
102,214,57529,6,0,P|121:112|131:66,1,136.125004154205,6|0,3:2|2:0,2:0:0:0:
79,21,57868,2,0,B|45:54|45:54|51:105,1,90.7500027694703,10|0,2:0|2:0,2:0:0:0:
233,215,58207,1,2,3:2:0:0:
297,7,58376,1,0,3:0:0:0:
478,128,58546,2,0,P|485:178|463:222,1,90.7500027694703,10|0,2:0|2:0,2:0:0:0:
282,326,58885,6,0,P|267:249|260:223,1,90.7500027694703,2|0,3:2|3:0,2:0:0:0:
385,55,59224,2,0,P|374:99|366:143,1,90.7500027694703,10|0,2:0|2:0,2:0:0:0:
157,207,59563,1,2,3:2:0:0:
359,284,59732,1,0,3:0:0:0:
276,81,59902,2,0,P|229:70|178:94,1,90.7500027694703,10|0,2:0|2:0,2:0:0:0:
219,348,60241,6,0,B|268:302|268:302|238:174,1,181.500005538941,2|8,3:2|2:0,2:0:0:0:
53,114,60749,1,2,2:0:0:0:
132,316,60918,1,2,3:2:0:0:
201,108,61088,1,0,3:0:0:0:
15,221,61257,2,0,P|74:233|112:217,1,90.7500027694703,8|2,2:0|2:0,2:0:0:0:
259,45,61596,5,2,3:2:0:0:
43,12,61766,1,0,3:0:0:0:
210,191,61935,2,0,P|203:265|201:297,1,90.7500027694703,12|0,2:0|2:0,2:0:0:0:
381,365,62274,1,4,2:3:0:0:
413,334,62359,1,4,2:3:0:0:
416,290,62444,1,8,2:3:0:0:
389,254,62529,1,8,2:3:0:0:
349,234,62613,1,8,2:0:0:0:
316,203,62698,1,8,2:0:0:0:
313,159,62783,1,8,2:0:0:0:
340,123,62868,1,8,2:0:0:0:
382,108,62952,6,0,B|473:134|473:134|524:89,1,136.125004154205,6|0,3:2|2:0,2:0:0:0:
496,30,63291,2,0,P|443:20|409:42,1,90.7500027694703,10|0,2:0|2:0,2:0:0:0:
240,168,63630,1,2,3:2:0:0:
450,225,63800,1,2,3:2:0:0:
322,49,63969,1,10,2:0:0:0:
287,264,64139,1,0,2:0:0:0:
162,86,64308,5,2,3:2:0:0:
368,157,64478,1,2,3:2:0:0:
189,280,64647,1,10,2:0:0:0:
306,98,64817,1,2,3:2:0:0:
306,98,64902,1,0,3:0:0:0:
306,98,64986,2,0,P|310:38|288:7,1,90.7500027694703,0|0,3:0|3:0,2:0:0:0:
76,8,65325,2,0,P|86:80|91:113,1,90.7500027694703,8|2,2:0|2:0,2:0:0:0:
74,315,65664,5,2,3:2:0:0:
233,171,65834,1,2,3:2:0:0:
7,116,66003,1,10,2:0:0:0:
165,266,66173,1,2,3:2:0:0:
165,266,66257,1,0,3:0:0:0:
165,266,66342,1,8,2:0:0:0:
209,52,66512,1,2,3:2:0:0:
209,52,66851,6,0,B|275:59|321:78|321:78|355:65|367:23,1,181.500005538941,6|2,3:2|3:2,2:0:0:0:
398,246,67359,1,10,2:0:0:0:
494,49,67529,1,2,2:0:0:0:
309,163,67698,2,0,P|292:209|297:257,1,90.7500027694703,2|0,3:2|3:0,2:0:0:0:
493,339,68037,2,0,P|510:293|505:245,1,90.7500027694703,8|0,2:0|2:0,2:0:0:0:
351,99,68376,6,0,P|266:110|194:121,1,136.125004154205,6|0,3:2|2:0,2:0:0:0:
140,132,68715,2,8,P|126:86|141:34,1,90.7500027694703,10|0,2:0|2:0,2:0:0:0:
220,247,69054,1,2,3:2:0:0:
10,184,69224,1,0,3:0:0:0:
140,24,69393,2,0,P|217:39|255:45,1,90.7500027694703,10|0,2:0|2:0,2:0:0:0:
318,225,69732,5,2,3:2:0:0:
115,306,69902,1,0,3:0:0:0:
240,128,70071,1,10,2:0:0:0:
416,274,70241,1,0,3:0:0:0:
416,274,70325,1,0,3:0:0:0:
416,274,70410,2,0,P|425:332|413:361,1,90.7500027694703,2|0,3:2|3:0,2:0:0:0:
253,213,70749,1,10,2:0:0:0:
253,213,71088,6,0,B|324:205|324:205|352:176|352:176|440:164,1,181.500005538941,6|8,3:2|2:0,2:0:0:0:
208,116,71596,1,0,2:0:0:0:
329,295,71766,1,0,3:0:0:0:
384,84,71935,1,0,3:0:0:0:
221,251,72105,2,0,P|211:304|226:348,1,90.7500027694703,8|0,2:0|2:0,2:0:0:0:
284,72,72444,5,4,2:3:0:0:
254,39,72529,1,4,2:3:0:0:
210,32,72613,1,8,2:3:0:0:
170,52,72698,1,8,2:3:0:0:
146,91,72783,1,8,2:0:0:0:
127,132,72868,1,8,2:0:0:0:
88,153,72952,1,8,2:0:0:0:
44,146,73037,1,8,2:0:0:0:
13,118,73122,2,0,L|22:55,1,45.3750013847352,8|8,2:3|2:3,2:0:0:0:
85,232,73291,5,8,2:3:0:0:
82,250,73376,1,8,2:3:0:0:
80,268,73461,1,4,2:3:0:0:
78,286,73546,1,4,2:3:0:0:
76,304,73630,1,4,2:3:0:0:
73,322,73715,1,4,2:3:0:0:
72,339,73800,6,0,B|173:313|173:313|198:342|237:342,1,165,4|8,3:2|2:0,2:0:0:0:
310,162,74308,1,0,2:0:0:0:
128,241,74478,1,2,3:2:0:0:
319,289,74647,1,2,3:2:0:0:
194,134,74817,2,0,P|186:78|199:50,1,82.5,8|0,2:0|2:0,2:0:0:0:
342,189,75156,5,2,3:2:0:0:
164,275,75325,2,0,P|108:267|66:262,1,82.5,2|8,2:0|2:0,2:0:0:0:
303,373,75664,1,2,2:0:0:0:
303,373,75749,1,2,2:0:0:0:
303,373,75834,2,0,P|359:365|401:360,1,82.5,2|2,3:2|3:2,2:0:0:0:
501,201,76173,1,8,2:0:0:0:
312,141,76342,1,0,2:0:0:0:
405,357,76512,6,0,B|414:293|414:293|391:260|391:260|403:181,1,165,2|8,3:2|2:0,2:0:0:0:
296,31,77020,1,2,2:0:0:0:
477,111,77190,1,2,3:2:0:0:
289,173,77359,1,2,3:2:0:0:
384,0,77529,2,0,P|393:37|377:83,1,82.5,8|2,2:0|2:0,2:0:0:0:
194,149,77868,5,2,3:2:0:0:
368,240,78037,2,0,P|443:228|475:224,1,82.5,2|8,2:0|2:0,2:0:0:0:
291,106,78376,1,2,2:0:0:0:
242,298,78546,1,2,3:2:0:0:
149,123,78715,1,2,3:2:0:0:
90,312,78885,2,0,P|42:321|2:308,1,82.5,10|0,2:0|2:0,2:0:0:0:
149,123,79224,6,0,B|123:232|123:232|181:280,2,165,6|10|2,3:2|2:0|3:2,2:0:0:0:
344,156,80071,1,0,3:0:0:0:
203,15,80241,2,0,P|150:6|108:29,1,82.5,10|0,2:0|2:0,2:0:0:0:
256,164,80580,6,0,B|314:154|314:154|348:121|348:121|412:109,2,165,2|10|2,3:2|2:0|3:2,2:0:0:0:
148,330,81427,1,0,3:0:0:0:
340,372,81596,2,0,B|348:331|348:331|329:294,1,82.5,10|0,2:0|2:0,2:0:0:0:
166,181,81935,5,6,3:2:0:0:
348,101,82105,1,0,3:0:0:0:
329,294,82274,2,0,P|302:305|236:295,1,82.5,10|0,2:0|2:0,2:0:0:0:
236,103,82613,1,2,3:2:0:0:
405,206,82783,1,2,3:2:0:0:
401,0,82952,1,8,2:3:0:0:
401,0,83037,1,8,2:3:0:0:
401,0,83122,2,0,L|384:51,1,41.25,8|8,2:3|2:3,2:0:0:0:
318,192,83313,5,0,3:0:0:0:
222,19,83482,1,8,2:0:0:0:
126,191,83651,1,8,2:0:0:0:
300,95,83821,1,0,3:0:0:0:
106,53,83990,5,8,2:3:0:0:
212,179,84160,1,0,3:0:0:0:
48,163,84329,1,4,2:3:0:0:
192,83,84499,1,0,3:0:0:0:
122,232,84668,6,0,P|98:272|127:356,1,132,6|0,3:2|2:0,2:0:0:0:
216,375,85155,2,0,P|277:366|305:363,1,66,2|8,3:2|2:0,2:0:0:0:
350,294,85494,2,0,P|411:303|439:306,1,66,2|0,3:2|2:0,2:0:0:0:
485,233,85833,1,10,2:0:0:0:
485,233,85918,1,8,2:0:0:0:
485,233,86003,1,2,3:2:0:0:
434,147,86172,6,0,P|396:136|318:182,1,132,8|0,2:0|3:0,2:0:0:0:
248,247,86680,2,0,P|201:234|165:228,1,66,10|0,2:0|3:0,2:0:0:0:
96,184,87019,2,0,L|45:191,3,33,2|0|8|8,2:0|2:0|2:0|2:0,2:0:0:0:
14,198,87358,6,0,B|-7:124|-7:124|47:75,1,132,2|2,3:2|2:0,2:0:0:0:
85,1,87867,2,0,P|127:22|145:54,1,66,2|8,3:2|2:0,2:0:0:0:
234,15,88206,2,0,P|236:61|218:93,1,66,2|0,3:2|2:0,2:0:0:0:
173,160,88545,5,10,2:0:0:0:
173,160,88630,1,8,2:0:0:0:
173,160,88714,1,0,3:0:0:0:
239,233,88884,2,0,P|308:223|388:214,1,132,8|0,2:0|3:0,2:0:0:0:
457,262,89392,1,8,2:0:0:0:
408,348,89562,1,0,3:0:0:0:
408,348,89731,2,0,P|364:354|335:342,1,66,0|0,2:0|2:0,2:0:0:0:
270,280,90070,6,0,B|193:273|226:328|126:307,1,132,2|2,3:2|2:0,2:0:0:0:
80,234,90579,2,0,P|85:187|91:165,1,66,2|8,3:2|2:0,2:0:0:0:
179,128,90918,2,0,P|186:160|188:193,1,66,2|0,3:2|2:0,2:0:0:0:
248,272,91257,1,10,2:0:0:0:
248,272,91341,1,8,2:0:0:0:
248,272,91426,5,2,3:2:0:0:
342,241,91596,2,0,P|373:189|345:119,1,132,8|0,2:0|2:0,2:0:0:0:
266,72,92104,1,10,2:0:0:0:
336,3,92274,1,0,3:0:0:0:
418,58,92443,2,0,L|460:53,3,33,2|0|8|8,2:0|2:0|2:0|2:0,2:0:0:0:
489,50,92782,6,0,B|506:127|506:127|462:178,1,132,2|2,3:2|2:0,2:0:0:0:
383,213,93291,2,0,P|395:276|400:303,1,66,2|8,3:2|2:0,2:0:0:0:
290,370,93630,2,0,P|296:337|302:305,1,66,2|0,3:2|2:0,2:0:0:0:
244,224,93969,1,2,3:2:0:0:
141,332,94138,5,8,2:0:0:0:
63,191,94308,1,0,3:0:0:0:
294,85,94647,1,0,3:0:0:0:
93,8,94986,5,8,2:0:0:0:
137,197,95155,1,8,2:0:0:0:
231,21,95325,1,8,2:0:0:0:
292,195,95494,6,0,B|350:192|350:192|378:170|378:170|454:166,1,148.49999546814,6|10,3:2|2:0,2:0:0:0:
415,299,96003,1,2,3:2:0:0:
415,299,96087,1,0,3:0:0:0:
415,299,96172,2,0,P|363:313|339:303,1,74.2499977340699,0|2,3:0|3:2,2:0:0:0:
270,195,96511,2,0,P|234:188|200:202,1,74.2499977340699,8|2,2:0|2:0,2:0:0:0:
127,315,96850,5,2,3:2:0:0:
41,212,97019,2,0,P|49:149|54:115,1,74.2499977340699,0|10,2:0|2:0,2:0:0:0:
151,51,97358,2,0,P|216:36|268:117,1,148.49999546814,0|0,3:0|3:0,2:0:0:0:
342,203,97867,1,10,2:0:0:0:
226,270,98036,1,0,2:0:0:0:
310,374,98206,6,0,B|394:374|352:327|456:331,1,148.49999546814,2|10,3:2|2:0,2:0:0:0:
508,211,98714,2,0,P|514:169|491:132,1,74.2499977340699,2|0,2:0|3:0,2:0:0:0:
372,102,99053,2,0,P|366:144|389:181,1,74.2499977340699,2|8,3:2|2:0,2:0:0:0:
289,271,99392,1,2,2:0:0:0:
182,189,99562,5,0,3:0:0:0:
112,302,99731,2,0,P|121:357|126:393,1,74.2499977340699,0|8,2:0|2:0,2:0:0:0:
18,216,100070,1,0,3:0:0:0:
18,216,100155,1,0,3:0:0:0:
18,216,100240,2,0,B|5:178|5:178|26:137,1,74.2499977340699,0|0,3:0|3:0,2:0:0:0:
126,63,100579,1,10,2:0:0:0:
182,183,100748,1,2,2:3:0:0:
266,67,100918,6,0,B|358:48|358:48|400:74|395:113,1,148.49999546814,2|8,3:2|2:0,2:0:0:0:
320,202,101426,1,2,2:0:0:0:
397,310,101596,2,0,P|450:316|488:296,1,74.2499977340699,0|0,3:0|3:0,2:0:0:0:
500,179,101935,2,0,P|491:115|483:57,1,111.374996601105,10|0,2:0|2:0,2:0:0:0:
482,33,102274,6,0,P|438:13|348:61,1,148.49999546814,2|10,3:2|2:0,2:0:0:0:
312,181,102782,2,0,P|326:251|332:280,1,74.2499977340699,2|0,2:0|3:0,2:0:0:0:
233,350,103121,1,2,3:2:0:0:
126,269,103291,2,0,P|123:221|137:184,1,74.2499977340699,8|2,2:0|2:0,2:0:0:0:
201,82,103630,6,0,B|121:51|121:51|53:95,2,148.49999546814,2|8|0,3:2|2:0|3:0,2:0:0:0:
320,143,104477,1,0,3:0:0:0:
212,221,104647,2,0,P|192:258|198:307,1,74.2499977340699,8|0,2:0|2:0,2:0:0:0:
302,365,104986,5,0,3:0:0:0:
435,268,105155,1,0,3:0:0:0:
320,143,105325,2,0,P|333:78|340:50,1,74.2499977340699,12|0,2:0|2:0,2:0:0:0:
174,3,105664,5,4,3:2:0:0:
181,12,105777,2,0,P|188:64|193:94,1,49.4999984893799,8|8,2:0|2:0,2:0:0:0:
98,211,106003,1,10,2:0:0:0:
105,202,106115,2,0,P|112:150|117:120,1,49.4999984893799,8|8,2:0|2:0,2:0:0:0:
56,55,106341,6,0,P|6:90|18:172,1,132,6|0,3:2|2:0,2:0:0:0:
105,202,106850,1,2,3:2:0:0:
65,299,107019,1,8,2:0:0:0:
65,299,107189,2,0,P|130:293|210:290,1,132,0|0,3:0|3:0,2:0:0:0:
196,290,107613,1,0,3:0:0:0:
196,290,107697,1,2,3:2:0:0:
277,359,107867,6,0,B|309:287|309:287|283:235,1,132,8|2,2:0|3:2,2:0:0:0:
206,168,108375,1,8,2:0:0:0:
276,89,108545,1,0,3:0:0:0:
356,157,108714,2,0,P|405:164|435:153,1,66,2|8,2:0|2:0,2:0:0:0:
427,151,108969,1,8,2:0:0:0:
427,151,109053,6,0,P|419:76|414:7,1,132,2|0,3:2|2:0,2:0:0:0:
310,3,109562,1,2,3:2:0:0:
270,101,109731,1,8,2:0:0:0:
270,101,109901,2,0,P|220:130|142:109,1,132,0|0,3:0|3:0,2:0:0:0:
150,115,110325,1,0,3:0:0:0:
150,115,110409,5,2,3:2:0:0:
60,58,110579,2,0,P|46:182|41:206,1,132,8|0,2:0|3:0,2:0:0:0:
10,289,111087,1,8,2:0:0:0:
93,352,111257,1,4,2:3:0:0:
124,359,111341,1,4,2:3:0:0:
157,354,111426,1,4,2:3:0:0:
185,337,111511,1,4,2:3:0:0:
203,310,111596,1,4,2:3:0:0:
210,278,111680,1,4,2:3:0:0:
224,248,111765,6,0,P|278:210|365:241,2,148.49999546814,4|10|2,3:2|2:0|3:2,2:0:0:0:
329,330,112613,1,0,3:0:0:0:
446,265,112782,2,0,P|438:195|434:169,1,74.2499977340699,10|0,2:0|2:0,2:0:0:0:
389,71,113121,5,2,3:2:0:0:
389,71,113291,2,0,P|348:64|313:90,1,74.2499977340699,0|2,3:0|2:0,2:0:0:0:
253,195,113630,2,0,P|269:274|283:355,1,148.49999546814,10|0,2:0|2:0,2:0:0:0:
152,373,114138,1,10,2:0:0:0:
152,373,114477,6,0,P|105:357|65:350,1,74.2499977340699,2|0,3:2|2:0,2:0:0:0:
16,234,114816,2,0,P|52:225|87:213,1,74.2499977340699,10|0,2:0|2:0,2:0:0:0:
210,159,115155,1,2,3:2:0:0:
112,67,115325,1,0,3:0:0:0:
228,0,115494,2,0,P|274:-3|312:15,1,74.2499977340699,10|0,2:0|2:0,2:0:0:0:
378,155,115833,5,0,3:0:0:0:
469,37,116003,1,0,3:0:0:0:
288,99,116172,1,0,2:0:0:0:
449,220,116341,5,8,2:0:0:0:
392,74,116511,1,8,2:3:0:0:
279,198,116680,1,4,2:3:0:0:
421,317,116850,6,0,P|478:305|515:298,1,74.2499977340699,8|0,2:0|3:0,2:0:0:0:
264,364,117189,6,0,B|235:352|227:322|227:322|160:407|48:363|59:269|117:221|158:277,1,346.499989425659,4|0,3:2|2:0,2:0:0:0:
286,225,118545,5,8,2:0:0:0:
286,225,118630,1,8,2:0:0:0:
286,225,118714,2,0,L|273:158,1,41.25,0|0,3:0|3:0,2:0:0:0:
207,106,118884,1,8,2:0:0:0:
207,106,118969,1,8,2:0:0:0:
207,106,119053,1,0,3:0:0:0:
114,257,119414,5,0,3:0:0:0:
114,257,119498,1,0,3:0:0:0:
114,257,119583,2,0,P|43:245|9:240,1,82.5,8|2,2:0|2:0,2:0:0:0:
223,370,119901,5,6,3:2:0:0:
306,169,120070,1,0,2:0:0:0:
114,257,120239,1,10,2:0:0:0:
324,308,120409,1,0,2:0:0:0:
226,112,120578,5,2,3:2:0:0:
201,329,120748,1,2,3:2:0:0:
374,209,120917,1,10,2:0:0:0:
158,175,121087,1,0,2:0:0:0:
346,67,121256,5,2,3:2:0:0:
229,251,121426,1,2,3:2:0:0:
142,51,121595,1,10,2:0:0:0:
317,181,121765,1,2,3:2:0:0:
317,181,121850,1,0,3:2:0:0:
317,181,121934,2,0,P|376:187|420:164,1,90.7500027694703,0|0,3:0|3:0,2:0:0:0:
247,25,122273,2,0,P|188:19|144:42,1,90.7500027694703,8|2,2:0|2:0,2:0:0:0:
16,195,122612,5,2,3:2:0:0:
225,134,122782,1,0,2:0:0:0:
33,45,122951,1,10,2:0:0:0:
118,245,123121,1,0,2:0:0:0:
186,38,123290,1,2,3:2:0:0:
278,232,123460,2,0,P|264:312|258:346,1,90.7500027694703,2|10,3:2|2:0,2:0:0:0:
388,143,123799,1,2,3:2:0:0:
388,143,123884,1,0,3:0:0:0:
388,143,123968,5,0,3:0:0:0:
172,169,124138,1,2,3:2:0:0:
359,277,124307,1,10,2:0:0:0:
253,97,124477,1,2,3:2:0:0:
253,97,124562,1,0,3:0:0:0:
253,97,124646,2,0,B|236:52|236:52|256:-1,1,90.7500027694703,0|0,3:0|3:0,2:0:0:0:
428,139,124985,2,0,B|444:185|444:185|425:237,1,90.7500027694703,8|2,2:0|2:0,2:0:0:0:
223,297,125324,6,0,B|151:293|184:245|81:254,1,136.125004154205,6|0,3:2|2:0,2:0:0:0:
31,283,125663,2,0,P|39:333|46:388,1,90.7500027694703,10|0,2:0|2:0,2:0:0:0:
228,214,126002,1,2,3:2:0:0:
29,123,126172,1,0,3:0:0:0:
208,312,126341,2,0,P|269:307|307:282,1,90.7500027694703,10|0,2:0|2:0,2:0:0:0:
149,129,126680,6,0,P|141:201|135:233,1,90.7500027694703,2|0,3:2|3:0,2:0:0:0:
325,107,127019,2,0,B|342:65|342:65|320:21,1,90.7500027694703,10|0,2:0|2:0,2:0:0:0:
131,131,127358,1,2,3:2:0:0:
302,266,127528,1,0,3:0:0:0:
108,363,127697,2,0,P|29:349|9:327,1,90.7500027694703,10|0,2:0|2:0,2:0:0:0:
293,256,128036,6,0,B|406:241|406:241|429:281|473:285,1,181.500005538941,2|8,3:2|2:0,2:0:0:0:
301,127,128545,1,2,2:0:0:0:
505,52,128714,1,2,3:2:0:0:
385,235,128884,1,0,3:0:0:0:
327,25,129053,2,0,P|278:20|233:47,1,90.7500027694703,8|2,2:0|2:0,2:0:0:0:
163,241,129392,5,2,3:2:0:0:
68,44,129562,1,0,3:0:0:0:
263,138,129731,2,0,P|253:209|249:250,1,90.7500027694703,12|0,2:0|2:0,2:0:0:0:
36,266,130070,1,4,2:3:0:0:
9,229,130155,1,4,2:3:0:0:
5,185,130239,1,8,2:3:0:0:
24,144,130324,1,8,2:3:0:0:
60,118,130409,1,8,2:0:0:0:
105,115,130494,1,8,2:0:0:0:
145,135,130578,1,8,2:0:0:0:
170,172,130663,1,8,2:0:0:0:
165,217,130748,6,0,B|249:242|249:242|318:196,1,136.125004154205,6|0,3:2|2:0,2:0:0:0:
365,211,131087,2,0,P|371:263|377:303,1,90.7500027694703,10|0,2:0|2:0,2:0:0:0:
452,96,131426,1,2,3:2:0:0:
268,212,131595,1,2,3:2:0:0:
479,264,131765,1,10,2:0:0:0:
336,99,131934,1,0,3:0:0:0:
336,99,132019,1,0,3:0:0:0:
336,99,132104,5,2,3:2:0:0:
232,290,132273,1,2,3:2:0:0:
184,76,132443,1,10,2:0:0:0:
355,209,132612,1,2,3:2:0:0:
355,209,132697,1,0,3:0:0:0:
355,209,132782,2,0,P|422:197|458:193,1,90.7500027694703,0|0,3:0|3:0,2:0:0:0:
217,298,133121,2,0,P|172:291|127:283,1,90.7500027694703,8|2,2:0|2:0,2:0:0:0:
23,91,133460,5,2,3:2:0:0:
230,154,133629,1,2,3:2:0:0:
43,267,133799,1,10,2:0:0:0:
133,71,133968,1,2,3:2:0:0:
133,71,134053,1,0,3:0:0:0:
133,71,134138,1,8,2:0:0:0:
213,272,134307,1,2,3:2:0:0:
213,272,134646,6,0,B|282:262|282:262|324:284|324:284|390:272,1,181.500005538941,6|2,3:2|3:2,2:0:0:0:
491,78,135155,1,10,2:0:0:0:
292,175,135324,1,2,2:0:0:0:
470,309,135494,2,0,P|476:253|459:220,1,90.7500027694703,2|0,3:2|3:0,2:0:0:0:
289,89,135833,2,0,P|272:130|280:174,1,90.7500027694703,8|2,2:0|2:0,2:0:0:0:
147,347,136172,6,0,B|65:367|65:367|-6:320,1,136.125004154205,6|0,3:2|2:0,2:0:0:0:
42,261,136511,2,0,P|101:252|137:281,1,90.7500027694703,10|0,2:0|2:0,2:0:0:0:
309,383,136850,1,2,3:2:0:0:
274,168,137019,1,0,3:0:0:0:
457,286,137189,2,0,B|475:243|475:243|460:195,1,90.7500027694703,10|0,2:0|2:0,2:0:0:0:
296,57,137528,5,2,3:2:0:0:
507,7,137697,1,0,3:0:0:0:
370,177,137867,2,0,P|289:165|260:163,1,90.7500027694703,10|0,2:0|2:0,2:0:0:0:
70,57,138206,1,2,3:2:0:0:
163,260,138375,1,0,3:0:0:0:
294,85,138545,2,0,P|301:31|289:-5,1,90.7500027694703,10|0,2:0|2:0,2:0:0:0:
42,40,138884,6,0,B|116:29|116:29|147:50|147:50|223:42,1,181.500005538941,6|8,3:2|2:0,2:0:0:0:
279,251,139392,1,0,3:0:0:0:
279,251,139477,1,0,3:0:0:0:
279,251,139562,1,0,3:0:0:0:
84,154,139731,1,0,3:0:0:0:
294,85,139901,2,0,P|307:147|317:186,1,90.7500027694703,8|0,2:0|2:0,2:0:0:0:
160,336,140239,6,0,L|81:354,2,60.5000018463135,8|8|8,2:0|2:0|2:3,2:0:0:0:
257,297,140578,2,0,L|336:315,2,60.5000018463135,8|4|4,2:3|2:3|2:3,2:0:0:0:
162,242,140917,5,8,2:0:0:0:
151,233,141030,2,0,P|140:192|151:154,1,60.5000018463135,8|8,2:0|2:3,2:0:0:0:
227,141,141256,1,8,2:3:0:0:
238,132,141369,2,0,P|249:91|238:53,1,60.5000018463135,4|4,2:3|2:3,2:0:0:0:
182,8,141595,5,6,3:2:0:0:
390,345,151595,6,0,P|339:303|263:344,1,132,8|8,2:3|2:3,2:0:0:0:
212,383,152104,2,0,P|177:377|140:370,1,66,4|2,2:3|3:2,2:0:0:0:
70,307,152443,6,0,B|143:258|171:157|31:101|-5:197|30:245,1,288.75,6|0,3:2|3:0,2:0:0:0:
184,290,153799,6,0,B|292:296|234:227|356:245,1,173.24999471283,4|8,3:2|2:3,2:0:0:0:
499,358,154646,1,8,2:3:0:0:
499,358,154816,1,4,2:3:0:0:
443,268,154985,5,2,3:2:0:0:
443,268,155070,1,0,3:0:0:0:
443,268,155155,2,0,P|457:185|465:139,1,115.49999647522,6|2,3:2|2:0,2:0:0:0:
367,66,155663,1,10,2:0:0:0:
367,66,155748,1,8,2:0:0:0:
367,66,155833,2,0,L|357:3,2,55,8|8|8,2:0|2:0|2:0,2:0:0:0:
299,137,156172,2,0,L|290:191,2,55,8|4|4,2:3|2:3|2:3,2:0:0:0:
237,49,156511,6,0,P|184:28|105:83,1,132,6|0,3:2|2:0,2:0:0:0:
76,152,157019,2,0,P|92:222|103:284,1,132,2|0,2:0|2:0,2:0:0:0:
102,281,157443,1,2,2:0:0:0:
102,281,157528,1,2,2:0:0:0:
406,370,157867,6,0,P|416:318|426:288,1,66,14|0,3:2|2:0,2:0:0:0:
308,192,158206,1,8,2:0:0:0:
461,154,158375,1,8,2:0:0:0:
336,273,158545,5,8,2:0:0:0:
260,119,158714,1,8,2:0:0:0:
402,216,158884,1,8,2:0:0:0:
230,217,159053,1,8,2:0:0:0:
367,74,159223,5,8,2:0:0:0:
313,264,159392,1,8,2:0:0:0:
235,80,159562,1,8,2:0:0:0:
178,269,159731,1,8,2:0:0:0:
84,21,159901,5,8,2:0:0:0:
307,160,160070,1,8,2:0:0:0:
64,266,160239,1,8,2:0:0:0:
205,57,160409,2,0,L|212:119,1,41.25,8|0,2:0|2:0,2:0:0:0:
247,320,160578,5,12,2:0:0:0:
128,165,160748,1,8,2:0:0:0:
128,165,160833,1,8,2:0:0:0:
128,165,160917,2,0,L|66:178,1,41.25,8|8,2:0|2:0,2:0:0:0:
22,327,161087,5,0,3:0:0:0:
56,349,161172,1,8,2:0:0:0:
96,351,161256,1,8,2:0:0:0:
133,332,161341,1,8,2:0:0:0:
155,298,161426,2,0,L|145:249,1,41.25,8|8,2:0|2:0,2:0:0:0:
238,122,161595,5,0,3:0:0:0:
238,122,161680,1,8,2:0:0:0:
238,122,161765,2,0,L|225:184,1,41.25,8|8,2:0|2:0,2:0:0:0:
299,314,161934,5,0,3:0:0:0:
330,341,162019,1,8,2:0:0:0:
368,355,162104,1,8,2:0:0:0:
409,353,162189,1,8,2:0:0:0:
447,336,162273,1,8,2:0:0:0:
475,307,162358,1,8,2:0:0:0:
491,269,162443,1,8,2:0:0:0:
491,228,162528,1,8,2:0:0:0:
465,198,162612,5,8,2:3:0:0:
437,203,162697,1,8,2:3:0:0:
409,207,162782,1,4,2:3:0:0:
381,212,162867,1,4,2:3:0:0:
355,225,162951,5,8,2:3:0:0:
327,220,163036,1,8,2:3:0:0:
299,216,163121,1,0,3:0:0:0:
271,211,163206,1,0,3:0:0:0:
240,203,163290,6,0,P|217:152|273:55,1,165,6|8,3:2|2:0,2:0:0:0:
355,225,163799,1,2,3:2:0:0:
355,225,163884,1,0,3:0:0:0:
355,225,163968,1,0,3:0:0:0:
184,326,164138,1,0,3:0:0:0:
373,380,164307,2,0,P|450:369|482:365,1,82.5,8|0,2:0|2:0,2:0:0:0:
506,176,164646,6,0,B|448:173|448:173|406:199|406:199|327:188,1,165,2|8,3:2|2:0,2:0:0:0:
207,50,165155,1,2,3:2:0:0:
395,109,165324,1,0,3:0:0:0:
215,194,165494,1,0,3:0:0:0:
328,32,165663,2,0,P|380:15|423:17,1,82.5,10|0,2:0|2:0,2:0:0:0:
239,120,166002,6,0,B|140:96|140:96|107:122|71:122,1,165,6|8,3:2|2:0,2:0:0:0:
153,307,166511,1,2,3:2:0:0:
4,176,166680,1,0,3:0:0:0:
200,201,166850,1,2,3:2:0:0:
72,351,167019,2,0,P|59:297|75:261,1,82.5,10|0,2:0|2:0,2:0:0:0:
196,122,167358,5,2,3:2:0:0:
19,30,167528,1,2,2:0:0:0:
122,198,167697,1,10,2:0:0:0:
225,28,167867,2,0,P|305:11|379:92,1,165,2|0,3:2|3:0,2:0:0:0:
266,229,168375,2,0,B|255:186|255:186|274:147,1,82.5,8|0,2:0|2:0,2:0:0:0:
423,279,168714,5,6,3:2:0:0:
240,356,168884,1,2,2:0:0:0:
356,196,169053,1,10,2:0:0:0:
453,368,169223,2,0,P|377:360|354:358,1,82.5,2|0,2:0|3:0,2:0:0:0:
249,202,169562,1,2,3:2:0:0:
136,364,169731,1,10,2:0:0:0:
40,189,169901,6,0,P|31:135|52:95,1,82.5,2|0,2:0|3:2,2:0:0:0:
234,68,170239,1,2,2:0:0:0:
148,245,170409,1,10,2:0:0:0:
116,48,170578,1,0,2:0:0:0:
253,189,170748,1,2,3:2:0:0:
76,277,170917,1,0,3:0:0:0:
252,368,171087,2,0,P|311:358|349:351,1,82.5,10|2,2:0|2:0,2:0:0:0:
482,223,171426,6,0,P|446:176|339:199,2,165,6|8|2,3:2|2:0|3:2,2:0:0:0:
318,335,172273,1,0,3:0:0:0:
191,181,172443,2,0,P|192:129|218:97,1,82.5,8|0,2:0|2:0,2:0:0:0:
331,261,172782,1,6,3:2:0:0:
123,289,172951,1,2,3:2:0:0:
277,160,173121,2,0,P|348:175|375:180,1,82.5,10|0,2:0|2:0,2:0:0:0:
236,334,173460,2,0,L|188:322,1,41.25,0|0,3:0|3:0,2:0:0:0:
67,230,173629,1,8,2:0:0:0:
46,194,173714,1,8,2:0:0:0:
38,154,173799,1,8,2:3:0:0:
44,113,173884,1,8,2:3:0:0:
63,76,173968,1,4,2:3:0:0:
92,48,174053,1,4,2:3:0:0:
129,30,174138,6,0,B|208:60|208:60|258:39,1,123.75,6|0,3:2|2:0,2:0:0:0:
313,1,174477,2,0,B|326:41|326:41|319:66|319:66|333:108,1,107.249995090485,12|2,2:0|2:0,2:0:0:0:
390,292,174816,1,2,3:2:0:0:
212,207,174985,1,0,3:0:0:0:
410,193,175155,2,2,P|477:174|501:154,1,82.5,10|2,2:0|2:0,2:0:0:0:
298,103,175494,5,0,3:0:0:0:
256,296,175663,1,2,2:0:0:0:
115,153,175833,1,10,2:0:0:0:
307,197,176002,1,2,3:2:0:0:
307,197,176087,1,0,3:0:0:0:
307,197,176172,1,0,3:0:0:0:
149,316,176341,1,0,3:0:0:0:
341,366,176511,2,0,P|407:356|437:353,1,82.5,8|0,2:0|2:0,2:0:0:0:
139,329,176850,6,0,P|113:268|155:175,1,165,2|8,3:2|2:0,2:0:0:0:
287,39,177358,1,2,2:0:0:0:
91,76,177528,1,2,3:2:0:0:
256,184,177697,1,0,3:0:0:0:
188,2,177867,2,0,P|189:76|186:109,1,82.5,8|0,2:0|2:0,2:0:0:0:
113,268,178206,5,2,3:2:0:0:
284,169,178375,1,2,3:2:0:0:
86,145,178545,1,10,2:0:0:0:
222,287,178714,1,2,3:2:0:0:
326,94,178884,1,8,2:3:0:0:
352,77,178968,1,8,2:3:0:0:
382,70,179053,1,4,2:3:0:0:
412,74,179138,1,4,2:3:0:0:
440,87,179223,2,0,B|451:131|451:131|423:177,1,82.5,8|0,2:0|3:0,2:0:0:0:
170,293,179562,5,12,2:0:0:0:
430,338,179731,1,0,3:0:0:0:
270,125,179901,1,8,2:0:0:0:
277,371,180070,1,0,3:0:0:0:
417,141,180239,5,8,2:0:0:0:
181,265,180409,1,0,3:0:0:0:
434,315,180578,1,8,2:0:0:0:
283,94,180748,1,0,3:0:0:0:
140,342,180917,5,12,2:0:0:0:
92,79,181087,1,0,3:0:0:0:
288,256,181256,1,8,2:0:0:0:
27,228,181426,1,0,3:0:0:0:
270,100,181595,5,8,2:0:0:0:
136,332,181765,1,0,3:0:0:0:
68,73,181934,1,8,2:0:0:0:
265,254,182104,1,0,3:0:0:0:
314,18,182273,5,12,2:0:0:0:
124,205,182443,1,0,3:0:0:0:
314,18,182612,1,12,2:0:0:0:
124,205,182782,1,0,3:0:0:0:
389,196,182951,5,12,2:0:0:0:
176,35,183121,1,0,3:0:0:0:
389,196,183290,1,12,2:0:0:0:
176,35,183460,1,0,3:0:0:0:
166,308,183629,5,8,3:0:0:0:
201,330,183714,1,8,2:3:0:0:
241,337,183799,1,8,2:0:0:0:
281,327,183884,1,8,2:0:0:0:
310,293,183968,2,0,L|300:224,1,49.4999984893799,8|0,2:0|2:0,2:0:0:0:
217,144,184138,2,0,L|209:192,1,49.4999984893799,8|4,2:3|2:3,2:0:0:0:
282,40,184307,5,8,2:0:0:0:
243,11,184392,1,8,2:0:0:0:
194,4,184477,1,8,2:0:0:0:
149,22,184562,1,8,2:0:0:0:
127,58,184646,2,0,L|130:120,1,49.4999984893799,8|0,2:0|2:0,2:0:0:0:
147,282,184816,1,8,2:0:0:0:
147,282,184901,1,8,2:0:0:0:
147,282,184985,5,4,3:2:0:0:
326,125,185155,1,4,3:2:0:0:
35,102,186172,5,4,3:2:0:0:
195,360,186511,1,4,3:2:0:0:
318,42,186850,1,4,3:2:0:0:
422,349,187697,5,4,3:2:0:0:
202,214,187867,1,4,3:2:0:0:
456,27,188884,5,4,3:2:0:0:
313,314,189223,1,4,3:2:0:0:
210,31,189562,1,4,3:2:0:0:
36,185,189901,5,0,3:0:0:0:
36,185,189985,1,0,3:0:0:0:
36,185,190070,2,0,L|125:175,1,66,12|2,3:2|3:2,2:0:0:0:
160,265,190409,6,0,P|204:291|293:264,1,132,6|2,3:2|2:0,2:0:0:0:
338,187,190917,1,0,3:0:0:0:
274,102,191087,1,10,2:0:0:0:
274,102,191256,2,0,P|379:87|413:83,1,132,0|8,3:0|2:0,2:0:0:0:
404,83,191680,1,8,2:0:0:0:
404,83,191765,5,2,3:2:0:0:
478,158,191934,1,8,2:0:0:0:
392,220,192104,2,0,P|386:258|396:299,1,66,2|0,2:0|3:0,2:0:0:0:
479,351,192443,1,10,2:0:0:0:
479,351,192612,2,0,P|413:332|353:360,1,132,0|8,3:0|2:0,2:0:0:0:
357,356,193036,1,8,2:0:0:0:
357,356,193121,5,2,3:2:0:0:
281,302,193290,2,0,P|292:210|298:158,1,132,8|2,2:0|3:2,2:0:0:0:
232,86,193799,1,10,2:0:0:0:
232,86,193968,2,0,B|160:69|170:113|90:97,1,132,0|10,3:0|2:0,2:0:0:0:
103,99,194392,1,8,2:0:0:0:
103,99,194477,1,2,3:2:0:0:
34,179,194646,1,0,3:0:0:0:
130,249,194816,6,0,P|143:297|132:345,1,74.2499977340699,12|0,2:0|2:0,2:0:0:0:
259,364,195155,1,4,2:3:0:0:
284,371,195239,1,8,2:3:0:0:
310,371,195324,1,8,2:0:0:0:
335,362,195409,1,8,2:0:0:0:
356,346,195494,1,8,2:3:0:0:
370,323,195578,1,8,2:3:0:0:
377,298,195663,1,4,2:3:0:0:
375,272,195748,1,4,2:3:0:0:
361,248,195833,6,0,P|308:258|273:267,1,74.2499977340699,6|0,3:2|2:0,2:0:0:0:
175,167,196172,2,0,P|211:175|247:181,1,74.2499977340699,2|0,3:2|2:0,2:0:0:0:
370,127,196511,1,2,3:2:0:0:
289,20,196680,1,2,2:0:0:0:
289,20,196765,1,2,2:0:0:0:
289,20,196850,2,0,P|243:21|208:37,1,74.2499977340699,2|2,3:2|2:0,2:0:0:0:
150,147,197189,5,2,3:2:0:0:
40,70,197358,1,2,2:0:0:0:
40,70,197443,1,2,2:0:0:0:
40,70,197528,2,0,P|55:17|61:-5,1,74.2499977340699,2|2,3:2|2:0,2:0:0:0:
161,132,197867,1,2,3:2:0:0:
65,225,198036,1,0,2:0:0:0:
65,225,198121,1,0,2:0:0:0:
65,225,198206,2,0,L|15:215,2,37.1249988670349,2|2|2,3:2|2:0|2:3,2:0:0:0:
153,325,198545,6,0,P|210:315|241:313,1,74.2499977340699,2|2,3:2|2:0,2:0:0:0:
226,313,198799,1,0,2:0:0:0:
226,313,198884,1,2,3:2:0:0:
351,359,199053,2,0,B|362:305|362:305|337:278|337:278|352:206,2,148.49999546814,2|2|2,2:0|2:0|2:0,2:0:0:0:
483,334,199901,6,0,P|497:283|489:253,1,74.2499977340699,0|0,3:2|2:0,2:0:0:0:
493,263,200155,1,2,2:0:0:0:
493,263,200239,1,2,3:2:0:0:
359,204,200409,1,2,2:0:0:0:
461,107,200578,2,0,P|453:165|448:201,1,74.2499977340699,2|2,3:2|2:0,2:0:0:0:
450,180,200833,1,2,2:0:0:0:
450,180,200917,1,2,3:0:0:0:
343,224,201087,1,2,2:0:0:0:
236,105,201256,6,0,P|233:64|253:23,1,74.2499977340699,12|0,2:0|2:0,2:0:0:0:
349,196,201595,1,8,2:0:0:0:
167,262,201765,1,8,2:0:0:0:
350,326,201934,1,8,2:0:0:0:
253,148,202104,1,8,2:0:0:0:
152,357,202273,1,8,2:0:0:0:
64,169,202443,1,8,2:0:0:0:
274,239,202612,5,8,2:0:0:0:
39,334,202782,1,8,2:0:0:0:
120,95,202951,1,8,2:0:0:0:
233,321,203121,1,8,2:0:0:0:
2,218,203290,5,8,2:0:0:0:
232,114,203460,1,0,3:0:0:0:
268,107,203545,1,0,3:0:0:0:
303,117,203629,1,0,2:0:0:0:
330,143,203714,1,4,2:3:0:0:
342,177,203799,1,4,2:3:0:0:
336,214,203884,1,4,2:3:0:0:
316,243,203968,6,0,B|311:322|351:362|426:358|426:358|461:300|440:253|440:253|415:274|388:286,1,346.499989425659,4|0,3:2|2:0,2:0:0:0:
363,162,205324,6,0,L|373:112,1,41.25,4|8,3:2|2:0,2:0:0:0:
280,25,205494,1,8,2:0:0:0:
280,25,205578,1,8,2:0:0:0:
280,25,205663,2,0,L|291:79,1,41.25,8|8,2:0|2:0,2:0:0:0:
216,180,205833,2,0,L|224:139,1,41.25,8|8,2:3|2:3,2:0:0:0:
147,42,206002,5,4,2:3:0:0:
113,30,206087,1,8,2:0:0:0:
78,31,206172,1,8,2:3:0:0:
47,47,206256,1,8,2:3:0:0:
23,73,206341,1,8,2:0:0:0:
12,106,206426,1,8,2:3:0:0:
14,141,206511,1,4,2:3:0:0:
30,173,206595,1,0,3:0:0:0:
57,195,206680,6,0,P|106:183|158:177,1,90.7500027694703,6|0,3:2|2:0,2:0:0:0:
330,293,207019,1,10,2:0:0:0:
250,89,207189,1,0,2:0:0:0:
161,287,207358,5,2,3:2:0:0:
348,174,207528,1,2,3:2:0:0:
143,102,207697,1,10,2:0:0:0:
286,266,207867,1,0,2:0:0:0:
372,66,208036,5,2,3:2:0:0:
207,209,208206,1,2,3:2:0:0:
416,266,208375,1,10,2:0:0:0:
298,93,208545,1,2,3:2:0:0:
298,93,208629,1,0,3:0:0:0:
298,93,208714,2,0,P|293:171|290:199,1,90.7500027694703,0|0,3:0|3:0,2:0:0:0:
422,356,209053,2,0,P|418:310|415:265,1,90.7500027694703,8|2,2:0|2:0,2:0:0:0:
463,52,209392,5,2,3:2:0:0:
291,183,209562,1,2,2:0:0:0:
491,266,209731,1,10,2:0:0:0:
382,76,209901,1,0,2:0:0:0:
305,279,210070,1,2,3:2:0:0:
201,86,210239,1,2,3:2:0:0:
396,181,210409,1,10,2:0:0:0:
232,354,210578,6,0,P|166:359|130:341,1,90.7500027694703,2|0,2:0|3:0,2:0:0:0:
2,185,210917,1,2,3:2:0:0:
201,86,211087,1,10,2:0:0:0:
97,277,211256,1,2,3:2:0:0:
97,277,211341,1,0,3:0:0:0:
97,277,211426,2,0,P|87:197|81:167,1,90.7500027694703,0|0,3:0|3:0,2:0:0:0:
207,6,211765,2,0,P|199:50|195:95,1,90.7500027694703,8|2,2:0|2:0,2:0:0:0:
319,275,212104,6,0,P|396:292|461:246,1,136.125004154205,6|0,3:2|2:0,2:0:0:0:
480,201,212443,2,0,P|466:122|461:90,1,90.7500027694703,10|0,2:0|2:0,2:0:0:0:
245,117,212782,1,2,3:2:0:0:
429,2,212951,1,0,3:0:0:0:
327,195,213121,2,0,P|268:213|224:211,1,90.7500027694703,10|0,2:0|2:0,2:0:0:0:
107,38,213460,6,0,P|188:48|213:51,1,90.7500027694703,2|0,3:2|3:0,2:0:0:0:
152,262,213799,2,0,B|134:220|134:220|158:166,1,90.7500027694703,10|0,2:0|2:0,2:0:0:0:
343,284,214138,1,2,3:2:0:0:
149,382,214307,1,0,3:0:0:0:
271,201,214477,2,0,P|323:183|371:188,1,90.7500027694703,10|0,2:0|2:0,2:0:0:0:
152,296,214816,6,0,B|97:255|97:255|121:114,1,181.500005538941,2|8,3:2|2:0,2:0:0:0:
291,13,215324,1,2,2:0:0:0:
78,64,215494,1,2,3:2:0:0:
257,185,215663,1,0,3:0:0:0:
188,0,215833,2,0,P|166:37|174:93,1,90.7500027694703,8|2,2:0|2:0,2:0:0:0:
298,259,216172,5,2,3:2:0:0:
379,57,216341,1,0,3:0:0:0:
504,235,216511,2,0,P|491:314|488:343,1,90.7500027694703,12|0,2:0|2:0,2:0:0:0:
352,154,216850,1,8,2:0:0:0:
250,346,217019,1,8,2:0:0:0:
215,361,217104,1,8,2:0:0:0:
178,361,217189,1,8,2:3:0:0:
143,347,217273,1,8,2:3:0:0:
117,320,217358,1,4,2:3:0:0:
105,284,217443,1,4,2:3:0:0:
107,247,217528,6,0,P|115:147|122:98,1,136.125004154205,6|0,3:2|2:0,2:0:0:0:
188,66,217867,2,0,P|212:109|200:155,1,90.7500027694703,8|0,2:0|2:0,2:0:0:0:
178,361,218206,1,2,3:2:0:0:
337,214,218375,1,2,3:2:0:0:
121,252,218545,1,10,2:0:0:0:
324,327,218714,5,0,3:0:0:0:
324,327,218799,1,0,3:0:0:0:
324,327,218884,1,2,3:2:0:0:
211,141,219053,1,2,3:2:0:0:
428,162,219223,1,10,2:0:0:0:
238,268,219392,5,2,3:2:0:0:
238,268,219477,1,0,3:0:0:0:
238,268,219562,2,0,P|167:252|126:245,1,90.7500027694703,0|0,3:0|3:0,2:0:0:0:
314,105,219901,2,0,P|358:96|402:85,1,90.7500027694703,8|2,2:0|2:0,2:0:0:0:
356,299,220239,5,6,3:2:0:0:
213,135,220409,1,2,3:2:0:0:
424,190,220578,1,10,2:0:0:0:
265,338,220748,1,2,3:2:0:0:
265,338,220833,1,0,3:0:0:0:
265,338,220917,1,8,2:0:0:0:
314,88,221087,1,2,3:2:0:0:
314,88,221426,6,0,B|212:50|212:50|161:66|151:101,1,181.500005538941,6|2,3:2|3:2,2:0:0:0:
93,301,221934,1,10,2:0:0:0:
7,99,222104,1,2,2:0:0:0:
193,243,222273,2,0,P|216:295|211:337,1,90.7500027694703,2|0,3:2|3:0,2:0:0:0:
39,195,222612,1,8,2:0:0:0:
253,151,222782,1,2,2:0:0:0:
79,20,222951,6,0,P|95:84|105:127,1,90.7500027694703,6|0,3:2|2:0,2:0:0:0:
290,216,223290,2,0,P|300:171|311:127,1,90.7500027694703,10|0,2:0|2:0,2:0:0:0:
144,268,223629,1,2,3:2:0:0:
349,343,223799,1,0,3:0:0:0:
208,177,223968,2,0,P|154:160|116:164,1,90.7500027694703,10|0,2:0|2:0,2:0:0:0:
240,345,224307,5,2,3:2:0:0:
410,208,224477,1,0,3:0:0:0:
223,95,224646,2,0,B|208:50|208:50|226:7,1,90.7500027694703,10|0,2:0|2:0,2:0:0:0:
310,210,224985,1,2,3:2:0:0:
409,15,225155,1,0,3:0:0:0:
497,213,225324,2,0,P|490:291|488:327,1,90.7500027694703,10|0,2:0|2:0,2:0:0:0:
387,110,225663,6,0,P|326:78|225:127,1,181.500005538941,6|8,3:2|2:0,2:0:0:0:
252,339,226172,1,0,3:0:0:0:
252,339,226256,1,0,3:0:0:0:
252,339,226341,1,0,3:0:0:0:
72,213,226511,1,0,3:0:0:0:
289,215,226680,2,0,P|354:219|396:224,1,90.7500027694703,12|0,2:0|2:0,2:0:0:0:
189,329,227019,5,8,2:3:0:0:
149,351,227104,1,8,2:3:0:0:
104,351,227189,1,4,2:3:0:0:
65,330,227273,1,4,2:3:0:0:
40,293,227358,1,8,2:0:0:0:
36,248,227443,1,8,2:0:0:0:
55,207,227528,1,8,2:0:0:0:
91,180,227612,1,8,2:0:0:0:
135,181,227697,2,0,L|194:199,1,45.3750013847352,8|8,2:3|2:3,2:0:0:0:
267,128,227867,5,8,2:3:0:0:
264,109,227951,1,8,2:3:0:0:
262,91,228036,1,4,2:3:0:0:
260,73,228121,1,4,2:3:0:0:
258,55,228206,1,4,2:3:0:0:
256,37,228290,1,4,2:3:0:0:
253,20,228375,6,0,B|322:11|322:11|351:28|351:28|423:17,1,165,6|8,3:2|2:0,2:0:0:0:
491,201,228884,1,0,2:0:0:0:
301,146,229053,1,2,3:2:0:0:
482,64,229223,1,2,3:2:0:0:
373,228,229392,2,0,P|362:285|379:328,1,82.5,8|0,2:0|2:0,2:0:0:0:
491,201,229731,5,2,3:2:0:0:
306,126,229901,2,0,P|238:143|207:149,1,82.5,2|8,2:0|2:0,2:0:0:0:
65,28,230239,1,2,3:2:0:0:
65,28,230324,1,0,3:0:0:0:
65,28,230409,1,0,3:0:0:0:
262,47,230578,1,2,3:2:0:0:
101,162,230748,1,10,2:0:0:0:
289,220,230917,5,0,3:0:0:0:
289,220,231002,1,0,3:0:0:0:
289,220,231087,2,8,P|306:275|240:365,1,165,2|8,3:2|2:0,2:0:0:0:
59,309,231595,1,0,2:0:0:0:
210,180,231765,1,2,3:2:0:0:
146,366,231934,1,2,3:2:0:0:
14,217,232104,2,0,P|28:151|37:110,1,82.5,8|0,2:0|2:0,2:0:0:0:
178,3,232443,5,2,3:2:0:0:
218,196,232612,2,0,P|268:203|314:184,1,82.5,2|8,3:2|2:0,2:0:0:0:
387,16,232951,1,2,2:0:0:0:
488,186,233121,1,4,2:3:0:0:
502,218,233206,1,4,2:3:0:0:
505,253,233290,1,8,2:3:0:0:
494,286,233375,1,8,2:3:0:0:
472,314,233460,1,8,2:0:0:0:
442,332,233545,1,8,2:0:0:0:
408,338,233629,1,8,2:0:0:0:
373,332,233714,1,8,2:0:0:0:
346,306,233799,6,0,B|251:283|277:358|178:333,1,165,4|8,3:2|2:0,2:0:0:0:
72,176,234307,2,0,B|169:146|169:146|199:163|208:202,1,165,4|0,3:2|3:0,2:0:0:0:
32,294,234816,1,8,2:0:0:0:
1,98,234985,6,0,P|45:41|160:41,1,165,4|0,3:2|3:0,2:0:0:0:
204,215,235494,1,8,2:0:0:0:
365,100,235663,2,0,B|305:94|305:94|270:114|270:114|201:112,1,165,4|0,3:2|3:0,2:0:0:0:
145,302,236172,1,8,2:0:0:0:
317,205,236341,1,0,3:0:0:0:
317,205,236426,1,0,3:0:0:0:
317,205,236511,5,12,2:0:0:0:
125,155,236680,1,0,3:0:0:0:
250,308,236850,1,8,2:0:0:0:
243,110,237019,1,0,3:0:0:0:
94,242,237189,1,8,2:0:0:0:
92,44,237358,1,0,3:0:0:0:
209,204,237528,2,0,P|284:197|313:195,1,82.5,8|0,2:0|2:0,2:0:0:0:
442,67,237867,5,8,2:0:0:0:
213,17,238036,1,8,2:0:0:0:
381,226,238206,1,8,2:0:0:0:
346,0,238375,5,2,3:2:0:0:
139,239,238714,1,2,3:2:0:0:
505,311,239053,6,0,B|470:291|449:230|449:230|451:349|364:346|364:346|307:310|320:243|373:201|373:201|276:272|243:282|160:271|69:127|189:35|314:89|298:150|249:176,1,890.999972808839,6|0,3:2|3:0,2:0:0:0:
