osu file format v14

[General]
AudioFilename: audio.mp3
AudioLeadIn: 0
PreviewTime: 51851
Countdown: 0
SampleSet: Soft
StackLeniency: 0.7
Mode: 0
LetterboxInBreaks: 0
WidescreenStoryboard: 1

[Editor]
Bookmarks: 537,5961,16808,27656,38503,43927
DistanceSpacing: 1
BeatDivisor: 4
GridSize: 4
TimelineZoom: 1

[Metadata]
Title:Stella-rium
TitleUnicode:Stella-rium
Artist:Kano
ArtistUnicode:鹿乃
Creator:Kowari
Version:Celestial
Source:放課後のプレアデス
Tags:houkago no pleiades opening stellarium full version size jpop j pop 歌い手 utaite Anime Japanese
BeatmapID:2315558
BeatmapSetID:1107950

[Difficulty]
HPDrainRate:6
CircleSize:4
OverallDifficulty:9
ApproachRate:9.3
SliderMultiplier:1.8
SliderTickRate:1

[Events]
//Background and Video events
0,0,"bg.jpg",0,0
//Break Periods
2,141795,151041
//Storyboard Layer 0 (Background)
//Storyboard Layer 1 (Fail)
//Storyboard Layer 2 (Pass)
//Storyboard Layer 3 (Foreground)
//Storyboard Layer 4 (Overlay)
//Storyboard Sound Samples

[TimingPoints]
580,338.983050847458,4,2,1,70,1,0
1257,-142.857142857143,4,2,1,60,0,0
3291,-142.857142857143,4,2,1,70,0,0
3969,-142.857142857143,4,2,1,60,0,0
4647,-142.857142857143,4,2,1,70,0,0
5918,-142.857142857143,4,2,1,5,0,0
6003,-100,4,2,1,75,0,0
16851,-125,4,2,1,55,0,0
27698,-111.111111111111,4,2,1,65,0,0
38460,-111.111111111111,4,2,1,5,0,0
38546,-125,4,2,1,60,0,0
43969,-111.111111111111,4,2,1,70,0,0
50749,-111.111111111111,4,2,1,75,0,0
50918,-99.9999999999999,4,2,1,75,0,0
52105,-99.9999999999999,4,2,1,80,0,1
53969,-90.9090909090909,4,2,1,80,0,1
73800,-100,4,2,1,75,0,0
83207,425.531914893617,4,2,1,75,1,0
83313,338.983050847458,4,2,1,75,1,0
84668,318.302387267905,4,2,1,55,1,0
84668,-125,4,2,1,55,0,0
84986,338.983050847458,4,2,1,55,1,0
85494,-125,4,2,1,55,0,0
86003,338.983050847458,4,2,1,55,1,0
86172,-125,4,2,1,55,0,0
94308,-125,4,2,1,60,0,0
95494,-100,4,2,1,65,0,0
106341,-125,4,2,1,60,0,0
111765,-111.111111111111,4,2,1,70,0,0
118630,-111.111111111111,4,2,1,75,0,0
119053,361.228175797712,4,2,1,80,1,0
119414,338.983050847458,4,2,1,70,1,0
119752,298.507462686567,4,2,1,70,1,0
119901,338.983050847458,4,2,1,80,1,1
121765,-90.9090909090909,4,2,1,80,0,1
140239,-90.9090909090909,4,2,1,75,0,1
140578,-90.9090909090909,4,2,1,70,0,1
140917,-90.9090909090909,4,2,1,65,0,1
141256,-90.9090909090909,4,2,1,60,0,1
141595,-90.9090909090909,4,2,1,70,0,0
151595,-125,4,2,1,60,0,0
152443,-200,4,2,1,60,0,0
153799,-142.857142857143,4,2,1,60,0,0
155833,-100,4,2,1,65,0,0
156511,-125,4,2,1,60,0,0
157867,-125,4,2,1,80,0,0
158206,-125,4,2,1,50,0,0
158545,-125,4,2,1,60,0,0
158884,-125,4,2,1,70,0,0
159223,-125,4,2,1,80,0,0
159901,-125,4,2,1,90,0,0
160578,-125,4,2,1,80,0,0
160917,-100,4,2,1,80,0,0
163290,-100,4,2,1,75,0,0
174477,-76.9230769230769,4,2,1,75,0,0
175155,-100,4,2,1,75,0,0
179562,-100,4,2,1,80,0,0
185155,-100,4,2,1,70,0,0
190409,-125,4,2,1,65,0,0
194816,-125,4,2,1,60,0,0
195494,-111.111111111111,4,2,1,60,0,0
201256,-111.111111111111,4,2,1,70,0,0
201765,-111.111111111111,4,2,1,55,0,0
202104,-111.111111111111,4,2,1,60,0,0
202443,-111.111111111111,4,2,1,65,0,0
202782,-111.111111111111,4,2,1,70,0,0
205324,-111.111111111111,4,2,1,75,0,0
206680,-111.111111111111,4,2,1,80,0,1
208545,-90.9090909090909,4,2,1,80,0,1
228375,-100,4,2,1,75,0,0

[Colours]
Combo1 : 0,134,198
Combo2 : 255,128,192
Combo3 : 164,164,255
Combo4 : 79,167,255

[HitObjects]
138,331,580,5,12,2:0:0:0:
347,189,749,1,8,2:0:0:0:
72,132,918,1,12,2:0:0:0:
72,132,1257,6,0,L|83:213,1,62.9999980773926,0|0,3:0|3:0,2:0:0:0:
150,83,1596,2,0,L|161:164,1,62.9999980773926,0|0,2:0|2:0,2:0:0:0:
247,199,1935,1,0,3:0:0:0:
297,112,2105,2,0,P|261:98|228:105,1,62.9999980773926,0|0,3:0|2:0,2:0:0:0:
360,190,2444,6,0,B|396:162|396:162|389:75,1,125.999996154785,0|0,2:0|3:0,2:0:0:0:
494,185,2952,2,0,L|485:107,1,62.9999980773926,0|0,2:0|2:0,2:0:0:0:
424,266,3291,5,12,2:0:0:0:
306,45,3461,1,8,2:0:0:0:
237,302,3630,1,12,2:0:0:0:
237,302,3969,6,0,L|305:311,1,62.9999980773926,0|0,3:0|3:0,2:0:0:0:
135,245,4308,2,0,L|67:254,1,62.9999980773926,0|0,2:0|2:0,2:0:0:0:
221,179,4647,5,8,2:0:0:0:
152,349,4817,1,0,3:0:0:0:
42,31,5156,1,0,3:0:0:0:
42,31,5495,2,0,P|76:21|83:113,1,157.499995193482,2|0,2:0|2:0,2:0:0:0:
91,109,6003,6,0,B|161:97|161:97|204:127|204:127|279:113,1,180,6|8,3:2|2:0,2:0:0:0:
407,15,6512,1,2,2:0:0:0:
330,207,6681,1,2,3:2:0:0:
222,24,6851,1,0,3:0:0:0:
432,148,7020,2,0,P|452:195|440:240,1,90,8|0,2:0|2:0,2:0:0:0:
324,335,7359,5,2,3:2:0:0:
259,116,7529,2,0,L|354:105,1,90,2|8,2:0|2:0,2:0:0:0:
170,247,7868,2,0,L|80:236,1,90,2|0,2:0|3:0,2:0:0:0:
330,207,8206,1,2,3:2:0:0:
182,362,8376,1,8,2:0:0:0:
118,139,8545,1,2,2:0:0:0:
314,306,8715,6,0,B|428:318|375:246|497:267,1,180,2|8,3:2|2:0,2:0:0:0:
299,80,9223,1,2,2:0:0:0:
508,162,9393,1,2,3:2:0:0:
335,220,9562,1,2,3:2:0:0:
386,9,9732,2,0,L|407:103,1,90,8|0,2:0|2:0,2:0:0:0:
335,220,10071,5,2,3:2:0:0:
234,35,10240,2,0,P|188:27|143:53,1,90,2|8,2:0|2:0,2:0:0:0:
199,235,10579,1,2,2:0:0:0:
299,80,10749,1,2,3:2:0:0:
91,167,10918,1,2,3:2:0:0:
308,315,11088,2,0,L|316:215,1,90,10|0,2:0|2:0,2:0:0:0:
91,167,11427,6,0,L|101:267,1,90,6|0,3:2|2:0,2:0:0:0:
234,35,11766,2,0,L|224:135,1,90,10|0,2:0|2:0,2:0:0:0:
386,258,12105,1,2,3:2:0:0:
318,90,12274,1,0,3:0:0:0:
222,308,12444,2,0,P|278:323|318:308,1,90,10|0,2:0|2:0,2:0:0:0:
477,168,12783,6,0,L|370:159,1,90,2|0,3:2|2:0,2:0:0:0:
144,42,13122,2,0,L|251:33,1,90,10|0,2:0|2:0,2:0:0:0:
96,200,13461,1,2,3:2:0:0:
9,33,13630,1,0,3:0:0:0:
198,140,13800,2,0,P|212:188|198:240,1,90,10|0,2:0|2:0,2:0:0:0:
58,332,14139,6,0,B|122:319|122:319|170:344|170:344|238:334,1,180,6|8,3:2|2:0,2:0:0:0:
386,149,14647,1,2,2:0:0:0:
204,226,14817,1,2,3:2:0:0:
455,263,14986,1,2,3:2:0:0:
299,66,15156,2,0,L|293:163,1,90,8|2,2:0|2:0,2:0:0:0:
461,20,15495,5,0,3:0:0:0:
363,268,15664,1,0,3:0:0:0:
299,66,15834,1,8,2:0:0:0:
486,193,16003,5,8,2:0:0:0:
486,193,16088,1,8,2:0:0:0:
486,193,16173,1,8,2:0:0:0:
293,178,16342,1,8,2:3:0:0:
413,100,16512,1,4,2:3:0:0:
363,268,16681,1,6,2:3:0:0:
194,160,16851,6,0,L|187:329,1,144,6|2,3:2|2:0,2:0:0:0:
131,375,17359,2,0,P|102:346|97:308,1,72,2|0,2:0|2:0,2:0:0:0:
6,326,17698,2,0,P|6:284|29:254,1,72,2|0,2:0|2:0,2:0:0:0:
103,193,18037,2,0,L|86:39,1,144,2|0,2:0|2:0,2:0:0:0:
181,12,18545,6,0,L|261:24,1,72,2|0,2:0|2:0,2:0:0:0:
325,88,18884,2,0,L|396:77,1,72,2|0,2:0|2:0,2:0:0:0:
466,155,19223,1,2,2:0:0:0:
404,237,19393,1,0,3:0:0:0:
512,289,19563,6,0,P|465:248|380:274,1,144,2|0,3:2|2:0,2:0:0:0:
313,314,20071,2,0,L|328:403,1,72,2|0,2:0|2:0,2:0:0:0:
230,268,20410,2,0,L|241:197,1,72,2|0,2:0|2:0,2:0:0:0:
195,113,20749,1,2,2:0:0:0:
195,113,20918,2,0,B|129:56|58:65|37:142|90:180|125:147,2,216,0|2|0,2:0|2:0|2:0,2:0:0:0:
241,197,22105,1,2,3:2:0:0:
351,162,22274,6,0,L|336:8,1,144,2|2,3:2|2:0,2:0:0:0:
481,129,22783,2,0,L|493:48,1,72,2|0,2:0|2:0,2:0:0:0:
433,212,23122,2,0,L|443:283,1,72,2|0,2:0|2:0,2:0:0:0:
386,356,23461,1,2,2:0:0:0:
322,270,23630,6,0,P|280:251|238:250,1,72,0|0,2:0|2:0,2:0:0:0:
211,384,23969,2,0,P|248:357|270:321,1,72,2|0,2:0|2:0,2:0:0:0:
167,228,24308,2,0,P|171:273|191:310,1,72,2|0,2:0|2:0,2:0:0:0:
233,161,24647,1,2,2:0:0:0:
134,134,24817,1,0,3:0:0:0:
72,241,24986,6,0,L|58:391,1,144,2|2,3:2|2:0,2:0:0:0:
167,228,25495,2,0,L|175:304,1,72,2|0,2:0|2:0,2:0:0:0:
7,118,25834,2,0,L|-1:194,1,72,2|0,2:0|2:0,2:0:0:0:
121,45,26173,1,2,3:2:0:0:
121,45,26257,1,0,3:0:0:0:
121,45,26342,5,8,2:0:0:0:
231,146,26512,2,0,B|324:118|324:118|369:147,2,144,0|0|8,3:0|3:0|2:0,2:0:0:0:
95,277,27359,1,8,2:0:0:0:
138,60,27529,1,10,2:0:0:0:
213,246,27698,6,0,P|260:296|366:266,1,161.999995056153,6|10,3:2|2:0,2:0:0:0:
475,185,28206,2,0,L|489:275,1,80.9999975280763,2|0,2:0|3:0,2:0:0:0:
375,91,28545,2,0,L|361:181,1,80.9999975280763,2|8,3:2|2:0,2:0:0:0:
457,30,28884,5,2,2:0:0:0:
457,30,29054,2,0,B|414:-9|414:-9|296:22,1,161.999995056153,0|10,3:0|2:0,2:0:0:0:
198,88,29562,2,0,P|176:37|187:0,1,80.9999975280763,0|2,2:0|3:2,2:0:0:0:
268,164,29901,1,0,3:0:0:0:
116,126,30071,1,10,2:0:0:0:
270,22,30240,1,0,2:0:0:0:
194,228,30410,6,0,L|29:209,1,161.999995056153,2|10,3:2|2:0,2:0:0:0:
99,383,30918,2,0,P|116:334|109:296,1,80.9999975280763,2|0,2:0|3:0,2:0:0:0:
46,132,31257,2,0,P|29:181|36:219,1,80.9999975280763,2|8,3:2|2:0,2:0:0:0:
196,256,31596,5,0,3:0:0:0:
196,256,31681,1,0,3:0:0:0:
196,256,31766,2,0,L|298:242,1,80.9999975280763,2|0,3:2|2:0,2:0:0:0:
410,157,32105,1,8,2:0:0:0:
281,76,32274,1,0,3:0:0:0:
281,76,32359,1,0,3:0:0:0:
281,76,32444,2,0,P|261:117|271:160,1,80.9999975280763,0|0,3:0|3:0,2:0:0:0:
385,273,32783,1,10,2:0:0:0:
385,273,33122,6,0,B|324:264|324:264|289:280|289:280|224:271,1,161.999995056153,6|8,3:2|2:0,2:0:0:0:
121,152,33630,1,2,2:0:0:0:
161,374,33800,1,0,3:0:0:0:
227,271,33969,1,0,3:0:0:0:
13,286,34139,2,0,L|104:298,1,80.9999975280763,10|0,2:0|2:0,2:0:0:0:
96,76,34478,6,0,P|52:104|64:210,1,161.999995056153,2|10,3:2|2:0,2:0:0:0:
201,142,34986,2,0,L|105:153,1,80.9999975280763,2|0,2:0|3:0,2:0:0:0:
284,191,35325,1,2,3:2:0:0:
191,54,35495,1,8,2:0:0:0:
167,232,35664,1,2,2:0:0:0:
281,88,35834,6,0,L|411:108,1,121.499996292114,2|0,3:2|2:0,2:0:0:0:
427,109,36173,2,0,L|418:29,1,80.9999975280763,8|0,2:0|2:0,2:0:0:0:
382,207,36512,1,0,3:0:0:0:
511,149,36681,1,0,3:0:0:0:
291,170,36851,2,0,P|286:220|302:264,1,80.9999975280763,8|0,2:0|2:0,2:0:0:0:
420,367,37190,5,0,3:0:0:0:
232,316,37359,1,0,3:0:0:0:
382,207,37529,1,8,2:0:0:0:
329,348,37698,1,8,2:0:0:0:
329,348,37783,1,8,2:0:0:0:
329,348,37868,1,8,2:0:0:0:
292,169,38037,1,8,2:3:0:0:
232,316,38206,2,0,P|175:330|101:282,1,121.499996292114,6|0,2:3|2:0,2:0:0:0:
111,289,38546,6,0,L|136:130,1,144,6|0,3:2|2:0,2:0:0:0:
18,38,39054,1,2,3:2:0:0:
43,137,39223,1,8,2:0:0:0:
111,67,39393,2,0,P|154:62|220:136,1,144,0|0,3:0|2:0,2:0:0:0:
204,259,39901,5,2,3:2:0:0:
334,220,40071,2,0,L|254:200,1,72,8|0,2:0|2:0,2:0:0:0:
369,314,40410,1,2,3:2:0:0:
434,245,40579,1,8,2:0:0:0:
393,148,40749,2,0,P|384:94|451:30,1,144,0|0,3:0|2:0,2:0:0:0:
467,110,41257,6,0,B|315:88,1,144,2|0,3:2|2:0,2:0:0:0:
197,225,41766,1,2,3:2:0:0:
317,180,41935,1,8,2:0:0:0:
171,82,42105,1,0,3:0:0:0:
321,19,42274,2,0,P|329:63|319:100,1,72,2|0,2:0|2:0,2:0:0:0:
128,166,42613,5,2,3:2:0:0:
281,258,42783,2,0,L|265:335,1,72,8|0,2:0|2:0,2:0:0:0:
132,268,43122,1,0,3:0:0:0:
244,145,43291,1,8,2:0:0:0:
87,68,43461,1,4,2:3:0:0:
59,78,43545,1,4,2:3:0:0:
37,99,43630,1,4,2:3:0:0:
24,126,43715,1,4,2:3:0:0:
23,156,43800,1,4,2:3:0:0:
32,184,43884,1,4,2:3:0:0:
52,207,43969,6,0,B|115:199|115:199|155:218|155:218|213:212,1,161.999995056153,6|10,3:2|2:0,2:0:0:0:
324,270,44478,1,0,2:0:0:0:
242,103,44647,1,2,3:2:0:0:
199,317,44817,1,0,3:0:0:0:
298,173,44986,2,0,P|351:169|383:190,1,80.9999975280763,10|0,2:0|2:0,2:0:0:0:
464,328,45325,5,2,3:2:0:0:
324,270,45495,1,0,2:0:0:0:
469,207,45664,1,2,3:2:0:0:
369,366,45834,2,0,L|282:357,1,80.9999975280763,10|0,2:0|2:0,2:0:0:0:
184,250,46173,1,0,3:0:0:0:
298,173,46342,2,0,P|322:118|298:55,1,121.499996292114,10|0,2:0|2:0,2:0:0:0:
287,49,46681,6,0,L|197:62,1,80.9999975280763,6|0,3:2|2:0,2:0:0:0:
33,106,47020,2,0,L|113:117,1,80.9999975280763,10|0,2:0|2:0,2:0:0:0:
184,250,47359,1,2,3:2:0:0:
68,206,47529,1,0,3:0:0:0:
261,176,47698,2,0,P|284:219|282:260,1,80.9999975280763,10|0,2:0|2:0,2:0:0:0:
159,378,48037,5,2,3:2:0:0:
349,310,48206,1,2,2:0:0:0:
184,250,48376,1,2,3:2:0:0:
274,375,48546,2,0,L|448:342,1,161.999995056153,10|0,2:0|3:0,2:0:0:0:
511,233,49054,2,0,L|424:214,1,80.9999975280763,10|0,2:0|2:0,2:0:0:0:
261,176,49393,1,6,3:2:0:0:
261,176,50749,5,8,2:0:0:0:
261,176,50834,1,8,2:0:0:0:
261,176,50918,2,0,L|338:167,1,45,0|0,3:0|3:0,2:0:0:0:
439,106,51088,2,0,L|362:97,1,45,8|8,2:0|2:0,2:0:0:0:
315,19,51257,1,0,3:0:0:0:
81,274,52105,5,6,3:2:0:0:
208,56,52274,1,0,2:0:0:0:
263,310,52444,1,10,2:0:0:0:
82,144,52613,1,0,2:0:0:0:
339,111,52783,5,2,3:2:0:0:
164,282,52952,1,2,3:2:0:0:
212,31,53122,1,10,2:0:0:0:
360,249,53291,1,0,2:0:0:0:
421,19,53461,5,2,3:2:0:0:
208,165,53630,1,2,3:2:0:0:
475,216,53800,1,10,2:0:0:0:
325,15,53969,2,0,L|317:122,1,99.0000030212403,2|0,2:0|3:0,2:0:0:0:
429,298,54308,1,0,3:0:0:0:
512,123,54478,2,0,P|465:104|411:123,1,99.0000030212403,8|2,2:0|2:0,2:0:0:0:
312,304,54817,6,0,L|412:319,1,99.0000030212403,6|0,3:2|2:0,2:0:0:0:
169,156,55156,1,10,2:0:0:0:
251,384,55325,1,0,2:0:0:0:
324,131,55495,1,2,3:2:0:0:
95,276,55664,1,2,3:2:0:0:
312,304,55834,1,10,2:0:0:0:
140,126,56003,6,0,P|126:76|143:29,1,99.0000030212403,2|0,2:0|3:0,2:0:0:0:
322,151,56342,1,2,3:2:0:0:
79,282,56512,1,10,2:0:0:0:
240,56,56681,1,2,3:2:0:0:
240,56,56766,1,0,3:0:0:0:
240,56,56851,2,0,L|229:183,1,99.0000030212403,0|0,3:0|3:0,2:0:0:0:
217,345,57190,1,8,2:0:0:0:
74,192,57359,1,2,2:0:0:0:
217,345,57529,6,0,L|323:353,1,99.0000030212403,6|0,3:2|2:0,2:0:0:0:
467,169,57868,2,0,L|368:176,1,99.0000030212403,10|0,2:0|2:0,2:0:0:0:
195,194,58206,1,2,3:2:0:0:
335,351,58376,1,0,3:0:0:0:
301,115,58545,2,0,P|277:167|293:215,1,99.0000030212403,10|0,2:0|2:0,2:0:0:0:
426,79,58884,5,2,3:2:0:0:
230,7,59054,1,0,3:0:0:0:
368,176,59223,2,0,L|467:169,1,99.0000030212403,10|0,2:0|2:0,2:0:0:0:
337,25,59562,1,2,3:2:0:0:
265,238,59732,1,0,3:0:0:0:
154,96,59901,2,0,P|106:82|52:105,1,99.0000030212403,10|0,2:0|2:0,2:0:0:0:
238,260,60241,6,0,B|234:190|234:190|271:154|271:154|266:54,1,198.000006042481,2|8,3:2|2:0,2:0:0:0:
127,235,60749,1,2,2:0:0:0:
348,281,60918,1,2,3:2:0:0:
183,116,61088,1,0,3:0:0:0:
195,350,61257,2,0,P|252:362|296:344,1,99.0000030212403,8|2,2:0|2:0,2:0:0:0:
437,168,61596,5,2,3:2:0:0:
386,383,61766,1,0,3:0:0:0:
284,112,61935,2,0,L|296:218,1,99.0000030212403,12|0,2:0|2:0,2:0:0:0:
404,29,62274,1,4,2:3:0:0:
380,24,62359,1,4,2:3:0:0:
356,27,62444,1,8,2:3:0:0:
334,39,62529,1,8,2:3:0:0:
317,57,62613,1,8,2:0:0:0:
299,80,62698,1,8,2:0:0:0:
255,102,62783,1,8,2:0:0:0:
206,101,62868,1,8,2:0:0:0:
164,77,62952,6,0,P|236:62|283:155,1,148.50000453186,6|0,3:2|2:0,2:0:0:0:
283,111,63291,2,0,L|295:217,1,99.0000030212403,10|0,2:0|2:0,2:0:0:0:
136,368,63630,5,2,3:2:0:0:
361,281,63800,1,2,3:2:0:0:
141,180,63969,1,10,2:0:0:0:
312,378,64139,1,0,2:0:0:0:
426,154,64308,5,2,3:2:0:0:
215,269,64478,1,2,3:2:0:0:
465,329,64647,1,10,2:0:0:0:
296,117,64817,1,2,3:2:0:0:
296,117,64901,1,0,3:0:0:0:
296,117,64986,2,0,P|279:162|302:219,1,99.0000030212403,0|0,3:0|3:0,2:0:0:0:
473,39,65325,2,0,L|362:23,1,99.0000030212403,8|2,2:0|2:0,2:0:0:0:
182,234,65664,5,2,3:2:0:0:
426,140,65834,1,2,3:2:0:0:
218,7,66003,1,10,2:0:0:0:
323,253,66173,1,2,3:2:0:0:
323,253,66257,1,0,3:0:0:0:
323,253,66342,1,8,2:0:0:0:
101,128,66512,1,2,3:2:0:0:
101,128,66851,6,0,B|226:98|226:98|291:161,1,198.000006042481,6|2,3:2|3:2,2:0:0:0:
213,376,67359,1,10,2:0:0:0:
404,239,67529,1,2,2:0:0:0:
192,189,67698,2,0,L|203:293,1,99.0000030212403,2|0,3:2|3:0,2:0:0:0:
362,146,68037,1,8,2:0:0:0:
322,347,68206,1,0,2:0:0:0:
285,49,68376,6,0,P|331:26|382:28,1,99.0000030212403,6|0,3:2|2:0,2:0:0:0:
192,192,68715,2,8,P|142:191|99:168,1,99.0000030212403,10|0,2:0|2:0,2:0:0:0:
285,49,69054,1,2,3:2:0:0:
328,267,69223,1,0,3:0:0:0:
170,102,69393,2,0,L|187:-2,1,99.0000030212403,10|0,2:0|2:0,2:0:0:0:
375,148,69732,5,2,3:2:0:0:
178,242,69901,1,0,3:0:0:0:
337,364,70071,2,0,P|399:369|443:348,1,99.0000030212403,10|0,2:0|2:0,2:0:0:0:
280,137,70410,1,2,3:2:0:0:
181,358,70579,1,0,3:0:0:0:
93,164,70749,2,0,P|38:153|-6:172,1,99.0000030212403,10|0,2:0|2:0,2:0:0:0:
168,263,71088,6,0,B|209:210|209:210|176:63,1,198.000006042481,6|8,3:2|2:0,2:0:0:0:
302,279,71596,1,0,2:0:0:0:
93,164,71766,1,0,3:0:0:0:
309,94,71935,1,0,3:0:0:0:
168,263,72105,2,0,L|189:365,1,99.0000030212403,8|0,2:0|2:0,2:0:0:0:
346,202,72444,5,4,2:3:0:0:
346,202,72529,1,4,2:3:0:0:
346,202,72613,2,0,L|292:191,1,49.5000015106202,8|8,2:3|2:3,2:0:0:0:
162,123,72783,1,8,2:0:0:0:
162,123,72868,1,8,2:0:0:0:
162,123,72952,2,0,L|216:112,1,49.5000015106202,8|8,2:0|2:0,2:0:0:0:
365,54,73122,1,8,2:3:0:0:
395,47,73206,1,8,2:3:0:0:
425,52,73291,1,8,2:3:0:0:
452,67,73376,1,8,2:3:0:0:
471,91,73461,1,4,2:3:0:0:
481,120,73545,1,4,2:3:0:0:
479,151,73630,1,4,2:3:0:0:
467,179,73715,1,4,2:3:0:0:
445,200,73800,6,0,B|387:184|387:184|339:204|339:204|259:186,1,180,4|8,3:2|2:0,2:0:0:0:
136,81,74308,1,0,2:0:0:0:
225,288,74478,1,2,3:2:0:0:
332,97,74647,1,2,3:2:0:0:
109,220,74817,2,0,L|125:314,1,90,8|0,2:0|2:0,2:0:0:0:
214,133,75156,5,2,3:2:0:0:
0,123,75325,2,0,L|16:217,1,90,2|8,2:0|2:0,2:0:0:0:
214,133,75664,1,2,2:0:0:0:
44,14,75834,1,2,3:2:0:0:
109,220,76003,1,2,3:2:0:0:
184,24,76173,2,0,P|245:18|282:45,1,90,8|0,2:0|2:0,2:0:0:0:
263,252,76512,6,0,B|205:220|205:220|220:102,1,180,2|8,3:2|2:0,2:0:0:0:
354,198,77020,1,2,2:0:0:0:
161,330,77190,1,2,3:2:0:0:
377,374,77359,1,2,3:2:0:0:
263,252,77529,2,0,L|276:359,1,90,8|2,2:0|2:0,2:0:0:0:
373,161,77868,5,2,3:2:0:0:
462,368,78037,2,0,P|408:382|366:367,1,90,2|8,2:0|2:0,2:0:0:0:
248,174,78376,1,2,2:0:0:0:
469,263,78545,1,2,3:2:0:0:
273,341,78715,1,2,3:2:0:0:
373,161,78884,2,0,L|361:64,1,90,10|0,2:0|2:0,2:0:0:0:
204,250,79223,6,0,P|249:267|302:251,1,90,6|0,3:2|2:0,2:0:0:0:
194,69,79562,2,0,P|149:52|96:68,1,90,10|0,2:0|2:0,2:0:0:0:
14,268,79901,1,2,3:2:0:0:
188,165,80071,1,0,3:0:0:0:
10,38,80240,2,0,L|28:136,1,90,10|0,2:0|2:0,2:0:0:0:
204,250,80579,6,0,L|115:233,1,90,2|0,3:2|2:0,2:0:0:0:
313,370,80918,2,0,L|401:353,1,90,10|0,2:0|2:0,2:0:0:0:
451,144,81257,1,2,3:2:0:0:
307,268,81427,1,0,3:0:0:0:
503,381,81596,2,0,P|503:327|481:291,1,90,10|0,2:0|2:0,2:0:0:0:
293,147,81935,5,6,3:2:0:0:
489,48,82105,1,0,3:0:0:0:
408,242,82274,2,0,L|414:138,1,90,10|0,2:0|2:0,2:0:0:0:
224,53,82613,1,2,3:2:0:0:
306,269,82783,1,2,3:2:0:0:
391,66,82952,1,8,2:3:0:0:
391,66,83037,1,8,2:3:0:0:
391,66,83122,2,0,L|318:79,1,45,8|8,2:3|2:3,2:0:0:0:
119,88,83313,5,0,3:0:0:0:
346,181,83482,1,8,2:0:0:0:
96,232,83651,1,8,2:0:0:0:
224,53,83821,1,0,3:0:0:0:
305,303,83990,5,8,2:3:0:0:
163,169,84160,1,0,3:0:0:0:
313,183,84329,1,4,2:3:0:0:
203,276,84499,1,0,3:0:0:0:
102,96,84668,6,0,P|67:141|104:240,1,144,6|0,3:2|2:0,2:0:0:0:
203,276,85155,1,2,3:2:0:0:
290,182,85324,1,8,2:0:0:0:
290,182,85494,2,0,L|137:164,1,144,2|10,3:2|2:0,2:0:0:0:
87,61,86002,5,2,3:2:0:0:
191,1,86172,2,0,B|282:2|241:46|331:35,1,144,8|0,2:0|3:0,2:0:0:0:
429,7,86680,1,10,2:0:0:0:
496,81,86850,1,0,3:0:0:0:
441,152,87019,1,2,2:0:0:0:
337,146,87189,5,8,2:0:0:0:
337,146,87274,1,8,2:0:0:0:
337,146,87358,2,0,L|364:306,1,144,2|2,3:2|2:0,2:0:0:0:
266,368,87867,1,2,3:2:0:0:
190,268,88036,1,8,2:0:0:0:
190,268,88206,2,0,P|141:243|47:279,1,144,2|10,3:2|2:0,2:0:0:0:
59,266,88629,1,8,2:0:0:0:
59,266,88714,1,0,3:0:0:0:
139,154,88884,6,0,B|155:66|155:66|107:17,1,144,8|0,2:0|3:0,2:0:0:0:
24,60,89392,1,8,2:0:0:0:
42,154,89562,1,0,3:0:0:0:
139,154,89731,2,0,P|190:130|242:144,1,108,0|0,2:0|2:0,2:0:0:0:
245,156,90070,6,0,B|237:211|237:211|255:238|255:238|245:305,1,144,2|2,3:2|2:0,2:0:0:0:
309,384,90579,1,2,3:2:0:0:
377,303,90748,1,8,2:0:0:0:
377,303,90918,2,0,P|344:280|241:297,1,144,2|10,3:2|2:0,2:0:0:0:
166,363,91426,5,2,3:2:0:0:
94,286,91596,2,0,L|110:133,1,144,8|0,2:0|2:0,2:0:0:0:
29,77,92104,1,10,2:0:0:0:
101,2,92274,1,0,3:0:0:0:
185,69,92443,1,2,2:0:0:0:
278,12,92613,5,8,2:0:0:0:
278,12,92697,1,8,2:0:0:0:
278,12,92782,2,0,B|310:94|310:94|267:149,1,144,2|2,3:2|2:0,2:0:0:0:
114,193,93291,1,2,3:2:0:0:
185,69,93460,1,8,2:0:0:0:
221,239,93629,2,0,L|237:337,1,72,2|0,3:2|2:0,2:0:0:0:
379,181,93968,1,2,3:2:0:0:
318,373,94138,5,8,2:0:0:0:
128,284,94307,1,0,3:0:0:0:
443,108,94646,1,0,3:0:0:0:
119,26,94985,5,8,2:0:0:0:
341,179,95155,1,8,2:0:0:0:
54,221,95324,1,8,2:0:0:0:
229,16,95494,6,0,L|240:208,1,180,6|10,3:2|2:0,2:0:0:0:
148,328,96002,1,2,3:2:0:0:
148,328,96087,1,0,3:0:0:0:
148,328,96172,2,0,P|86:326|48:297,1,90,0|2,3:0|3:2,2:0:0:0:
239,195,96511,1,8,2:0:0:0:
297,382,96680,1,2,2:0:0:0:
380,245,96850,6,0,L|469:239,1,90,2|0,3:2|2:0,2:0:0:0:
297,382,97189,1,10,2:0:0:0:
239,195,97358,1,0,3:0:0:0:
239,195,97443,1,0,3:0:0:0:
239,195,97528,2,0,P|224:245|236:291,1,90,2|0,3:2|3:0,2:0:0:0:
415,120,97867,2,0,L|314:125,1,90,10|0,2:0|2:0,2:0:0:0:
161,18,98206,6,0,B|227:9|227:9|271:34|271:34|338:26,1,180,2|10,3:2|2:0,2:0:0:0:
206,196,98714,2,0,L|213:90,1,90,2|0,2:0|3:0,2:0:0:0:
284,288,99053,1,2,3:2:0:0:
100,205,99223,1,8,2:0:0:0:
308,131,99392,1,2,2:0:0:0:
147,292,99562,6,0,P|93:302|44:284,1,90,0|0,3:0|2:0,2:0:0:0:
1,131,99901,1,8,2:0:0:0:
181,105,100070,1,0,3:0:0:0:
181,105,100155,1,0,3:0:0:0:
181,105,100240,2,0,L|185:205,1,90,0|0,3:0|3:0,2:0:0:0:
89,20,100579,1,10,2:0:0:0:
288,103,100748,1,2,2:3:0:0:
79,203,100918,6,0,P|44:257|97:358,1,180,2|8,3:2|2:0,2:0:0:0:
225,274,101426,2,0,L|119:266,1,90,2|0,2:0|3:0,2:0:0:0:
323,207,101765,1,0,3:0:0:0:
239,380,101935,1,10,2:0:0:0:
165,180,102104,1,0,2:0:0:0:
336,325,102274,6,0,B|449:337|386:261|516:280,1,180,2|10,3:2|2:0,2:0:0:0:
333,135,102782,2,0,L|351:242,1,90,2|0,2:0|3:0,2:0:0:0:
417,42,103121,1,2,3:2:0:0:
215,104,103291,2,0,L|233:211,1,90,8|2,2:0|2:0,2:0:0:0:
417,42,103630,6,0,B|307:67|307:67|257:11,2,180,2|8|0,3:2|2:0|3:0,2:0:0:0:
502,181,104477,1,0,3:0:0:0:
351,239,104646,2,0,P|337:185|371:137,1,90,8|0,2:0|2:0,2:0:0:0:
500,334,104985,5,0,3:0:0:0:
431,129,105155,1,0,3:0:0:0:
311,323,105324,2,0,L|211:340,1,90,12|0,2:0|2:0,2:0:0:0:
12,272,105663,5,4,3:2:0:0:
20,257,105777,2,0,P|49:245|92:250,1,60,8|8,2:0|2:0,2:0:0:0:
222,338,106002,5,10,2:0:0:0:
210,347,106115,2,0,P|180:346|152:334,1,60,8|8,2:0|2:0,2:0:0:0:
169,207,106341,6,0,B|173:149|173:149|149:128|149:128|156:47,1,144,6|0,3:2|2:0,2:0:0:0:
222,2,106850,1,2,3:2:0:0:
322,21,107019,1,8,2:0:0:0:
347,121,107189,2,0,P|412:142|489:93,1,144,0|0,3:0|3:0,2:0:0:0:
477,111,107613,1,0,3:0:0:0:
477,111,107697,5,2,3:2:0:0:
406,46,107867,2,0,L|412:211,1,144,8|2,2:0|3:2,2:0:0:0:
484,264,108375,1,8,2:0:0:0:
443,356,108545,1,0,3:0:0:0:
346,333,108714,1,2,2:0:0:0:
327,238,108884,5,8,2:0:0:0:
327,238,108968,1,8,2:0:0:0:
327,238,109053,2,0,P|287:221|181:267,1,144,2|0,3:2|2:0,2:0:0:0:
155,359,109562,1,2,3:2:0:0:
47,303,109731,1,8,2:0:0:0:
47,303,109901,2,0,L|63:140,1,144,0|0,3:0|3:0,2:0:0:0:
61,159,110324,1,0,3:0:0:0:
61,159,110409,5,2,3:2:0:0:
156,82,110579,2,0,B|248:68|205:126|319:104,1,144,8|0,2:0|3:0,2:0:0:0:
377,177,111087,1,8,2:0:0:0:
293,241,111257,1,4,2:3:0:0:
275,263,111341,1,4,2:3:0:0:
268,291,111426,1,4,2:3:0:0:
271,319,111511,1,4,2:3:0:0:
284,345,111596,1,4,2:3:0:0:
305,364,111680,1,4,2:3:0:0:
331,376,111765,6,0,L|495:352,1,161.999995056153,4|10,3:2|2:0,2:0:0:0:
315,223,112274,1,0,2:0:0:0:
512,258,112443,1,2,3:2:0:0:
402,348,112613,1,0,3:0:0:0:
450,183,112782,2,0,P|452:135|432:98,1,80.9999975280763,10|0,2:0|2:0,2:0:0:0:
315,223,113121,5,2,3:2:0:0:
274,54,113291,2,0,L|371:47,1,80.9999975280763,0|2,3:0|2:0,2:0:0:0:
200,146,113630,2,0,B|151:109|151:109|171:4,1,161.999995056153,10|0,2:0|2:0,2:0:0:0:
315,149,114138,2,0,L|308:281,1,121.499996292114,10|0,2:0|2:0,2:0:0:0:
304,298,114477,6,0,P|257:316|216:302,1,80.9999975280763,2|0,3:2|2:0,2:0:0:0:
69,213,114816,2,0,P|105:195|144:201,1,80.9999975280763,10|0,2:0|2:0,2:0:0:0:
228,309,115155,1,2,3:2:0:0:
83,347,115324,1,0,3:0:0:0:
222,137,115494,2,0,L|231:229,1,80.9999975280763,10|0,2:0|2:0,2:0:0:0:
76,116,115833,5,0,3:0:0:0:
148,300,116002,1,0,3:0:0:0:
222,137,116172,1,0,2:0:0:0:
60,222,116341,5,8,2:0:0:0:
160,55,116511,1,8,2:3:0:0:
240,233,116680,1,4,2:3:0:0:
303,82,116850,5,8,2:0:0:0:
146,197,117019,1,0,3:0:0:0:
325,281,117189,1,4,3:2:0:0:
325,281,118545,5,8,2:0:0:0:
325,281,118629,1,8,2:0:0:0:
325,281,118714,2,0,L|317:222,1,40.4999987640381,0|0,3:0|3:0,2:0:0:0:
430,105,118884,2,0,L|424:147,1,40.4999987640381,8|8,2:0|2:0,2:0:0:0:
408,353,119053,1,0,3:0:0:0:
153,173,119413,5,0,3:0:0:0:
153,173,119498,1,0,3:0:0:0:
153,173,119583,2,0,L|251:159,1,90,8|2,2:0|2:0,2:0:0:0:
453,93,119902,5,6,3:2:0:0:
212,26,120070,1,0,2:0:0:0:
341,244,120239,1,10,2:0:0:0:
388,0,120409,1,0,2:0:0:0:
169,204,120578,5,2,3:2:0:0:
461,277,120748,1,2,3:2:0:0:
303,82,120917,1,10,2:0:0:0:
301,349,121087,1,0,2:0:0:0:
416,151,121256,5,2,3:2:0:0:
191,289,121426,1,2,3:2:0:0:
441,365,121595,1,10,2:0:0:0:
250,158,121765,2,0,P|210:144|123:163,1,99.0000030212403,2|0,2:0|3:0,2:0:0:0:
301,349,122104,1,0,3:0:0:0:
416,151,122273,2,0,L|409:37,1,99.0000030212403,8|2,2:0|2:0,2:0:0:0:
276,262,122612,5,2,3:2:0:0:
322,10,122782,1,0,2:0:0:0:
141,162,122951,1,10,2:0:0:0:
416,151,123121,1,0,2:0:0:0:
167,34,123290,5,2,3:2:0:0:
345,205,123460,1,2,3:2:0:0:
74,241,123629,1,10,2:0:0:0:
282,27,123799,6,0,L|290:141,1,99.0000030212403,2|0,2:0|3:0,2:0:0:0:
172,296,124138,1,2,3:2:0:0:
71,107,124307,1,10,2:0:0:0:
308,212,124477,1,2,3:2:0:0:
308,212,124561,1,0,3:0:0:0:
308,212,124646,1,0,3:0:0:0:
49,354,124816,1,0,3:0:0:0:
120,190,124985,2,0,P|176:180|220:199,1,99.0000030212403,8|2,2:0|2:0,2:0:0:0:
349,372,125324,6,0,L|367:264,1,99.0000030212403,6|0,3:2|2:0,2:0:0:0:
197,97,125663,2,0,L|213:194,1,99.0000030212403,10|0,2:0|2:0,2:0:0:0:
482,127,126002,1,2,3:2:0:0:
294,47,126172,1,0,3:0:0:0:
365,274,126341,2,0,P|426:266|466:233,1,99.0000030212403,10|0,2:0|2:0,2:0:0:0:
302,68,126680,5,2,3:2:0:0:
216,290,126850,1,0,3:0:0:0:
97,109,127019,2,0,L|203:125,1,99.0000030212403,10|0,2:0|2:0,2:0:0:0:
116,352,127358,1,2,3:2:0:0:
306,223,127527,1,0,3:0:0:0:
18,176,127697,2,0,P|0:235|17:279,1,99.0000030212403,10|0,2:0|2:0,2:0:0:0:
214,124,128036,6,0,B|99:139|160:60|25:62,1,198.000006042481,2|8,3:2|2:0,2:0:0:0:
201,260,128544,1,2,2:0:0:0:
285,9,128714,1,2,3:2:0:0:
45,159,128883,1,0,3:0:0:0:
313,220,129053,2,0,L|432:199,1,99.0000030212403,8|2,2:0|2:0,2:0:0:0:
185,112,129392,5,2,3:2:0:0:
299,347,129561,1,0,3:0:0:0:
480,134,129731,2,0,P|424:111|371:126,1,99.0000030212403,12|0,2:0|2:0,2:0:0:0:
269,276,130070,1,4,2:3:0:0:
244,298,130155,1,4,2:3:0:0:
213,308,130239,1,8,2:3:0:0:
181,306,130324,1,8,2:3:0:0:
144,280,130409,1,8,2:0:0:0:
109,245,130494,1,8,2:0:0:0:
61,235,130578,1,8,2:0:0:0:
16,251,130663,1,8,2:0:0:0:
4,293,130748,6,0,L|-1:135,1,148.50000453186,6|0,3:2|2:0,2:0:0:0:
0,144,131087,2,0,P|49:119|111:134,1,99.0000030212403,10|0,2:0|2:0,2:0:0:0:
280,228,131426,5,2,3:2:0:0:
180,2,131595,1,2,3:2:0:0:
102,247,131765,1,10,2:0:0:0:
304,91,131934,1,0,3:0:0:0:
304,91,132019,1,0,3:0:0:0:
304,91,132104,5,2,3:2:0:0:
49,39,132273,1,2,3:2:0:0:
202,274,132443,1,10,2:0:0:0:
187,10,132612,1,2,3:2:0:0:
187,10,132697,1,0,3:0:0:0:
187,10,132782,2,0,L|168:118,1,99.0000030212403,0|0,3:0|3:0,2:0:0:0:
361,265,133121,2,0,L|343:167,1,99.0000030212403,8|2,2:0|2:0,2:0:0:0:
260,376,133460,5,2,3:2:0:0:
483,245,133629,1,2,3:2:0:0:
204,137,133799,1,10,2:0:0:0:
387,369,133968,1,2,3:2:0:0:
387,369,134053,1,0,3:0:0:0:
387,369,134138,1,8,2:0:0:0:
426,81,134307,1,2,3:2:0:0:
426,81,134646,6,0,B|353:72|353:72|310:102|310:102|225:91,1,198.000006042481,6|2,3:2|3:2,2:0:0:0:
49,216,135155,1,10,2:0:0:0:
172,0,135324,1,2,2:0:0:0:
248,228,135494,1,2,3:2:0:0:
46,71,135663,1,0,3:0:0:0:
130,309,135833,2,0,L|147:196,1,99.0000030212403,8|2,2:0|2:0,2:0:0:0:
351,342,136172,6,0,P|304:362|252:346,1,99.0000030212403,6|0,3:2|2:0,2:0:0:0:
198,124,136511,2,0,P|245:104|297:120,1,99.0000030212403,10|0,2:0|2:0,2:0:0:0:
445,280,136850,1,2,3:2:0:0:
219,234,137019,1,0,3:0:0:0:
399,55,137189,2,0,L|387:172,1,99.0000030212403,10|0,2:0|2:0,2:0:0:0:
259,324,137527,5,2,3:2:0:0:
480,185,137697,1,0,3:0:0:0:
289,115,137866,2,0,L|301:232,1,99.0000030212403,10|0,2:0|2:0,2:0:0:0:
159,60,138205,1,2,3:2:0:0:
247,312,138375,1,0,3:0:0:0:
359,31,138544,2,0,P|313:11|256:19,1,99.0000030212403,10|0,2:0|2:0,2:0:0:0:
138,171,138884,6,0,L|167:375,1,198.000006042481,6|8,3:2|2:0,2:0:0:0:
239,122,139392,1,0,2:0:0:0:
29,251,139561,1,0,3:0:0:0:
262,301,139731,1,0,3:0:0:0:
98,85,139900,2,0,P|33:78|-3:98,1,99.0000030212403,8|0,2:0|2:0,2:0:0:0:
163,265,140239,5,8,2:0:0:0:
156,256,140352,2,0,L|148:182,1,66.0000020141602,8|8,2:0|2:3,2:0:0:0:
246,48,140578,5,8,2:3:0:0:
239,57,140691,2,0,L|234:127,1,66.0000020141602,4|4,2:3|2:3,2:0:0:0:
299,222,140917,5,8,2:0:0:0:
306,233,141030,2,0,P|342:245|387:234,1,66.0000020141602,8|8,2:0|2:3,2:0:0:0:
444,127,141256,5,8,2:3:0:0:
437,116,141369,2,0,P|401:104|356:115,1,66.0000020141602,4|4,2:3|2:3,2:0:0:0:
497,215,141595,5,6,3:2:0:0:
71,356,151595,6,0,L|236:337,1,144,8|8,2:3|2:3,2:0:0:0:
291,256,152104,1,4,2:3:0:0:
197,198,152273,1,2,3:2:0:0:
197,198,152358,1,0,3:0:0:0:
197,198,152443,6,0,B|96:171|119:61|119:61|191:48|209:94,1,270,6|0,3:2|2:0,2:0:0:0:
286,149,153629,1,0,3:0:0:0:
286,149,153714,1,0,3:0:0:0:
286,149,153799,6,0,P|356:162|407:119,1,125.999996154785,4|0,3:2|2:0,2:0:0:0:
392,27,154307,2,0,P|322:14|271:57,1,125.999996154785,8|8,2:3|2:3,2:0:0:0:
206,94,154816,1,4,2:3:0:0:
247,219,154985,5,2,3:2:0:0:
247,219,155070,1,0,3:0:0:0:
247,219,155155,2,0,L|262:353,1,125.999996154785,6|2,3:2|2:0,2:0:0:0:
142,378,155663,1,10,2:0:0:0:
142,378,155748,1,8,2:0:0:0:
142,378,155833,2,0,L|68:367,2,60,8|8|8,2:0|2:0|2:0,2:0:0:0:
0,293,156172,2,0,L|60:281,2,60,8|4|4,2:3|2:3|2:3,2:0:0:0:
122,207,156511,6,0,P|176:139|88:56,1,216,6|2,3:2|2:0,2:0:0:0:
19,135,157189,2,0,L|100:132,1,72,2|0,2:0|2:0,2:0:0:0:
90,132,157443,1,2,2:0:0:0:
90,132,157527,1,2,2:0:0:0:
447,51,157866,6,0,L|366:48,1,72,14|0,3:2|2:0,2:0:0:0:
152,247,158205,1,8,2:0:0:0:
246,1,158375,1,8,2:0:0:0:
394,229,158544,1,8,2:0:0:0:
120,92,158714,1,8,2:0:0:0:
375,48,158883,1,8,2:0:0:0:
275,308,159053,1,8,2:0:0:0:
120,92,159222,5,8,2:0:0:0:
281,334,159392,1,8,2:0:0:0:
356,24,159561,1,8,2:0:0:0:
114,246,159731,1,8,2:0:0:0:
425,247,159900,5,8,2:0:0:0:
100,82,160070,1,8,2:0:0:0:
447,0,160239,1,8,2:0:0:0:
286,359,160409,1,8,2:0:0:0:
215,3,160578,5,12,2:0:0:0:
100,267,160748,1,8,2:0:0:0:
100,267,160833,1,8,2:0:0:0:
100,267,160917,2,0,L|148:278,1,45,8|8,2:0|2:0,2:0:0:0:
298,139,161087,5,0,3:0:0:0:
280,141,161172,1,8,2:0:0:0:
262,144,161256,1,8,2:0:0:0:
244,147,161341,1,8,2:0:0:0:
227,151,161426,2,0,L|176:159,1,45,8|8,2:0|2:0,2:0:0:0:
292,312,161595,5,0,3:0:0:0:
292,312,161680,1,8,2:0:0:0:
292,312,161765,2,0,L|340:323,1,45,8|8,2:0|2:0,2:0:0:0:
474,248,161934,5,0,3:0:0:0:
486,220,162019,1,8,2:0:0:0:
486,191,162104,1,8,2:0:0:0:
473,164,162189,1,8,2:0:0:0:
442,143,162273,1,8,2:0:0:0:
406,116,162358,1,8,2:0:0:0:
395,73,162443,1,8,2:0:0:0:
414,33,162527,1,8,2:0:0:0:
452,16,162612,5,8,2:3:0:0:
454,27,162697,1,8,2:3:0:0:
458,36,162782,2,0,L|510:23,1,45,4|4,2:3|2:3,2:0:0:0:
315,139,162951,1,8,2:3:0:0:
313,150,163036,1,8,2:3:0:0:
311,159,163121,2,0,L|259:146,1,45,0|0,3:0|3:0,2:0:0:0:
122,30,163290,6,0,B|175:75|175:75|141:186,1,180,6|8,3:2|2:0,2:0:0:0:
47,334,163799,1,2,3:2:0:0:
47,334,163883,1,0,3:0:0:0:
47,334,163968,1,0,3:0:0:0:
13,125,164138,1,0,3:0:0:0:
165,290,164307,2,0,P|211:300|265:283,1,90,8|0,2:0|2:0,2:0:0:0:
299,119,164646,6,0,L|197:128,1,90,2|2,3:2|2:0,2:0:0:0:
403,213,164985,1,8,2:0:0:0:
320,2,165155,1,2,3:2:0:0:
320,2,165239,1,0,3:0:0:0:
320,2,165324,1,0,3:0:0:0:
234,211,165494,1,0,3:0:0:0:
396,65,165663,2,0,L|502:78,1,90,10|0,2:0|2:0,2:0:0:0:
465,307,166002,6,0,B|408:276|408:276|435:158,1,180,6|8,3:2|2:0,2:0:0:0:
322,337,166511,1,2,3:2:0:0:
322,337,166595,1,0,3:0:0:0:
322,337,166680,1,0,3:0:0:0:
501,232,166850,1,2,3:2:0:0:
314,115,167019,2,0,P|292:166|305:213,1,90,10|0,2:0|2:0,2:0:0:0:
464,321,167358,5,2,3:2:0:0:
223,359,167527,1,2,2:0:0:0:
391,172,167697,1,10,2:0:0:0:
345,371,167866,1,2,3:2:0:0:
345,371,167951,1,0,3:0:0:0:
345,371,168036,1,0,3:0:0:0:
177,214,168205,1,0,3:0:0:0:
377,281,168375,2,0,L|476:263,1,90,8|0,2:0|2:0,2:0:0:0:
292,123,168714,5,6,3:2:0:0:
202,320,168883,1,2,2:0:0:0:
396,192,169053,1,10,2:0:0:0:
168,70,169222,2,0,L|179:178,1,90,2|0,2:0|3:0,2:0:0:0:
332,22,169561,1,2,3:2:0:0:
281,253,169731,1,10,2:0:0:0:
161,49,169900,2,0,P|116:37|67:52,1,90,2|0,2:0|3:2,2:0:0:0:
128,262,170239,5,2,2:0:0:0:
317,122,170409,1,10,2:0:0:0:
57,64,170578,1,0,2:0:0:0:
250,244,170748,1,2,3:2:0:0:
289,10,170917,1,0,3:0:0:0:
96,159,171087,1,10,2:0:0:0:
317,122,171256,1,2,2:0:0:0:
150,0,171426,6,0,B|156:73|156:73|188:96|188:96|195:179,2,180,6|8|2,3:2|2:0|3:2,2:0:0:0:
89,190,172273,1,0,3:0:0:0:
258,27,172443,2,0,P|313:21|351:45,1,90,8|0,2:0|2:0,2:0:0:0:
444,238,172782,5,6,3:2:0:0:
221,148,172951,1,2,3:2:0:0:
447,17,173121,2,0,L|428:120,1,90,10|0,2:0|2:0,2:0:0:0:
335,204,173460,1,0,3:0:0:0:
310,241,173544,1,0,3:0:0:0:
308,286,173629,1,8,2:0:0:0:
327,325,173714,1,8,2:0:0:0:
364,349,173799,1,8,2:3:0:0:
392,344,173883,1,8,2:3:0:0:
423,339,173968,1,4,2:3:0:0:
451,335,174053,1,4,2:3:0:0:
480,331,174138,6,0,L|454:192,1,135,6|0,3:2|2:0,2:0:0:0:
455,198,174477,2,0,B|408:190|408:190|383:201|383:201|326:197,1,116.999994644165,12|2,2:0|2:0,2:0:0:0:
170,97,174816,1,2,3:2:0:0:
276,300,174985,1,0,3:0:0:0:
366,85,175155,2,2,P|322:62|274:73,1,90,10|2,2:0|2:0,2:0:0:0:
127,241,175494,5,0,3:0:0:0:
353,187,175663,1,2,2:0:0:0:
152,79,175833,1,10,2:0:0:0:
276,293,176002,1,2,3:2:0:0:
276,293,176087,1,0,3:0:0:0:
276,293,176172,2,0,L|258:384,1,90,0|0,3:0|3:0,2:0:0:0:
109,152,176511,2,0,L|127:243,1,90,8|0,2:0|2:0,2:0:0:0:
273,68,176850,6,0,B|209:68|209:68|175:39|175:39|91:37,1,180,2|8,3:2|2:0,2:0:0:0:
13,258,177358,1,2,2:0:0:0:
209,190,177527,1,2,3:2:0:0:
8,75,177697,1,0,3:0:0:0:
162,297,177866,2,0,P|225:304|267:281,1,90,8|0,2:0|2:0,2:0:0:0:
397,126,178205,5,2,3:2:0:0:
351,373,178375,1,2,3:2:0:0:
209,188,178544,1,10,2:0:0:0:
487,272,178714,1,2,3:2:0:0:
313,48,178883,5,8,2:3:0:0:
313,48,178968,1,8,2:3:0:0:
313,48,179053,2,0,L|301:98,1,45,4|4,2:3|2:3,2:0:0:0:
395,300,179222,2,0,L|382:202,1,90,8|0,2:0|3:0,2:0:0:0:
125,30,179561,5,12,2:0:0:0:
165,329,179731,1,0,3:0:0:0:
270,44,179900,5,8,2:0:0:0:
249,368,180070,1,0,3:0:0:0:
351,0,180239,5,8,2:0:0:0:
407,345,180409,1,0,3:0:0:0:
499,58,180578,5,8,2:0:0:0:
188,192,180748,1,0,3:0:0:0:
402,358,180917,5,12,2:0:0:0:
339,7,181087,1,0,3:0:0:0:
237,377,181256,5,8,2:0:0:0:
259,40,181426,1,0,3:0:0:0:
129,353,181595,5,8,2:0:0:0:
106,12,181765,1,0,3:0:0:0:
343,200,181934,5,8,2:0:0:0:
15,282,182104,1,0,3:0:0:0:
369,196,182273,5,12,2:0:0:0:
78,85,182443,1,0,3:0:0:0:
409,112,182612,5,12,2:0:0:0:
109,217,182782,1,0,3:0:0:0:
446,249,182951,5,12,2:0:0:0:
39,162,183121,1,0,3:0:0:0:
497,81,183290,5,12,2:0:0:0:
23,173,183460,1,0,3:0:0:0:
305,32,183629,5,8,3:0:0:0:
305,32,183714,1,8,2:3:0:0:
305,32,183799,2,0,L|322:98,1,45,8|8,2:0|2:0,2:0:0:0:
377,318,183968,1,8,2:0:0:0:
172,168,184138,5,8,2:3:0:0:
172,168,184222,1,4,2:3:0:0:
172,168,184307,2,0,L|232:153,1,45,8|8,2:0|2:0,2:0:0:0:
470,137,184477,2,0,L|410:152,1,45,8|8,2:0|2:0,2:0:0:0:
179,255,184646,1,8,2:0:0:0:
388,52,184816,5,8,2:0:0:0:
388,52,184900,1,8,2:0:0:0:
388,52,184985,1,4,3:2:0:0:
255,345,185155,1,4,3:2:0:0:
76,32,186172,5,4,3:2:0:0:
477,123,186511,1,4,3:2:0:0:
126,331,186850,1,4,3:2:0:0:
245,22,187697,5,4,3:2:0:0:
332,307,187866,1,4,3:2:0:0:
460,47,188883,5,4,3:2:0:0:
122,254,189222,1,4,3:2:0:0:
464,367,189561,1,4,3:2:0:0:
231,308,189900,5,0,3:0:0:0:
231,308,189985,1,0,3:0:0:0:
231,308,190070,2,0,L|247:214,1,90,12|2,3:2|3:2,2:0:0:0:
198,104,190409,6,0,B|115:93|134:142|47:113,1,144,6|2,3:2|2:0,2:0:0:0:
7,212,190917,1,0,3:0:0:0:
104,251,191087,2,0,P|123:288|131:334,1,72,10|0,2:0|3:0,2:0:0:0:
225,376,191426,1,2,2:0:0:0:
300,313,191595,5,8,2:0:0:0:
300,313,191680,1,8,2:0:0:0:
300,313,191765,2,0,L|398:306,1,72,2|8,3:2|2:0,2:0:0:0:
458,228,192104,2,0,L|360:221,1,72,2|0,2:0|3:0,2:0:0:0:
312,148,192443,1,10,2:0:0:0:
341,56,192612,1,0,3:0:0:0:
263,1,192782,2,0,P|216:-2|186:21,1,72,2|8,2:0|2:0,2:0:0:0:
190,27,193036,1,8,2:0:0:0:
190,27,193121,1,2,3:2:0:0:
171,132,193290,6,0,B|196:224|196:224|150:269,1,144,8|2,2:0|3:2,2:0:0:0:
77,166,193799,1,10,2:0:0:0:
124,53,193968,2,0,B|178:46|178:46|216:60|216:60|271:54,1,144,0|10,3:0|2:0,2:0:0:0:
264,54,194392,1,8,2:0:0:0:
264,54,194477,5,2,3:2:0:0:
337,204,194646,1,0,3:0:0:0:
414,43,194816,2,0,L|407:141,1,72,12|0,2:0|2:0,2:0:0:0:
470,236,195155,1,4,2:3:0:0:
481,263,195239,1,8,2:3:0:0:
479,293,195324,1,8,2:0:0:0:
462,318,195409,1,8,2:0:0:0:
436,333,195494,2,0,L|385:323,3,40.4999987640381,8|8|4|4,2:3|2:3|2:3|2:3,2:0:0:0:
370,304,195833,6,0,L|361:394,1,80.9999975280763,6|0,3:2|2:0,2:0:0:0:
253,230,196172,2,0,L|262:320,1,80.9999975280763,2|0,3:2|2:0,2:0:0:0:
320,150,196511,1,2,3:2:0:0:
161,243,196680,1,2,2:0:0:0:
161,243,196765,1,2,2:0:0:0:
161,243,196850,2,0,P|114:247|76:222,1,80.9999975280763,2|2,3:2|2:0,2:0:0:0:
37,67,197189,5,2,3:2:0:0:
139,162,197358,1,2,2:0:0:0:
139,162,197443,1,2,2:0:0:0:
139,162,197527,2,0,L|127:76,1,80.9999975280763,2|2,3:2|2:0,2:0:0:0:
290,109,197866,1,2,3:2:0:0:
237,187,198036,1,0,2:0:0:0:
208,42,198205,1,2,3:2:0:0:
208,42,198290,1,2,2:0:0:0:
208,42,198375,2,0,L|253:36,1,40.4999987640381,2|0,2:3|2:0,2:0:0:0:
399,16,198544,6,0,L|300:9,1,80.9999975280763,2|2,3:2|2:0,2:0:0:0:
453,147,198883,1,2,3:2:0:0:
394,233,199053,2,0,P|349:189|364:88,2,161.999995056153,2|2|2,2:0|2:0|2:0,2:0:0:0:
498,266,199900,6,0,L|490:361,1,80.9999975280763,0|0,3:2|2:0,2:0:0:0:
323,384,200239,2,0,L|316:303,1,80.9999975280763,2|2,3:2|2:0,2:0:0:0:
423,201,200578,1,2,3:2:0:0:
246,237,200748,1,2,2:0:0:0:
246,237,200833,1,2,2:0:0:0:
246,237,200917,2,0,P|222:279|227:319,1,80.9999975280763,2|2,3:0|2:0,2:0:0:0:
330,179,201256,6,0,L|323:98,1,80.9999975280763,12|0,2:0|2:0,2:0:0:0:
148,34,201595,1,8,2:0:0:0:
241,220,201765,1,8,2:0:0:0:
339,12,201934,1,8,2:0:0:0:
96,152,202104,1,8,2:0:0:0:
362,287,202273,1,8,2:0:0:0:
245,11,202443,1,8,2:0:0:0:
92,304,202612,5,8,2:0:0:0:
403,139,202782,1,8,2:0:0:0:
76,24,202951,1,8,2:0:0:0:
263,353,203121,1,8,2:0:0:0:
454,32,203290,1,8,2:0:0:0:
167,191,203460,1,0,3:0:0:0:
167,191,203544,1,0,3:0:0:0:
167,191,203629,2,0,L|178:242,3,40.4999987640381,0|4|4|4,2:0|2:3|2:3|2:3,2:0:0:0:
245,11,203968,5,4,3:2:0:0:
475,352,205324,6,0,L|412:342,1,40.4999987640381,4|8,3:2|2:0,2:0:0:0:
305,300,205494,1,8,2:0:0:0:
305,300,205578,1,8,2:0:0:0:
305,300,205663,2,0,L|354:291,1,40.4999987640381,8|8,2:0|2:0,2:0:0:0:
475,242,205833,2,0,L|412:232,1,40.4999987640381,8|8,2:3|2:3,2:0:0:0:
351,149,206002,5,4,2:3:0:0:
351,149,206087,1,8,2:0:0:0:
351,149,206172,2,0,L|363:85,1,40.4999987640381,8|8,2:3|2:3,2:0:0:0:
228,27,206341,1,8,2:0:0:0:
228,27,206426,1,8,2:3:0:0:
228,27,206511,2,0,L|240:91,1,40.4999987640381,4|0,2:3|3:0,2:0:0:0:
271,262,206680,5,6,3:2:0:0:
103,76,206850,1,0,2:0:0:0:
350,149,207019,1,10,2:0:0:0:
140,323,207189,1,0,2:0:0:0:
235,66,207358,5,2,3:2:0:0:
385,288,207527,1,2,3:2:0:0:
141,212,207697,1,10,2:0:0:0:
397,55,207866,1,0,2:0:0:0:
259,284,208036,5,2,3:2:0:0:
217,13,208205,1,2,3:2:0:0:
456,174,208375,1,10,2:0:0:0:
141,212,208545,2,0,L|122:106,1,99.0000030212403,2|0,2:0|3:0,2:0:0:0:
269,320,208883,1,0,3:0:0:0:
357,91,209053,2,0,P|308:72|256:89,1,99.0000030212403,8|2,2:0|2:0,2:0:0:0:
390,287,209392,5,2,3:2:0:0:
490,62,209561,1,2,2:0:0:0:
270,197,209731,1,10,2:0:0:0:
505,337,209900,1,0,2:0:0:0:
385,94,210070,1,2,3:2:0:0:
255,346,210239,1,2,3:2:0:0:
484,214,210409,1,10,2:0:0:0:
185,109,210578,6,0,L|197:222,1,99.0000030212403,2|0,2:0|3:0,2:0:0:0:
351,17,210917,1,2,3:2:0:0:
263,309,211087,1,10,2:0:0:0:
81,68,211256,1,2,3:2:0:0:
81,68,211341,1,0,3:0:0:0:
81,68,211426,1,0,3:0:0:0:
356,133,211595,1,0,3:0:0:0:
128,293,211765,2,0,P|71:305|23:283,1,99.0000030212403,8|2,2:0|2:0,2:0:0:0:
185,109,212104,6,0,L|197:222,1,99.0000030212403,6|0,3:2|2:0,2:0:0:0:
320,384,212443,2,0,L|330:285,1,99.0000030212403,10|0,2:0|2:0,2:0:0:0:
493,134,212782,1,2,3:2:0:0:
418,336,212951,1,0,3:0:0:0:
284,148,213121,2,0,P|341:140|380:160,1,99.0000030212403,10|0,2:0|2:0,2:0:0:0:
185,338,213460,5,2,3:2:0:0:
145,64,213629,1,0,3:0:0:0:
323,253,213799,2,0,L|223:233,1,99.0000030212403,10|0,2:0|2:0,2:0:0:0:
27,132,214138,1,2,3:2:0:0:
248,12,214307,1,0,3:0:0:0:
125,276,214477,2,0,L|113:159,1,99.0000030212403,10|0,2:0|2:0,2:0:0:0:
248,12,214816,6,0,P|301:47|258:170,1,198.000006042481,2|8,3:2|2:0,2:0:0:0:
93,307,215324,1,2,2:0:0:0:
337,258,215494,1,2,3:2:0:0:
128,91,215663,1,0,3:0:0:0:
211,363,215833,2,0,L|320:351,1,99.0000030212403,8|2,2:0|2:0,2:0:0:0:
413,117,216172,5,2,3:2:0:0:
202,244,216341,1,0,3:0:0:0:
438,335,216511,2,0,P|460:275|449:234,1,99.0000030212403,12|0,2:0|2:0,2:0:0:0:
306,99,216850,1,8,2:0:0:0:
262,77,216934,1,8,2:0:0:0:
215,88,217019,1,8,2:0:0:0:
186,127,217104,1,8,2:0:0:0:
164,153,217189,1,8,2:3:0:0:
133,163,217273,1,8,2:3:0:0:
100,159,217358,1,4,2:3:0:0:
74,140,217443,1,4,2:3:0:0:
61,113,217527,6,0,B|115:147|115:147|83:253,1,148.50000453186,6|0,3:2|2:0,2:0:0:0:
83,255,217866,2,0,P|129:281|183:266,1,99.0000030212403,8|0,2:0|2:0,2:0:0:0:
373,120,218205,5,2,3:2:0:0:
275,376,218375,1,2,3:2:0:0:
168,132,218544,1,10,2:0:0:0:
415,249,218714,1,0,3:0:0:0:
415,249,218799,1,0,3:0:0:0:
415,249,218883,5,2,3:2:0:0:
149,276,219053,1,2,3:2:0:0:
309,44,219222,1,10,2:0:0:0:
316,300,219392,1,2,3:2:0:0:
316,300,219477,1,0,3:0:0:0:
316,300,219561,2,0,L|294:186,1,99.0000030212403,0|0,3:0|3:0,2:0:0:0:
461,24,219900,2,0,L|442:121,1,99.0000030212403,8|2,2:0|2:0,2:0:0:0:
211,56,220239,5,6,3:2:0:0:
418,275,220409,1,2,3:2:0:0:
368,10,220578,1,10,2:0:0:0:
215,242,220748,1,2,3:2:0:0:
215,242,220833,1,0,3:0:0:0:
215,242,220917,1,8,2:0:0:0:
474,140,221087,1,2,3:2:0:0:
474,140,221426,6,0,B|358:146|422:76|283:80,1,198.000006042481,6|2,3:2|3:2,2:0:0:0:
101,258,221934,1,10,2:0:0:0:
322,181,222104,1,2,2:0:0:0:
122,49,222273,1,2,3:2:0:0:
231,287,222443,1,0,3:0:0:0:
269,5,222612,2,0,L|256:111,1,99.0000030212403,8|2,2:0|2:0,2:0:0:0:
83,264,222951,6,0,P|63:205|79:154,1,99.0000030212403,6|0,3:2|2:0,2:0:0:0:
354,77,223290,2,0,P|360:125|341:170,1,99.0000030212403,10|0,2:0|2:0,2:0:0:0:
198,361,223629,1,2,3:2:0:0:
157,120,223799,1,0,3:0:0:0:
322,297,223968,2,0,L|433:284,1,99.0000030212403,10|0,2:0|2:0,2:0:0:0:
330,47,224307,5,2,3:2:0:0:
174,234,224477,1,0,3:0:0:0:
420,285,224646,2,0,P|432:222|418:185,1,99.0000030212403,10|0,2:0|2:0,2:0:0:0:
203,24,224985,1,2,3:2:0:0:
468,84,225155,1,0,3:0:0:0:
279,241,225324,2,0,L|287:130,1,99.0000030212403,10|0,2:0|2:0,2:0:0:0:
82,15,225663,6,0,B|26:70|26:70|86:199,1,198.000006042481,6|8,3:2|2:0,2:0:0:0:
218,330,226172,1,0,2:0:0:0:
4,283,226341,1,0,3:0:0:0:
198,122,226511,1,0,3:0:0:0:
119,373,226680,2,0,P|107:311|129:273,1,99.0000030212403,12|0,2:0|2:0,2:0:0:0:
265,191,227019,5,8,2:3:0:0:
265,191,227104,1,8,2:3:0:0:
265,191,227189,2,0,L|259:249,1,49.5000015106202,4|4,2:3|2:3,2:0:0:0:
356,370,227358,1,8,2:0:0:0:
356,370,227443,1,8,2:0:0:0:
356,370,227527,2,0,L|350:312,1,49.5000015106202,8|8,2:0|2:0,2:0:0:0:
365,109,227697,1,8,2:3:0:0:
394,89,227782,1,8,2:3:0:0:
429,85,227866,1,8,2:3:0:0:
462,96,227951,1,8,2:3:0:0:
487,120,228036,1,4,2:3:0:0:
500,152,228121,1,4,2:3:0:0:
498,187,228205,1,4,2:3:0:0:
480,218,228290,1,4,2:3:0:0:
443,233,228375,6,0,B|325:209|395:290|252:253,1,180,6|8,3:2|2:0,2:0:0:0:
119,104,228883,1,0,2:0:0:0:
319,158,229053,1,2,3:2:0:0:
145,311,229222,1,2,3:2:0:0:
227,120,229392,2,0,P|231:78|201:32,1,90,8|0,2:0|2:0,2:0:0:0:
91,248,229731,5,2,3:2:0:0:
10,37,229900,2,0,L|109:25,1,90,2|8,2:0|2:0,2:0:0:0:
243,221,230239,1,2,2:0:0:0:
37,150,230409,1,0,3:0:0:0:
226,35,230578,1,2,3:2:0:0:
120,227,230748,2,0,P|112:284|131:320,1,90,10|0,2:0|2:0,2:0:0:0:
309,173,231087,6,8,B|244:162|244:162|214:133|214:133|129:119,1,180,2|8,3:2|2:0,2:0:0:0:
392,72,231595,1,0,2:0:0:0:
238,263,231765,1,2,3:2:0:0:
195,32,231934,1,2,3:2:0:0:
404,181,232104,2,0,P|414:231|401:282,1,90,8|0,2:0|2:0,2:0:0:0:
233,127,232443,5,2,3:2:0:0:
472,23,232612,1,2,3:2:0:0:
406,268,232782,2,0,L|306:254,1,90,8|2,2:0|2:0,2:0:0:0:
124,192,233121,1,4,2:3:0:0:
124,192,233205,1,4,2:3:0:0:
124,192,233290,2,0,L|134:252,1,45,8|8,2:3|2:3,2:0:0:0:
198,60,233460,1,8,2:0:0:0:
165,29,233544,1,8,2:0:0:0:
122,16,233629,1,8,2:0:0:0:
78,23,233714,1,8,2:0:0:0:
42,48,233799,6,0,B|-1:154|-1:154|45:217,1,180,4|8,3:2|2:0,2:0:0:0:
249,178,234307,2,0,P|215:119|94:139,1,180,4|0,3:2|3:0,2:0:0:0:
209,313,234816,1,8,2:0:0:0:
368,201,234985,6,0,B|363:136|363:136|383:96|383:96|372:9,1,180,4|0,3:2|3:0,2:0:0:0:
180,157,235494,1,8,2:0:0:0:
321,313,235663,2,0,P|411:321|470:250,1,180,4|0,3:2|3:0,2:0:0:0:
278,128,236172,1,8,2:0:0:0:
202,341,236341,1,0,3:0:0:0:
202,341,236426,1,0,3:0:0:0:
202,341,236511,5,12,2:0:0:0:
387,145,236680,1,0,3:0:0:0:
125,90,236850,5,8,2:0:0:0:
306,300,237019,1,0,3:0:0:0:
324,21,237189,5,8,2:0:0:0:
159,214,237358,1,0,3:0:0:0:
159,214,237443,1,0,3:0:0:0:
159,214,237527,2,0,L|52:200,1,90,8|0,2:0|2:0,2:0:0:0:
231,36,237866,5,8,2:0:0:0:
146,325,238036,1,8,2:0:0:0:
101,10,238205,1,8,2:0:0:0:
270,270,238375,5,2,3:2:0:0:
5,141,238714,5,2,3:2:0:0:
408,10,239053,5,6,3:2:0:0:
256,192,239138,12,0,242104,3:0:0:0:
