osu file format v14

[General]
AudioFilename: stellarium.mp3
AudioLeadIn: 1500
PreviewTime: 214605
Countdown: 0
SampleSet: Soft
StackLeniency: 0.7
Mode: 3
LetterboxInBreaks: 0
SpecialStyle: 0
WidescreenStoryboard: 0

[Editor]
DistanceSpacing: 0.8
BeatDivisor: 4
GridSize: 16
TimelineZoom: 2.899999

[Metadata]
Title:Stella-rium (DJ Noriken Bootleg)
TitleUnicode:Stella-rium (DJ Noriken Bootleg)
Artist:Kano
ArtistUnicode:鹿乃
Creator:MJH
Version:5K // Alpheratz
Source:放課後のプレアデス
Tags:Stellarium Electronic Japanese Anime Remix J-core jcore UK Hardcore Trance Trancecore OP opening Houkago no Pleiades Wish Upon the Pleiades 歌い手 utaite 大泉研人 Oizumi Kento MJHs LeiN- Interlude- Lude Hoto Cocoa
BeatmapID:2750734
BeatmapSetID:1327800

[Difficulty]
HPDrainRate:8.9
CircleSize:5
OverallDifficulty:8.2
ApproachRate:9
SliderMultiplier:1.4
SliderTickRate:1

[Events]
//Background and Video events
0,0,"stellarium1.png",0,0
//Break Periods
//Storyboard Layer 0 (Background)
//Storyboard Layer 1 (Fail)
//Storyboard Layer 2 (Pass)
//Storyboard Layer 3 (Foreground)
//Storyboard Layer 4 (Overlay)
//Storyboard Sound Samples
Sample,82948,0,"whistle.wav",70
Sample,85691,0,"whistle.wav",70
Sample,86548,0,"whistle.wav",70
Sample,89805,0,"whistle.wav",70
Sample,93920,0,"whistle.wav",70
Sample,96663,0,"whistle.wav",70
Sample,112777,0,"LR3_ReverseFXG.wav",70

[TimingPoints]
1006,342.857,4,2,1,60,1,0
124434,-100,4,2,1,60,0,1
145005,-100,4,2,1,60,0,0
146377,-100,4,2,1,60,0,1
166948,-100,4,2,1,60,0,0
214948,-100,4,2,1,60,0,1
235520,-100,4,2,1,60,0,0
236205,-111.111111111111,4,2,1,60,0,0
236891,-125,4,2,1,60,0,0
247863,-111.111111111111,4,2,1,60,0,0
257463,-100,4,2,1,60,0,0
291748,-100,4,2,1,60,0,1
312320,-100,4,2,1,60,0,0
316434,-100,4,2,1,60,0,1
334263,-100,4,2,1,60,0,0

[HitObjects]
51,0,1006,5,2,0:0:0:0:
460,0,1006,1,4,0:0:0:0:
358,0,1006,1,0,0:0:0:0:
153,0,1006,1,0,0:0:0:0:
460,0,1177,1,0,0:0:0:0:
256,0,1177,1,0,0:0:0:0:
51,0,1263,1,0,0:0:0:0:
358,0,1348,1,2,0:0:0:0:
153,0,1348,1,0,0:0:0:0:
256,0,1520,1,0,0:0:0:0:
51,0,1520,1,0,0:0:0:0:
153,0,1691,1,2,0:0:0:0:
51,0,1691,1,0,0:0:0:0:
358,0,1863,1,0,0:0:0:0:
256,0,1863,1,0,0:0:0:0:
51,0,1948,1,0,0:0:0:0:
460,0,2034,1,2,0:0:0:0:
153,0,2034,1,0,0:0:0:0:
358,0,2205,1,0,0:0:0:0:
51,0,2205,1,0,0:0:0:0:
358,0,2377,1,2,0:0:0:0:
153,0,2377,1,0,0:0:0:0:
51,0,2377,1,0,0:0:0:0:
460,0,2548,1,0,0:0:0:0:
256,0,2548,1,0,0:0:0:0:
51,0,2634,1,0,0:0:0:0:
358,0,2720,1,2,0:0:0:0:
153,0,2720,1,0,0:0:0:0:
256,0,2891,1,0,0:0:0:0:
51,0,2891,1,0,0:0:0:0:
153,0,3063,1,2,0:0:0:0:
51,0,3063,1,0,0:0:0:0:
358,0,3234,1,0,0:0:0:0:
256,0,3234,1,0,0:0:0:0:
51,0,3320,1,0,0:0:0:0:
460,0,3405,1,2,0:0:0:0:
153,0,3405,1,0,0:0:0:0:
358,0,3577,1,0,0:0:0:0:
51,0,3577,1,0,0:0:0:0:
358,0,3748,1,2,0:0:0:0:
153,0,3748,1,0,0:0:0:0:
51,0,3748,1,0,0:0:0:0:
460,0,3920,1,0,0:0:0:0:
256,0,3920,1,0,0:0:0:0:
153,0,4005,1,0,0:0:0:0:
358,0,4091,1,2,0:0:0:0:
51,0,4091,1,0,0:0:0:0:
256,0,4263,1,0,0:0:0:0:
153,0,4263,1,0,0:0:0:0:
460,0,4434,1,2,0:0:0:0:
153,0,4434,1,0,0:0:0:0:
358,0,4605,1,0,0:0:0:0:
51,0,4605,1,0,0:0:0:0:
153,0,4691,1,0,0:0:0:0:
460,0,4777,1,2,0:0:0:0:
256,0,4777,1,0,0:0:0:0:
358,0,4948,1,0,0:0:0:0:
153,0,4948,1,0,0:0:0:0:
358,0,5120,1,2,0:0:0:0:
153,0,5120,1,0,0:0:0:0:
51,0,5120,1,0,0:0:0:0:
460,0,5291,1,0,0:0:0:0:
256,0,5291,1,0,0:0:0:0:
153,0,5377,1,0,0:0:0:0:
358,0,5463,1,2,0:0:0:0:
51,0,5463,1,0,0:0:0:0:
256,0,5634,1,0,0:0:0:0:
153,0,5634,1,0,0:0:0:0:
460,0,5805,1,2,0:0:0:0:
153,0,5805,1,0,0:0:0:0:
358,0,5977,1,0,0:0:0:0:
51,0,5977,1,0,0:0:0:0:
153,0,6063,1,0,0:0:0:0:
460,0,6148,1,2,0:0:0:0:
256,0,6148,1,0,0:0:0:0:
358,0,6320,1,0,0:0:0:0:
153,0,6320,1,0,0:0:0:0:
460,0,6491,1,2,0:0:0:0:
358,0,6491,1,0,0:0:0:0:
153,0,6491,1,0,0:0:0:0:
460,0,6663,1,0,0:0:0:0:
51,0,6663,1,0,0:0:0:0:
358,0,6748,1,0,0:0:0:0:
256,0,6834,1,2,0:0:0:0:
153,0,6834,1,0,0:0:0:0:
358,0,7005,1,0,0:0:0:0:
51,0,7005,1,0,0:0:0:0:
358,0,7177,1,2,0:0:0:0:
256,0,7177,1,0,0:0:0:0:
460,0,7348,1,0,0:0:0:0:
153,0,7348,1,0,0:0:0:0:
358,0,7434,1,0,0:0:0:0:
256,0,7520,1,2,0:0:0:0:
51,0,7520,1,0,0:0:0:0:
358,0,7691,1,0,0:0:0:0:
153,0,7691,1,0,0:0:0:0:
460,0,7863,1,2,0:0:0:0:
358,0,7863,1,0,0:0:0:0:
153,0,7863,1,0,0:0:0:0:
460,0,8034,1,0,0:0:0:0:
51,0,8034,1,0,0:0:0:0:
358,0,8120,1,0,0:0:0:0:
256,0,8205,1,2,0:0:0:0:
153,0,8205,1,0,0:0:0:0:
358,0,8377,1,0,0:0:0:0:
51,0,8377,1,0,0:0:0:0:
358,0,8548,1,2,0:0:0:0:
256,0,8548,1,0,0:0:0:0:
460,0,8720,1,0,0:0:0:0:
153,0,8720,1,0,0:0:0:0:
358,0,8805,1,0,0:0:0:0:
256,0,8891,1,2,0:0:0:0:
51,0,8891,1,0,0:0:0:0:
358,0,9063,1,0,0:0:0:0:
153,0,9063,1,0,0:0:0:0:
460,0,9234,1,2,0:0:0:0:
358,0,9234,1,0,0:0:0:0:
153,0,9234,1,0,0:0:0:0:
256,0,9405,1,0,0:0:0:0:
51,0,9405,1,0,0:0:0:0:
460,0,9491,1,0,0:0:0:0:
358,0,9577,1,2,0:0:0:0:
153,0,9577,1,0,0:0:0:0:
460,0,9748,1,0,0:0:0:0:
51,0,9748,1,0,0:0:0:0:
460,0,9920,1,2,0:0:0:0:
256,0,9920,1,0,0:0:0:0:
358,0,10091,1,0,0:0:0:0:
153,0,10091,1,0,0:0:0:0:
460,0,10177,1,0,0:0:0:0:
256,0,10263,1,2,0:0:0:0:
51,0,10263,1,0,0:0:0:0:
460,0,10434,1,0,0:0:0:0:
358,0,10434,1,0,0:0:0:0:
460,0,10605,1,2,0:0:0:0:
358,0,10605,1,0,0:0:0:0:
153,0,10605,1,0,0:0:0:0:
256,0,10777,1,0,0:0:0:0:
51,0,10777,1,0,0:0:0:0:
460,0,10863,1,0,0:0:0:0:
358,0,10948,1,2,0:0:0:0:
153,0,10948,1,0,0:0:0:0:
460,0,11120,1,0,0:0:0:0:
51,0,11120,1,0,0:0:0:0:
153,0,11291,1,2,0:0:0:0:
460,0,11463,1,8,0:0:0:0:
358,0,11463,1,0,0:0:0:0:
460,0,11634,1,8,0:0:0:0:
358,0,11634,1,0,0:0:0:0:
256,0,11634,1,0,0:0:0:0:
153,0,11720,1,8,0:0:0:0:
51,0,11720,1,0,0:0:0:0:
460,0,11805,1,2,0:0:0:0:
358,0,11891,1,0,0:0:0:0:
256,0,11977,1,4,0:0:0:0:
460,0,11977,1,2,0:0:0:0:
51,0,11977,1,0,0:0:0:0:
153,0,11977,1,0,0:0:0:0:
460,0,12234,1,0,0:0:0:0:
256,0,12320,1,2,0:0:0:0:
358,0,12320,1,8,0:0:0:0:
51,0,12320,1,0,0:0:0:0:
153,0,12320,1,0,0:0:0:0:
460,0,12491,1,0,0:0:0:0:
256,0,12491,1,0,0:0:0:0:
358,0,12663,1,2,0:0:0:0:
460,0,12663,1,0,0:0:0:0:
51,0,12663,1,0,0:0:0:0:
153,0,12663,1,0,0:0:0:0:
460,0,12920,1,0,0:0:0:0:
256,0,13005,1,8,0:0:0:0:
358,0,13005,1,0,0:0:0:0:
51,0,13005,1,2,0:0:0:0:
153,0,13005,1,0,0:0:0:0:
460,0,13177,1,0,0:0:0:0:
153,0,13177,1,0,0:0:0:0:
358,0,13348,1,2,0:0:0:0:
460,0,13348,1,0,0:0:0:0:
51,0,13348,1,0,0:0:0:0:
256,0,13348,1,0,0:0:0:0:
358,0,13605,1,0,0:0:0:0:
256,0,13691,1,2,0:0:0:0:
460,0,13691,1,8,0:0:0:0:
51,0,13691,1,0,0:0:0:0:
153,0,13691,1,0,0:0:0:0:
358,0,13863,1,0,0:0:0:0:
256,0,13863,1,0,0:0:0:0:
358,0,14034,1,2,0:0:0:0:
460,0,14034,1,0,0:0:0:0:
51,0,14034,1,0,0:0:0:0:
153,0,14034,1,0,0:0:0:0:
358,0,14291,1,0,0:0:0:0:
256,0,14377,1,2,0:0:0:0:
460,0,14377,1,8,0:0:0:0:
51,0,14377,1,0,0:0:0:0:
153,0,14377,1,0,0:0:0:0:
358,0,14548,1,0,0:0:0:0:
51,0,14548,1,0,0:0:0:0:
358,0,14720,1,2,0:0:0:0:
460,0,14720,1,0,0:0:0:0:
153,0,14720,1,0,0:0:0:0:
256,0,14720,1,0,0:0:0:0:
153,0,14977,1,0,0:0:0:0:
358,0,15063,1,2,0:0:0:0:
460,0,15063,1,8,0:0:0:0:
51,0,15063,1,0,0:0:0:0:
256,0,15063,1,0,0:0:0:0:
256,0,15234,1,0,0:0:0:0:
153,0,15234,1,0,0:0:0:0:
358,0,15405,1,2,0:0:0:0:
460,0,15405,1,0,0:0:0:0:
51,0,15405,1,0,0:0:0:0:
153,0,15405,1,0,0:0:0:0:
153,0,15663,1,0,0:0:0:0:
358,0,15748,1,2,0:0:0:0:
460,0,15748,1,8,0:0:0:0:
51,0,15748,1,0,0:0:0:0:
256,0,15748,1,0,0:0:0:0:
358,0,15920,1,0,0:0:0:0:
153,0,15920,1,0,0:0:0:0:
256,0,16091,1,2,0:0:0:0:
460,0,16091,1,0,0:0:0:0:
51,0,16091,1,0,0:0:0:0:
153,0,16091,1,0,0:0:0:0:
51,0,16348,1,0,0:0:0:0:
358,0,16434,1,2,0:0:0:0:
460,0,16434,1,8,0:0:0:0:
153,0,16434,1,0,0:0:0:0:
256,0,16434,1,0,0:0:0:0:
358,0,16605,1,0,0:0:0:0:
51,0,16605,1,0,0:0:0:0:
256,0,16777,1,2,0:0:0:0:
460,0,16777,1,0,0:0:0:0:
51,0,16777,1,0,0:0:0:0:
153,0,16777,1,0,0:0:0:0:
51,0,17034,1,0,0:0:0:0:
358,0,17120,1,2,0:0:0:0:
460,0,17120,1,8,0:0:0:0:
153,0,17120,1,0,0:0:0:0:
256,0,17120,1,0,0:0:0:0:
256,0,17291,1,0,0:0:0:0:
51,0,17291,1,0,0:0:0:0:
358,0,17463,1,2,0:0:0:0:
460,0,17463,1,0,0:0:0:0:
51,0,17463,1,0,0:0:0:0:
153,0,17463,1,0,0:0:0:0:
358,0,17634,1,8,0:0:0:0:
51,0,17634,1,0,0:0:0:0:
358,0,17805,1,2,0:0:0:0:
460,0,17805,1,0,0:0:0:0:
153,0,17805,1,0,0:0:0:0:
256,0,17805,1,0,0:0:0:0:
358,0,17977,1,8,0:0:0:0:
153,0,17977,1,0,0:0:0:0:
358,0,18148,1,2,0:0:0:0:
460,0,18148,1,0,0:0:0:0:
51,0,18148,1,0,0:0:0:0:
256,0,18148,1,0,0:0:0:0:
358,0,18320,1,8,0:0:0:0:
256,0,18320,1,0,0:0:0:0:
358,0,18491,1,2,0:0:0:0:
460,0,18491,1,0,0:0:0:0:
51,0,18491,1,0,0:0:0:0:
153,0,18491,1,0,0:0:0:0:
358,0,18663,1,8,0:0:0:0:
51,0,18663,1,0,0:0:0:0:
256,0,18834,1,2,0:0:0:0:
358,0,18834,1,0,0:0:0:0:
460,0,18834,1,0,0:0:0:0:
153,0,18834,1,0,0:0:0:0:
460,0,19005,1,8,0:0:0:0:
153,0,19005,1,0,0:0:0:0:
256,0,19177,1,2,0:0:0:0:
358,0,19177,1,0,0:0:0:0:
51,0,19177,1,0,0:0:0:0:
153,0,19177,1,0,0:0:0:0:
256,0,19348,1,8,0:0:0:0:
153,0,19348,1,0,0:0:0:0:
358,0,19520,1,2,0:0:0:0:
460,0,19520,1,0,0:0:0:0:
51,0,19520,1,0,0:0:0:0:
153,0,19520,1,0,0:0:0:0:
358,0,19691,1,8,0:0:0:0:
153,0,19691,1,0,0:0:0:0:
256,0,19863,1,2,0:0:0:0:
460,0,19863,1,0,0:0:0:0:
51,0,19863,1,0,0:0:0:0:
153,0,19863,1,0,0:0:0:0:
460,0,20034,1,8,0:0:0:0:
153,0,20034,1,0,0:0:0:0:
358,0,20205,1,2,0:0:0:0:
153,0,20205,1,0,0:0:0:0:
51,0,20205,1,0,0:0:0:0:
460,0,20291,1,8,0:0:0:0:
256,0,20291,1,0,0:0:0:0:
358,0,20377,1,8,0:0:0:0:
153,0,20377,1,0,0:0:0:0:
460,0,20463,1,8,0:0:0:0:
51,0,20463,1,0,0:0:0:0:
358,0,20548,1,8,0:0:0:0:
256,0,20548,1,2,0:0:0:0:
460,0,20634,1,8,0:0:0:0:
51,0,20634,1,0,0:0:0:0:
256,0,20720,1,8,0:0:0:0:
153,0,20720,1,0,0:0:0:0:
358,0,20805,1,8,0:0:0:0:
51,0,20805,1,0,0:0:0:0:
460,0,20891,1,8,0:0:0:0:
256,0,20891,1,0,0:0:0:70:LR3_ReverseFXG.wav
153,0,20977,1,8,0:0:0:0:
51,0,20977,1,0,0:0:0:0:
460,0,21063,1,8,0:0:0:0:
256,0,21063,1,0,0:0:0:0:
358,0,21148,1,8,0:0:0:0:
153,0,21148,1,0,0:0:0:0:
256,0,21234,1,8,0:0:0:0:
51,0,21234,1,2,0:0:0:0:
460,0,21320,1,8,0:0:0:0:
153,0,21320,1,0,0:0:0:0:
358,0,21405,1,8,0:0:0:0:
51,0,21405,1,0,0:0:0:0:
256,0,21491,1,8,0:0:0:0:
358,0,21577,1,2,0:0:0:0:
460,0,21577,1,4,0:0:0:0:
51,0,21577,1,0,0:0:0:0:
153,0,21577,1,0,0:0:0:0:
358,0,22263,1,0,0:0:0:70:climax.wav
256,0,22263,1,0,0:0:0:0:
51,0,22263,1,0,0:0:0:0:
51,0,22348,1,0,0:0:0:0:
460,0,22434,1,0,0:0:0:0:
460,0,22520,1,0,0:0:0:0:
153,0,22605,1,0,0:0:0:0:
153,0,22691,1,0,0:0:0:0:
358,0,22777,1,0,0:0:0:0:
358,0,22863,1,0,0:0:0:0:
256,0,22948,1,2,0:0:0:0:
460,0,22948,1,4,0:0:0:0:
51,0,22948,128,0,23977:0:0:0:0:
153,0,22948,1,0,0:0:0:0:
358,0,23120,1,0,0:0:0:0:
460,0,23205,1,0,0:0:0:0:
358,0,23291,1,8,0:0:0:0:
256,0,23291,1,0,0:0:0:0:
153,0,23291,128,0,23634:0:0:0:0:
460,0,23463,1,0,0:0:0:0:
460,0,23634,1,2,0:0:0:0:
358,0,23634,1,0,0:0:0:0:
256,0,23805,1,0,0:0:0:0:
358,0,23891,1,0,0:0:0:0:
460,0,23977,128,8,24320:0:0:0:0:
256,0,23977,1,0,0:0:0:0:
153,0,23977,1,0,0:0:0:0:
358,0,24148,1,0,0:0:0:0:
358,0,24320,128,2,25177:0:0:0:0:
51,0,24320,1,0,0:0:0:0:
153,0,24491,1,0,0:0:0:0:
460,0,24577,1,0,0:0:0:0:
256,0,24663,1,8,0:0:0:0:
153,0,24663,1,0,0:0:0:0:
51,0,24663,128,0,25005:0:0:0:0:
256,0,24834,128,0,25005:0:0:0:0:
460,0,25005,1,2,0:0:0:0:
153,0,25005,1,0,0:0:0:0:
153,0,25177,128,0,25520:0:0:0:0:
256,0,25263,1,0,0:0:0:0:
460,0,25348,128,8,25691:0:0:0:0:
358,0,25348,1,0,0:0:0:0:
51,0,25348,1,0,0:0:0:0:
256,0,25520,128,0,25691:0:0:0:0:
358,0,25691,1,2,0:0:0:0:
153,0,25691,128,0,26720:0:0:0:0:
460,0,25863,1,0,0:0:0:0:
51,0,25948,1,0,0:0:0:0:
460,0,26034,1,8,0:0:0:0:
358,0,26034,128,0,26377:0:0:0:0:
256,0,26034,1,0,0:0:0:0:
51,0,26205,1,0,0:0:0:0:
256,0,26377,1,2,0:0:0:0:
51,0,26377,1,0,0:0:0:0:
358,0,26548,1,0,0:0:0:0:
460,0,26634,1,0,0:0:0:0:
256,0,26720,128,8,27063:0:0:0:0:
358,0,26720,1,0,0:0:0:0:
51,0,26720,1,0,0:0:0:0:
460,0,26891,1,0,0:0:0:0:
460,0,27063,128,2,27920:0:0:0:0:
153,0,27063,1,0,0:0:0:0:
358,0,27234,1,0,0:0:0:0:
51,0,27320,1,0,0:0:0:0:
358,0,27405,1,8,0:0:0:0:
256,0,27405,1,0,0:0:0:0:
153,0,27405,128,0,27748:0:0:0:0:
358,0,27577,128,0,27748:0:0:0:0:
256,0,27748,1,2,0:0:0:0:
51,0,27748,1,0,0:0:0:0:
358,0,27920,128,0,28263:0:0:0:0:
256,0,28005,1,0,0:0:0:0:
51,0,28091,128,8,28434:0:0:0:0:
460,0,28091,1,0,0:0:0:0:
153,0,28091,1,0,0:0:0:0:
153,0,28263,128,0,28434:0:0:0:0:
460,0,28434,1,2,0:0:0:0:
358,0,28434,128,0,29291:0:0:0:0:
256,0,28605,1,0,0:0:0:0:
51,0,28691,1,0,0:0:0:0:
460,0,28777,128,8,29120:0:0:0:0:
256,0,28777,1,0,0:0:0:0:
153,0,28777,1,0,0:0:0:0:
51,0,28948,1,0,0:0:0:0:
153,0,29120,1,2,0:0:0:0:
51,0,29120,128,0,29463:0:0:0:0:
460,0,29291,1,0,0:0:0:0:
256,0,29377,1,0,0:0:0:0:
153,0,29463,128,8,29805:0:0:0:0:
460,0,29463,1,0,0:0:0:0:
358,0,29463,1,0,0:0:0:0:
256,0,29634,1,0,0:0:0:0:
256,0,29805,1,2,0:0:0:0:
51,0,29805,128,0,30663:0:0:0:0:
358,0,29977,1,0,0:0:0:0:
460,0,30063,1,0,0:0:0:0:
358,0,30148,128,8,30491:0:0:0:0:
256,0,30148,1,0,0:0:0:0:
153,0,30148,1,0,0:0:0:0:
460,0,30320,1,0,0:0:0:0:
460,0,30491,128,2,30834:0:0:0:0:
153,0,30491,1,0,0:0:0:0:
358,0,30663,1,0,0:0:0:0:
153,0,30748,1,0,0:0:0:0:
256,0,30834,128,8,31177:0:0:0:0:
358,0,30834,1,0,0:0:0:0:
51,0,30834,1,0,0:0:0:0:
153,0,31005,1,0,0:0:0:0:
460,0,31177,128,2,32034:0:0:0:0:
153,0,31177,1,0,0:0:0:0:
51,0,31348,1,0,0:0:0:0:
256,0,31434,1,0,0:0:0:0:
358,0,31520,1,8,0:0:0:0:
153,0,31520,1,0,0:0:0:0:
51,0,31520,128,0,31863:0:0:0:0:
256,0,31691,1,0,0:0:0:0:
256,0,31863,128,2,32205:0:0:0:0:
358,0,32034,1,0,0:0:0:0:
153,0,32120,1,0,0:0:0:0:
358,0,32205,128,8,32548:0:0:0:0:
51,0,32205,128,0,32548:0:0:0:0:
460,0,32205,1,0,0:0:0:0:
153,0,32377,1,0,0:0:0:0:
256,0,32548,1,2,0:0:0:0:
153,0,32548,128,0,33234:0:0:0:0:
358,0,32720,1,0,0:0:0:0:
256,0,32805,1,0,0:0:0:0:
460,0,32891,128,8,33234:0:0:0:0:
358,0,32891,1,0,0:0:0:0:
51,0,32891,1,0,0:0:0:0:
256,0,33063,1,0,0:0:0:0:
358,0,33234,1,2,0:0:0:0:
51,0,33234,1,0,0:0:0:0:
460,0,33405,1,8,0:0:0:0:
358,0,33405,1,0,0:0:0:0:
460,0,33577,1,8,0:0:0:0:
358,0,33577,1,0,0:0:0:0:
153,0,33577,1,0,0:0:0:0:
256,0,33663,1,8,0:0:0:0:
51,0,33663,1,0,0:0:0:0:
358,0,33748,128,2,33920:0:0:0:0:
460,0,33920,1,2,0:0:0:0:
153,0,33920,1,4,0:0:0:0:
51,0,33920,128,0,34948:0:0:0:0:
256,0,34091,1,0,0:0:0:0:
460,0,34177,1,0,0:0:0:0:
358,0,34263,1,8,0:0:0:0:
256,0,34263,1,0,0:0:0:0:
153,0,34263,128,0,34605:0:0:0:0:
460,0,34434,1,0,0:0:0:0:
460,0,34605,1,2,0:0:0:0:
358,0,34605,1,0,0:0:0:0:
256,0,34777,1,0,0:0:0:0:
460,0,34863,1,0,0:0:0:0:
256,0,34948,128,8,35291:0:0:0:0:
358,0,34948,1,0,0:0:0:0:
153,0,34948,1,0,0:0:0:0:
460,0,35120,1,0,0:0:0:0:
460,0,35291,128,2,36148:0:0:0:0:
153,0,35291,1,0,0:0:0:0:
51,0,35463,1,0,0:0:0:0:
153,0,35548,1,0,0:0:0:0:
358,0,35634,1,8,0:0:0:0:
256,0,35634,1,0,0:0:0:0:
51,0,35634,128,0,35977:0:0:0:0:
358,0,35805,128,0,35977:0:0:0:0:
256,0,35977,1,2,0:0:0:0:
153,0,35977,1,0,0:0:0:0:
256,0,36148,128,0,36491:0:0:0:0:
51,0,36234,1,0,0:0:0:0:
153,0,36320,128,8,36663:0:0:0:0:
460,0,36320,1,0,0:0:0:0:
358,0,36320,1,0,0:0:0:0:
460,0,36491,128,0,36663:0:0:0:0:
358,0,36663,128,2,37691:0:0:0:0:
256,0,36663,1,0,0:0:0:0:
51,0,36663,1,4,0:0:0:0:
153,0,36834,1,0,0:0:0:0:
256,0,36920,1,0,0:0:0:0:
460,0,37005,128,8,37348:0:0:0:0:
153,0,37005,1,0,0:0:0:0:
51,0,37005,1,0,0:0:0:0:
256,0,37177,1,0,0:0:0:0:
256,0,37348,1,2,0:0:0:0:
153,0,37348,1,0,0:0:0:0:
51,0,37520,1,0,0:0:0:0:
153,0,37605,1,0,0:0:0:0:
256,0,37691,128,8,38034:0:0:0:0:
460,0,37691,1,0,0:0:0:0:
51,0,37691,1,0,0:0:0:0:
153,0,37863,1,0,0:0:0:0:
460,0,38034,1,2,0:0:0:0:
153,0,38034,128,0,38891:0:0:0:0:
358,0,38205,1,0,0:0:0:0:
51,0,38291,1,0,0:0:0:0:
460,0,38377,1,8,0:0:0:0:
358,0,38377,128,0,38720:0:0:0:0:
256,0,38377,1,0,0:0:0:0:
256,0,38548,128,0,38720:0:0:0:0:
460,0,38720,1,2,0:0:0:0:
51,0,38720,1,0,0:0:0:0:
256,0,38891,128,0,39234:0:0:0:0:
51,0,38977,1,0,0:0:0:0:
460,0,39063,128,8,39405:0:0:0:0:
358,0,39063,1,0,0:0:0:0:
153,0,39063,1,0,0:0:0:0:
153,0,39234,128,0,39405:0:0:0:0:
358,0,39405,1,4,0:0:0:0:
256,0,39405,1,2,0:0:0:0:
51,0,39405,128,0,40263:0:0:0:0:
460,0,39577,1,0,0:0:0:0:
256,0,39663,1,0,0:0:0:0:
460,0,39748,1,8,0:0:0:0:
358,0,39748,1,0,0:0:0:0:
153,0,39748,128,0,40091:0:0:0:0:
256,0,39920,1,0,0:0:0:0:
460,0,40091,1,2,0:0:0:0:
256,0,40091,128,0,40434:0:0:0:0:
153,0,40263,1,0,0:0:0:0:
358,0,40348,1,0,0:0:0:0:
460,0,40434,128,8,40777:0:0:0:0:
153,0,40434,1,0,0:0:0:0:
51,0,40434,1,0,0:0:0:0:
358,0,40605,1,0,0:0:0:0:
358,0,40777,128,4,41634:0:0:0:0:
256,0,40777,1,2,0:0:0:0:
153,0,40777,1,0,0:0:0:0:
51,0,40948,1,0,0:0:0:0:
256,0,41034,1,0,0:0:0:0:
460,0,41120,1,8,0:0:0:0:
153,0,41120,1,0,0:0:0:0:
51,0,41120,128,0,41463:0:0:0:0:
256,0,41291,1,0,0:0:0:0:
460,0,41463,1,2,0:0:0:0:
256,0,41463,128,0,41805:0:0:0:0:
153,0,41634,1,0,0:0:0:0:
460,0,41720,1,0,0:0:0:0:
153,0,41805,128,8,42148:0:0:0:0:
358,0,41805,1,0,0:0:0:0:
51,0,41805,1,0,0:0:0:0:
460,0,41977,1,0,0:0:0:0:
460,0,42148,128,4,43005:0:0:0:0:
256,0,42148,1,2,0:0:0:0:
51,0,42148,1,0,0:0:0:0:
358,0,42320,1,0,0:0:0:0:
51,0,42405,1,0,0:0:0:0:
358,0,42491,128,8,42834:0:0:0:0:
256,0,42491,1,0,0:0:0:0:
153,0,42491,1,0,0:0:0:0:
51,0,42663,1,0,0:0:0:0:
256,0,42834,1,0,0:0:0:70:LR3_ReverseFXG.wav
153,0,42834,1,4,0:0:0:0:
51,0,42834,128,2,43177:0:0:0:0:
358,0,43005,1,0,0:0:0:0:
256,0,43091,1,0,0:0:0:0:
460,0,43177,1,8,0:0:0:0:
358,0,43177,1,0,0:0:0:0:
153,0,43177,1,0,0:0:0:0:
256,0,43348,1,0,0:0:0:0:
358,0,43520,1,4,0:0:0:0:
460,0,43520,1,2,0:0:0:0:
51,0,43520,1,0,0:0:0:0:
153,0,43520,1,0,0:0:0:0:
358,0,44205,1,0,0:0:0:70:climax.wav
256,0,44205,1,0,0:0:0:0:
51,0,44205,1,0,0:0:0:0:
51,0,44291,1,0,0:0:0:0:
460,0,44377,1,0,0:0:0:0:
460,0,44463,1,0,0:0:0:0:
153,0,44548,1,0,0:0:0:0:
153,0,44634,1,0,0:0:0:0:
358,0,44720,1,0,0:0:0:0:
358,0,44805,1,0,0:0:0:0:
256,0,44891,1,0,0:0:0:70:whistle.wav
460,0,44891,1,4,0:0:0:0:
51,0,44891,1,2,0:0:0:0:
153,0,44891,1,0,0:0:0:0:
153,0,45234,1,2,0:0:0:0:
51,0,45234,1,0,0:0:0:0:
460,0,45405,1,0,0:0:0:70:whistle.wav
256,0,45405,1,0,0:0:0:0:
153,0,45577,1,2,0:0:0:0:
51,0,45577,1,0,0:0:0:0:
358,0,45748,1,0,0:0:0:0:
256,0,45920,1,2,0:0:0:0:
153,0,45920,1,0,0:0:0:70:whistle.wav
51,0,45920,1,0,0:0:0:0:
460,0,46091,1,0,0:0:0:0:
153,0,46263,1,2,0:0:0:0:
51,0,46263,1,0,0:0:0:0:
153,0,46605,1,2,0:0:0:0:
51,0,46605,1,0,0:0:0:0:
153,0,46948,1,0,0:0:0:0:
51,0,46948,1,0,0:0:0:0:
256,0,47291,1,2,0:0:0:0:
153,0,47291,1,0,0:0:0:70:whistle.wav
51,0,47291,1,0,0:0:0:0:
460,0,47634,1,2,0:0:0:0:
153,0,47634,1,0,0:0:0:70:whistle.wav
51,0,47634,1,0,0:0:0:0:
153,0,47977,1,2,0:0:0:0:
51,0,47977,1,0,0:0:0:0:
358,0,48148,1,0,0:0:0:70:whistle.wav
256,0,48148,1,0,0:0:0:0:
153,0,48320,1,2,0:0:0:0:
51,0,48320,1,0,0:0:0:0:
460,0,48491,1,0,0:0:0:0:
358,0,48663,1,2,0:0:0:0:
153,0,48663,1,0,0:0:0:70:whistle.wav
51,0,48663,1,0,0:0:0:0:
460,0,48834,1,0,0:0:0:0:
153,0,49005,1,2,0:0:0:0:
51,0,49005,1,0,0:0:0:0:
153,0,49348,1,2,0:0:0:0:
51,0,49348,1,0,0:0:0:0:
358,0,49520,128,0,49691:0:0:0:0:
153,0,49691,1,2,0:0:0:0:
51,0,49691,1,0,0:0:0:0:
460,0,49863,128,0,50034:0:0:0:0:
256,0,50034,1,2,0:0:0:0:
153,0,50034,1,0,0:0:0:70:whistle.wav
51,0,50034,1,0,0:0:0:0:
358,0,50205,1,0,0:0:0:0:
358,0,50377,1,2,0:0:0:0:
153,0,50377,1,0,0:0:0:70:whistle.wav
51,0,50377,1,0,0:0:0:0:
153,0,50720,1,2,0:0:0:0:
51,0,50720,1,0,0:0:0:0:
460,0,50891,1,0,0:0:0:70:whistle.wav
256,0,50891,1,0,0:0:0:0:
153,0,51063,1,2,0:0:0:0:
51,0,51063,1,0,0:0:0:0:
358,0,51234,1,0,0:0:0:0:
256,0,51405,1,2,0:0:0:0:
153,0,51405,1,0,0:0:0:70:whistle.wav
51,0,51405,1,0,0:0:0:0:
460,0,51577,1,0,0:0:0:0:
153,0,51748,1,2,0:0:0:0:
51,0,51748,1,0,0:0:0:0:
153,0,52091,1,2,0:0:0:0:
51,0,52091,1,0,0:0:0:0:
153,0,52434,1,2,0:0:0:0:
51,0,52434,1,0,0:0:0:0:
460,0,52777,1,2,0:0:0:0:
153,0,52777,1,0,0:0:0:70:whistle.wav
51,0,52777,1,0,0:0:0:0:
358,0,53120,1,2,0:0:0:0:
153,0,53120,1,0,0:0:0:70:whistle.wav
51,0,53120,1,0,0:0:0:0:
153,0,53463,1,2,0:0:0:0:
51,0,53463,1,0,0:0:0:0:
358,0,53634,128,0,53805:0:0:0:70:whistle.wav
256,0,53634,1,0,0:0:0:0:
153,0,53805,1,2,0:0:0:0:
51,0,53805,1,0,0:0:0:0:
460,0,53977,128,0,54148:0:0:0:0:
358,0,53977,1,0,0:0:0:0:
256,0,54148,1,2,0:0:0:0:
153,0,54148,1,0,0:0:0:70:whistle.wav
51,0,54148,1,0,0:0:0:0:
358,0,54320,128,0,55177:0:0:0:0:
460,0,54491,128,2,55863:0:0:0:0:
153,0,54491,1,0,0:0:0:0:
51,0,54491,1,0,0:0:0:0:
153,0,54834,1,2,0:0:0:0:
51,0,54834,1,0,0:0:0:0:
153,0,55177,1,2,0:0:0:0:
51,0,55177,1,0,0:0:0:0:
256,192,55348,1,0,0:0:0:70:whistle.wav
358,0,55520,1,2,0:0:0:0:
153,0,55520,1,0,0:0:0:0:
51,0,55520,1,0,0:0:0:0:
153,0,55691,1,0,0:0:0:70:whistle.wav
358,0,55863,1,2,0:0:0:0:
256,0,55863,1,4,0:0:0:0:
51,0,55863,1,0,0:0:0:0:
153,0,56120,1,0,0:0:0:0:
460,0,56205,1,2,0:0:0:0:
358,0,56205,1,0,0:0:0:70:chi.wav
256,0,56205,1,0,0:0:0:0:
153,0,56377,1,0,0:0:0:0:
51,0,56377,1,0,0:0:0:0:
460,0,56548,1,2,0:0:0:0:
358,0,56548,1,0,0:0:0:0:
256,0,56548,1,0,0:0:0:0:
358,0,56720,1,0,0:0:0:0:
51,0,56805,1,0,0:0:0:0:
460,0,56891,1,0,0:0:0:70:chi.wav
358,0,56891,1,2,0:0:0:0:
256,0,56891,1,0,0:0:0:0:
153,0,57063,1,0,0:0:0:0:
460,0,57234,1,2,0:0:0:0:
256,0,57234,1,0,0:0:0:0:
153,0,57234,1,0,0:0:0:0:
358,0,57491,1,0,0:0:0:0:
256,0,57577,1,2,0:0:0:0:
153,0,57577,1,0,0:0:0:70:chi.wav
51,0,57577,1,0,0:0:0:0:
358,0,57748,1,0,0:0:0:0:
256,0,57920,1,2,0:0:0:0:
153,0,57920,1,0,0:0:0:0:
51,0,57920,1,0,0:0:0:0:
51,0,58091,1,0,0:0:0:0:
460,0,58177,1,0,0:0:0:0:
256,0,58263,1,0,0:0:0:70:chi.wav
153,0,58263,1,2,0:0:0:0:
51,0,58263,1,0,0:0:0:0:
358,0,58434,1,0,0:0:0:0:
358,0,58605,1,2,0:0:0:0:
256,0,58605,1,0,0:0:0:0:
51,0,58605,1,0,0:0:0:0:
153,0,58863,1,0,0:0:0:0:
460,0,58948,1,0,0:0:0:70:chi.wav
358,0,58948,1,2,0:0:0:0:
256,0,58948,1,0,0:0:0:0:
153,0,59120,1,0,0:0:0:0:
51,0,59120,1,0,0:0:0:0:
460,0,59291,1,2,0:0:0:0:
358,0,59291,1,0,0:0:0:0:
256,0,59291,1,0,0:0:0:0:
358,0,59463,1,0,0:0:0:0:
51,0,59548,1,0,0:0:0:0:
460,0,59634,1,2,0:0:0:0:
358,0,59634,1,0,0:0:0:70:chi.wav
256,0,59634,1,0,0:0:0:0:
153,0,59805,1,0,0:0:0:0:
460,0,59977,1,2,0:0:0:0:
256,0,59977,1,0,0:0:0:0:
153,0,59977,1,0,0:0:0:0:
358,0,60234,1,0,0:0:0:0:
256,0,60320,1,2,0:0:0:0:
153,0,60320,1,0,0:0:0:70:chi.wav
51,0,60320,1,0,0:0:0:0:
358,0,60491,1,0,0:0:0:0:
256,0,60663,1,2,0:0:0:0:
153,0,60663,1,0,0:0:0:0:
51,0,60663,1,0,0:0:0:0:
51,0,60834,1,0,0:0:0:0:
460,0,60920,1,0,0:0:0:0:
256,0,61005,1,0,0:0:0:70:chi.wav
153,0,61005,1,2,0:0:0:0:
51,0,61005,1,0,0:0:0:0:
358,0,61177,1,0,0:0:0:0:
358,0,61348,1,2,0:0:0:0:
256,0,61348,1,4,0:0:0:0:
51,0,61348,1,0,0:0:0:0:
256,0,61520,1,8,0:0:0:0:
51,0,61520,1,0,0:0:0:0:
460,0,61605,1,0,0:0:0:0:
358,0,61691,1,2,0:0:0:0:
256,0,61691,1,0,0:0:0:0:
153,0,61691,1,0,0:0:0:0:
460,0,61863,1,8,0:0:0:0:
358,0,61863,1,0,0:0:0:0:
256,0,61863,1,0,0:0:0:0:
358,0,62034,1,2,0:0:0:0:
153,0,62034,1,0,0:0:0:0:
51,0,62034,1,0,0:0:0:0:
358,0,62205,1,8,0:0:0:0:
51,0,62205,1,0,0:0:0:0:
256,0,62291,1,0,0:0:0:0:
460,0,62377,1,2,0:0:0:0:
153,0,62377,1,0,0:0:0:0:
51,0,62377,1,0,0:0:0:0:
153,0,62548,1,8,0:0:0:0:
51,0,62548,1,0,0:0:0:0:
460,0,62720,1,2,0:0:0:0:
358,0,62720,1,4,0:0:0:0:
153,0,62720,1,0,0:0:0:0:
460,0,62891,1,8,0:0:0:0:
153,0,62891,1,0,0:0:0:0:
256,0,62977,1,0,0:0:0:0:
460,0,63063,1,2,0:0:0:0:
358,0,63063,1,0,0:0:0:0:
51,0,63063,1,0,0:0:0:0:
460,0,63234,1,8,0:0:0:0:
153,0,63234,1,0,0:0:0:0:
358,0,63405,1,2,0:0:0:0:
256,0,63405,1,0,0:0:0:0:
153,0,63405,1,0,0:0:0:0:
358,0,63577,1,8,0:0:0:0:
153,0,63577,1,0,0:0:0:0:
51,0,63663,1,0,0:0:0:0:
460,0,63748,1,2,0:0:0:0:
256,0,63748,1,0,0:0:0:0:
153,0,63748,1,0,0:0:0:0:
256,0,63920,1,8,0:0:0:0:
153,0,63920,1,0,0:0:0:0:
460,0,64091,1,8,0:0:0:0:
256,0,64091,1,4,0:0:0:0:
51,0,64091,1,2,0:0:0:0:
358,0,64177,1,8,0:0:0:0:
153,0,64177,1,0,0:0:0:0:
460,0,64263,1,8,0:0:0:0:
51,0,64263,1,0,0:0:0:0:
358,0,64348,1,8,0:0:0:0:
256,0,64348,1,0,0:0:0:0:
460,0,64434,1,2,0:0:0:0:
153,0,64434,1,8,0:0:0:0:
256,0,64520,1,8,0:0:0:0:
51,0,64520,1,0,0:0:0:0:
460,0,64605,1,8,0:0:0:0:
358,0,64605,1,0,0:0:0:0:
256,0,64691,1,8,0:0:0:0:
153,0,64691,1,0,0:0:0:0:
358,0,64777,1,10,0:0:0:0:
51,192,64777,1,0,0:0:0:70:LR3_ReverseFXG.wav
460,0,64863,1,8,0:0:0:0:
153,0,64863,1,0,0:0:0:0:
358,0,64948,1,8,0:0:0:0:
51,0,64948,1,0,0:0:0:0:
256,0,65034,1,8,0:0:0:0:
153,0,65034,1,0,0:0:0:0:
460,0,65120,1,8,0:0:0:0:
358,0,65120,1,2,0:0:0:0:
51,0,65120,1,0,0:0:0:0:
256,0,65205,1,8,0:0:0:0:
153,0,65205,1,0,0:0:0:0:
460,0,65291,1,8,0:0:0:0:
51,0,65291,1,0,0:0:0:0:
256,0,65377,1,8,0:0:0:0:
358,0,65377,1,0,0:0:0:0:
460,0,65463,1,4,0:0:0:0:
51,0,65463,128,2,65977:0:0:0:0:
153,0,65463,128,0,65977:0:0:0:0:
358,0,65977,1,2,0:0:0:0:
256,0,65977,1,0,0:0:0:0:
460,0,66148,128,8,66491:0:0:0:0:
256,0,66148,128,0,66405:0:0:0:0:
51,0,66148,128,0,66320:0:0:0:0:
153,0,66491,1,2,0:0:0:0:
51,0,66491,1,0,0:0:0:0:
460,0,66663,1,2,0:0:0:0:
358,0,66663,1,0,0:0:0:0:
51,0,66720,1,2,0:0:0:0:
153,0,66777,1,2,0:0:0:0:
358,0,66834,128,4,67434:0:0:0:0:
460,0,66834,128,0,67434:0:0:0:70:whistle.wav
51,0,66834,128,2,67263:0:0:0:0:
256,0,66834,1,0,0:0:0:0:
153,0,67348,1,2,0:0:0:0:
51,0,67348,1,0,0:0:0:0:
460,0,67520,1,8,0:0:0:0:
358,0,67520,1,0,0:0:0:0:
256,0,67520,1,0,0:0:0:0:
51,0,67577,1,0,0:0:0:0:
153,0,67634,1,0,0:0:0:0:
358,0,67691,1,2,0:0:0:0:
256,0,67691,1,0,0:0:0:0:
51,0,67748,1,0,0:0:0:0:
153,0,67805,1,0,0:0:0:0:
256,0,67863,1,0,0:0:0:0:
358,0,67920,1,0,0:0:0:0:
153,0,67977,1,0,0:0:0:0:
256,0,68034,1,0,0:0:0:0:
358,0,68091,1,0,0:0:0:0:
460,0,68148,1,0,0:0:0:0:
256,0,68205,1,0,0:0:0:70:whistle.wav
153,0,68205,1,0,0:0:0:0:
51,0,68205,128,0,68805:0:0:0:0:
460,0,68377,1,8,0:0:0:0:
358,0,68377,128,0,68805:0:0:0:0:
153,0,68377,128,0,68634:0:0:0:0:
256,0,68720,1,2,0:0:0:0:
153,0,68720,1,0,0:0:0:0:
460,0,68891,1,8,0:0:0:0:
358,0,68891,1,0,0:0:0:70:whistle.wav
51,0,68891,1,0,0:0:0:0:
460,0,69063,128,2,69405:0:0:0:0:
256,0,69063,128,0,69405:0:0:0:0:
51,0,69234,128,0,69577:0:0:0:0:
358,0,69577,128,4,70177:0:0:0:0:
460,0,69577,128,2,70177:0:0:0:0:
153,0,69577,128,0,70005:0:0:0:70:whistle.wav
256,192,69577,1,0,0:0:0:0:
153,0,70091,1,2,0:0:0:0:
51,0,70091,1,0,0:0:0:0:
460,0,70263,1,8,0:0:0:0:
358,0,70263,1,0,0:0:0:0:
256,0,70263,1,0,0:0:0:0:
256,0,70434,1,2,0:0:0:0:
51,0,70434,1,0,0:0:0:0:
460,0,70491,1,0,0:0:0:0:
153,0,70548,1,0,0:0:0:0:
358,0,70605,1,0,0:0:0:0:
51,0,70777,1,0,0:0:0:0:
358,0,70948,1,2,0:0:0:0:
153,0,70948,128,0,71377:0:0:0:0:
51,0,70948,1,0,0:0:0:0:
460,0,71120,128,8,71548:0:0:0:0:
358,0,71120,1,0,0:0:0:0:
256,0,71120,128,0,71548:0:0:0:0:
358,0,71463,1,2,0:0:0:0:
153,0,71463,1,0,0:0:0:0:
460,0,71634,1,8,0:0:0:0:
256,0,71634,1,0,0:0:0:0:
51,0,71634,128,0,71920:0:0:0:0:
460,0,71805,1,0,0:0:0:0:
153,0,71805,1,0,0:0:0:0:
358,0,71863,1,0,0:0:0:0:
256,0,71920,128,0,72320:0:0:0:0:
460,0,72063,128,0,72234:0:0:0:0:
358,0,72120,128,0,72234:0:0:0:0:
358,0,72320,1,2,0:0:0:0:
460,0,72320,1,4,0:0:0:0:
51,0,72320,1,0,0:0:0:0:
153,0,72320,1,0,0:0:0:0:
256,0,72491,1,0,0:0:0:0:
460,0,72663,1,8,0:0:0:0:
358,0,72663,1,2,0:0:0:0:
51,0,72663,1,0,0:0:0:0:
256,0,72834,1,0,0:0:0:0:
460,0,73005,1,2,0:0:0:0:
153,0,73005,1,8,0:0:0:0:
51,0,73005,1,0,0:0:0:0:
256,0,73177,1,0,0:0:0:0:
460,0,73348,1,8,0:0:0:0:
358,0,73348,1,2,0:0:0:0:
51,0,73348,1,0,0:0:0:0:
256,0,73520,1,0,0:0:0:0:
358,0,73691,1,8,0:0:0:0:
460,0,73691,1,4,0:0:0:0:
51,0,73691,1,2,0:0:0:0:
153,0,73691,1,0,0:0:0:0:
256,0,73863,1,0,0:0:0:0:
460,0,74034,1,2,0:0:0:0:
358,0,74034,1,8,0:0:0:0:
51,0,74034,1,0,0:0:0:0:
256,0,74205,1,0,0:0:0:0:
153,0,74205,1,0,0:0:0:0:
460,0,74377,1,8,0:0:0:0:
358,0,74377,1,2,0:0:0:0:
51,0,74377,1,0,0:0:0:0:
256,0,74548,1,0,0:0:0:0:
460,0,74720,1,2,0:0:0:0:
153,0,74720,1,8,0:0:0:0:
51,0,74720,1,0,0:0:0:0:
256,0,74891,1,0,0:0:0:0:
358,0,75063,1,4,0:0:0:0:
460,0,75063,1,2,0:0:0:0:
51,0,75063,1,0,0:0:0:0:
153,0,75063,1,0,0:0:0:0:
358,0,75234,1,8,0:0:0:0:
51,0,75234,1,0,0:0:0:0:
460,0,75405,1,2,0:0:0:0:
256,0,75405,1,0,0:0:0:0:
153,0,75405,1,0,0:0:0:0:
358,0,75577,1,8,0:0:0:0:
153,0,75577,1,0,0:0:0:0:
358,0,75748,1,2,0:0:0:0:
460,0,75748,1,4,0:0:0:0:
51,0,75748,1,0,0:0:0:0:
256,0,75748,1,0,0:0:0:0:
358,0,75920,1,8,0:0:0:0:
256,0,75920,1,0,0:0:0:0:
460,0,76091,1,2,0:0:0:0:
153,0,76091,1,0,0:0:0:0:
51,0,76091,1,0,0:0:0:0:
358,0,76263,1,8,0:0:0:0:
51,0,76263,1,0,0:0:0:0:
358,0,76434,1,4,0:0:0:0:
460,0,76434,1,2,0:0:0:0:
153,0,76434,1,0,0:0:0:0:
256,0,76434,1,0,0:0:0:0:
358,0,76605,1,8,0:0:0:0:
153,0,76605,1,0,0:0:0:0:
460,0,76777,1,2,0:0:0:0:
256,0,76777,1,0,0:0:0:0:
51,0,76777,1,0,0:0:0:0:
358,0,76948,1,8,0:0:0:0:
256,0,76948,1,0,0:0:0:0:
358,0,77120,1,4,0:0:0:0:
460,0,77120,1,2,0:0:0:0:
51,0,77120,1,0,0:0:0:0:
153,0,77120,1,0,0:0:0:0:
358,0,77291,1,8,0:0:0:0:
153,0,77291,1,0,0:0:0:0:
460,0,77463,1,2,0:0:0:0:
256,0,77463,1,0,0:0:0:0:
51,0,77463,1,0,0:0:0:0:
358,0,77634,1,8,0:0:0:0:
51,0,77634,1,0,0:0:0:0:
358,0,77805,1,4,0:0:0:0:
460,0,77805,1,2,0:0:0:0:
51,0,77805,1,0,0:0:0:0:
153,0,77805,1,0,0:0:0:0:
256,0,77891,1,8,0:0:0:0:
460,0,77977,1,8,0:0:0:0:
256,0,78063,1,8,0:0:0:0:
358,0,78148,1,8,0:0:0:0:
153,0,78234,1,8,0:0:0:0:
358,0,78320,1,8,0:0:0:0:
51,0,78405,1,8,0:0:0:0:
460,0,78491,1,8,0:0:0:0:
256,0,78577,1,8,0:0:0:0:
460,0,78663,1,8,0:0:0:0:
256,0,78748,1,8,0:0:0:0:
358,0,78834,1,8,0:0:0:0:
153,0,78920,1,8,0:0:0:0:
358,0,79005,1,8,0:0:0:0:
51,0,79091,1,8,0:0:0:0:
358,0,79177,1,4,0:0:0:0:
460,0,79177,1,2,0:0:0:0:
153,0,79177,1,0,0:0:0:0:
256,0,79177,1,0,0:0:0:0:
256,0,79348,1,4,0:0:0:0:
358,0,79348,1,2,0:0:0:0:
51,0,79348,1,0,0:0:0:0:
153,0,79348,1,0,0:0:0:0:
256,0,79520,1,2,0:0:0:0:
460,0,79520,1,4,0:0:0:0:
51,0,79520,1,0,0:0:0:0:
153,0,79520,1,0,0:0:0:0:
358,0,79691,1,4,0:0:0:0:
460,0,79691,1,2,0:0:0:0:
51,0,79691,1,0,0:0:0:0:
256,0,79691,1,0,0:0:0:0:
460,0,80205,1,0,0:0:0:70:climax.wav
256,0,80205,1,0,0:0:0:0:
51,0,80205,1,0,0:0:0:0:
358,0,80377,1,0,0:0:0:0:
358,0,80548,1,2,0:0:0:0:
460,0,80548,1,0,0:0:0:70:whistle.wav
51,0,80548,1,0,0:0:0:70:twinkling.wav
153,0,80548,1,4,0:0:0:0:
256,0,80720,1,0,0:0:0:0:
153,0,80891,1,0,0:0:0:0:
153,0,81063,1,0,0:0:0:70:whistle.wav
358,0,81234,1,0,0:0:0:0:
256,0,81405,1,0,0:0:0:0:
460,0,81577,1,0,0:0:0:70:whistle.wav
358,0,81748,1,0,0:0:0:0:
358,0,81920,1,0,0:0:0:0:
153,0,82091,1,0,0:0:0:0:
460,0,82263,128,0,82905:0:0:0:0:
256,0,82434,128,0,83291:0:0:0:0:
51,0,83120,128,0,83291:0:0:0:0:
358,0,83291,128,0,83548:0:0:0:70:whistle.wav
153,0,83634,1,0,0:0:0:0:
358,0,83805,1,0,0:0:0:70:whistle.wav
460,0,83977,1,0,0:0:0:0:
460,0,84148,1,0,0:0:0:0:
256,0,84320,1,0,0:0:0:70:whistle.wav
51,0,84491,1,0,0:0:0:0:
153,0,84663,1,0,0:0:0:0:
358,0,84834,1,0,0:0:0:0:
51,0,85005,128,0,85563:0:0:0:0:
256,0,85177,128,0,86034:0:0:0:0:
153,0,85863,128,0,86377:0:0:0:0:
460,0,86034,128,0,86720:0:0:0:70:whistle.wav
51,0,86377,128,0,87063:0:0:0:0:
358,0,86720,128,0,87405:0:0:0:0:
153,0,87063,128,0,87748:0:0:0:70:whistle.wav
256,0,87405,128,0,88091:0:0:0:0:
51,0,87748,128,0,88434:0:0:0:0:
358,0,88091,128,0,88777:0:0:0:0:
153,0,88434,128,0,89291:0:0:0:70:whistle.wav
460,0,88777,128,0,89291:0:0:0:70:whistle.wav
358,0,89291,128,0,89977:0:0:0:70:whistle.wav
51,0,89463,128,0,89977:0:0:0:0:
460,0,89977,128,0,90748:0:0:0:0:
51,0,90148,128,0,91520:0:0:0:0:
358,0,91177,128,0,91520:0:0:0:70:whistle.wav
256,0,91348,1,0,0:0:0:0:
460,0,91520,128,0,92034:0:0:0:70:whistle.wav
153,0,91520,1,0,0:0:0:70:pplclap.wav
256,0,91863,1,0,0:0:0:70:pplclap.wav
153,0,91863,1,0,0:0:0:0:
358,0,92034,128,0,92548:0:0:0:70:whistle.wav
51,0,92034,1,0,0:0:0:0:
460,0,92205,1,0,0:0:0:70:pplclap.wav
256,0,92205,1,0,0:0:0:0:
153,0,92377,1,0,0:0:0:0:
256,0,92548,128,0,93920:0:0:0:70:whistle.wav
153,0,92548,1,0,0:0:0:70:pplclap.wav
51,0,92720,1,0,0:0:0:0:
460,0,92891,1,0,0:0:0:70:pplclap.wav
153,0,92891,1,0,0:0:0:0:
358,0,93063,1,0,0:0:0:0:
460,0,93234,128,0,93920:0:0:0:70:pplclap.wav
51,0,93234,1,0,0:0:0:0:
358,0,93405,128,0,93920:0:0:0:0:
153,0,93577,1,0,0:0:0:70:pplclap.wav
51,192,93920,128,0,94263:0:0:0:70:pplclap.wav
153,0,94091,1,0,0:0:0:0:
358,0,94263,1,0,0:0:0:70:whistle.wav
256,0,94263,128,0,94777:0:0:0:70:pplclap.wav
460,0,94434,1,0,0:0:0:0:
460,0,94605,1,0,0:0:0:70:pplclap.wav
51,0,94605,1,0,0:0:0:0:
358,0,94777,1,0,0:0:0:70:whistle.wav
153,0,94777,128,0,95291:0:0:0:0:
460,0,94948,1,0,0:0:0:70:pplclap.wav
256,0,94948,1,0,0:0:0:0:
358,0,95120,1,0,0:0:0:0:
51,0,95291,128,0,96663:0:0:0:70:pplclap.wav
256,0,95291,1,0,0:0:0:70:whistle.wav
460,0,95463,128,0,95805:0:0:0:0:
256,0,95634,1,0,0:0:0:70:pplclap.wav
358,0,95805,1,0,0:0:0:0:
460,0,95977,1,0,0:0:0:70:pplclap.wav
153,0,95977,1,0,0:0:0:0:
256,0,96148,128,0,96663:0:0:0:0:
460,0,96320,128,0,96663:0:0:0:70:pplclap.wav
358,0,96320,1,0,0:0:0:0:
153,0,96491,1,0,0:0:0:0:
358,0,96663,128,0,97005:0:0:0:70:pplclap.wav
256,0,96834,1,0,0:0:0:0:
460,0,97005,128,0,97348:0:0:0:70:pplclap.wav
153,0,97005,128,0,97520:0:0:0:70:whistle.wav
256,0,97177,1,0,0:0:0:0:
358,0,97348,128,0,97691:0:0:0:70:pplclap.wav
51,0,97348,1,0,0:0:0:0:
460,0,97520,128,0,98034:0:0:0:70:whistle.wav
256,0,97691,128,0,98034:0:0:0:70:pplclap.wav
51,0,97691,1,0,0:0:0:0:
153,0,97863,1,0,0:0:0:0:
358,0,98034,128,0,99405:0:0:0:70:whistle.wav
51,0,98034,128,0,98377:0:0:0:70:pplclap.wav
460,0,98205,1,0,0:0:0:0:
256,0,98377,1,0,0:0:0:70:pplclap.wav
153,0,98377,128,0,98720:0:0:0:0:
460,0,98548,1,0,0:0:0:0:
256,0,98720,128,0,99063:0:0:0:70:pplclap.wav
51,0,98720,1,0,0:0:0:0:
153,0,98891,1,0,0:0:0:0:
460,0,99063,128,0,99405:0:0:0:70:pplclap.wav
51,0,99063,1,0,0:0:0:0:
153,0,99234,1,0,0:0:0:0:
153,0,99405,128,0,99748:0:0:0:70:whistle.wav
51,0,99405,128,0,99748:0:0:0:70:pplclap.wav
358,0,99577,1,0,0:0:0:0:
460,0,99748,128,0,101120:0:0:0:70:whistle.wav
358,0,99748,128,0,100263:0:0:0:70:pplclap.wav
256,0,99920,1,0,0:0:0:0:
153,0,100091,1,0,0:0:0:70:pplclap.wav
51,0,100091,1,0,0:0:0:0:
256,0,100263,128,0,100777:0:0:0:70:whistle.wav
358,0,100434,1,0,0:0:0:70:pplclap.wav
51,0,100434,1,0,0:0:0:0:
153,0,100605,1,0,0:0:0:0:
358,0,100777,1,0,0:0:0:70:whistle.wav
51,0,100777,1,0,0:0:0:70:pplclap.wav
256,0,100948,1,0,0:0:0:0:
358,0,101120,1,4,0:0:0:0:
153,0,101120,1,2,0:0:0:0:
51,0,101120,1,0,0:0:0:0:
460,0,101805,1,0,0:0:0:70:LR3_ReverseFXG.wav
256,0,101805,1,0,0:0:0:70:climax.wav
51,0,101805,1,0,0:0:0:0:
358,0,102491,128,4,102748:0:0:0:0:
460,0,102491,1,2,0:0:0:0:
51,0,102491,128,0,103005:0:0:0:0:
256,0,102491,1,0,0:0:0:0:
460,0,102748,128,0,103348:0:0:0:0:
153,0,102748,128,0,103005:0:0:0:0:
358,0,103005,128,0,103348:0:0:0:0:
256,0,103005,128,0,103520:0:0:0:0:
51,0,103263,128,0,103863:0:0:0:0:
153,0,103263,128,0,103691:0:0:0:0:
460,0,103520,128,0,103691:0:0:0:0:
358,0,103520,1,0,0:0:0:0:
358,0,103691,128,0,103863:0:0:0:0:
256,0,103691,128,0,103863:0:0:0:0:
460,0,103863,128,0,104377:0:0:0:0:
153,0,103863,128,0,104120:0:0:0:0:
358,0,104120,128,0,104377:0:0:0:0:
51,0,104120,128,0,104720:0:0:0:0:
256,0,104377,128,0,104720:0:0:0:0:
153,0,104377,128,0,104891:0:0:0:0:
460,0,104634,128,0,105234:0:0:0:0:
358,0,104634,128,0,105063:0:0:0:0:
256,0,104891,128,0,105063:0:0:0:0:
51,0,104891,1,0,0:0:0:0:
153,0,105063,128,0,105234:0:0:0:0:
51,0,105063,128,0,105234:0:0:0:0:
358,0,105234,128,0,105491:0:0:0:0:
256,0,105234,128,0,105748:0:0:0:0:
460,0,105491,128,0,105748:0:0:0:0:
153,0,105491,128,0,106091:0:0:0:0:
358,0,105748,128,0,106091:0:0:0:0:
51,0,105748,128,0,106263:0:0:0:0:
460,0,106005,128,0,106605:0:0:0:0:
256,0,106005,128,0,106434:0:0:0:0:
358,0,106263,1,0,0:0:0:0:
153,0,106263,128,0,106434:0:0:0:0:
358,0,106434,128,0,106605:0:0:0:0:
51,0,106434,128,0,106605:0:0:0:0:
256,0,106605,128,0,107120:0:0:0:0:
153,0,106605,128,0,106863:0:0:0:0:
358,0,106863,128,0,107463:0:0:0:0:
51,0,106863,128,0,107120:0:0:0:0:
460,0,107120,128,0,107463:0:0:0:0:
153,0,107120,128,0,107634:0:0:0:0:
256,0,107377,128,0,107977:0:0:0:0:
51,0,107377,128,0,107805:0:0:0:0:
460,0,107634,1,0,0:0:0:0:
358,0,107634,128,0,107805:0:0:0:0:
460,0,107805,128,0,107977:0:0:0:0:
153,0,107805,128,0,107977:0:0:0:0:
358,0,107977,128,0,108234:0:0:0:0:
51,0,107977,128,0,108491:0:0:0:0:
460,0,108234,128,0,108834:0:0:0:0:
153,0,108234,128,0,108491:0:0:0:0:
358,0,108491,128,0,108834:0:0:0:0:
256,0,108491,128,0,109005:0:0:0:0:
51,0,108748,128,0,109348:0:0:0:0:
153,0,108748,128,0,109177:0:0:0:0:
460,0,109005,128,0,109177:0:0:0:0:
358,0,109005,1,0,0:0:0:0:
358,0,109177,128,0,109348:0:0:0:0:
256,0,109177,128,0,109348:0:0:0:0:
460,0,109348,128,0,109863:0:0:0:0:
153,0,109348,128,0,109605:0:0:0:0:
358,0,109605,128,0,109863:0:0:0:0:
51,0,109605,128,0,110205:0:0:0:0:
256,0,109863,128,0,110205:0:0:0:0:
153,0,109863,128,0,110377:0:0:0:0:
460,0,110120,128,0,110720:0:0:0:0:
358,0,110120,128,0,110548:0:0:0:0:
256,0,110377,128,0,110548:0:0:0:0:
51,0,110377,1,0,0:0:0:0:
153,0,110548,128,0,110720:0:0:0:0:
51,0,110548,128,0,110720:0:0:0:0:
358,0,110720,128,0,110977:0:0:0:0:
256,0,110720,128,0,111405:0:0:0:0:
460,0,110977,128,0,111834:0:0:0:0:
153,0,110977,128,0,111663:0:0:0:0:
358,0,111234,128,0,112263:0:0:0:0:
51,0,111234,128,0,112005:0:0:0:0:
256,0,111491,128,0,112348:0:0:0:0:
153,0,111748,128,0,112605:0:0:0:0:
460,0,111920,128,0,112777:0:0:0:0:
51,0,112091,128,0,112520:0:0:0:0:
358,0,112348,128,0,112863:0:0:0:0:
51,0,112605,128,0,113120:0:0:0:0:
460,0,112863,128,0,113291:0:0:0:0:
153,0,113120,1,0,0:0:0:0:
358,0,113291,1,0,0:0:0:0:
358,0,113463,1,2,0:0:0:0:
460,0,113463,1,4,0:0:0:0:
51,0,113463,1,0,0:0:0:0:
256,0,113463,1,0,0:0:0:0:
153,0,113548,1,0,0:0:0:0:
256,0,113634,1,0,0:0:0:0:
358,0,113720,1,0,0:0:0:0:
256,0,113805,1,8,0:0:0:0:
153,0,113805,1,0,0:0:0:0:
51,0,113805,1,0,0:0:0:0:
460,0,113891,1,0,0:0:0:0:
358,192,113977,1,0,0:0:0:0:
153,0,114063,1,0,0:0:0:0:
460,0,114148,1,2,0:0:0:0:
256,0,114148,1,0,0:0:0:0:
51,0,114148,1,0,0:0:0:0:
358,0,114234,1,0,0:0:0:0:
153,0,114320,1,0,0:0:0:0:
460,0,114405,1,0,0:0:0:0:
358,0,114491,1,8,0:0:0:0:
256,0,114491,1,0,0:0:0:0:
51,0,114491,1,0,0:0:0:0:
153,0,114577,1,0,0:0:0:0:
460,0,114663,1,8,0:0:0:0:
358,0,114663,1,0,0:0:0:0:
256,0,114663,1,0,0:0:0:0:
51,0,114748,1,0,0:0:0:0:
460,0,114834,1,2,0:0:0:0:
358,0,114834,1,0,0:0:0:0:
153,0,114834,1,0,0:0:0:0:
51,0,114920,1,0,0:0:0:0:
256,0,115005,1,0,0:0:0:0:
460,0,115091,1,8,0:0:0:0:
358,0,115091,1,0,0:0:0:0:
153,0,115091,1,0,0:0:0:0:
51,0,115177,1,2,0:0:0:0:
358,0,115263,1,0,0:0:0:0:
460,0,115348,1,8,0:0:0:0:
256,0,115348,1,0,0:0:0:0:
153,0,115348,1,0,0:0:0:0:
51,0,115434,1,0,0:0:0:0:
358,0,115520,1,2,0:0:0:0:
256,0,115520,1,0,0:0:0:0:
153,0,115520,1,0,0:0:0:0:
460,0,115605,1,0,0:0:0:0:
358,0,115691,1,0,0:0:0:0:
256,0,115777,1,0,0:0:0:0:
460,0,115863,1,8,0:0:0:0:
153,0,115863,1,0,0:0:0:0:
51,0,115863,1,0,0:0:0:0:
358,0,115948,1,0,0:0:0:0:
256,0,116034,1,8,0:0:0:0:
153,0,116034,1,0,0:0:0:0:
51,0,116034,1,0,0:0:0:0:
460,0,116120,1,0,0:0:0:0:
256,0,116205,1,4,0:0:0:0:
358,0,116205,1,2,0:0:0:0:
51,0,116205,1,0,0:0:0:0:
153,0,116205,1,0,0:0:0:0:
460,0,116291,1,0,0:0:0:0:
358,0,116377,1,0,0:0:0:0:
51,0,116463,1,0,0:0:0:0:
460,0,116548,1,8,0:0:0:0:
256,0,116548,1,0,0:0:0:0:
153,0,116548,1,0,0:0:0:0:
358,0,116634,1,0,0:0:0:0:
256,0,116720,1,0,0:0:0:0:
153,0,116805,1,0,0:0:0:0:
460,0,116891,1,2,0:0:0:0:
358,0,116891,1,0,0:0:0:0:
51,0,116891,1,0,0:0:0:0:
256,0,116977,1,0,0:0:0:0:
153,0,117063,1,0,0:0:0:0:
358,0,117148,1,0,0:0:0:0:
460,0,117234,1,8,0:0:0:0:
256,0,117234,1,0,0:0:0:0:
51,0,117234,1,0,0:0:0:0:
153,0,117320,1,0,0:0:0:0:
460,0,117405,1,8,0:0:0:0:
358,0,117405,1,0,0:0:0:0:
51,0,117405,1,0,0:0:0:0:
256,0,117491,1,0,0:0:0:0:
460,0,117577,1,2,0:0:0:0:
358,0,117577,1,0,0:0:0:0:
153,0,117577,1,0,0:0:0:0:
51,0,117663,1,0,0:0:0:0:
358,0,117748,1,0,0:0:0:0:
460,0,117834,1,8,0:0:0:0:
256,0,117834,1,0,0:0:0:0:
153,0,117834,1,0,0:0:0:0:
358,0,117920,1,2,0:0:0:0:
153,0,118005,1,0,0:0:0:0:
460,0,118091,1,8,0:0:0:0:
256,0,118091,1,0,0:0:0:0:
51,0,118091,1,0,0:0:0:0:
358,0,118177,1,0,0:0:0:0:
460,0,118263,1,2,0:0:0:0:
153,0,118263,1,0,0:0:0:0:
51,0,118263,1,0,0:0:0:0:
256,0,118348,1,0,0:0:0:0:
358,0,118434,1,0,0:0:0:0:
153,0,118520,1,0,0:0:0:0:
460,0,118605,1,2,0:0:0:0:
358,0,118605,1,0,0:0:0:0:
51,0,118605,1,0,0:0:0:0:
153,0,118691,1,0,0:0:0:0:
460,0,118777,1,8,0:0:0:0:
256,0,118777,1,0,0:0:0:0:
358,0,118777,1,0,0:0:0:0:
51,0,118863,1,0,0:0:0:0:
358,0,118948,1,4,0:0:0:0:
460,0,118948,1,2,0:0:0:0:
256,0,118948,1,0,0:0:0:0:
153,0,118948,1,0,0:0:0:0:
358,0,119120,1,8,0:0:0:0:
256,0,119120,1,0,0:0:0:0:
51,0,119120,1,0,0:0:0:0:
153,0,119205,1,0,0:0:0:0:
460,0,119291,1,2,0:0:0:0:
358,0,119291,1,0,0:0:0:0:
256,0,119291,1,0,0:0:0:0:
460,0,119463,1,8,0:0:0:0:
358,0,119463,1,0,0:0:0:0:
153,0,119463,1,0,0:0:0:0:
358,0,119634,1,2,0:0:0:0:
256,0,119634,1,0,0:0:0:0:
51,0,119634,1,0,0:0:0:0:
460,0,119720,1,0,0:0:0:0:
358,0,119805,1,8,0:0:0:0:
256,0,119805,1,0,0:0:0:0:
153,0,119805,1,0,0:0:0:0:
358,0,119977,1,2,0:0:0:0:
153,0,119977,1,0,0:0:0:0:
51,0,119977,1,0,0:0:0:0:
358,0,120148,1,8,0:0:0:0:
256,0,120148,1,0,0:0:0:0:
51,0,120148,1,0,0:0:0:0:
358,0,120320,1,2,0:0:0:0:
460,0,120320,1,4,0:0:0:0:
51,0,120320,1,0,0:0:0:0:
153,0,120320,1,0,0:0:0:0:
460,0,120491,1,8,0:0:0:0:
358,0,120491,1,0,0:0:0:0:
153,0,120491,1,0,0:0:0:0:
256,0,120577,1,0,0:0:0:0:
460,0,120663,1,2,0:0:0:0:
153,0,120663,1,0,0:0:0:0:
51,0,120663,1,0,0:0:0:0:
358,0,120834,1,8,0:0:0:0:
256,0,120834,1,0,0:0:0:0:
153,0,120834,1,0,0:0:0:0:
460,0,121005,1,2,0:0:0:0:
256,0,121005,1,0,0:0:0:0:
153,0,121005,1,0,0:0:0:0:
51,0,121091,1,0,0:0:0:0:
460,0,121177,1,8,0:0:0:0:
358,0,121177,1,0,0:0:0:0:
153,0,121177,1,0,0:0:0:0:
256,0,121348,1,2,0:0:0:0:
153,0,121348,1,0,0:0:0:0:
51,0,121348,1,0,0:0:0:0:
358,0,121520,1,8,0:0:0:0:
153,0,121520,1,0,0:0:0:0:
51,0,121520,1,0,0:0:0:0:
460,0,121691,1,2,0:0:0:0:
256,0,121691,1,4,0:0:0:0:
153,0,121691,1,0,0:0:0:0:
358,0,121777,1,8,0:0:0:0:
51,0,121777,1,0,0:0:0:0:
460,0,121863,1,8,0:0:0:0:
153,0,121863,1,2,0:0:0:0:
358,0,121948,1,8,0:0:0:0:
256,0,121948,1,0,0:0:0:0:
460,0,122034,1,8,0:0:0:0:
51,0,122034,1,2,0:0:0:0:
358,0,122120,1,8,0:0:0:0:
153,0,122120,1,0,0:0:0:0:
460,0,122205,1,8,0:0:0:0:
51,0,122205,1,2,0:0:0:0:
256,0,122291,1,8,0:0:0:0:
153,0,122291,1,0,0:0:0:0:
460,0,122377,1,4,0:0:0:0:
358,0,122377,1,2,0:0:0:0:
51,0,122377,1,8,0:0:0:0:
256,0,122463,1,8,0:0:0:0:
153,0,122463,1,0,0:0:0:0:
358,0,122548,1,2,0:0:0:0:
51,0,122548,1,8,0:0:0:0:
460,0,122634,1,8,0:0:0:0:
256,0,122634,1,0,0:0:0:0:
358,0,122720,1,8,0:0:0:0:
153,0,122720,1,2,0:0:0:0:
460,0,122805,1,8,0:0:0:0:
256,0,122805,1,0,0:0:0:0:
153,0,122891,1,8,0:0:0:0:
51,0,122891,1,2,0:0:0:0:
358,0,122977,1,8,0:0:0:0:
256,0,122977,1,0,0:0:0:0:
460,0,123063,128,4,123405:0:0:0:0:
51,0,123063,1,2,0:0:0:0:
153,0,123063,128,0,123405:0:0:0:0:
358,0,123405,128,0,123748:0:0:0:0:
460,0,123748,128,0,124091:0:0:0:70:climax.wav
256,0,123748,128,0,124091:0:0:0:0:
51,0,123748,128,0,124091:0:0:0:0:
153,0,124091,128,0,124434:0:0:0:0:
358,0,124434,128,2,124777:0:0:0:0:
460,0,124434,1,4,0:0:0:0:
51,0,124434,1,0,0:0:0:70:twinkling.wav
256,0,124434,1,0,0:0:0:0:
153,0,124605,1,0,0:0:0:0:
256,0,124691,1,0,0:0:0:0:
460,0,124777,1,8,0:0:0:0:
153,0,124777,1,0,0:0:0:0:
51,0,124777,128,0,125120:0:0:0:0:
256,0,124948,1,0,0:0:0:0:
460,0,125120,128,2,125463:0:0:0:0:
358,0,125120,1,0,0:0:0:0:
153,0,125205,1,0,0:0:0:0:
256,0,125291,1,0,0:0:0:0:
153,0,125463,128,8,125805:0:0:0:0:
358,0,125463,128,0,125634:0:0:0:0:
51,0,125463,1,0,0:0:0:0:
256,0,125634,128,0,125805:0:0:0:0:
460,192,125634,1,0,0:0:0:0:
460,0,125805,128,2,126148:0:0:0:0:
51,0,125805,1,0,0:0:0:0:
358,0,125977,1,0,0:0:0:0:
256,0,126063,1,0,0:0:0:0:
358,0,126148,1,8,0:0:0:0:
153,0,126148,1,0,0:0:0:0:
51,0,126148,128,0,126491:0:0:0:0:
256,0,126320,1,0,0:0:0:0:
358,0,126491,128,2,126834:0:0:0:0:
153,0,126491,1,0,0:0:0:0:
460,0,126577,1,0,0:0:0:0:
256,0,126663,1,0,0:0:0:0:
153,0,126834,128,8,127177:0:0:0:0:
460,0,126834,128,0,127005:0:0:0:0:
51,0,126834,1,0,0:0:0:0:
256,0,127005,128,0,127177:0:0:0:0:
358,192,127005,1,0,0:0:0:0:
358,0,127177,128,2,127520:0:0:0:0:
51,0,127177,1,0,0:0:0:0:
153,0,127348,1,0,0:0:0:0:
256,0,127434,1,0,0:0:0:0:
460,0,127520,1,8,0:0:0:0:
153,0,127520,1,0,0:0:0:0:
51,0,127520,128,0,127863:0:0:0:0:
358,0,127691,1,0,0:0:0:0:
460,0,127863,128,2,128205:0:0:0:0:
256,0,127863,1,0,0:0:0:0:
358,0,127948,1,0,0:0:0:0:
153,0,128034,1,0,0:0:0:0:
256,0,128205,128,8,128548:0:0:0:0:
358,0,128205,1,0,0:0:0:0:
51,0,128205,128,0,128377:0:0:0:0:
153,0,128377,128,0,128548:0:0:0:0:
460,192,128377,1,0,0:0:0:0:
460,0,128548,128,2,128891:0:0:0:0:
51,0,128548,1,0,0:0:0:0:
153,0,128720,1,0,0:0:0:0:
256,0,128805,1,0,0:0:0:0:
358,0,128891,1,8,0:0:0:0:
153,0,128891,128,0,129234:0:0:0:0:
51,0,128891,1,0,0:0:0:0:
256,0,129063,1,0,0:0:0:0:
358,0,129234,128,2,129577:0:0:0:0:
51,0,129234,1,0,0:0:0:0:
460,0,129320,1,0,0:0:0:0:
256,0,129405,1,0,0:0:0:0:
460,0,129577,128,8,129920:0:0:0:0:
153,0,129577,128,0,129748:0:0:0:0:
51,0,129577,1,0,0:0:0:0:
256,0,129748,128,0,129920:0:0:0:0:
358,192,129748,1,0,0:0:0:0:
358,0,129920,1,2,0:0:0:0:
51,0,129920,128,0,130263:0:0:0:0:
460,0,130091,1,0,0:0:0:0:
256,0,130177,1,0,0:0:0:0:
460,0,130263,1,8,0:0:0:0:
358,0,130263,128,0,130605:0:0:0:0:
153,0,130263,1,0,0:0:0:0:
51,0,130434,1,0,0:0:0:0:
256,0,130605,1,2,0:0:0:0:
153,0,130605,128,0,130948:0:0:0:0:
460,0,130691,1,0,0:0:0:0:
358,0,130777,1,0,0:0:0:0:
460,0,130948,128,8,131291:0:0:0:0:
256,0,130948,128,0,131120:0:0:0:0:
51,0,130948,1,0,0:0:0:0:
358,0,131120,128,0,131291:0:0:0:0:
153,192,131120,1,0,0:0:0:0:
153,0,131291,1,2,0:0:0:0:
51,0,131291,128,0,131634:0:0:0:0:
256,0,131463,1,0,0:0:0:0:
460,0,131548,1,0,0:0:0:0:
358,0,131634,128,8,131977:0:0:0:0:
256,0,131634,1,0,0:0:0:0:
153,0,131634,1,0,0:0:0:0:
51,0,131805,1,0,0:0:0:0:
460,0,131977,1,2,0:0:0:0:
153,0,131977,128,0,132320:0:0:0:0:
256,0,132063,1,0,0:0:0:0:
358,0,132148,1,0,0:0:0:0:
460,0,132320,128,8,132663:0:0:0:0:
256,0,132320,1,0,0:0:0:0:
51,0,132320,128,0,132491:0:0:0:0:
358,0,132491,128,0,132663:0:0:0:0:
153,192,132491,1,0,0:0:0:0:
256,0,132663,128,2,133005:0:0:0:0:
153,0,132663,1,0,0:0:0:0:
358,0,132834,1,0,0:0:0:0:
460,0,132920,1,0,0:0:0:0:
358,0,133005,1,8,0:0:0:0:
153,0,133005,1,0,0:0:0:0:
51,0,133005,128,0,133348:0:0:0:0:
256,0,133177,1,0,0:0:0:0:
358,0,133348,128,2,133691:0:0:0:0:
153,0,133348,1,0,0:0:0:0:
460,0,133434,1,0,0:0:0:0:
256,0,133520,1,0,0:0:0:0:
153,0,133691,128,8,134034:0:0:0:0:
460,0,133691,128,0,133863:0:0:0:0:
51,0,133691,1,0,0:0:0:0:
256,0,133863,128,0,134034:0:0:0:0:
358,192,133863,1,0,0:0:0:0:
460,0,134034,1,2,0:0:0:0:
358,0,134034,128,0,134377:0:0:0:0:
51,0,134205,1,0,0:0:0:0:
153,0,134291,1,0,0:0:0:0:
460,0,134377,1,8,0:0:0:0:
256,0,134377,1,0,0:0:0:0:
51,0,134377,128,0,134720:0:0:0:0:
153,0,134548,1,0,0:0:0:0:
460,0,134720,128,2,135063:0:0:0:0:
256,0,134720,1,0,0:0:0:0:
358,0,134805,1,0,0:0:0:0:
153,0,134891,1,0,0:0:0:0:
256,0,135063,128,8,135405:0:0:0:0:
358,0,135063,128,0,135234:0:0:0:0:
51,0,135063,1,0,0:0:0:0:
460,0,135234,128,0,135405:0:0:0:0:
153,192,135234,1,0,0:0:0:0:
358,0,135405,1,4,0:0:0:0:
153,0,135405,128,2,135748:0:0:0:0:
51,0,135405,1,0,0:0:0:0:
256,0,135577,1,0,0:0:0:0:
460,0,135663,1,0,0:0:0:0:
358,0,135748,128,8,136091:0:0:0:0:
256,0,135748,1,0,0:0:0:0:
51,0,135748,1,0,0:0:0:0:
153,0,135920,1,0,0:0:0:0:
460,0,136091,1,2,0:0:0:0:
51,0,136091,128,0,136434:0:0:0:0:
256,0,136177,1,0,0:0:0:0:
153,0,136263,1,0,0:0:0:0:
460,0,136434,128,0,136777:0:0:0:70:chi.wav
358,0,136434,128,8,136605:0:0:0:0:
256,0,136434,1,0,0:0:0:0:
153,0,136605,128,0,136777:0:0:0:0:
51,192,136605,1,0,0:0:0:0:
256,0,136777,1,2,0:0:0:0:
51,0,136777,128,0,137120:0:0:0:0:
358,0,136948,1,0,0:0:0:0:
256,0,137034,1,0,0:0:0:0:
460,0,137120,1,8,0:0:0:0:
358,0,137120,128,0,137463:0:0:0:0:
153,0,137120,1,0,0:0:0:0:
256,0,137291,1,0,0:0:0:0:
153,0,137463,128,2,137805:0:0:0:0:
51,0,137463,1,0,0:0:0:0:
460,0,137548,1,0,0:0:0:0:
256,0,137634,1,0,0:0:0:0:
358,0,137805,128,0,138148:0:0:0:70:chi.wav
460,0,137805,1,8,0:0:0:0:
51,0,137805,128,0,137977:0:0:0:0:
256,0,137977,128,0,138148:0:0:0:0:
153,192,137977,1,0,0:0:0:0:
460,0,138148,1,2,0:0:0:0:
153,0,138148,128,0,138491:0:0:0:0:
51,0,138320,1,0,0:0:0:0:
358,0,138405,1,0,0:0:0:0:
460,0,138491,128,8,138834:0:0:0:0:
256,0,138491,1,0,0:0:0:0:
51,0,138491,1,0,0:0:0:0:
358,0,138663,1,0,0:0:0:0:
256,0,138834,128,2,139177:0:0:0:0:
153,0,138834,1,0,0:0:0:0:
358,0,138920,1,0,0:0:0:0:
51,0,139005,1,0,0:0:0:0:
460,0,139177,128,0,139520:0:0:0:70:chi.wav
358,0,139177,1,8,0:0:0:0:
153,0,139177,128,0,139348:0:0:0:0:
51,0,139348,128,0,139520:0:0:0:0:
256,192,139348,1,0,0:0:0:0:
358,0,139520,128,2,139863:0:0:0:0:
153,0,139520,1,0,0:0:0:0:
256,0,139691,1,0,0:0:0:0:
51,0,139777,1,0,0:0:0:0:
460,0,139863,1,8,0:0:0:0:
256,0,139863,128,0,140205:0:0:0:0:
153,0,139863,1,0,0:0:0:0:
51,0,140034,1,0,0:0:0:0:
460,0,140205,128,2,140548:0:0:0:0:
153,0,140205,1,0,0:0:0:0:
358,0,140291,1,0,0:0:0:0:
256,0,140377,1,0,0:0:0:0:
153,0,140548,128,8,140891:0:0:0:0:
358,0,140548,128,0,140720:0:0:0:70:chi.wav
51,0,140548,1,0,0:0:0:0:
256,0,140720,128,0,140891:0:0:0:0:
460,192,140720,1,0,0:0:0:0:
460,0,140891,1,2,0:0:0:0:
51,0,140891,128,0,141234:0:0:0:0:
358,0,141063,1,0,0:0:0:0:
153,0,141148,1,0,0:0:0:0:
460,0,141234,1,8,0:0:0:0:
358,0,141234,1,0,0:0:0:0:
256,0,141234,128,0,141577:0:0:0:0:
153,0,141405,1,0,0:0:0:0:
358,0,141577,1,2,0:0:0:0:
51,0,141577,128,0,141920:0:0:0:0:
460,0,141663,1,0,0:0:0:0:
256,0,141748,1,0,0:0:0:0:
358,0,141920,128,8,142263:0:0:0:0:
460,0,141920,1,0,0:0:0:70:chi.wav
153,0,141920,128,0,142091:0:0:0:0:
256,0,142091,128,0,142263:0:0:0:0:
51,192,142091,1,0,0:0:0:0:
460,0,142263,128,2,142605:0:0:0:0:
51,0,142263,1,0,0:0:0:0:
358,0,142434,1,0,0:0:0:0:
153,0,142520,1,0,0:0:0:0:
358,0,142605,1,8,0:0:0:0:
256,0,142605,128,0,142948:0:0:0:0:
51,0,142605,1,0,0:0:0:0:
153,0,142777,1,0,0:0:0:0:
358,0,142948,128,2,143291:0:0:0:0:
51,0,142948,1,0,0:0:0:0:
460,0,143034,1,0,0:0:0:0:
256,0,143120,1,0,0:0:0:0:
153,0,143291,128,0,143634:0:0:0:70:chi.wav
460,0,143291,1,8,0:0:0:0:
51,0,143291,128,0,143463:0:0:0:0:
256,0,143463,128,0,143634:0:0:0:0:
358,192,143463,1,0,0:0:0:0:
460,0,143634,128,2,143977:0:0:0:0:
51,0,143634,1,0,0:0:0:0:
358,0,143805,1,0,0:0:0:0:
256,0,143891,1,0,0:0:0:0:
358,0,143977,1,8,0:0:0:0:
153,0,143977,1,0,0:0:0:0:
51,0,143977,128,0,144320:0:0:0:0:
256,0,144148,1,0,0:0:0:0:
358,0,144320,128,0,144663:0:0:0:70:LR3_ReverseFXG.wav
153,0,144320,1,2,0:0:0:0:
460,0,144405,1,0,0:0:0:0:
256,0,144491,1,0,0:0:0:0:
153,0,144663,128,8,145005:0:0:0:0:
460,0,144663,128,0,144834:0:0:0:70:chi.wav
51,0,144663,1,0,0:0:0:0:
256,0,144834,128,0,145005:0:0:0:0:
358,192,144834,1,0,0:0:0:0:
460,0,145005,1,4,0:0:0:0:
358,0,145005,1,2,0:0:0:0:
51,0,145005,1,0,0:0:0:0:
460,192,145177,1,0,0:0:0:0:
153,0,145263,1,0,0:0:0:0:
358,0,145434,1,0,0:0:0:0:
256,0,145520,1,0,0:0:0:0:
460,0,145691,1,0,0:0:0:70:climax.wav
358,0,145691,1,8,0:0:0:0:
153,0,145691,1,0,0:0:0:0:
358,0,145863,1,8,0:0:0:0:
51,0,145863,1,0,0:0:0:0:
256,0,146034,1,8,0:0:0:0:
153,0,146034,1,0,0:0:0:0:
51,0,146034,1,0,0:0:0:0:
460,0,146120,1,8,0:0:0:0:
358,0,146120,1,0,0:0:0:0:
153,0,146205,1,2,0:0:0:0:
358,0,146377,1,0,0:0:0:70:climax.wav
256,0,146377,1,4,0:0:0:0:
51,0,146377,1,2,0:0:0:0:
460,0,146463,1,0,0:0:0:0:
153,0,146463,1,0,0:0:0:0:
51,0,146548,1,0,0:0:0:0:
358,0,146634,1,0,0:0:0:0:
153,0,146720,1,8,0:0:0:0:
256,0,146720,1,0,0:0:0:70:chi.wav
51,0,146720,1,0,0:0:0:0:
460,0,146805,1,0,0:0:0:0:
153,0,146891,1,0,0:0:0:0:
358,0,146977,1,0,0:0:0:0:
256,0,147063,1,0,0:0:0:0:
153,0,147063,1,2,0:0:0:0:
460,0,147063,1,0,0:0:0:0:
358,0,147148,1,0,0:0:0:0:
51,0,147148,1,0,0:0:0:0:
256,0,147234,1,0,0:0:0:0:
153,0,147320,1,0,0:0:0:0:
460,0,147405,1,8,0:0:0:0:
358,0,147405,1,0,0:0:0:70:chi.wav
256,0,147405,1,0,0:0:0:0:
153,0,147491,1,0,0:0:0:0:
358,0,147577,1,0,0:0:0:0:
51,0,147577,1,0,0:0:0:0:
460,0,147663,1,0,0:0:0:0:
358,0,147748,1,2,0:0:0:0:
256,0,147748,1,0,0:0:0:0:
153,192,147748,1,0,0:0:0:0:
51,0,147834,1,0,0:0:0:0:
460,0,147834,1,0,0:0:0:0:
153,0,147920,1,0,0:0:0:0:
256,0,148005,1,0,0:0:0:0:
460,0,148091,1,0,0:0:0:70:chi.wav
153,0,148091,1,8,0:0:0:0:
51,0,148091,1,0,0:0:0:0:
358,0,148177,1,0,0:0:0:0:
460,0,148263,1,0,0:0:0:0:
256,0,148348,1,0,0:0:0:0:
358,0,148434,1,0,0:0:0:0:
460,0,148434,1,2,0:0:0:0:
51,0,148434,1,0,0:0:0:0:
256,0,148520,1,0,0:0:0:0:
153,0,148520,1,0,0:0:0:0:
358,0,148605,1,0,0:0:0:0:
51,0,148691,1,0,0:0:0:0:
460,0,148777,1,8,0:0:0:0:
358,0,148777,1,0,0:0:0:70:chi.wav
256,0,148777,1,0,0:0:0:0:
153,0,148863,1,0,0:0:0:0:
256,0,148948,1,0,0:0:0:0:
51,0,148948,1,0,0:0:0:0:
358,0,149034,1,0,0:0:0:0:
460,0,149120,1,2,0:0:0:0:
256,0,149120,1,0,0:0:0:0:
153,0,149120,1,0,0:0:0:0:
51,0,149205,1,0,0:0:0:0:
358,0,149205,1,0,0:0:0:0:
153,0,149291,1,0,0:0:0:0:
460,0,149377,1,0,0:0:0:0:
256,0,149463,1,0,0:0:0:70:chi.wav
153,0,149463,1,8,0:0:0:0:
51,0,149463,1,0,0:0:0:0:
358,0,149548,1,0,0:0:0:0:
256,0,149634,1,0,0:0:0:0:
460,0,149720,1,0,0:0:0:0:
51,0,149805,1,0,0:0:0:0:
358,0,149805,1,2,0:0:0:0:
256,0,149805,1,0,0:0:0:0:
153,0,149891,1,0,0:0:0:0:
460,0,149891,1,0,0:0:0:0:
358,0,149977,1,0,0:0:0:0:
51,0,150063,1,0,0:0:0:0:
460,0,150148,1,8,0:0:0:0:
358,0,150148,1,0,0:0:0:70:chi.wav
153,0,150148,1,0,0:0:0:0:
256,0,150234,1,0,0:0:0:0:
460,0,150320,1,0,0:0:0:0:
51,0,150320,1,0,0:0:0:0:
153,0,150405,1,0,0:0:0:0:
256,0,150491,1,2,0:0:0:0:
358,0,150491,1,0,0:0:0:0:
460,192,150491,1,0,0:0:0:0:
153,0,150577,1,0,0:0:0:0:
51,0,150577,1,0,0:0:0:0:
256,0,150663,1,0,0:0:0:0:
358,0,150748,1,0,0:0:0:0:
256,0,150834,1,8,0:0:0:0:
460,0,150834,1,0,0:0:0:70:chi.wav
51,0,150834,1,0,0:0:0:0:
153,0,150920,1,0,0:0:0:0:
51,0,151005,1,0,0:0:0:0:
358,0,151091,1,0,0:0:0:0:
153,0,151177,1,0,0:0:0:0:
460,0,151177,1,2,0:0:0:0:
51,0,151177,1,0,0:0:0:0:
358,0,151263,1,0,0:0:0:0:
256,0,151263,1,0,0:0:0:0:
460,0,151348,1,0,0:0:0:0:
51,0,151434,1,0,0:0:0:0:
460,0,151520,1,8,0:0:0:0:
153,0,151520,1,0,0:0:0:70:chi.wav
358,0,151520,1,0,0:0:0:0:
256,0,151605,1,0,0:0:0:0:
153,0,151691,1,0,0:0:0:0:
51,0,151691,1,0,0:0:0:0:
460,0,151777,1,0,0:0:0:0:
358,0,151863,1,2,0:0:0:0:
153,0,151863,1,0,0:0:0:0:
51,0,151863,1,0,0:0:0:0:
256,0,151948,1,0,0:0:0:0:
460,0,151948,1,0,0:0:0:0:
358,0,152034,1,0,0:0:0:0:
51,0,152120,1,0,0:0:0:0:
358,0,152205,1,8,0:0:0:0:
256,0,152205,1,0,0:0:0:70:chi.wav
153,0,152205,1,0,0:0:0:0:
460,0,152291,1,0,0:0:0:0:
256,0,152377,1,0,0:0:0:0:
51,0,152463,1,0,0:0:0:0:
153,0,152548,1,0,0:0:0:0:
460,0,152548,1,2,0:0:0:0:
256,0,152548,1,0,0:0:0:0:
51,0,152634,1,0,0:0:0:0:
358,0,152634,1,0,0:0:0:0:
153,0,152720,1,0,0:0:0:0:
460,0,152805,1,0,0:0:0:0:
153,0,152891,1,8,0:0:0:0:
358,0,152891,1,0,0:0:0:70:chi.wav
51,0,152891,1,0,0:0:0:0:
256,0,152977,1,0,0:0:0:0:
460,0,153063,1,0,0:0:0:0:
51,0,153063,1,0,0:0:0:0:
358,0,153148,1,0,0:0:0:0:
460,0,153234,1,2,0:0:0:0:
153,0,153234,1,0,0:0:0:0:
51,192,153234,1,0,0:0:0:0:
256,0,153320,1,0,0:0:0:0:
358,0,153320,1,0,0:0:0:0:
460,0,153405,1,0,0:0:0:0:
153,0,153491,1,0,0:0:0:0:
460,0,153577,1,0,0:0:0:70:chi.wav
256,0,153577,1,8,0:0:0:0:
358,0,153577,1,0,0:0:0:0:
51,0,153663,1,0,0:0:0:0:
358,0,153748,1,0,0:0:0:0:
153,0,153834,1,0,0:0:0:0:
51,0,153920,1,0,0:0:0:0:
358,0,153920,1,2,0:0:0:0:
256,0,153920,1,0,0:0:0:0:
153,0,154005,1,0,0:0:0:0:
460,0,154005,1,0,0:0:0:0:
256,0,154091,1,0,0:0:0:0:
358,0,154177,1,0,0:0:0:0:
460,0,154263,1,0,0:0:0:70:chi.wav
256,0,154263,1,8,0:0:0:0:
153,0,154263,1,0,0:0:0:0:
51,0,154348,1,0,0:0:0:0:
358,0,154434,1,0,0:0:0:0:
153,0,154434,1,0,0:0:0:0:
256,0,154520,1,0,0:0:0:0:
460,0,154605,1,2,0:0:0:0:
358,0,154605,1,0,0:0:0:0:
153,0,154605,1,0,0:0:0:0:
256,0,154691,1,0,0:0:0:0:
51,0,154691,1,0,0:0:0:0:
460,0,154777,1,0,0:0:0:0:
256,0,154863,1,0,0:0:0:0:
460,0,154948,1,0,0:0:0:70:chi.wav
358,0,154948,1,8,0:0:0:0:
51,0,154948,1,0,0:0:0:0:
153,0,155034,1,0,0:0:0:0:
358,0,155120,1,0,0:0:0:0:
256,0,155205,1,0,0:0:0:0:
51,0,155291,1,0,0:0:0:0:
358,0,155291,1,2,0:0:0:0:
153,0,155291,1,0,0:0:0:0:
460,0,155377,1,0,0:0:0:0:
256,0,155377,1,0,0:0:0:0:
153,0,155463,1,0,0:0:0:0:
256,0,155548,1,0,0:0:0:0:
460,0,155634,1,0,0:0:0:70:chi.wav
358,0,155634,1,8,0:0:0:0:
51,0,155634,1,0,0:0:0:0:
153,0,155720,1,0,0:0:0:0:
460,0,155805,1,0,0:0:0:0:
256,0,155805,1,0,0:0:0:0:
358,0,155891,1,0,0:0:0:0:
460,0,155977,1,2,0:0:0:0:
51,0,155977,1,0,0:0:0:0:
153,192,155977,1,0,0:0:0:0:
256,0,156063,1,0,0:0:0:0:
358,0,156063,1,0,0:0:0:0:
51,0,156148,1,0,0:0:0:0:
460,0,156234,1,0,0:0:0:0:
358,0,156320,1,0,0:0:0:70:chi.wav
153,0,156320,1,8,0:0:0:0:
51,0,156320,1,0,0:0:0:0:
256,0,156405,1,0,0:0:0:0:
153,0,156491,1,0,0:0:0:0:
460,0,156577,1,0,0:0:0:0:
153,0,156663,1,0,0:0:0:0:
358,0,156663,1,2,0:0:0:0:
256,0,156663,1,0,0:0:0:0:
460,0,156748,1,0,0:0:0:0:
51,0,156748,1,0,0:0:0:0:
358,0,156834,1,0,0:0:0:0:
153,0,156920,1,0,0:0:0:0:
460,0,157005,1,8,0:0:0:0:
358,0,157005,1,0,0:0:0:0:
51,0,157005,1,0,0:0:0:0:
256,0,157091,1,0,0:0:0:0:
460,0,157177,1,0,0:0:0:0:
153,0,157177,1,0,0:0:0:0:
256,0,157263,1,0,0:0:0:0:
460,0,157348,1,2,0:0:0:0:
358,0,157348,1,4,0:0:0:0:
51,0,157348,1,0,0:0:0:0:
153,0,157434,1,0,0:0:0:0:
256,0,157434,1,0,0:0:0:0:
51,0,157520,1,0,0:0:0:0:
358,0,157605,1,0,0:0:0:0:
460,0,157691,1,0,0:0:0:70:chi.wav
153,0,157691,1,8,0:0:0:0:
51,0,157691,1,0,0:0:0:0:
256,0,157777,1,0,0:0:0:0:
153,0,157863,1,0,0:0:0:0:
358,0,157948,1,0,0:0:0:0:
256,0,158034,1,0,0:0:0:0:
460,0,158034,1,2,0:0:0:0:
153,0,158034,1,0,0:0:0:0:
358,0,158120,1,0,0:0:0:0:
51,0,158120,1,0,0:0:0:0:
256,0,158205,1,0,0:0:0:0:
460,0,158291,1,0,0:0:0:0:
256,0,158377,1,8,0:0:0:0:
358,0,158377,1,0,0:0:0:70:chi.wav
153,0,158377,1,0,0:0:0:0:
460,0,158463,1,0,0:0:0:0:
358,0,158548,1,0,0:0:0:0:
51,0,158548,1,0,0:0:0:0:
256,0,158634,1,0,0:0:0:0:
51,0,158720,1,2,0:0:0:0:
153,0,158720,1,0,0:0:0:0:
358,192,158720,1,0,0:0:0:0:
256,0,158805,1,0,0:0:0:0:
460,0,158805,1,0,0:0:0:0:
51,0,158891,1,0,0:0:0:0:
153,0,158977,1,0,0:0:0:0:
460,0,159063,1,0,0:0:0:70:chi.wav
358,0,159063,1,8,0:0:0:0:
51,0,159063,1,0,0:0:0:0:
256,0,159148,1,0,0:0:0:0:
358,0,159234,1,0,0:0:0:0:
153,0,159320,1,0,0:0:0:0:
51,0,159405,1,0,0:0:0:0:
358,0,159405,1,2,0:0:0:0:
256,0,159405,1,0,0:0:0:0:
153,0,159491,1,0,0:0:0:0:
460,0,159491,1,0,0:0:0:0:
256,0,159577,1,0,0:0:0:0:
51,0,159663,1,0,0:0:0:0:
460,0,159748,1,0,0:0:0:70:chi.wav
153,0,159748,1,8,0:0:0:0:
256,0,159748,1,0,0:0:0:0:
51,0,159834,1,0,0:0:0:0:
358,0,159920,1,0,0:0:0:0:
153,0,159920,1,0,0:0:0:0:
256,0,160005,1,0,0:0:0:0:
460,0,160091,1,4,0:0:0:0:
51,0,160091,1,2,0:0:0:0:
153,0,160091,1,0,0:0:0:0:
358,0,160177,1,0,0:0:0:0:
256,0,160177,1,0,0:0:0:0:
460,0,160263,1,0,0:0:0:0:
51,0,160348,1,0,0:0:0:0:
460,0,160434,1,0,0:0:0:70:chi.wav
256,0,160434,1,8,0:0:0:0:
153,0,160434,1,0,0:0:0:0:
358,0,160520,1,0,0:0:0:0:
256,0,160605,1,0,0:0:0:0:
51,0,160691,1,0,0:0:0:0:
153,0,160777,1,0,0:0:0:0:
358,0,160777,1,2,0:0:0:0:
256,0,160777,1,0,0:0:0:0:
51,0,160863,1,0,0:0:0:0:
460,0,160863,1,0,0:0:0:0:
358,0,160948,1,0,0:0:0:0:
153,0,161034,1,0,0:0:0:0:
460,0,161120,1,0,0:0:0:70:chi.wav
358,0,161120,1,8,0:0:0:0:
51,0,161120,1,0,0:0:0:0:
256,0,161205,1,0,0:0:0:0:
460,0,161291,1,0,0:0:0:0:
153,0,161291,1,0,0:0:0:0:
358,0,161377,1,0,0:0:0:0:
256,0,161463,1,2,0:0:0:0:
51,0,161463,1,0,0:0:0:0:
460,192,161463,1,0,0:0:0:0:
358,0,161548,1,0,0:0:0:0:
153,0,161548,1,0,0:0:0:0:
256,0,161634,1,0,0:0:0:0:
460,0,161720,1,0,0:0:0:0:
358,0,161805,1,8,0:0:0:0:
256,0,161805,1,0,0:0:0:70:chi.wav
153,0,161805,1,0,0:0:0:0:
460,0,161891,1,0,0:0:0:0:
153,0,161977,1,0,0:0:0:0:
256,0,162063,1,0,0:0:0:0:
153,0,162148,1,0,0:0:0:0:
358,0,162148,1,2,0:0:0:0:
51,0,162148,1,0,0:0:0:0:
460,0,162234,1,0,0:0:0:0:
256,0,162234,1,0,0:0:0:0:
358,0,162320,1,0,0:0:0:0:
153,0,162405,1,0,0:0:0:0:
358,0,162491,1,0,0:0:0:70:chi.wav
256,0,162491,1,8,0:0:0:0:
51,0,162491,1,0,0:0:0:0:
460,0,162577,1,0,0:0:0:0:
51,0,162663,1,0,0:0:0:0:
153,0,162663,1,0,0:0:0:0:
256,0,162748,1,0,0:0:0:0:
460,0,162834,1,4,0:0:0:0:
51,0,162834,1,2,0:0:0:0:
358,0,162834,1,0,0:0:0:0:
256,0,162920,1,0,0:0:0:0:
153,0,162920,1,0,0:0:0:0:
460,0,163005,1,0,0:0:0:0:
358,0,163091,1,0,0:0:0:0:
460,0,163177,1,8,0:0:0:0:
256,0,163177,1,0,0:0:0:70:chi.wav
51,0,163177,1,0,0:0:0:0:
153,0,163263,1,0,0:0:0:0:
256,0,163348,1,0,0:0:0:0:
358,0,163434,1,0,0:0:0:0:
153,0,163520,1,0,0:0:0:0:
51,0,163520,1,2,0:0:0:0:
256,0,163520,1,0,0:0:0:0:
358,0,163605,1,0,0:0:0:0:
460,0,163605,1,0,0:0:0:0:
51,0,163691,1,0,0:0:0:0:
256,0,163777,1,0,0:0:0:0:
460,0,163863,1,8,0:0:0:0:
358,0,163863,1,0,0:0:0:70:chi.wav
51,0,163863,1,0,0:0:0:0:
153,0,163948,1,0,0:0:0:0:
358,0,164034,1,0,0:0:0:0:
256,0,164034,1,0,0:0:0:0:
51,0,164120,1,0,0:0:0:0:
358,0,164205,1,4,0:0:0:0:
153,0,164205,1,2,0:0:0:0:
256,0,164205,1,0,0:0:0:0:
460,0,164291,1,0,0:0:0:0:
51,0,164291,1,0,0:0:0:0:
153,0,164377,1,0,0:0:0:0:
358,0,164463,1,0,0:0:0:0:
460,0,164548,1,0,0:0:0:70:chi.wav
153,0,164548,1,8,0:0:0:0:
51,0,164548,1,0,0:0:0:0:
256,0,164634,1,0,0:0:0:0:
51,0,164720,1,0,0:0:0:0:
358,0,164805,1,0,0:0:0:0:
256,0,164891,1,0,0:0:0:0:
460,0,164891,1,2,0:0:0:0:
51,0,164891,1,0,0:0:0:0:
358,0,164977,1,0,0:0:0:0:
153,0,164977,1,0,0:0:0:0:
256,0,165063,1,0,0:0:0:0:
51,0,165148,1,0,0:0:0:0:
460,0,165234,1,8,0:0:0:0:
358,0,165234,1,0,0:0:0:70:chi.wav
256,0,165234,1,0,0:0:0:0:
153,0,165320,1,0,0:0:0:0:
460,0,165405,1,0,0:0:0:0:
358,0,165405,1,0,0:0:0:0:
256,0,165491,1,0,0:0:0:0:
51,0,165577,1,2,0:0:0:0:
358,0,165577,1,4,0:0:0:0:
153,0,165577,1,0,0:0:0:0:
256,0,165663,1,0,0:0:0:0:
460,0,165663,1,0,0:0:0:0:
51,0,165748,1,0,0:0:0:0:
358,0,165834,1,0,0:0:0:0:
460,0,165920,1,0,0:0:0:70:chi.wav
153,0,165920,1,8,0:0:0:0:
51,0,165920,1,0,0:0:0:0:
256,0,166005,1,0,0:0:0:0:
51,0,166091,1,0,0:0:0:0:
358,0,166177,1,0,0:0:0:0:
460,0,166263,1,2,0:0:0:0:
153,0,166263,1,0,0:0:0:0:
51,0,166263,1,0,0:0:0:0:
256,0,166348,1,0,0:0:0:0:
358,0,166348,1,0,0:0:0:0:
460,0,166434,1,0,0:0:0:0:
153,0,166520,1,0,0:0:0:0:
460,0,166605,1,0,0:0:0:70:chi.wav
256,0,166605,1,8,0:0:0:0:
358,0,166605,1,0,0:0:0:0:
51,0,166691,1,0,0:0:0:0:
460,0,166777,1,0,0:0:0:0:
153,0,166777,1,0,0:0:0:0:
358,0,166863,1,0,0:0:0:0:
460,0,166948,1,4,0:0:0:0:
153,0,166948,1,2,0:0:0:0:
51,0,166948,1,0,0:0:0:0:
256,0,166948,1,0,0:0:0:0:
460,0,167634,1,0,0:0:0:70:climax.wav
256,0,167634,1,0,0:0:0:0:
51,0,167634,1,0,0:0:0:0:
358,0,168320,128,4,168834:0:0:0:0:
460,0,168320,1,0,0:0:0:70:twinkling.wav
51,0,168320,1,2,0:0:0:0:
153,0,168320,1,0,0:0:0:70:whistle.wav
256,0,168834,128,2,169348:0:0:0:0:
51,0,168834,1,0,0:0:0:70:whistle.wav
460,0,169005,1,8,0:0:0:0:
358,0,169005,1,0,0:0:0:0:
153,0,169005,1,0,0:0:0:0:
358,0,169177,1,2,0:0:0:0:
51,0,169177,1,0,0:0:0:0:
153,0,169348,128,0,170377:0:0:0:70:whistle.wav
256,0,169691,1,2,0:0:0:0:
51,0,169691,1,0,0:0:0:0:
460,0,169863,1,8,0:0:0:0:
358,0,169863,1,0,0:0:0:0:
51,0,169863,1,0,0:0:0:0:
460,0,170205,1,2,0:0:0:0:
358,0,170205,1,0,0:0:0:0:
460,0,170377,1,8,0:0:0:0:
256,0,170377,1,0,0:0:0:0:
51,0,170377,1,0,0:0:0:0:
358,0,170548,1,2,0:0:0:70:twinkling.wav
153,0,170548,1,0,0:0:0:0:
358,0,170720,128,0,171063:0:0:0:70:whistle.wav
256,0,170720,1,0,0:0:0:0:
460,0,171063,128,0,171577:0:0:0:70:whistle.wav
256,0,171063,1,2,0:0:0:0:
153,0,171063,1,0,0:0:0:0:
358,0,171577,128,2,172091:0:0:0:0:
51,0,171577,1,0,0:0:0:70:whistle.wav
460,0,171748,1,8,0:0:0:0:
256,0,171748,1,0,0:0:0:0:
153,0,171748,1,0,0:0:0:0:
153,0,171920,1,2,0:0:0:0:
51,0,171920,1,0,0:0:0:0:
256,0,172091,128,0,173120:0:0:0:70:whistle.wav
460,0,172434,1,2,0:0:0:0:
153,0,172434,1,0,0:0:0:0:
460,0,172605,1,8,0:0:0:0:
358,0,172605,1,0,0:0:0:0:
51,0,172605,1,0,0:0:0:0:
358,0,172948,1,2,0:0:0:0:
51,0,172948,1,0,0:0:0:0:
460,0,173120,1,8,0:0:0:0:
358,0,173120,1,0,0:0:0:0:
153,0,173120,1,0,0:0:0:0:
256,0,173291,1,2,0:0:0:0:
51,0,173291,1,0,0:0:0:0:
51,0,173463,128,0,173805:0:0:0:70:whistle.wav
358,0,173463,1,0,0:0:0:0:
460,0,173805,1,0,0:0:0:70:whistle.wav
256,0,173805,1,2,0:0:0:0:
153,0,173805,128,0,174320:0:0:0:0:
460,0,174320,128,2,174834:0:0:0:0:
256,0,174320,1,0,0:0:0:70:whistle.wav
358,0,174491,1,8,0:0:0:0:
153,0,174491,1,0,0:0:0:0:
51,0,174491,1,0,0:0:0:0:
358,0,174663,1,2,0:0:0:0:
256,0,174663,1,0,0:0:0:0:
153,0,174834,128,0,175863:0:0:0:70:whistle.wav
460,0,175177,1,2,0:0:0:0:
358,0,175177,1,0,0:0:0:0:
460,0,175348,1,8,0:0:0:0:
256,0,175348,1,0,0:0:0:0:
51,0,175348,1,0,0:0:0:0:
460,0,175691,1,2,0:0:0:0:
51,0,175691,1,0,0:0:0:0:
358,0,175863,1,8,0:0:0:0:
256,0,175863,1,0,0:0:0:0:
51,0,175863,1,0,0:0:0:0:
460,0,176034,1,2,0:0:0:0:
153,0,176034,1,0,0:0:0:0:
256,0,176205,128,0,176548:0:0:0:70:whistle.wav
460,0,176205,1,0,0:0:0:0:
460,0,176548,1,2,0:0:0:0:
358,0,176548,1,0,0:0:0:70:whistle.wav
51,0,176548,128,0,177063:0:0:0:0:
358,0,177063,1,2,0:0:0:0:
153,0,177063,128,0,177577:0:0:0:70:whistle.wav
460,0,177234,1,8,0:0:0:0:
256,0,177234,1,0,0:0:0:0:
51,0,177234,1,0,0:0:0:0:
460,0,177405,128,2,177920:0:0:0:0:
358,0,177405,1,0,0:0:0:0:
256,0,177577,128,0,177920:0:0:0:70:whistle.wav
358,0,177920,1,4,0:0:0:0:
153,0,177920,1,2,0:0:0:0:
51,0,177920,1,0,0:0:0:0:
51,0,178605,1,0,0:0:0:70:LR3_ReverseFXG.wav
51,0,178691,1,0,0:0:0:0:
460,0,178777,1,0,0:0:0:0:
460,0,178863,1,0,0:0:0:0:
153,0,178948,1,0,0:0:0:0:
153,0,179034,1,0,0:0:0:0:
358,0,179120,1,0,0:0:0:0:
358,0,179205,1,0,0:0:0:0:
256,0,179291,1,2,0:0:0:0:
460,0,179291,1,4,0:0:0:70:LR3_ReverseFXG.wav
51,0,179291,1,0,0:0:0:70:whistle.wav
153,0,179291,1,0,0:0:0:0:
358,0,179634,1,0,0:0:0:0:
256,0,179805,1,0,0:0:0:70:whistle.wav
153,0,179805,1,2,0:0:0:0:
51,0,179805,1,0,0:0:0:0:
358,0,179977,1,8,0:0:0:0:
153,0,179977,1,0,0:0:0:0:
51,0,179977,1,0,0:0:0:0:
460,0,180148,1,2,0:0:0:0:
51,0,180148,1,0,0:0:0:0:
256,0,180320,1,0,0:0:0:70:whistle.wav
358,0,180491,1,0,0:0:0:0:
153,0,180663,1,2,0:0:0:0:
51,0,180663,1,0,0:0:0:0:
460,0,180834,1,8,0:0:0:0:
256,0,180834,1,0,0:0:0:0:
51,0,180834,1,0,0:0:0:0:
153,0,181005,1,0,0:0:0:0:
358,0,181177,1,2,0:0:0:0:
51,0,181177,1,0,0:0:0:0:
460,0,181348,1,8,0:0:0:0:
256,0,181348,1,0,0:0:0:0:
51,0,181348,1,0,0:0:0:0:
51,0,181520,1,2,0:0:0:0:
358,0,181691,1,0,0:0:0:70:whistle.wav
153,0,181691,1,0,0:0:0:0:
460,0,182034,1,0,0:0:0:70:whistle.wav
256,0,182034,1,2,0:0:0:0:
153,0,182034,1,0,0:0:0:0:
358,0,182377,1,0,0:0:0:0:
460,0,182548,1,2,0:0:0:0:
256,0,182548,1,0,0:0:0:70:whistle.wav
51,0,182548,1,0,0:0:0:0:
460,0,182720,1,8,0:0:0:0:
358,0,182720,1,0,0:0:0:0:
153,0,182720,1,0,0:0:0:0:
460,0,182891,1,2,0:0:0:0:
256,0,182891,1,0,0:0:0:0:
358,0,183063,1,0,0:0:0:70:whistle.wav
51,0,183234,1,0,0:0:0:0:
460,0,183405,1,2,0:0:0:0:
153,0,183405,1,0,0:0:0:0:
460,0,183577,1,8,0:0:0:0:
256,0,183577,1,0,0:0:0:0:
51,0,183577,1,0,0:0:0:0:
460,0,183920,1,2,0:0:0:0:
358,0,183920,1,0,0:0:0:0:
460,0,184091,1,8,0:0:0:0:
256,0,184091,1,0,0:0:0:0:
51,0,184091,1,0,0:0:0:0:
460,0,184263,1,2,0:0:0:0:
358,0,184434,1,0,0:0:0:70:whistle.wav
153,0,184605,1,0,0:0:0:0:
460,0,184777,1,2,0:0:0:0:
358,0,184777,1,0,0:0:0:70:whistle.wav
51,0,184777,1,0,0:0:0:0:
460,0,185120,1,0,0:0:0:0:
358,0,185291,1,2,0:0:0:0:
256,0,185291,1,0,0:0:0:70:whistle.wav
51,0,185291,1,0,0:0:0:0:
460,0,185463,1,8,0:0:0:0:
358,0,185463,1,0,0:0:0:0:
51,0,185463,1,0,0:0:0:0:
153,0,185634,1,2,0:0:0:0:
51,0,185634,1,0,0:0:0:0:
256,0,185805,1,0,0:0:0:70:whistle.wav
358,0,185977,1,0,0:0:0:0:
256,0,186148,1,2,0:0:0:0:
51,0,186148,1,0,0:0:0:0:
358,0,186320,1,8,0:0:0:0:
153,0,186320,1,0,0:0:0:0:
51,0,186320,1,0,0:0:0:0:
256,0,186491,1,0,0:0:0:0:
460,0,186663,1,2,0:0:0:0:
51,0,186663,1,0,0:0:0:0:
358,0,186834,1,8,0:0:0:0:
153,0,186834,1,0,0:0:0:0:
51,0,186834,1,0,0:0:0:0:
51,0,187005,1,2,0:0:0:0:
460,0,187177,1,0,0:0:0:70:whistle.wav
256,0,187177,1,0,0:0:0:0:
460,0,187520,1,2,0:0:0:0:
358,0,187520,1,0,0:0:0:70:whistle.wav
153,0,187520,1,0,0:0:0:0:
153,0,187863,1,0,0:0:0:0:
460,0,188034,1,2,0:0:0:0:
256,0,188034,1,0,0:0:0:70:whistle.wav
51,0,188034,1,0,0:0:0:0:
460,0,188205,1,8,0:0:0:0:
358,0,188205,1,0,0:0:0:0:
256,0,188205,1,0,0:0:0:0:
460,0,188377,1,2,0:0:0:0:
153,0,188377,1,0,0:0:0:0:
358,0,188548,1,0,0:0:0:70:whistle.wav
51,0,188720,1,0,0:0:0:0:
358,0,188891,1,2,0:0:0:0:
460,0,188891,1,4,0:0:0:0:
153,0,188891,1,0,0:0:0:0:
256,0,188891,1,0,0:0:0:0:
153,0,189277,1,0,0:0:0:0:
358,0,189320,1,0,0:0:0:0:
460,0,189363,1,0,0:0:0:0:
51,0,189405,1,0,0:0:0:0:
256,0,189405,1,0,0:0:0:0:
358,0,189463,1,0,0:0:0:0:
153,0,189463,1,0,0:0:0:0:
460,0,189520,1,0,0:0:0:0:
51,0,189520,1,0,0:0:0:0:
358,0,189577,1,8,0:0:0:0:
256,0,189577,1,0,0:0:0:0:
153,0,189691,1,8,0:0:0:0:
51,0,189691,1,0,0:0:0:0:
358,0,189805,1,8,0:0:0:0:
460,0,189805,1,0,0:0:0:0:
460,0,189920,1,8,0:0:0:0:
256,0,189920,1,0,0:0:0:40:chi.wav
153,0,189920,1,0,0:0:0:0:
358,0,190091,1,0,0:0:0:0:
460,0,190263,1,2,0:0:0:0:
256,0,190263,1,4,0:0:0:0:
51,0,190263,1,0,0:0:0:0:
153,0,190348,1,0,0:0:0:0:
358,0,190434,1,0,0:0:0:0:
51,0,190520,1,0,0:0:0:0:
460,0,190605,1,8,0:0:0:0:
256,0,190605,1,0,0:0:0:0:
153,0,190605,1,0,0:0:0:0:
51,0,190691,1,0,0:0:0:0:
256,0,190777,1,0,0:0:0:0:
358,0,190863,1,0,0:0:0:0:
460,0,190948,1,2,0:0:0:0:
153,0,190948,1,0,0:0:0:0:
358,0,191034,1,0,0:0:0:0:
51,0,191120,1,0,0:0:0:0:
256,0,191205,1,0,0:0:0:0:
460,0,191291,1,8,0:0:0:0:
358,0,191291,1,0,0:0:0:0:
153,0,191291,1,0,0:0:0:0:
256,0,191377,1,0,0:0:0:0:
153,0,191463,1,0,0:0:0:0:
51,0,191548,1,0,0:0:0:0:
460,0,191634,1,2,0:0:0:0:
358,0,191634,1,0,0:0:0:0:
153,0,191720,1,0,0:0:0:0:
256,0,191805,1,0,0:0:0:0:
358,0,191891,1,0,0:0:0:0:
460,0,191977,1,8,0:0:0:0:
256,0,191977,1,0,0:0:0:0:
51,0,191977,1,0,0:0:0:0:
153,0,192063,1,0,0:0:0:0:
358,0,192148,1,0,0:0:0:0:
460,0,192234,1,0,0:0:0:0:
256,0,192320,1,2,0:0:0:0:
51,0,192320,1,0,0:0:0:0:
358,0,192405,1,0,0:0:0:0:
153,0,192491,1,0,0:0:0:0:
256,0,192577,1,0,0:0:0:0:
460,0,192663,1,8,0:0:0:0:
358,0,192663,1,0,0:0:0:0:
51,0,192663,1,0,0:0:0:0:
256,0,192748,1,0,0:0:0:0:
153,0,192834,1,0,0:0:0:0:
51,0,192920,1,0,0:0:0:0:
358,0,193005,1,2,0:0:0:0:
256,0,193005,1,0,0:0:0:0:
153,0,193091,1,0,0:0:0:0:
460,0,193177,1,0,0:0:0:0:
256,0,193263,1,0,0:0:0:0:
358,0,193348,1,8,0:0:0:0:
153,0,193348,1,0,0:0:0:0:
51,0,193348,1,0,0:0:0:0:
256,0,193434,1,0,0:0:0:0:
358,0,193520,1,0,0:0:0:0:
460,0,193605,1,0,0:0:0:0:
256,0,193691,1,2,0:0:0:0:
51,0,193691,1,0,0:0:0:0:
358,0,193777,1,0,0:0:0:0:
153,0,193863,1,0,0:0:0:0:
51,0,193948,1,0,0:0:0:0:
460,0,194034,1,8,0:0:0:0:
256,0,194034,1,0,0:0:0:0:
153,0,194034,1,0,0:0:0:0:
358,0,194120,1,0,0:0:0:0:
256,0,194205,1,0,0:0:0:0:
153,0,194291,1,0,0:0:0:0:
460,0,194377,1,2,0:0:0:0:
51,0,194377,1,0,0:0:0:0:
256,0,194463,1,0,0:0:0:0:
358,0,194548,1,0,0:0:0:0:
460,0,194634,1,0,0:0:0:0:
358,0,194720,1,8,0:0:0:0:
256,0,194720,1,0,0:0:0:0:
153,0,194720,1,0,0:0:0:0:
51,0,194805,1,0,0:0:0:0:
256,0,194891,1,0,0:0:0:0:
358,0,194977,1,0,0:0:0:0:
460,0,195063,1,2,0:0:0:0:
153,0,195063,1,0,0:0:0:0:
256,0,195148,1,0,0:0:0:0:
358,0,195234,1,0,0:0:0:0:
153,0,195320,1,0,0:0:0:0:
460,0,195405,1,8,0:0:0:0:
256,0,195405,1,0,0:0:0:0:
51,0,195405,1,0,0:0:0:0:
358,0,195491,1,0,0:0:0:0:
153,0,195577,1,0,0:0:0:0:
51,0,195663,1,0,0:0:0:0:
460,0,195748,1,2,0:0:0:0:
358,0,195748,1,0,0:0:0:0:
256,0,195834,1,0,0:0:0:0:
153,0,195920,1,0,0:0:0:0:
358,0,196005,1,0,0:0:0:0:
460,0,196091,1,8,0:0:0:0:
256,0,196091,1,0,0:0:0:0:
153,0,196091,1,0,0:0:0:0:
51,0,196177,1,0,0:0:0:0:
256,0,196263,1,0,0:0:0:0:
358,0,196348,1,0,0:0:0:0:
460,0,196434,1,2,0:0:0:0:
153,0,196434,1,0,0:0:0:0:
256,0,196520,1,0,0:0:0:0:
51,0,196605,1,0,0:0:0:0:
153,0,196691,1,0,0:0:0:0:
460,0,196777,1,8,0:0:0:0:
358,0,196777,1,0,0:0:0:0:
51,0,196777,1,0,0:0:0:0:
256,0,196863,1,0,0:0:0:0:
153,0,196948,1,0,0:0:0:0:
51,0,197034,1,0,0:0:0:0:
358,0,197120,1,2,0:0:0:0:
256,0,197120,1,0,0:0:0:0:
153,0,197205,1,0,0:0:0:0:
256,0,197291,1,0,0:0:0:0:
358,0,197377,1,0,0:0:0:0:
460,0,197463,1,8,0:0:0:0:
153,0,197463,1,0,0:0:0:0:
51,0,197463,1,0,0:0:0:0:
256,0,197548,1,0,0:0:0:0:
358,0,197634,1,0,0:0:0:0:
256,0,197720,1,0,0:0:0:0:
460,0,197805,1,2,0:0:0:0:
153,0,197805,1,0,0:0:0:0:
358,0,197891,1,0,0:0:0:0:
256,0,197977,1,0,0:0:0:0:
460,0,198063,1,0,0:0:0:0:
358,0,198148,1,8,0:0:0:0:
153,0,198148,1,0,0:0:0:0:
51,0,198148,1,0,0:0:0:0:
256,0,198234,1,0,0:0:0:0:
153,0,198320,1,0,0:0:0:0:
358,0,198405,1,0,0:0:0:0:
460,0,198491,1,2,0:0:0:0:
51,0,198491,1,0,0:0:0:0:
153,0,198577,1,0,0:0:0:0:
256,0,198663,1,0,0:0:0:0:
358,0,198748,1,0,0:0:0:0:
460,0,198834,1,8,0:0:0:0:
256,0,198834,1,0,0:0:0:0:
51,0,198834,1,0,0:0:0:0:
153,0,198920,1,0,0:0:0:0:
358,0,199005,1,0,0:0:0:0:
256,0,199091,1,0,0:0:0:0:
153,0,199177,1,2,0:0:0:0:
51,0,199177,1,0,0:0:0:70:LR3_ReverseFXG.wav
460,0,199263,1,0,0:0:0:0:
256,0,199348,1,0,0:0:0:0:
358,0,199434,1,0,0:0:0:0:
460,0,199520,1,8,0:0:0:0:
256,0,199520,1,0,0:0:0:0:
153,0,199520,1,0,0:0:0:0:
51,0,199605,1,0,0:0:0:0:
358,192,199691,1,0,0:0:0:0:
256,192,199777,1,0,0:0:0:0:
460,0,199863,1,2,0:0:0:0:
51,0,199863,128,4,200377:0:0:0:0:
153,0,199863,128,0,200377:0:0:0:0:
256,0,200034,1,0,0:0:0:0:
358,0,200205,1,0,0:0:0:0:
460,0,200377,1,2,0:0:0:0:
256,0,200377,1,0,0:0:0:0:
358,0,200548,128,8,200720:0:0:0:0:
256,0,200548,128,0,200805:0:0:0:0:
51,0,200548,128,0,200891:0:0:0:0:
460,0,200720,1,0,0:0:0:0:
358,0,200891,1,2,0:0:0:0:
153,0,200891,1,0,0:0:0:0:
460,0,201063,1,2,0:0:0:0:
51,0,201063,1,0,0:0:0:0:
358,0,201120,1,2,0:0:0:0:
153,0,201177,1,2,0:0:0:0:
358,0,201234,128,4,201834:0:0:0:0:
460,0,201234,128,2,201834:0:0:0:0:
51,0,201234,128,0,201663:0:0:0:0:
256,0,201234,1,0,0:0:0:0:
153,0,201748,1,2,0:0:0:0:
51,0,201748,1,0,0:0:0:0:
460,0,201920,1,8,0:0:0:0:
358,0,201920,1,0,0:0:0:0:
256,0,201920,1,0,0:0:0:0:
51,0,201977,1,0,0:0:0:0:
153,0,202034,1,0,0:0:0:0:
358,0,202091,1,2,0:0:0:0:
256,0,202091,1,0,0:0:0:0:
51,0,202148,1,0,0:0:0:0:
153,0,202205,1,0,0:0:0:0:
256,0,202263,1,0,0:0:0:0:
358,0,202320,1,0,0:0:0:0:
153,0,202377,1,0,0:0:0:0:
256,0,202434,1,0,0:0:0:0:
358,0,202491,1,0,0:0:0:0:
460,0,202548,1,0,0:0:0:0:
256,0,202605,1,2,0:0:0:0:
153,0,202605,1,0,0:0:0:0:
51,0,202605,128,0,203205:0:0:0:0:
460,0,202777,1,8,0:0:0:0:
358,0,202777,128,0,203205:0:0:0:0:
153,0,202777,128,0,203034:0:0:0:0:
256,0,203120,1,2,0:0:0:0:
153,0,203120,1,0,0:0:0:0:
460,0,203291,1,8,0:0:0:0:
358,0,203291,1,0,0:0:0:0:
51,0,203291,1,0,0:0:0:0:
256,0,203463,128,2,203805:0:0:0:0:
51,0,203463,128,0,203805:0:0:0:0:
460,0,203634,128,0,203977:0:0:0:0:
256,0,203977,128,4,204577:0:0:0:0:
358,0,203977,128,2,204577:0:0:0:0:
51,0,203977,1,0,0:0:0:0:
153,0,203977,128,0,204405:0:0:0:0:
460,0,204491,1,2,0:0:0:0:
153,0,204491,1,0,0:0:0:0:
358,0,204663,1,8,0:0:0:0:
256,0,204663,1,0,0:0:0:0:
51,0,204663,1,0,0:0:0:0:
460,0,204834,1,2,0:0:0:0:
51,0,204834,1,0,0:0:0:0:
358,0,204891,1,0,0:0:0:0:
153,0,204948,1,0,0:0:0:0:
256,0,205005,1,0,0:0:0:0:
358,0,205177,1,0,0:0:0:0:
460,0,205348,128,2,205777:0:0:0:0:
358,0,205348,1,0,0:0:0:0:
153,0,205348,1,0,0:0:0:0:
256,0,205520,1,8,0:0:0:0:
153,0,205520,128,0,205948:0:0:0:0:
51,0,205520,128,0,205948:0:0:0:0:
460,0,205863,1,2,0:0:0:0:
256,0,205863,1,0,0:0:0:0:
358,0,206034,128,8,206320:0:0:0:0:
153,0,206034,1,0,0:0:0:0:
51,0,206034,1,0,0:0:0:0:
460,0,206205,1,2,0:0:0:0:
51,0,206205,1,0,0:0:0:0:
153,0,206263,1,0,0:0:0:0:
256,0,206320,128,0,206720:0:0:0:0:
51,0,206463,128,0,206634:0:0:0:0:
153,0,206520,128,0,206634:0:0:0:0:
358,0,206720,1,2,0:0:0:0:
460,0,206720,1,4,0:0:0:0:
51,0,206720,1,0,0:0:0:0:
153,0,206720,1,0,0:0:0:0:
256,0,206891,1,0,0:0:0:0:
460,0,207063,1,8,0:0:0:0:
153,0,207063,1,0,0:0:0:0:
51,0,207063,1,2,0:0:0:0:
256,0,207234,1,0,0:0:0:0:
460,0,207405,1,2,0:0:0:0:
358,0,207405,1,8,0:0:0:0:
51,0,207405,1,0,0:0:0:0:
256,0,207577,1,0,0:0:0:0:
460,0,207748,1,2,0:0:0:0:
153,0,207748,1,8,0:0:0:0:
51,0,207748,1,0,0:0:0:0:
256,0,207920,1,0,0:0:0:0:
358,0,208091,1,4,0:0:0:0:
460,0,208091,1,2,0:0:0:0:
51,0,208091,1,8,0:0:0:0:
153,0,208091,1,0,0:0:0:0:
256,0,208263,1,0,0:0:0:0:
460,0,208434,1,2,0:0:0:0:
153,0,208434,1,8,0:0:0:0:
51,0,208434,1,0,0:0:0:0:
358,0,208605,1,0,0:0:0:0:
256,0,208605,1,0,0:0:0:0:
460,0,208777,1,2,0:0:0:0:
153,0,208777,1,8,0:0:0:0:
51,0,208777,1,0,0:0:0:0:
256,0,208948,1,0,0:0:0:0:
460,0,209120,1,2,0:0:0:0:
358,0,209120,1,8,0:0:0:0:
51,0,209120,1,0,0:0:0:0:
256,0,209291,1,0,0:0:0:0:
358,0,209463,1,4,0:0:0:0:
460,0,209463,1,2,0:0:0:0:
51,0,209463,1,0,0:0:0:0:
153,0,209463,1,0,0:0:0:0:
460,0,209634,1,8,0:0:0:0:
153,0,209634,1,0,0:0:0:0:
358,0,209805,1,2,0:0:0:0:
256,0,209805,1,0,0:0:0:0:
51,0,209805,1,0,0:0:0:0:
358,0,209977,1,8,0:0:0:0:
153,0,209977,1,0,0:0:0:0:
256,0,210148,1,4,0:0:0:0:
460,0,210148,1,2,0:0:0:0:
51,0,210148,1,0,0:0:0:0:
153,0,210148,1,0,0:0:0:0:
256,0,210320,1,8,0:0:0:0:
153,0,210320,1,0,0:0:0:0:
460,0,210491,1,2,0:0:0:0:
358,0,210491,1,0,0:0:0:0:
51,0,210491,1,0,0:0:0:0:
460,0,210663,1,8,0:0:0:0:
153,0,210663,1,0,0:0:0:0:
256,0,210834,1,4,0:0:0:0:
358,0,210834,1,2,0:0:0:0:
51,0,210834,1,0,0:0:0:0:
153,0,210834,1,0,0:0:0:0:
358,0,211005,1,8,0:0:0:0:
153,0,211005,1,0,0:0:0:0:
460,0,211177,1,2,0:0:0:0:
256,0,211177,1,0,0:0:0:0:
51,0,211177,1,0,0:0:0:0:
256,0,211348,1,8,0:0:0:0:
153,0,211348,1,0,0:0:0:0:
358,0,211520,1,4,0:0:0:0:
460,0,211520,1,2,0:0:0:0:
51,0,211520,1,0,0:0:0:0:
153,0,211520,1,0,0:0:0:0:
358,0,211691,1,8,0:0:0:0:
153,0,211691,1,0,0:0:0:0:
460,0,211863,1,2,0:0:0:0:
256,0,211863,1,0,0:0:0:0:
51,0,211863,1,0,0:0:0:0:
460,0,212034,1,8,0:0:0:0:
153,0,212034,1,0,0:0:0:0:
358,0,212205,1,4,0:0:0:0:
460,0,212205,1,2,0:0:0:0:
51,0,212205,1,8,0:0:0:0:
153,0,212205,1,0,0:0:0:0:
256,0,212291,1,8,0:0:0:0:
358,0,212377,1,8,0:0:0:0:
256,0,212463,1,8,0:0:0:0:
460,0,212548,1,8,0:0:0:0:
153,0,212634,1,8,0:0:0:0:
358,0,212720,1,8,0:0:0:0:
51,0,212805,1,8,0:0:0:0:
358,0,212891,1,8,0:0:0:0:
256,0,212977,1,8,0:0:0:0:
358,0,213063,1,8,0:0:0:0:
256,0,213148,1,8,0:0:0:0:
460,0,213234,1,8,0:0:0:0:
153,0,213320,1,8,0:0:0:0:
358,0,213405,1,8,0:0:0:0:
51,0,213491,1,8,0:0:0:0:
358,0,213577,1,4,0:0:0:0:
460,0,213577,1,2,0:0:0:0:
153,0,213577,1,0,0:0:0:0:
256,0,213577,1,0,0:0:0:0:
256,0,213748,1,4,0:0:0:0:
358,0,213748,1,2,0:0:0:0:
51,0,213748,1,0,0:0:0:0:
153,0,213748,1,0,0:0:0:0:
256,0,213920,1,4,0:0:0:0:
460,0,213920,1,2,0:0:0:0:
51,0,213920,1,0,0:0:0:0:
153,0,213920,1,0,0:0:0:0:
358,0,214091,1,2,0:0:0:0:
460,0,214091,1,4,0:0:0:0:
51,0,214091,1,0,0:0:0:0:
256,0,214091,1,0,0:0:0:0:
358,0,214605,1,0,0:0:0:70:climax.wav
256,0,214605,1,0,0:0:0:0:
153,0,214605,1,0,0:0:0:0:
460,0,214948,1,2,0:0:0:0:
256,0,214948,1,4,0:0:0:0:
51,0,214948,1,0,0:0:0:70:twinkling.wav
358,0,215034,1,0,0:0:0:0:
153,0,215034,1,0,0:0:0:0:
256,0,215120,1,0,0:0:0:0:
51,0,215120,1,0,0:0:0:0:
460,0,215205,1,0,0:0:0:0:
358,0,215291,1,8,0:0:0:0:
51,0,215291,1,0,0:0:0:0:
153,0,215291,1,0,0:0:0:0:
460,0,215377,1,0,0:0:0:0:
256,0,215463,1,0,0:0:0:0:
153,0,215463,1,0,0:0:0:0:
358,0,215548,1,0,0:0:0:0:
153,0,215634,1,2,0:0:0:0:
256,0,215634,1,0,0:0:0:0:
460,0,215634,1,0,0:0:0:0:
358,0,215720,1,0,0:0:0:0:
51,0,215720,1,0,0:0:0:0:
460,0,215805,1,0,0:0:0:0:
256,0,215805,1,0,0:0:0:0:
51,0,215891,1,0,0:0:0:0:
358,0,215977,1,8,0:0:0:0:
256,0,215977,1,0,0:0:0:0:
153,0,215977,1,0,0:0:0:0:
460,0,216063,1,0,0:0:0:0:
358,0,216148,1,0,0:0:0:0:
51,0,216148,1,0,0:0:0:0:
256,0,216234,1,0,0:0:0:0:
460,0,216320,1,2,0:0:0:0:
358,0,216320,1,0,0:0:0:0:
153,0,216320,1,0,0:0:0:0:
256,0,216405,1,0,0:0:0:0:
51,0,216405,1,0,0:0:0:0:
358,0,216491,1,0,0:0:0:0:
153,0,216491,1,0,0:0:0:0:
256,0,216577,1,0,0:0:0:0:
460,0,216663,1,8,0:0:0:0:
153,0,216663,1,0,0:0:0:0:
51,0,216663,1,0,0:0:0:0:
358,0,216748,1,0,0:0:0:0:
460,0,216834,1,0,0:0:0:0:
256,0,216834,1,0,0:0:0:0:
153,0,216920,1,0,0:0:0:0:
358,0,217005,1,2,0:0:0:0:
460,0,217005,1,0,0:0:0:0:
51,0,217005,1,0,0:0:0:0:
153,0,217091,1,0,0:0:0:0:
256,0,217091,1,0,0:0:0:0:
358,0,217177,1,0,0:0:0:0:
460,0,217177,1,0,0:0:0:0:
153,0,217263,1,0,0:0:0:0:
358,0,217348,1,8,0:0:0:0:
256,0,217348,1,0,0:0:0:0:
51,0,217348,1,0,0:0:0:0:
460,0,217434,1,0,0:0:0:0:
256,0,217520,1,0,0:0:0:0:
51,0,217520,1,0,0:0:0:0:
358,0,217605,1,0,0:0:0:0:
460,0,217691,1,2,0:0:0:0:
256,0,217691,1,0,0:0:0:0:
153,0,217691,1,0,0:0:0:0:
358,0,217777,1,0,0:0:0:0:
51,0,217777,1,0,0:0:0:0:
153,0,217863,1,0,0:0:0:0:
460,0,217863,1,0,0:0:0:0:
358,0,217948,1,0,0:0:0:0:
51,0,218034,1,8,0:0:0:0:
256,0,218034,1,0,0:0:0:0:
153,0,218034,1,0,0:0:0:0:
460,0,218120,1,0,0:0:0:0:
256,0,218205,1,0,0:0:0:0:
51,0,218205,1,0,0:0:0:0:
153,0,218291,1,0,0:0:0:0:
256,0,218377,1,2,0:0:0:0:
358,0,218377,1,0,0:0:0:0:
460,0,218377,1,0,0:0:0:0:
153,0,218463,1,0,0:0:0:0:
51,0,218463,1,0,0:0:0:0:
358,0,218548,1,0,0:0:0:0:
256,0,218548,1,0,0:0:0:0:
51,0,218634,1,0,0:0:0:0:
460,0,218720,1,8,0:0:0:0:
358,0,218720,1,0,0:0:0:0:
153,0,218720,1,0,0:0:0:0:
256,0,218805,1,0,0:0:0:0:
460,0,218891,1,0,0:0:0:0:
153,0,218891,1,0,0:0:0:0:
51,0,218977,1,0,0:0:0:0:
460,0,219063,1,2,0:0:0:0:
256,0,219063,1,0,0:0:0:0:
153,0,219063,1,0,0:0:0:0:
358,0,219148,1,0,0:0:0:0:
51,0,219148,1,0,0:0:0:0:
460,0,219234,1,0,0:0:0:0:
256,0,219234,1,0,0:0:0:0:
153,0,219320,1,0,0:0:0:0:
358,0,219405,1,8,0:0:0:0:
256,0,219405,1,0,0:0:0:0:
51,0,219405,1,0,0:0:0:0:
460,0,219491,1,0,0:0:0:0:
358,0,219577,1,0,0:0:0:0:
51,0,219577,1,0,0:0:0:0:
256,0,219663,1,0,0:0:0:0:
460,0,219748,1,2,0:0:0:0:
153,0,219748,1,0,0:0:0:0:
51,0,219748,1,0,0:0:0:0:
358,0,219834,1,0,0:0:0:0:
256,0,219834,1,0,0:0:0:0:
460,0,219920,1,0,0:0:0:0:
51,0,219920,1,0,0:0:0:0:
358,0,220005,1,0,0:0:0:0:
460,0,220091,1,8,0:0:0:0:
256,0,220091,1,0,0:0:0:0:
153,0,220091,1,0,0:0:0:0:
51,0,220177,1,0,0:0:0:0:
358,0,220263,1,0,0:0:0:0:
153,0,220263,1,0,0:0:0:0:
256,0,220348,1,0,0:0:0:0:
51,0,220434,1,2,0:0:0:0:
153,0,220434,1,0,0:0:0:0:
358,0,220434,1,0,0:0:0:0:
460,0,220520,1,0,0:0:0:0:
256,0,220520,1,0,0:0:0:0:
358,0,220605,1,0,0:0:0:0:
51,0,220605,1,0,0:0:0:0:
153,0,220691,1,0,0:0:0:0:
460,0,220777,1,8,0:0:0:0:
358,0,220777,1,0,0:0:0:0:
256,0,220777,1,0,0:0:0:0:
153,0,220863,1,0,0:0:0:0:
256,0,220948,1,0,0:0:0:0:
51,0,220948,1,0,0:0:0:0:
358,0,221034,1,0,0:0:0:0:
460,0,221120,1,2,0:0:0:0:
256,0,221120,1,0,0:0:0:0:
153,0,221120,1,0,0:0:0:0:
358,0,221205,1,0,0:0:0:0:
51,0,221205,1,0,0:0:0:0:
256,0,221291,1,0,0:0:0:0:
153,0,221291,1,0,0:0:0:0:
460,0,221377,1,0,0:0:0:0:
358,0,221463,1,8,0:0:0:0:
153,0,221463,1,0,0:0:0:0:
51,0,221463,1,0,0:0:0:0:
460,0,221548,1,0,0:0:0:0:
256,0,221634,1,0,0:0:0:0:
51,0,221634,1,0,0:0:0:0:
358,0,221720,1,0,0:0:0:0:
460,0,221805,1,2,0:0:0:0:
51,0,221805,1,0,0:0:0:0:
153,0,221805,1,0,0:0:0:0:
358,0,221891,1,0,0:0:0:0:
256,0,221891,1,0,0:0:0:0:
460,0,221977,1,0,0:0:0:0:
153,0,221977,1,0,0:0:0:0:
51,0,222063,1,0,0:0:0:0:
256,0,222148,1,8,0:0:0:0:
460,0,222148,1,0,0:0:0:0:
358,0,222148,1,0,0:0:0:0:
51,0,222234,1,0,0:0:0:0:
358,0,222320,1,0,0:0:0:0:
153,0,222320,1,0,0:0:0:0:
460,0,222405,1,0,0:0:0:0:
358,0,222491,1,2,0:0:0:0:
256,0,222491,1,0,0:0:0:0:
51,0,222491,1,0,0:0:0:0:
460,0,222577,1,0,0:0:0:0:
153,0,222577,1,0,0:0:0:0:
358,0,222663,1,0,0:0:0:0:
256,0,222663,1,0,0:0:0:0:
51,0,222748,1,0,0:0:0:0:
460,0,222834,1,8,0:0:0:0:
256,0,222834,1,0,0:0:0:0:
153,0,222834,1,0,0:0:0:0:
358,0,222920,1,0,0:0:0:0:
153,0,223005,1,0,0:0:0:0:
51,0,223005,1,0,0:0:0:0:
256,0,223091,1,0,0:0:0:0:
460,0,223177,1,2,0:0:0:0:
153,0,223177,1,0,0:0:0:0:
358,0,223177,1,0,0:0:0:0:
51,0,223263,1,0,0:0:0:0:
256,0,223263,1,0,0:0:0:0:
460,0,223348,1,0,0:0:0:0:
153,0,223348,1,0,0:0:0:0:
256,0,223434,1,0,0:0:0:0:
460,0,223520,1,8,0:0:0:0:
358,0,223520,1,0,0:0:0:0:
51,0,223520,1,0,0:0:0:0:
153,0,223605,1,0,0:0:0:0:
358,0,223691,1,0,0:0:0:0:
256,0,223691,1,0,0:0:0:0:
460,0,223777,1,0,0:0:0:0:
358,0,223863,1,2,0:0:0:0:
256,0,223863,1,0,0:0:0:0:
153,0,223863,1,0,0:0:0:0:
460,0,223948,1,0,0:0:0:0:
51,0,223948,1,0,0:0:0:0:
153,0,224034,1,0,0:0:0:0:
358,0,224034,1,0,0:0:0:0:
256,0,224120,1,0,0:0:0:0:
460,0,224205,1,8,0:0:0:0:
51,0,224205,1,0,0:0:0:0:
153,0,224205,1,0,0:0:0:0:
358,0,224291,1,0,0:0:0:0:
256,0,224377,1,0,0:0:0:0:
460,0,224377,1,0,0:0:0:0:
153,0,224463,1,0,0:0:0:0:
460,0,224548,1,2,0:0:0:0:
358,0,224548,1,0,0:0:0:0:
51,0,224548,1,0,0:0:0:0:
256,0,224634,1,0,0:0:0:0:
153,0,224634,1,0,0:0:0:0:
51,0,224720,1,0,0:0:0:0:
358,0,224805,1,0,0:0:0:0:
460,0,224891,1,8,0:0:0:0:
153,0,224891,1,0,0:0:0:0:
51,0,224891,1,0,0:0:0:0:
358,0,224977,1,0,0:0:0:0:
153,0,225063,1,0,0:0:0:0:
256,0,225148,1,0,0:0:0:0:
51,0,225234,1,2,0:0:0:0:
358,0,225234,1,0,0:0:0:0:
153,0,225234,1,0,0:0:0:0:
460,0,225320,1,0,0:0:0:0:
256,0,225320,1,0,0:0:0:0:
358,0,225405,1,0,0:0:0:0:
153,0,225491,1,0,0:0:0:0:
460,0,225577,1,8,0:0:0:0:
358,0,225577,1,0,0:0:0:0:
256,0,225577,1,0,0:0:0:0:
51,0,225663,1,0,0:0:0:0:
460,0,225748,1,0,0:0:0:0:
256,0,225748,1,0,0:0:0:0:
153,0,225834,1,0,0:0:0:0:
460,0,225920,1,4,0:0:0:0:
51,0,225920,1,2,0:0:0:0:
358,0,225920,1,0,0:0:0:0:
256,0,226005,1,0,0:0:0:0:
153,0,226005,1,0,0:0:0:0:
358,0,226091,1,0,0:0:0:0:
51,0,226091,1,0,0:0:0:0:
460,0,226177,1,0,0:0:0:0:
256,0,226263,1,8,0:0:0:0:
153,0,226263,1,0,0:0:0:0:
51,0,226263,1,0,0:0:0:0:
460,0,226348,1,0,0:0:0:0:
358,0,226434,1,0,0:0:0:0:
153,0,226434,1,0,0:0:0:0:
51,0,226520,1,0,0:0:0:0:
460,0,226605,1,2,0:0:0:0:
256,0,226605,1,0,0:0:0:0:
153,0,226605,1,0,0:0:0:0:
358,0,226691,1,0,0:0:0:0:
51,0,226691,1,0,0:0:0:0:
256,0,226777,1,0,0:0:0:0:
153,0,226777,1,0,0:0:0:0:
460,0,226863,1,0,0:0:0:0:
358,0,226948,1,8,0:0:0:0:
256,0,226948,1,0,0:0:0:0:
51,0,226948,1,0,0:0:0:0:
153,0,227034,1,0,0:0:0:0:
460,0,227120,1,0,0:0:0:0:
358,0,227120,1,0,0:0:0:0:
256,0,227205,1,0,0:0:0:0:
358,0,227291,1,2,0:0:0:0:
153,0,227291,1,0,0:0:0:0:
51,0,227291,1,0,0:0:0:0:
460,0,227377,1,0,0:0:0:0:
256,0,227377,1,0,0:0:0:0:
153,0,227463,1,0,0:0:0:0:
51,0,227463,1,0,0:0:0:0:
256,0,227548,1,0,0:0:0:0:
460,0,227634,1,8,0:0:0:0:
358,0,227634,1,0,0:0:0:0:
51,0,227634,1,0,0:0:0:0:
153,0,227720,1,0,0:0:0:0:
358,0,227805,1,0,0:0:0:0:
256,0,227805,1,0,0:0:0:0:
51,0,227891,1,0,0:0:0:0:
358,0,227977,1,2,0:0:0:0:
256,0,227977,1,0,0:0:0:0:
153,0,227977,1,0,0:0:0:0:
460,0,228063,1,0,0:0:0:0:
51,0,228063,1,0,0:0:0:0:
358,0,228148,1,0,0:0:0:0:
256,0,228148,1,0,0:0:0:0:
460,0,228234,1,0,0:0:0:0:
256,0,228320,1,8,0:0:0:0:
153,0,228320,1,0,0:0:0:0:
51,0,228320,1,0,0:0:0:0:
358,0,228405,1,0,0:0:0:0:
460,0,228491,1,0,0:0:0:0:
153,0,228491,1,0,0:0:0:0:
256,0,228577,1,0,0:0:0:0:
153,0,228663,1,2,0:0:0:0:
460,0,228663,1,4,0:0:0:0:
51,0,228663,1,0,0:0:0:0:
358,0,228748,1,0,0:0:0:0:
256,0,228748,1,0,0:0:0:0:
460,0,228834,1,0,0:0:0:0:
51,0,228834,1,0,0:0:0:0:
153,0,228920,1,0,0:0:0:0:
460,0,229005,1,8,0:0:0:0:
358,0,229005,1,0,0:0:0:0:
256,0,229005,1,0,0:0:0:0:
153,0,229091,1,0,0:0:0:0:
256,0,229177,1,0,0:0:0:0:
51,0,229177,1,0,0:0:0:0:
460,0,229263,1,0,0:0:0:0:
358,0,229348,1,2,0:0:0:0:
256,0,229348,1,0,0:0:0:0:
153,0,229348,1,0,0:0:0:0:
460,0,229434,1,0,0:0:0:0:
51,0,229434,1,0,0:0:0:0:
358,0,229520,1,0,0:0:0:0:
153,0,229520,1,0,0:0:0:0:
256,0,229605,1,0,0:0:0:0:
460,0,229691,1,8,0:0:0:0:
358,0,229691,1,0,0:0:0:0:
51,0,229691,1,0,0:0:0:0:
153,0,229777,1,0,0:0:0:0:
460,0,229863,1,0,0:0:0:0:
256,0,229863,1,0,0:0:0:0:
358,0,229948,1,0,0:0:0:0:
460,0,230034,1,2,0:0:0:0:
256,0,230034,1,0,0:0:0:0:
51,0,230034,1,0,0:0:0:0:
358,0,230120,1,0,0:0:0:0:
153,0,230120,1,0,0:0:0:0:
51,0,230205,1,0,0:0:0:0:
256,0,230205,1,0,0:0:0:0:
460,0,230291,1,0,0:0:0:0:
256,0,230377,1,8,0:0:0:0:
153,0,230377,1,0,0:0:0:0:
51,0,230377,1,0,0:0:0:0:
358,0,230463,1,0,0:0:0:0:
460,0,230548,1,0,0:0:0:0:
153,0,230548,1,0,0:0:0:0:
256,0,230634,1,0,0:0:0:0:
358,0,230720,1,2,0:0:0:0:
153,0,230720,1,0,0:0:0:0:
51,0,230720,1,0,0:0:0:0:
460,0,230805,1,0,0:0:0:0:
256,0,230805,1,0,0:0:0:0:
358,0,230891,1,0,0:0:0:0:
153,0,230891,1,0,0:0:0:0:
460,0,230977,1,0,0:0:0:0:
358,0,231063,1,8,0:0:0:0:
256,0,231063,1,0,0:0:0:0:
51,0,231063,1,0,0:0:0:0:
153,0,231148,1,0,0:0:0:0:
358,0,231234,1,0,0:0:0:0:
51,0,231234,1,0,0:0:0:0:
256,0,231320,1,0,0:0:0:0:
51,0,231405,1,2,0:0:0:0:
460,0,231405,1,4,0:0:0:0:
153,0,231405,1,0,0:0:0:0:
358,0,231491,1,0,0:0:0:0:
256,0,231491,1,0,0:0:0:0:
460,0,231577,1,0,0:0:0:0:
153,0,231577,1,0,0:0:0:0:
51,0,231663,1,0,0:0:0:0:
460,0,231748,1,8,0:0:0:0:
153,0,231748,1,0,0:0:0:0:
256,0,231748,1,0,0:0:0:0:
358,0,231834,1,0,0:0:0:0:
256,0,231920,1,0,0:0:0:0:
51,0,231920,1,0,0:0:0:0:
153,0,232005,1,0,0:0:0:0:
358,0,232091,1,2,0:0:0:0:
256,0,232091,1,0,0:0:0:0:
51,0,232091,1,0,0:0:0:0:
460,0,232177,1,0,0:0:0:0:
153,0,232177,1,0,0:0:0:0:
256,0,232263,1,0,0:0:0:0:
51,0,232263,1,0,0:0:0:0:
460,0,232348,1,0,0:0:0:0:
358,0,232434,1,8,0:0:0:0:
153,0,232434,1,0,0:0:0:0:
51,0,232434,1,0,0:0:0:0:
256,0,232520,1,0,0:0:0:0:
460,0,232605,1,0,0:0:0:0:
358,0,232605,1,0,0:0:0:0:
51,0,232691,1,0,0:0:0:0:
460,0,232777,1,4,0:0:0:0:
358,0,232777,1,2,0:0:0:0:
153,0,232777,1,0,0:0:0:0:
256,0,232863,1,0,0:0:0:0:
51,0,232863,1,0,0:0:0:0:
460,0,232948,1,0,0:0:0:0:
153,0,232948,1,0,0:0:0:0:
358,0,233034,1,0,0:0:0:0:
256,0,233120,1,8,0:0:0:0:
153,0,233120,1,0,0:0:0:0:
51,0,233120,1,0,0:0:0:0:
460,0,233205,1,0,0:0:0:0:
358,0,233291,1,0,0:0:0:0:
51,0,233291,1,0,0:0:0:0:
153,0,233377,1,0,0:0:0:0:
460,0,233463,1,2,0:0:0:0:
256,0,233463,1,0,0:0:0:0:
51,0,233463,1,0,0:0:0:0:
358,0,233548,1,0,0:0:0:0:
153,0,233548,1,0,0:0:0:0:
256,0,233634,1,0,0:0:0:0:
460,0,233634,1,0,0:0:0:0:
51,0,233720,1,0,0:0:0:0:
460,0,233805,1,8,0:0:0:0:
256,0,233805,1,0,0:0:0:0:
358,0,233805,1,0,0:0:0:0:
153,0,233891,1,0,0:0:0:0:
460,0,233977,1,0,0:0:0:0:
358,0,233977,1,0,0:0:0:0:
256,0,234063,1,0,0:0:0:0:
358,0,234148,1,4,0:0:0:0:
51,0,234148,1,2,0:0:0:0:
153,0,234148,1,0,0:0:0:0:
256,0,234234,1,0,0:0:0:0:
460,0,234234,1,0,0:0:0:0:
51,0,234320,1,0,0:0:0:0:
358,0,234405,1,0,0:0:0:0:
460,0,234491,1,8,0:0:0:0:
153,0,234491,1,0,0:0:0:0:
51,0,234491,1,0,0:0:0:0:
256,0,234577,1,0,0:0:0:0:
51,0,234663,1,0,0:0:0:0:
358,0,234748,1,0,0:0:0:0:
460,0,234834,1,4,0:0:0:0:
51,0,234834,1,2,0:0:0:0:
153,0,234834,1,0,0:0:0:0:
256,0,234920,1,0,0:0:0:0:
358,0,234920,1,0,0:0:0:0:
460,0,235005,1,0,0:0:0:0:
153,0,235091,1,0,0:0:0:0:
460,0,235177,1,8,0:0:0:0:
358,0,235177,1,0,0:0:0:0:
256,0,235177,1,0,0:0:0:0:
51,0,235263,1,0,0:0:0:0:
460,0,235348,1,0,0:0:0:0:
153,0,235348,1,0,0:0:0:0:
358,0,235434,1,0,0:0:0:0:
153,0,235520,1,2,0:0:0:0:
460,0,235520,1,4,0:0:0:0:
51,0,235520,1,0,0:0:0:0:
256,0,235520,1,0,0:0:0:0:
460,0,236205,1,0,0:0:0:70:climax.wav
256,0,236205,1,0,0:0:0:0:
51,0,236205,1,0,0:0:0:0:
358,0,236891,128,0,237405:0:0:0:70:twinkling.wav
460,0,236891,1,2,0:0:0:0:
51,0,236891,128,4,237063:0:0:0:0:
256,0,236891,1,0,0:0:0:0:
153,0,237063,128,0,237234:0:0:0:0:
51,0,237234,128,0,237405:0:0:0:0:
256,0,237405,128,0,237920:0:0:0:70:whistle.wav
153,0,237405,128,0,237577:0:0:0:0:
460,0,237577,128,0,237748:0:0:0:0:
358,0,237748,128,0,237920:0:0:0:0:
153,0,237920,128,0,238948:0:0:0:70:whistle.wav
460,0,237920,128,0,238091:0:0:0:0:
358,0,238091,128,0,238263:0:0:0:0:
51,0,238263,128,0,238434:0:0:0:0:
256,0,238434,128,0,238605:0:0:0:0:
51,0,238605,128,0,238777:0:0:0:0:
358,0,238777,128,0,238948:0:0:0:0:
51,0,238948,128,0,239120:0:0:0:0:
256,0,239120,128,0,239291:0:0:0:0:
358,0,239291,128,0,239634:0:0:0:70:whistle.wav
153,0,239291,128,0,239463:0:0:0:0:
256,0,239463,128,0,239634:0:0:0:0:
460,0,239634,128,0,240148:0:0:0:70:whistle.wav
51,0,239634,128,0,239805:0:0:0:0:
153,0,239805,128,0,239977:0:0:0:0:
51,0,239977,128,0,240148:0:0:0:0:
358,0,240148,128,0,240663:0:0:0:70:whistle.wav
153,0,240148,128,0,240320:0:0:0:0:
460,0,240320,128,0,240491:0:0:0:0:
153,0,240491,128,0,240663:0:0:0:0:
256,0,240663,128,0,241691:0:0:0:70:whistle.wav
460,0,240663,128,0,240834:0:0:0:0:
153,0,240834,128,0,241005:0:0:0:0:
358,0,241005,128,0,241177:0:0:0:0:
51,0,241177,128,0,241348:0:0:0:0:
358,0,241348,128,0,241520:0:0:0:0:
153,0,241520,128,0,241691:0:0:0:0:
358,0,241691,128,0,241863:0:0:0:0:
256,0,241863,128,0,242034:0:0:0:0:
51,0,242034,128,0,242377:0:0:0:70:whistle.wav
460,0,242034,128,0,242205:0:0:0:0:
358,0,242205,128,0,242377:0:0:0:0:
256,0,242377,128,0,242548:0:0:0:70:whistle.wav
153,0,242377,128,0,242891:0:0:0:0:
358,0,242548,128,0,242720:0:0:0:0:
256,0,242720,128,0,242891:0:0:0:0:
460,0,242891,128,0,243405:0:0:0:70:whistle.wav
358,0,242891,128,0,243063:0:0:0:0:
51,0,243063,128,0,243234:0:0:0:0:
256,0,243234,128,0,243405:0:0:0:0:
153,0,243405,128,0,244434:0:0:0:70:whistle.wav
51,0,243405,128,0,243577:0:0:0:0:
256,0,243577,128,0,243748:0:0:0:0:
460,0,243748,128,0,243920:0:0:0:0:
358,0,243920,128,0,244091:0:0:0:0:
460,0,244091,128,0,244263:0:0:0:0:
256,0,244263,128,0,244434:0:0:0:0:
460,0,244434,128,0,244605:0:0:0:0:
358,0,244605,128,0,244777:0:0:0:0:
256,0,244777,128,0,245120:0:0:0:70:whistle.wav
460,0,244777,128,0,244948:0:0:0:0:
153,0,244948,128,0,245120:0:0:0:0:
358,0,245120,128,0,245291:0:0:0:70:whistle.wav
51,0,245120,128,0,245634:0:0:0:0:
256,0,245291,128,0,245463:0:0:0:0:
358,0,245463,128,0,245634:0:0:0:0:
256,0,245634,128,0,245805:0:0:0:70:whistle.wav
153,0,245634,128,0,246148:0:0:0:0:
460,0,245805,128,0,245977:0:0:0:0:
358,0,245977,128,0,246148:0:0:0:0:
256,0,246148,128,0,247177:0:0:0:70:whistle.wav
460,0,246148,128,0,246320:0:0:0:0:
358,0,246320,128,0,246491:0:0:0:0:
51,0,246491,128,0,246663:0:0:0:0:
153,0,246663,128,0,246834:0:0:0:0:
51,0,246834,128,0,247005:0:0:0:0:
358,0,247005,128,0,247177:0:0:0:0:
51,0,247177,128,0,247348:0:0:0:0:
153,0,247348,128,0,247520:0:0:0:0:
358,0,247520,128,0,247863:0:0:0:70:whistle.wav
256,0,247520,128,0,247691:0:0:0:0:
153,0,247691,128,0,247863:0:0:0:0:
460,0,247863,128,0,248034:0:0:0:70:whistle.wav
51,0,247863,1,0,0:0:0:70:pplclap.wav
256,0,248034,128,0,248205:0:0:0:0:
460,0,248205,128,0,248377:0:0:0:70:pplclap.wav
358,0,248205,1,0,0:0:0:0:
153,0,248377,128,0,248548:0:0:0:70:whistle.wav
460,0,248548,128,0,248720:0:0:0:70:pplclap.wav
51,0,248548,1,0,0:0:0:0:
256,0,248720,128,0,248891:0:0:0:70:whistle.wav
460,0,248891,128,0,249063:0:0:0:70:whistle.wav
358,0,248891,1,0,0:0:0:70:pplclap.wav
153,0,249063,128,0,249234:0:0:0:0:
358,0,249234,128,0,249405:0:0:0:70:pplclap.wav
51,0,249234,1,0,0:0:0:0:
256,0,249405,128,0,249577:0:0:0:0:
460,0,249577,1,0,0:0:0:70:pplclap.wav
358,0,249577,128,0,249748:0:0:0:0:
51,0,249748,128,0,249920:0:0:0:0:
358,0,249920,128,0,250091:0:0:0:70:pplclap.wav
153,0,249920,1,0,0:0:0:0:
256,0,250091,128,0,250263:0:0:0:0:
460,0,250263,1,0,0:0:0:70:whistle.wav
358,0,250263,128,0,250434:0:0:0:70:pplclap.wav
51,0,250434,128,0,250605:0:0:0:0:
358,0,250605,1,0,0:0:0:70:whistle.wav
153,0,250605,128,0,250777:0:0:0:70:pplclap.wav
460,0,250777,128,0,250948:0:0:0:0:
256,0,250948,1,0,0:0:0:70:pplclap.wav
153,0,250948,128,0,251120:0:0:0:0:
358,0,251120,128,0,251291:0:0:0:70:whistle.wav
153,0,251291,128,0,251463:0:0:0:70:pplclap.wav
51,0,251291,1,0,0:0:0:0:
460,0,251463,128,0,251634:0:0:0:70:whistle.wav
256,0,251634,1,0,0:0:0:70:whistle.wav
153,0,251634,128,0,251805:0:0:0:70:pplclap.wav
358,0,251805,128,0,251977:0:0:0:0:
256,0,251977,128,0,252148:0:0:0:70:pplclap.wav
153,0,251977,1,0,0:0:0:0:
51,0,252148,128,0,252320:0:0:0:0:
358,0,252320,1,0,0:0:0:70:pplclap.wav
256,0,252320,128,0,252491:0:0:0:0:
153,0,252491,128,0,252663:0:0:0:0:
460,0,252663,1,0,0:0:0:70:pplclap.wav
256,0,252663,128,0,252834:0:0:0:0:
51,0,252834,128,0,253005:0:0:0:0:
358,0,253005,1,0,0:0:0:70:whistle.wav
256,0,253005,128,0,253177:0:0:0:70:pplclap.wav
153,0,253177,128,0,253348:0:0:0:0:
460,0,253348,128,0,253520:0:0:0:70:pplclap.wav
358,0,253348,1,0,0:0:0:70:whistle.wav
256,0,253520,128,0,253691:0:0:0:0:
460,0,253691,128,0,253863:0:0:0:70:pplclap.wav
51,0,253691,1,0,0:0:0:0:
358,0,253863,128,0,254034:0:0:0:70:whistle.wav
460,0,254034,128,0,254205:0:0:0:70:pplclap.wav
153,0,254034,1,0,0:0:0:0:
256,0,254205,128,0,254377:0:0:0:70:whistle.wav
460,0,254377,128,0,254548:0:0:0:70:pplclap.wav
51,0,254377,1,0,0:0:0:70:whistle.wav
358,0,254548,128,0,254720:0:0:0:0:
256,0,254720,1,0,0:0:0:70:pplclap.wav
153,0,254720,128,0,254891:0:0:0:0:
358,0,254891,128,0,255063:0:0:0:0:
460,0,255063,1,0,0:0:0:70:pplclap.wav
153,0,255063,128,0,255234:0:0:0:0:
256,0,255234,128,0,255405:0:0:0:0:
153,0,255405,128,0,255577:0:0:0:70:pplclap.wav
51,0,255405,1,0,0:0:0:0:
358,0,255577,128,0,255748:0:0:0:0:
460,0,255748,1,0,0:0:0:70:whistle.wav
153,0,255748,128,0,255920:0:0:0:70:pplclap.wav
256,0,255920,128,0,256091:0:0:0:0:
460,0,256091,128,0,257463:0:0:0:70:whistle.wav
358,0,256091,128,0,256263:0:0:0:70:pplclap.wav
51,0,256091,1,0,0:0:0:0:
153,0,256263,128,0,256434:0:0:0:0:
256,0,256434,1,0,0:0:0:70:pplclap.wav
51,0,256434,128,0,256605:0:0:0:0:
153,0,256605,128,0,256777:0:0:0:70:whistle.wav
358,0,256777,128,0,256948:0:0:0:70:pplclap.wav
256,0,256777,1,0,0:0:0:0:
153,0,256948,128,0,257120:0:0:0:70:whistle.wav
256,0,257120,128,0,257291:0:0:0:70:whistle.wav
51,0,257120,1,0,0:0:0:70:pplclap.wav
153,0,257291,128,0,257463:0:0:0:0:
358,0,257463,1,2,0:0:0:0:
256,0,257463,1,4,0:0:0:0:
51,0,257463,1,0,0:0:0:0:
460,0,258148,1,0,0:0:0:70:climax.wav
256,0,258148,1,0,0:0:0:70:LR3_ReverseFXG.wav
51,0,258148,1,0,0:0:0:0:
460,0,258834,1,2,0:0:0:0:
358,0,258834,1,4,0:0:0:0:
51,0,258834,1,0,0:0:0:0:
460,0,259005,1,2,0:0:0:0:
358,0,259005,1,4,0:0:0:0:
51,0,259005,1,0,0:0:0:0:
153,0,259177,1,0,0:0:0:0:
358,0,259348,1,0,0:0:0:0:
256,0,259520,1,0,0:0:0:0:
460,0,259691,1,0,0:0:0:0:
358,0,259863,1,0,0:0:0:0:
256,0,260034,1,4,0:0:0:0:
460,0,260034,1,2,0:0:0:0:
51,0,260034,1,0,0:0:0:0:
153,0,260034,1,0,0:0:0:0:
358,0,260205,1,0,0:0:0:0:
358,0,260377,1,4,0:0:0:0:
460,0,260377,1,2,0:0:0:0:
51,0,260377,1,0,0:0:0:0:
256,0,260377,1,0,0:0:0:0:
153,0,260548,1,0,0:0:0:0:
256,0,260720,128,4,261234:0:0:0:0:
460,0,260720,1,2,0:0:0:0:
51,0,260720,1,0,0:0:0:0:
153,0,260720,1,0,0:0:0:0:
358,0,260891,1,0,0:0:0:0:
460,0,261063,1,0,0:0:0:0:
153,0,261234,1,0,0:0:0:0:
358,0,261405,1,0,0:0:0:0:
460,0,261577,1,4,0:0:0:0:
153,0,261577,1,2,0:0:0:0:
51,0,261577,1,0,0:0:0:0:
460,0,261748,1,4,0:0:0:0:
153,0,261748,1,2,0:0:0:0:
51,0,261748,1,0,0:0:0:0:
256,0,261920,1,0,0:0:0:0:
358,0,262091,1,0,0:0:0:0:
153,0,262263,1,0,0:0:0:0:
256,0,262434,1,0,0:0:0:0:
51,0,262605,1,0,0:0:0:0:
358,0,262777,1,4,0:0:0:0:
460,0,262777,1,2,0:0:0:0:
153,0,262777,1,0,0:0:0:0:
256,0,262777,1,0,0:0:0:0:
51,0,262948,1,0,0:0:0:0:
256,0,263120,1,4,0:0:0:0:
358,0,263120,1,2,0:0:0:0:
51,0,263120,1,0,0:0:0:0:
153,0,263120,1,0,0:0:0:0:
460,0,263291,1,0,0:0:0:0:
358,0,263463,1,2,0:0:0:0:
460,0,263463,1,4,0:0:0:0:
153,0,263463,128,0,263977:0:0:0:0:
256,0,263463,1,0,0:0:0:0:
51,0,263634,1,0,0:0:0:0:
358,0,263805,1,0,0:0:0:0:
460,0,263977,1,8,0:0:0:0:
256,0,263977,1,0,0:0:0:0:
51,0,263977,1,0,0:0:0:0:
358,0,264148,1,0,0:0:0:0:
358,0,264320,1,4,0:0:0:0:
460,0,264320,1,2,0:0:0:0:
51,0,264320,1,0,0:0:0:0:
256,0,264320,1,0,0:0:0:0:
153,0,264405,1,0,0:0:0:0:
256,0,264491,1,0,0:0:0:0:
358,0,264577,1,0,0:0:0:0:
460,0,264663,1,0,0:0:0:0:
358,0,264748,1,0,0:0:0:0:
153,0,264834,1,2,0:0:0:0:
51,0,264834,1,0,0:0:0:0:
256,0,264920,1,0,0:0:0:0:
358,0,265005,1,8,0:0:0:0:
153,0,265005,1,0,0:0:0:0:
51,0,265005,1,0,0:0:0:0:
460,0,265177,1,2,0:0:0:0:
51,0,265177,1,0,0:0:0:0:
460,0,265348,1,0,0:0:0:0:
358,0,265434,1,0,0:0:0:0:
256,0,265520,1,0,0:0:0:0:
153,0,265605,1,0,0:0:0:0:
460,0,265691,1,2,0:0:0:0:
51,0,265691,1,0,0:0:0:0:
256,0,265777,1,0,0:0:0:0:
358,0,265863,1,8,0:0:0:0:
153,0,265863,1,0,0:0:0:0:
51,0,265863,1,0,0:0:0:0:
460,0,265948,1,0,0:0:0:0:
153,0,266034,1,0,0:0:0:0:
256,0,266120,1,0,0:0:0:0:
358,0,266205,1,2,0:0:0:0:
51,0,266205,1,0,0:0:0:0:
460,0,266291,1,0,0:0:0:0:
256,0,266377,1,8,0:0:0:0:
153,0,266377,1,0,0:0:0:0:
51,0,266377,1,0,0:0:0:0:
358,0,266548,1,2,0:0:0:0:
51,0,266548,1,0,0:0:0:0:
358,0,266720,1,0,0:0:0:0:
256,0,266805,1,0,0:0:0:0:
153,0,266891,1,0,0:0:0:0:
51,0,266977,1,0,0:0:0:0:
460,0,267063,1,2,0:0:0:0:
256,0,267063,1,0,0:0:0:0:
51,0,267148,1,0,0:0:0:0:
460,0,267234,1,8,0:0:0:0:
358,0,267234,1,0,0:0:0:0:
153,0,267234,1,0,0:0:0:0:
256,0,267320,1,0,0:0:0:0:
358,0,267405,1,0,0:0:0:0:
51,0,267491,1,0,0:0:0:0:
460,0,267577,1,2,0:0:0:0:
153,0,267577,1,0,0:0:0:0:
256,0,267663,1,0,0:0:0:0:
460,0,267748,1,8,0:0:0:0:
358,0,267748,1,0,0:0:0:0:
51,0,267748,1,0,0:0:0:0:
460,0,267920,1,2,0:0:0:0:
153,0,267920,1,0,0:0:0:0:
153,0,268091,1,0,0:0:0:0:
358,0,268177,1,0,0:0:0:0:
256,0,268263,1,0,0:0:0:0:
153,0,268348,1,0,0:0:0:0:
51,0,268434,128,2,268605:0:0:0:0:
256,0,268434,128,4,268605:0:0:0:0:
460,0,268434,128,0,268605:0:0:0:0:
153,0,268777,128,8,268948:0:0:0:0:
358,0,268777,128,0,268948:0:0:0:0:
460,0,268777,128,0,268948:0:0:0:0:
460,0,269120,1,8,0:0:0:0:
51,0,269120,1,0,0:0:0:70:LR3_ReverseFXG.wav
358,0,269205,1,8,0:0:0:0:
153,0,269205,1,0,0:0:0:0:
256,0,269291,1,8,0:0:0:0:
51,0,269291,1,0,0:0:0:0:
358,0,269377,1,8,0:0:0:0:
153,0,269377,1,0,0:0:0:0:
256,0,269463,1,8,0:0:0:0:
51,0,269463,1,0,0:0:0:0:
358,0,269548,1,8,0:0:0:0:
153,0,269548,1,0,0:0:0:0:
256,0,269634,1,8,0:0:0:0:
51,0,269634,1,0,0:0:0:0:
358,0,269720,1,8,0:0:0:0:
153,0,269720,1,0,0:0:0:0:
460,0,269805,1,2,0:0:0:0:
256,0,269805,1,4,0:0:0:0:
51,0,269805,1,0,0:0:0:70:chi.wav
358,0,269977,1,2,0:0:0:0:
153,0,269977,1,0,0:0:0:0:
358,0,270148,1,2,0:0:0:0:
256,0,270148,1,0,0:0:0:0:
460,0,270320,1,8,0:0:0:0:
256,0,270320,1,0,0:0:0:70:chi.wav
51,0,270320,1,0,0:0:0:0:
358,0,270491,1,2,0:0:0:0:
153,0,270491,1,0,0:0:0:0:
460,0,270663,1,2,0:0:0:0:
153,0,270663,1,0,0:0:0:0:
460,0,270834,1,8,0:0:0:0:
358,0,270834,1,0,0:0:0:70:chi.wav
51,0,270834,1,0,0:0:0:0:
256,0,271005,1,2,0:0:0:0:
153,0,271005,1,0,0:0:0:0:
460,0,271177,1,0,0:0:0:70:chi.wav
256,0,271177,1,8,0:0:0:0:
51,0,271177,1,0,0:0:0:0:
358,0,271348,1,2,0:0:0:0:
153,0,271348,1,0,0:0:0:0:
256,0,271520,1,2,0:0:0:0:
153,0,271520,1,0,0:0:0:0:
358,0,271691,1,0,0:0:0:70:chi.wav
256,0,271691,1,8,0:0:0:0:
51,0,271691,1,0,0:0:0:0:
460,0,271863,1,2,0:0:0:0:
153,0,271863,1,0,0:0:0:0:
460,0,272034,1,2,0:0:0:0:
256,0,272034,1,0,0:0:0:0:
358,0,272205,1,0,0:0:0:70:chi.wav
256,0,272205,1,8,0:0:0:0:
51,0,272205,1,0,0:0:0:0:
460,0,272377,1,2,0:0:0:0:
153,0,272377,1,0,0:0:0:0:
358,0,272548,1,4,0:0:0:0:
153,0,272548,1,8,0:0:0:0:
51,0,272548,1,0,0:0:0:70:chi.wav
460,0,272720,1,2,0:0:0:0:
256,0,272720,1,0,0:0:0:0:
358,0,272891,1,2,0:0:0:0:
256,0,272891,1,0,0:0:0:0:
460,0,273063,1,0,0:0:0:70:chi.wav
358,0,273063,1,8,0:0:0:0:
51,0,273063,1,0,0:0:0:0:
256,0,273234,1,2,0:0:0:0:
153,0,273234,1,0,0:0:0:0:
358,0,273405,1,2,0:0:0:0:
153,0,273405,1,0,0:0:0:0:
460,0,273577,1,8,0:0:0:0:
358,0,273577,1,0,0:0:0:70:chi.wav
51,0,273577,1,0,0:0:0:0:
256,0,273748,1,2,0:0:0:0:
153,0,273748,1,0,0:0:0:0:
358,0,273920,1,8,0:0:0:0:
256,0,273920,1,0,0:0:0:70:chi.wav
51,0,273920,1,0,0:0:0:0:
460,0,274091,1,2,0:0:0:0:
153,0,274091,1,0,0:0:0:0:
256,0,274263,1,2,0:0:0:0:
153,0,274263,1,0,0:0:0:0:
460,0,274434,1,8,0:0:0:0:
256,0,274434,1,0,0:0:0:70:chi.wav
51,0,274434,1,0,0:0:0:0:
358,0,274605,1,2,0:0:0:0:
153,0,274605,1,0,0:0:0:0:
358,0,274777,1,2,0:0:0:0:
51,0,274777,1,0,0:0:0:0:
460,0,274948,1,0,0:0:0:70:chi.wav
256,0,274948,1,8,0:0:0:0:
51,0,274948,1,0,0:0:0:0:
358,0,275120,1,2,0:0:0:0:
153,0,275120,1,0,0:0:0:0:
358,0,275291,1,4,0:0:0:0:
460,0,275291,1,0,0:0:0:70:chi.wav
51,0,275291,1,8,0:0:0:0:
256,0,275291,1,0,0:0:0:0:
256,0,275463,1,2,0:0:0:0:
153,0,275463,1,0,0:0:0:0:
358,0,275634,1,0,0:0:0:70:chi.wav
256,0,275634,1,8,0:0:0:0:
51,0,275634,1,0,0:0:0:0:
460,0,275805,1,2,0:0:0:0:
256,0,275805,1,0,0:0:0:0:
460,0,275977,1,8,0:0:0:0:
358,0,275977,1,0,0:0:0:70:chi.wav
51,0,275977,1,0,0:0:0:0:
153,0,276148,1,2,0:0:0:0:
51,0,276148,1,0,0:0:0:0:
358,0,276320,1,0,0:0:0:70:chi.wav
256,0,276320,1,8,0:0:0:0:
51,0,276320,1,0,0:0:0:0:
460,0,276491,1,2,0:0:0:0:
51,0,276491,1,0,0:0:0:0:
358,0,276663,1,4,0:0:0:0:
460,0,276663,1,8,0:0:0:0:
153,0,276663,1,0,0:0:0:70:chi.wav
256,0,276663,1,0,0:0:0:0:
460,0,276834,1,2,0:0:0:0:
51,0,276834,1,0,0:0:0:0:
460,0,277005,1,0,0:0:0:70:chi.wav
358,0,277005,1,8,0:0:0:0:
153,0,277005,1,0,0:0:0:0:
460,0,277177,1,2,0:0:0:0:
256,0,277177,1,0,0:0:0:0:
256,0,277348,1,8,0:0:0:0:
153,0,277348,1,0,0:0:0:70:chi.wav
51,0,277348,1,0,0:0:0:0:
358,0,277520,1,2,0:0:0:0:
153,0,277520,1,0,0:0:0:0:
460,0,277691,1,0,0:0:0:70:chi.wav
256,0,277691,1,8,0:0:0:0:
153,0,277691,1,0,0:0:0:0:
358,0,277863,1,2,0:0:0:0:
153,0,277863,1,0,0:0:0:0:
358,0,278034,1,0,0:0:0:70:chi.wav
460,0,278034,1,2,0:0:0:0:
51,0,278034,1,4,0:0:0:0:
256,0,278034,1,8,0:0:0:0:
358,0,278205,1,8,0:0:0:0:
153,0,278205,1,4,0:0:0:0:
51,0,278205,1,2,0:0:0:0:
460,0,278377,1,4,0:0:0:0:
358,0,278377,1,8,0:0:0:0:
256,0,278377,1,0,0:0:0:70:chi.wav
460,0,278548,1,8,0:0:0:0:
358,0,278548,1,4,0:0:0:0:
153,0,278548,1,2,0:0:0:0:
460,0,278720,1,8,0:0:0:0:
256,0,278720,1,2,0:0:0:0:
51,0,278720,1,0,0:0:0:70:chi.wav
358,0,278805,1,8,0:0:0:0:
153,0,278805,1,0,0:0:0:0:
256,0,278891,1,2,0:0:0:0:
51,0,278891,1,8,0:0:0:0:
460,0,278977,1,8,0:0:0:0:
153,0,278977,1,0,0:0:0:0:
358,0,279063,1,10,0:0:0:0:
51,192,279063,1,0,0:0:0:70:chi.wav
460,0,279148,1,8,0:0:0:0:
256,0,279148,1,0,0:0:0:0:
358,0,279234,1,2,0:0:0:0:
153,0,279234,1,8,0:0:0:0:
256,0,279320,1,8,0:0:0:0:
358,0,279405,1,4,0:0:0:0:
460,0,279405,1,8,0:0:0:0:
51,0,279405,1,2,0:0:0:0:
153,0,279405,1,0,0:0:0:0:
358,0,280091,1,0,0:0:0:70:climax.wav
256,0,280091,1,0,0:0:0:0:
51,0,280091,1,0,0:0:0:0:
51,0,280177,1,0,0:0:0:0:
460,0,280263,1,0,0:0:0:0:
460,0,280348,1,0,0:0:0:0:
153,0,280434,1,0,0:0:0:0:
153,0,280520,1,0,0:0:0:0:
358,0,280605,1,0,0:0:0:0:
358,0,280691,1,0,0:0:0:0:
460,0,280777,1,2,0:0:0:0:
256,0,280777,1,4,0:0:0:0:
51,0,280777,1,0,0:0:0:0:
153,192,280777,1,0,0:0:0:0:
51,0,280948,1,0,0:0:0:0:
460,0,281034,1,0,0:0:0:0:
256,0,281034,1,0,0:0:0:0:
358,0,281120,1,8,0:0:0:0:
153,0,281120,1,0,0:0:0:70:pplclap.wav
51,0,281120,1,0,0:0:0:0:
460,0,281291,1,0,0:0:0:0:
256,0,281291,1,0,0:0:0:0:
51,0,281291,1,0,0:0:0:0:
460,0,281463,1,8,0:0:0:0:
358,0,281463,1,0,0:0:0:70:pplclap.wav
153,0,281463,1,0,0:0:0:0:
256,0,281548,1,0,0:0:0:0:
51,0,281548,1,0,0:0:0:0:
153,0,281634,1,0,0:0:0:0:
460,0,281720,1,0,0:0:0:0:
358,0,281805,1,8,0:0:0:0:
256,0,281805,1,0,0:0:0:70:pplclap.wav
153,0,281805,1,0,0:0:0:0:
460,0,281977,1,0,0:0:0:0:
256,0,281977,1,0,0:0:0:0:
153,0,281977,1,0,0:0:0:0:
460,0,282148,1,8,0:0:0:0:
358,0,282148,1,0,0:0:0:70:pplclap.wav
51,0,282148,1,0,0:0:0:0:
51,0,282320,1,0,0:0:0:0:
358,0,282405,1,0,0:0:0:0:
153,0,282405,1,0,0:0:0:0:
460,0,282491,1,8,0:0:0:0:
256,0,282491,1,0,0:0:0:70:pplclap.wav
51,0,282491,1,0,0:0:0:0:
358,0,282663,1,0,0:0:0:0:
153,0,282663,1,0,0:0:0:0:
51,0,282663,1,0,0:0:0:0:
460,0,282834,1,8,0:0:0:0:
358,0,282834,1,0,0:0:0:70:pplclap.wav
153,0,282834,1,0,0:0:0:0:
256,0,282920,1,0,0:0:0:0:
51,0,282920,1,0,0:0:0:0:
153,0,283005,1,0,0:0:0:0:
358,0,283091,1,0,0:0:0:0:
460,0,283177,1,8,0:0:0:0:
153,0,283177,1,0,0:0:0:70:pplclap.wav
51,0,283177,1,0,0:0:0:0:
358,0,283348,1,0,0:0:0:0:
153,0,283348,1,0,0:0:0:0:
51,0,283348,1,0,0:0:0:0:
460,0,283520,1,2,0:0:0:0:
256,0,283520,1,4,0:0:0:0:
153,0,283520,1,0,0:0:0:70:pplclap.wav
358,192,283520,1,0,0:0:0:0:
460,0,283691,1,0,0:0:0:0:
256,0,283777,1,0,0:0:0:0:
153,0,283777,1,0,0:0:0:0:
460,0,283863,1,8,0:0:0:0:
358,0,283863,1,0,0:0:0:70:pplclap.wav
51,0,283863,1,0,0:0:0:0:
460,0,284034,1,0,0:0:0:0:
256,0,284034,1,0,0:0:0:0:
153,0,284034,1,0,0:0:0:0:
358,0,284205,1,8,0:0:0:0:
153,0,284205,1,0,0:0:0:70:pplclap.wav
51,0,284205,1,0,0:0:0:0:
460,0,284291,1,0,0:0:0:0:
256,0,284291,1,0,0:0:0:0:
358,0,284377,1,0,0:0:0:0:
153,0,284463,1,0,0:0:0:0:
358,0,284548,1,8,0:0:0:0:
256,0,284548,1,0,0:0:0:70:pplclap.wav
51,0,284548,1,0,0:0:0:0:
358,0,284720,1,0,0:0:0:0:
256,0,284720,1,0,0:0:0:0:
153,0,284720,1,0,0:0:0:0:
460,0,284891,1,0,0:0:0:70:pplclap.wav
358,0,284891,1,8,0:0:0:0:
51,0,284891,1,0,0:0:0:0:
460,0,285063,1,0,0:0:0:0:
358,0,285148,1,0,0:0:0:0:
51,0,285148,1,0,0:0:0:0:
460,0,285234,1,8,0:0:0:0:
256,0,285234,1,0,0:0:0:70:pplclap.wav
153,0,285234,1,0,0:0:0:0:
460,0,285405,1,0,0:0:0:0:
256,0,285405,1,0,0:0:0:0:
51,0,285405,1,0,0:0:0:0:
358,0,285577,1,8,0:0:0:0:
153,0,285577,1,0,0:0:0:70:pplclap.wav
51,0,285577,1,0,0:0:0:0:
460,0,285663,1,0,0:0:0:0:
256,0,285663,1,0,0:0:0:0:
358,0,285748,1,0,0:0:0:0:
51,0,285834,1,0,0:0:0:0:
358,0,285920,1,8,0:0:0:0:
256,0,285920,1,0,0:0:0:70:pplclap.wav
153,0,285920,1,0,0:0:0:0:
358,0,286091,1,0,0:0:0:0:
256,0,286091,1,0,0:0:0:0:
51,0,286091,1,0,0:0:0:0:
358,0,286263,1,2,0:0:0:0:
460,0,286263,1,4,0:0:0:0:
51,0,286263,1,0,0:0:0:0:
153,0,286263,1,0,0:0:0:0:
460,0,286434,1,8,0:0:0:0:
256,0,286434,1,0,0:0:0:0:
153,0,286434,1,0,0:0:0:0:
51,0,286520,1,0,0:0:0:0:
358,0,286605,1,8,0:0:0:0:
256,0,286605,1,0,0:0:0:0:
153,0,286605,1,0,0:0:0:0:
358,0,286777,1,8,0:0:0:0:
153,0,286777,1,0,0:0:0:0:
51,0,286777,1,0,0:0:0:0:
256,0,286948,1,4,0:0:0:0:
460,0,286948,1,2,0:0:0:0:
51,0,286948,1,0,0:0:0:0:
153,0,286948,1,0,0:0:0:0:
358,0,287034,1,0,0:0:0:0:
256,0,287120,1,8,0:0:0:0:
153,0,287120,1,0,0:0:0:0:
51,0,287120,1,0,0:0:0:0:
460,0,287205,1,0,0:0:0:0:
358,0,287291,1,8,0:0:0:0:
256,0,287291,1,0,0:0:0:0:
153,0,287291,1,0,0:0:0:0:
460,0,287463,1,8,0:0:0:0:
358,0,287463,1,0,0:0:0:0:
153,0,287463,1,0,0:0:0:0:
358,0,287634,1,4,0:0:0:0:
460,0,287634,1,2,0:0:0:0:
153,0,287634,1,0,0:0:0:0:
256,0,287634,1,0,0:0:0:0:
358,0,287805,1,8,0:0:0:0:
256,0,287805,1,0,0:0:0:0:
51,0,287805,1,0,0:0:0:0:
153,0,287891,1,0,0:0:0:0:
358,0,287977,1,2,0:0:0:0:
460,0,287977,1,4,0:0:0:0:
51,0,287977,1,0,0:0:0:0:
256,0,287977,1,0,0:0:0:0:
358,0,288148,1,8,0:0:0:0:
153,0,288148,1,0,0:0:0:0:
51,0,288148,1,0,0:0:0:0:
358,0,288320,1,4,0:0:0:0:
460,0,288320,1,2,0:0:0:0:
51,0,288320,1,0,0:0:0:0:
153,0,288320,1,0,0:0:0:0:
256,0,288405,1,0,0:0:0:0:
460,0,288491,1,8,0:0:0:0:
358,0,288491,1,0,0:0:0:0:
51,0,288491,1,0,0:0:0:0:
153,0,288577,1,0,0:0:0:0:
358,0,288663,1,4,0:0:0:0:
460,0,288663,1,2,0:0:0:0:
51,0,288663,1,0,0:0:0:0:
256,0,288663,1,0,0:0:0:0:
358,0,288834,1,8,0:0:0:0:
256,0,288834,1,0,0:0:0:0:
153,0,288834,1,0,0:0:0:0:
358,0,289005,1,4,0:0:0:0:
256,0,289005,1,2,0:0:0:0:
51,0,289005,1,0,0:0:0:0:
460,0,289091,1,8,0:0:0:0:
153,0,289091,1,0,0:0:0:0:
358,0,289177,1,2,0:0:0:0:
51,0,289177,1,0,0:0:0:0:
256,0,289263,1,8,0:0:0:0:
153,0,289263,1,0,0:0:0:0:
460,0,289348,1,2,0:0:0:0:
51,0,289348,1,0,0:0:0:0:
358,0,289434,1,8,0:0:0:0:
153,0,289434,1,0,0:0:0:0:
460,0,289520,1,2,0:0:0:0:
51,0,289520,1,0,0:0:0:0:
358,0,289605,1,8,0:0:0:0:
256,0,289605,1,0,0:0:0:0:
460,0,289691,1,8,0:0:0:0:
153,0,289691,1,2,0:0:0:0:
51,0,289691,1,4,0:0:0:0:
358,0,289777,1,8,0:0:0:0:
256,0,289777,1,0,0:0:0:0:
460,0,289863,1,8,0:0:0:0:
153,0,289863,1,0,0:0:0:0:
256,0,289948,1,8,0:0:0:0:
51,0,289948,1,0,0:0:0:0:
358,0,290034,1,2,0:0:0:70:LR3_ReverseFXG.wav
153,0,290034,1,8,0:0:0:0:
256,0,290120,1,8,0:0:0:0:
51,0,290120,1,0,0:0:0:0:
460,0,290205,1,8,0:0:0:0:
358,0,290205,1,0,0:0:0:0:
153,0,290291,1,8,0:0:0:0:
256,0,290291,1,0,0:0:0:0:
460,0,290377,1,2,0:0:0:0:
51,0,290377,128,0,290720:0:0:0:0:
358,0,290377,128,4,290720:0:0:0:0:
153,0,290720,128,0,291063:0:0:0:0:
460,0,291063,128,0,291405:0:0:0:70:climax.wav
256,0,291063,128,0,291405:0:0:0:70:LR3_ReverseFXG.wav
51,0,291063,128,0,291405:0:0:0:0:
358,0,291405,128,0,291748:0:0:0:0:
51,0,291748,128,2,291920:0:0:0:0:
153,0,291748,1,0,0:0:0:0:
256,0,291748,128,4,291834:0:0:0:0:
460,0,291748,128,0,291834:0:0:0:70:twinkling.wav
358,0,291920,128,0,292091:0:0:0:0:
153,0,292005,1,0,0:0:0:0:
460,0,292091,128,8,292434:0:0:0:0:
51,0,292091,128,0,292177:0:0:0:0:
256,0,292091,128,0,292177:0:0:0:0:
256,0,292263,1,0,0:0:0:0:
153,0,292263,128,0,292605:0:0:0:0:
51,0,292434,128,0,292777:0:0:0:0:
358,0,292434,1,2,0:0:0:0:
256,0,292520,128,0,292605:0:0:0:0:
358,0,292605,128,0,292777:0:0:0:0:
460,0,292777,128,8,293120:0:0:0:0:
153,0,292777,128,0,292863:0:0:0:0:
256,0,292777,128,0,292863:0:0:0:0:
256,0,292948,128,0,293120:0:0:0:0:
153,192,292948,1,0,0:0:0:0:
358,0,293120,128,2,293291:0:0:0:0:
51,0,293120,128,0,293205:0:0:0:0:
153,0,293291,128,0,293463:0:0:0:0:
460,0,293377,1,0,0:0:0:0:
51,0,293463,128,0,293805:0:0:0:0:
256,0,293463,128,0,293548:0:0:0:0:
358,0,293463,128,8,293548:0:0:0:0:
460,0,293634,1,0,0:0:0:0:
256,0,293634,128,0,293977:0:0:0:0:
358,0,293805,128,2,294148:0:0:0:0:
153,0,293805,1,0,0:0:0:0:
460,0,293891,128,0,293977:0:0:0:0:
153,0,293977,128,0,294148:0:0:0:0:
51,0,294148,128,8,294491:0:0:0:0:
256,0,294148,128,0,294234:0:0:0:0:
460,0,294148,128,0,294234:0:0:0:0:
358,0,294320,128,0,294491:0:0:0:0:
256,0,294320,1,0,0:0:0:0:
256,0,294491,128,0,294663:0:0:0:0:
460,0,294491,128,2,294577:0:0:0:0:
460,0,294663,128,0,294834:0:0:0:0:
153,0,294748,1,0,0:0:0:0:
51,0,294834,128,0,295177:0:0:0:0:
256,0,294834,128,0,294920:0:0:0:0:
358,0,294834,128,8,294920:0:0:0:0:
358,0,295005,128,0,295348:0:0:0:0:
256,0,295005,1,0,0:0:0:0:
256,0,295177,128,0,295520:0:0:0:0:
460,0,295177,1,2,0:0:0:0:
153,0,295263,128,0,295348:0:0:0:0:
460,0,295348,128,0,295520:0:0:0:0:
51,0,295520,128,8,295863:0:0:0:0:
153,0,295520,128,0,295605:0:0:0:0:
358,0,295520,128,0,295605:0:0:0:0:
153,0,295691,128,0,295863:0:0:0:0:
358,0,295691,1,0,0:0:0:0:
358,0,295863,128,0,296034:0:0:0:0:
460,0,295863,128,2,295948:0:0:0:0:
256,0,296034,128,0,296205:0:0:0:0:
460,0,296120,1,0,0:0:0:0:
51,0,296205,128,0,296548:0:0:0:0:
153,0,296205,128,0,296291:0:0:0:0:
358,0,296205,128,8,296291:0:0:0:0:
256,0,296377,128,0,296720:0:0:0:0:
153,0,296377,1,0,0:0:0:0:
358,0,296548,1,0,0:0:0:0:
460,0,296548,128,2,296891:0:0:0:0:
153,0,296634,128,0,296720:0:0:0:0:
358,0,296720,128,0,296891:0:0:0:0:
153,0,296891,128,8,297234:0:0:0:0:
51,0,296891,128,0,296977:0:0:0:0:
256,0,296891,128,0,296977:0:0:0:0:
460,0,297063,128,0,297234:0:0:0:0:
256,0,297063,1,0,0:0:0:0:
51,0,297234,128,0,297405:0:0:0:0:
358,0,297234,128,2,297320:0:0:0:0:
358,0,297405,128,0,297577:0:0:0:0:
256,0,297491,1,0,0:0:0:0:
153,0,297577,128,0,297920:0:0:0:0:
51,0,297577,128,0,297663:0:0:0:0:
460,0,297577,128,8,297663:0:0:0:0:
460,0,297748,1,0,0:0:0:0:
256,0,297748,128,0,298091:0:0:0:0:
51,0,297920,128,0,298263:0:0:0:0:
358,0,297920,1,2,0:0:0:0:
460,0,298005,128,0,298091:0:0:0:0:
358,0,298091,128,0,298263:0:0:0:0:
153,0,298263,128,8,298605:0:0:0:0:
256,0,298263,128,0,298348:0:0:0:0:
460,0,298263,128,0,298348:0:0:0:0:
460,0,298434,128,0,298605:0:0:0:0:
256,0,298434,1,0,0:0:0:0:
256,0,298605,128,0,298777:0:0:0:0:
358,0,298605,128,2,298691:0:0:0:0:
51,0,298777,128,0,298948:0:0:0:0:
153,0,298863,1,0,0:0:0:0:
358,0,298948,128,0,299291:0:0:0:0:
256,0,298948,128,0,299034:0:0:0:0:
460,0,298948,128,8,299034:0:0:0:0:
460,0,299120,128,0,299463:0:0:0:0:
153,0,299120,1,0,0:0:0:0:
256,0,299291,128,2,299634:0:0:0:0:
51,0,299291,1,0,0:0:0:0:
153,0,299377,128,0,299463:0:0:0:0:
51,0,299463,128,0,299634:0:0:0:0:
358,0,299634,128,8,299977:0:0:0:0:
153,0,299634,128,0,299720:0:0:0:0:
460,0,299634,128,0,299720:0:0:0:0:
51,0,299805,128,0,299977:0:0:0:0:
153,0,299805,1,0,0:0:0:0:
460,0,299977,128,2,300148:0:0:0:0:
256,0,299977,128,0,300063:0:0:0:0:
256,0,300148,128,0,300320:0:0:0:0:
358,0,300234,1,0,0:0:0:0:
51,0,300320,128,0,300663:0:0:0:0:
153,0,300320,128,0,300405:0:0:0:0:
460,0,300320,128,8,300405:0:0:0:0:
358,0,300491,128,0,300834:0:0:0:0:
153,0,300491,1,0,0:0:0:0:
460,0,300663,128,2,301005:0:0:0:0:
256,0,300663,1,0,0:0:0:0:
153,0,300748,128,0,300834:0:0:0:0:
256,0,300834,128,0,301005:0:0:0:0:
51,0,301005,128,8,301348:0:0:0:0:
153,0,301005,128,0,301091:0:0:0:0:
358,0,301005,128,0,301091:0:0:0:0:
153,0,301177,128,0,301348:0:0:0:0:
358,0,301177,1,0,0:0:0:0:
460,0,301348,128,2,301520:0:0:0:0:
256,0,301348,128,0,301434:0:0:0:0:
358,0,301520,128,0,301691:0:0:0:0:
51,0,301605,1,0,0:0:0:0:
153,0,301691,128,0,302034:0:0:0:0:
256,0,301691,128,0,301777:0:0:0:0:
460,0,301691,128,8,301777:0:0:0:0:
460,0,301863,128,0,302205:0:0:0:0:
256,0,301863,1,0,0:0:0:0:
358,0,302034,128,2,302377:0:0:0:0:
51,0,302034,1,0,0:0:0:0:
256,0,302120,128,0,302205:0:0:0:0:
51,0,302205,128,0,302377:0:0:0:0:
153,0,302377,128,8,302720:0:0:0:0:
256,0,302377,128,0,302463:0:0:0:0:
460,0,302377,128,0,302463:0:0:0:0:
358,0,302548,128,0,302720:0:0:0:0:
460,0,302548,1,0,0:0:0:0:
51,0,302720,128,0,302891:0:0:0:0:
256,0,302720,128,4,302805:0:0:0:0:
460,0,302720,128,2,302805:0:0:0:0:
256,0,302891,128,0,303063:0:0:0:0:
358,0,302977,1,0,0:0:0:0:
460,0,303063,128,8,303405:0:0:0:0:
51,0,303063,128,0,303148:0:0:0:0:
153,0,303063,128,0,303148:0:0:0:0:
358,0,303234,1,0,0:0:0:0:
153,0,303234,128,0,303577:0:0:0:0:
51,0,303405,128,0,303748:0:0:0:0:
256,0,303405,1,2,0:0:0:0:
358,0,303491,128,0,303577:0:0:0:0:
256,0,303577,128,0,303748:0:0:0:0:
460,0,303748,128,0,304091:0:0:0:70:chi.wav
153,0,303748,128,0,303834:0:0:0:0:
358,0,303748,128,8,303834:0:0:0:0:
153,0,303920,128,0,304091:0:0:0:0:
358,0,303920,1,0,0:0:0:0:
358,0,304091,128,2,304263:0:0:0:0:
256,0,304091,128,0,304177:0:0:0:0:
153,0,304263,128,0,304434:0:0:0:0:
256,0,304348,1,0,0:0:0:0:
460,0,304434,128,8,304777:0:0:0:0:
51,0,304434,128,0,304520:0:0:0:0:
358,0,304434,128,0,304520:0:0:0:0:
256,0,304605,1,0,0:0:0:0:
51,0,304605,128,0,304948:0:0:0:0:
358,0,304777,128,2,305120:0:0:0:0:
153,0,304777,1,0,0:0:0:0:
256,0,304863,128,0,304948:0:0:0:0:
153,0,304948,128,0,305120:0:0:0:0:
460,0,305120,128,0,305463:0:0:0:70:chi.wav
51,0,305120,128,0,305205:0:0:0:0:
256,0,305120,128,8,305205:0:0:0:0:
358,0,305291,128,0,305463:0:0:0:0:
51,0,305291,1,0,0:0:0:0:
153,0,305463,128,0,305634:0:0:0:0:
256,0,305463,128,2,305548:0:0:0:0:
256,0,305634,128,0,305805:0:0:0:0:
460,0,305720,1,0,0:0:0:0:
51,0,305805,128,0,306148:0:0:0:0:
153,0,305805,128,0,305891:0:0:0:0:
358,0,305805,128,8,305891:0:0:0:0:
358,0,305977,128,0,306320:0:0:0:0:
153,0,305977,1,0,0:0:0:0:
153,0,306148,128,0,306491:0:0:0:0:
256,0,306148,1,2,0:0:0:0:
460,0,306234,128,0,306320:0:0:0:0:
256,0,306320,128,0,306491:0:0:0:0:
51,0,306491,128,8,306834:0:0:0:0:
358,0,306491,128,0,306577:0:0:0:0:
460,0,306491,128,0,306577:0:0:0:70:chi.wav
460,0,306663,128,0,306834:0:0:0:0:
358,0,306663,1,0,0:0:0:0:
256,0,306834,128,2,307005:0:0:0:0:
153,0,306834,128,0,306920:0:0:0:0:
358,0,307005,128,0,307177:0:0:0:0:
51,0,307091,1,0,0:0:0:0:
153,0,307177,128,0,307520:0:0:0:0:
256,0,307177,128,0,307263:0:0:0:0:
460,0,307177,128,8,307263:0:0:0:0:
358,0,307348,128,0,307691:0:0:0:0:
256,0,307348,1,0,0:0:0:0:
256,0,307520,128,2,307863:0:0:0:0:
51,0,307520,1,0,0:0:0:0:
460,0,307605,128,0,307691:0:0:0:0:
51,0,307691,128,0,307863:0:0:0:0:
153,0,307863,128,0,308205:0:0:0:70:chi.wav
358,0,307863,128,0,307948:0:0:0:0:
460,0,307863,128,8,307948:0:0:0:0:
256,0,308034,128,0,308205:0:0:0:0:
358,0,308034,1,0,0:0:0:0:
460,0,308205,128,2,308377:0:0:0:0:
51,0,308205,128,0,308291:0:0:0:0:
358,0,308377,128,0,308548:0:0:0:0:
51,0,308463,1,0,0:0:0:0:
256,0,308548,128,0,308891:0:0:0:0:
153,0,308548,128,0,308634:0:0:0:0:
460,0,308548,128,8,308634:0:0:0:0:
460,0,308720,1,0,0:0:0:0:
51,0,308720,128,0,309063:0:0:0:0:
460,0,308891,128,2,309234:0:0:0:0:
358,0,308891,1,0,0:0:0:0:
153,0,308977,128,0,309063:0:0:0:0:
358,0,309063,128,0,309234:0:0:0:0:
256,0,309234,128,0,309577:0:0:0:70:chi.wav
51,0,309234,128,0,309320:0:0:0:0:
153,0,309234,128,8,309320:0:0:0:0:
153,0,309405,128,0,309577:0:0:0:0:
51,0,309405,1,0,0:0:0:0:
358,0,309577,128,0,309748:0:0:0:0:
460,0,309577,128,2,309663:0:0:0:0:
51,0,309748,128,0,309920:0:0:0:0:
256,0,309834,1,0,0:0:0:0:
153,0,309920,128,0,310263:0:0:0:0:
358,0,309920,128,0,310005:0:0:0:0:
460,0,309920,128,8,310005:0:0:0:0:
460,0,310091,128,0,310434:0:0:0:0:
256,0,310091,1,0,0:0:0:0:
358,0,310263,128,2,310605:0:0:0:0:
51,0,310263,1,0,0:0:0:0:
256,0,310348,128,0,310434:0:0:0:0:
51,0,310434,128,0,310605:0:0:0:0:
153,0,310605,128,8,310948:0:0:0:0:
256,0,310605,128,0,310691:0:0:0:0:
460,0,310605,128,0,310691:0:0:0:70:chi.wav
51,0,310777,128,0,310948:0:0:0:0:
460,0,310777,1,0,0:0:0:0:
358,0,310948,128,2,311120:0:0:0:0:
256,0,310948,128,0,311034:0:0:0:0:
460,0,311120,128,0,311291:0:0:0:0:
256,0,311205,1,0,0:0:0:0:
51,0,311291,128,0,311634:0:0:0:0:
153,0,311291,128,0,311377:0:0:0:0:
358,0,311291,128,8,311377:0:0:0:0:
358,0,311463,1,0,0:0:0:0:
256,0,311463,128,0,311805:0:0:0:0:
358,0,311634,128,0,311977:0:0:0:0:
460,0,311634,1,2,0:0:0:0:
153,0,311720,128,0,311805:0:0:0:0:
460,0,311805,128,0,311977:0:0:0:0:
51,0,311977,128,8,312320:0:0:0:0:
153,0,311977,128,0,312063:0:0:0:0:
256,0,311977,128,0,312063:0:0:0:70:chi.wav
358,0,312148,128,0,312320:0:0:0:0:
256,0,312148,1,0,0:0:0:0:
153,0,312320,1,2,0:0:0:0:
256,0,312320,1,0,0:0:0:0:
460,0,312320,1,4,0:0:0:0:
460,192,312491,1,0,0:0:0:0:
153,0,312577,1,0,0:0:0:0:
358,0,312748,1,0,0:0:0:0:
256,0,312834,1,0,0:0:0:0:
460,0,313005,1,0,0:0:0:70:LR3_ReverseFXG.wav
358,0,313005,1,0,0:0:0:70:climax.wav
51,0,313005,1,0,0:0:0:0:
256,0,313120,128,0,313691:0:0:0:0:
358,0,313691,1,4,0:0:0:0:
460,0,313691,1,2,0:0:0:0:
51,0,313691,1,0,0:0:0:0:
153,0,313691,1,0,0:0:0:0:
358,0,313863,1,4,0:0:0:0:
460,0,313863,1,2,0:0:0:0:
51,0,313863,1,0,0:0:0:0:
153,0,313863,1,0,0:0:0:0:
256,0,314891,1,2,0:0:0:0:
358,0,314891,1,4,0:0:0:0:
51,0,314891,1,0,0:0:0:0:
153,0,314891,1,0,0:0:0:0:
358,0,315234,1,2,0:0:0:0:
460,0,315234,1,4,0:0:0:0:
153,0,315234,1,0,0:0:0:0:
256,0,315234,1,0,0:0:0:0:
358,0,315577,1,2,0:0:0:0:
460,0,315577,128,4,315748:0:0:0:0:
51,0,315577,128,0,315920:0:0:0:0:
256,0,315577,128,0,315834:0:0:0:0:
460,0,315920,1,8,0:0:0:0:
153,0,315920,1,0,0:0:0:0:
460,0,316091,1,0,0:0:0:70:climax.wav
358,0,316091,1,8,0:0:0:0:
256,0,316091,1,0,0:0:0:0:
153,0,316177,1,8,0:0:0:0:
51,0,316177,1,0,0:0:0:0:
256,0,316263,1,2,0:0:0:0:
51,0,316434,1,4,0:0:0:0:
153,0,316434,1,0,0:0:0:70:climax.wav
460,0,316434,1,2,0:0:0:0:
358,0,316520,1,0,0:0:0:0:
256,192,316520,1,0,0:0:0:0:
51,0,316605,1,0,0:0:0:0:
460,0,316605,1,0,0:0:0:0:
153,0,316691,1,0,0:0:0:0:
358,0,316691,1,0,0:0:0:0:
51,0,316777,1,0,0:0:0:70:chi.wav
256,0,316777,1,8,0:0:0:0:
460,0,316777,1,0,0:0:0:0:
153,0,316863,1,0,0:0:0:0:
358,0,316863,1,0,0:0:0:0:
51,0,316948,1,0,0:0:0:0:
460,0,316948,1,0,0:0:0:0:
358,0,317034,1,0,0:0:0:0:
256,192,317034,1,0,0:0:0:0:
51,0,317120,1,2,0:0:0:0:
153,0,317120,1,0,0:0:0:0:
460,0,317120,1,0,0:0:0:0:
358,0,317205,1,0,0:0:0:0:
256,192,317205,1,0,0:0:0:0:
51,0,317291,1,0,0:0:0:0:
460,0,317291,1,0,0:0:0:0:
153,0,317377,1,0,0:0:0:0:
358,0,317377,1,0,0:0:0:0:
51,0,317463,1,8,0:0:0:0:
256,0,317463,1,0,0:0:0:70:chi.wav
460,0,317463,1,0,0:0:0:0:
153,0,317548,1,0,0:0:0:0:
256,0,317634,1,0,0:0:0:0:
460,0,317634,1,0,0:0:0:0:
358,0,317720,1,0,0:0:0:0:
256,0,317805,1,2,0:0:0:0:
153,0,317805,1,0,0:0:0:0:
51,0,317805,1,0,0:0:0:0:
460,0,317891,1,0,0:0:0:0:
358,0,317891,1,0,0:0:0:0:
51,0,317977,1,0,0:0:0:0:
153,0,317977,1,0,0:0:0:0:
358,0,318063,1,0,0:0:0:0:
256,0,318063,1,0,0:0:0:0:
460,0,318148,1,8,0:0:0:0:
51,0,318148,1,0,0:0:0:70:chi.wav
153,0,318148,1,0,0:0:0:0:
358,0,318234,1,0,0:0:0:0:
256,0,318234,1,0,0:0:0:0:
153,0,318320,1,0,0:0:0:0:
51,0,318320,1,0,0:0:0:0:
460,0,318405,1,0,0:0:0:0:
358,0,318405,1,0,0:0:0:0:
256,0,318491,1,2,0:0:0:0:
153,0,318491,1,0,0:0:0:0:
51,0,318491,1,0,0:0:0:0:
460,0,318577,1,0,0:0:0:0:
358,0,318577,1,0,0:0:0:0:
51,0,318663,1,0,0:0:0:0:
153,0,318663,1,0,0:0:0:0:
358,0,318748,1,0,0:0:0:0:
256,0,318748,1,0,0:0:0:0:
460,0,318834,1,0,0:0:0:70:chi.wav
51,0,318834,1,8,0:0:0:0:
153,0,318834,1,0,0:0:0:0:
256,0,318920,1,0,0:0:0:0:
51,0,319005,1,0,0:0:0:0:
460,0,319005,1,0,0:0:0:0:
358,0,319091,1,0,0:0:0:0:
153,0,319177,1,2,0:0:0:0:
256,0,319177,1,0,0:0:0:0:
460,0,319177,1,0,0:0:0:0:
51,0,319263,1,0,0:0:0:0:
358,0,319263,1,0,0:0:0:0:
153,0,319348,1,0,0:0:0:0:
256,0,319348,1,0,0:0:0:0:
51,0,319434,1,0,0:0:0:0:
460,0,319434,1,0,0:0:0:0:
256,0,319520,1,8,0:0:0:0:
153,0,319520,1,0,0:0:0:70:chi.wav
358,0,319520,1,0,0:0:0:0:
51,0,319605,1,0,0:0:0:0:
460,0,319605,1,0,0:0:0:0:
153,0,319691,1,0,0:0:0:0:
256,0,319691,1,0,0:0:0:0:
51,0,319777,1,0,0:0:0:0:
358,0,319777,1,0,0:0:0:0:
153,0,319863,1,2,0:0:0:0:
256,0,319863,1,0,0:0:0:0:
460,0,319863,1,0,0:0:0:0:
51,0,319948,1,0,0:0:0:0:
358,0,319948,1,0,0:0:0:0:
153,0,320034,1,0,0:0:0:0:
256,0,320034,1,0,0:0:0:0:
51,0,320120,1,0,0:0:0:0:
460,0,320120,1,0,0:0:0:0:
358,0,320205,1,8,0:0:0:0:
153,0,320205,1,0,0:0:0:70:chi.wav
256,0,320205,1,0,0:0:0:0:
460,0,320291,1,0,0:0:0:0:
358,0,320377,1,0,0:0:0:0:
51,0,320377,1,0,0:0:0:0:
153,0,320463,1,0,0:0:0:0:
51,0,320548,1,2,0:0:0:0:
358,0,320548,1,0,0:0:0:0:
256,0,320548,1,0,0:0:0:0:
153,0,320634,1,0,0:0:0:0:
460,0,320634,1,0,0:0:0:0:
256,0,320720,1,0,0:0:0:0:
51,0,320720,1,0,0:0:0:0:
460,0,320805,1,0,0:0:0:0:
358,0,320805,1,0,0:0:0:0:
256,0,320891,1,8,0:0:0:0:
153,0,320891,1,0,0:0:0:70:chi.wav
51,0,320891,1,0,0:0:0:0:
358,0,320977,1,0,0:0:0:0:
460,0,320977,1,0,0:0:0:0:
51,0,321063,1,0,0:0:0:0:
256,0,321063,1,0,0:0:0:0:
153,0,321148,1,0,0:0:0:0:
460,0,321148,1,0,0:0:0:0:
51,0,321234,1,2,0:0:0:0:
358,0,321234,1,0,0:0:0:0:
256,0,321234,1,0,0:0:0:0:
153,0,321320,1,0,0:0:0:0:
460,0,321320,1,0,0:0:0:0:
51,0,321405,1,0,0:0:0:0:
256,0,321405,1,0,0:0:0:0:
358,0,321491,1,0,0:0:0:0:
460,0,321491,1,0,0:0:0:0:
153,0,321577,1,8,0:0:0:0:
256,0,321577,1,0,0:0:0:70:chi.wav
51,0,321577,1,0,0:0:0:0:
358,0,321663,1,0,0:0:0:0:
460,0,321748,1,0,0:0:0:0:
153,0,321748,1,0,0:0:0:0:
256,0,321834,1,0,0:0:0:0:
358,0,321920,1,2,0:0:0:0:
153,0,321920,1,0,0:0:0:0:
51,0,321920,1,0,0:0:0:0:
460,0,322005,1,0,0:0:0:0:
256,0,322005,1,0,0:0:0:0:
358,0,322091,1,0,0:0:0:0:
153,0,322091,1,0,0:0:0:0:
256,0,322177,1,0,0:0:0:0:
51,0,322177,1,0,0:0:0:0:
460,0,322263,1,0,0:0:0:70:chi.wav
358,0,322263,1,8,0:0:0:0:
153,0,322263,1,0,0:0:0:0:
256,0,322348,1,0,0:0:0:0:
51,0,322348,1,0,0:0:0:0:
358,0,322434,1,0,0:0:0:0:
153,0,322434,1,0,0:0:0:0:
460,0,322520,1,0,0:0:0:0:
256,0,322520,1,0,0:0:0:0:
358,0,322605,1,2,0:0:0:0:
153,0,322605,1,0,0:0:0:0:
51,0,322605,1,0,0:0:0:0:
460,0,322691,1,0,0:0:0:0:
256,0,322691,1,0,0:0:0:0:
358,0,322777,1,0,0:0:0:0:
153,0,322777,1,0,0:0:0:0:
256,0,322863,1,0,0:0:0:0:
51,0,322863,1,0,0:0:0:0:
460,0,322948,1,8,0:0:0:0:
358,0,322948,1,0,0:0:0:70:chi.wav
153,0,322948,1,0,0:0:0:0:
51,0,323034,1,0,0:0:0:0:
460,0,323120,1,0,0:0:0:0:
256,0,323120,1,0,0:0:0:0:
153,0,323205,1,0,0:0:0:0:
460,0,323291,1,2,0:0:0:0:
358,0,323291,1,0,0:0:0:0:
51,0,323291,1,0,0:0:0:0:
256,0,323377,1,0,0:0:0:0:
153,0,323377,1,0,0:0:0:0:
358,0,323463,1,0,0:0:0:0:
51,0,323463,1,0,0:0:0:0:
460,0,323548,1,0,0:0:0:0:
358,0,323634,1,8,0:0:0:0:
256,0,323634,1,0,0:0:0:70:chi.wav
153,0,323634,1,0,0:0:0:0:
51,0,323720,1,0,0:0:0:0:
460,0,323805,1,0,0:0:0:0:
256,0,323805,1,0,0:0:0:0:
153,0,323891,1,0,0:0:0:0:
358,0,323977,1,2,0:0:0:0:
256,0,323977,1,0,0:0:0:0:
51,0,323977,1,0,0:0:0:0:
460,0,324063,1,0,0:0:0:0:
153,0,324063,1,0,0:0:0:0:
358,0,324148,1,0,0:0:0:0:
51,0,324148,1,0,0:0:0:0:
256,0,324234,1,0,0:0:0:0:
153,0,324320,1,8,0:0:0:0:
358,0,324320,1,0,0:0:0:70:chi.wav
460,0,324320,1,0,0:0:0:0:
51,0,324405,1,0,0:0:0:0:
460,0,324491,1,0,0:0:0:0:
256,0,324491,1,0,0:0:0:0:
358,0,324577,1,0,0:0:0:0:
460,0,324663,1,4,0:0:0:0:
256,0,324663,1,2,0:0:0:0:
153,0,324663,1,0,0:0:0:0:
358,0,324748,1,0,0:0:0:0:
51,0,324748,1,0,0:0:0:0:
460,0,324834,1,0,0:0:0:0:
153,0,324834,1,0,0:0:0:0:
51,0,324920,1,0,0:0:0:0:
256,0,324920,1,0,0:0:0:0:
460,0,325005,1,0,0:0:0:70:chi.wav
358,0,325005,1,8,0:0:0:0:
153,0,325005,1,0,0:0:0:0:
51,0,325091,1,0,0:0:0:0:
256,0,325091,1,0,0:0:0:0:
460,0,325177,1,0,0:0:0:0:
153,0,325177,1,0,0:0:0:0:
51,0,325263,1,0,0:0:0:0:
358,192,325263,1,0,0:0:0:0:
460,0,325348,1,2,0:0:0:0:
256,0,325348,1,0,0:0:0:0:
153,0,325348,1,0,0:0:0:0:
358,0,325434,1,0,0:0:0:0:
51,0,325434,1,0,0:0:0:0:
460,0,325520,1,0,0:0:0:0:
153,0,325520,1,0,0:0:0:0:
256,0,325605,1,0,0:0:0:0:
51,0,325605,1,0,0:0:0:0:
460,0,325691,1,8,0:0:0:0:
358,0,325691,1,0,0:0:0:70:chi.wav
153,0,325691,1,0,0:0:0:0:
256,0,325777,1,0,0:0:0:0:
358,0,325863,1,0,0:0:0:0:
51,0,325863,1,0,0:0:0:0:
460,0,325948,1,0,0:0:0:0:
51,0,326034,1,2,0:0:0:0:
153,0,326034,1,0,0:0:0:0:
358,0,326034,1,0,0:0:0:0:
460,0,326120,1,0,0:0:0:0:
256,0,326120,1,0,0:0:0:0:
153,0,326205,1,0,0:0:0:0:
358,0,326205,1,0,0:0:0:0:
460,0,326291,1,0,0:0:0:0:
51,0,326291,1,0,0:0:0:0:
256,0,326377,1,0,0:0:0:70:chi.wav
153,0,326377,1,8,0:0:0:0:
358,0,326377,1,0,0:0:0:0:
460,0,326463,1,0,0:0:0:0:
51,0,326463,1,0,0:0:0:0:
358,0,326548,1,0,0:0:0:0:
153,0,326548,1,0,0:0:0:0:
460,0,326634,1,0,0:0:0:0:
256,0,326634,1,0,0:0:0:0:
358,0,326720,1,2,0:0:0:0:
153,0,326720,1,0,0:0:0:0:
51,0,326720,1,0,0:0:0:0:
460,0,326805,1,0,0:0:0:0:
256,0,326805,1,0,0:0:0:0:
358,0,326891,1,0,0:0:0:0:
153,0,326891,1,0,0:0:0:0:
460,0,326977,1,0,0:0:0:0:
51,0,326977,1,0,0:0:0:0:
256,0,327063,1,8,0:0:0:0:
153,0,327063,1,0,0:0:0:70:chi.wav
358,0,327063,1,0,0:0:0:0:
51,0,327148,1,0,0:0:0:0:
460,0,327234,1,0,0:0:0:0:
153,0,327234,1,0,0:0:0:0:
256,0,327320,1,0,0:0:0:0:
51,0,327405,1,2,0:0:0:0:
358,0,327405,1,4,0:0:0:0:
460,0,327405,1,0,0:0:0:0:
153,0,327491,1,0,0:0:0:0:
256,0,327491,1,0,0:0:0:0:
51,0,327577,1,0,0:0:0:0:
358,0,327577,1,0,0:0:0:0:
153,0,327663,1,0,0:0:0:0:
460,0,327663,1,0,0:0:0:0:
51,0,327748,1,0,0:0:0:70:chi.wav
256,0,327748,1,8,0:0:0:0:
358,0,327748,1,0,0:0:0:0:
153,0,327834,1,0,0:0:0:0:
460,0,327834,1,0,0:0:0:0:
51,0,327920,1,0,0:0:0:0:
358,0,327920,1,0,0:0:0:0:
153,0,328005,1,0,0:0:0:0:
256,0,328005,1,0,0:0:0:0:
51,0,328091,1,2,0:0:0:0:
358,0,328091,1,0,0:0:0:0:
460,0,328091,1,0,0:0:0:0:
153,0,328177,1,0,0:0:0:0:
256,0,328177,1,0,0:0:0:0:
51,0,328263,1,0,0:0:0:0:
358,0,328263,1,0,0:0:0:0:
153,0,328348,1,0,0:0:0:0:
460,0,328348,1,0,0:0:0:0:
51,0,328434,1,8,0:0:0:0:
358,0,328434,1,0,0:0:0:70:chi.wav
256,0,328434,1,0,0:0:0:0:
460,0,328520,1,0,0:0:0:0:
153,0,328605,1,0,0:0:0:0:
358,0,328605,1,0,0:0:0:0:
256,0,328691,1,0,0:0:0:0:
153,0,328777,1,0,0:0:0:0:
460,0,328777,1,0,0:0:0:0:
51,0,328777,1,2,0:0:0:0:
256,0,328863,1,0,0:0:0:0:
358,0,328863,1,0,0:0:0:0:
51,0,328948,1,0,0:0:0:0:
460,0,328948,1,0,0:0:0:0:
153,0,329034,1,0,0:0:0:0:
358,0,329034,1,0,0:0:0:0:
460,0,329120,1,0,0:0:0:70:chi.wav
256,0,329120,1,8,0:0:0:0:
51,0,329120,1,0,0:0:0:0:
153,0,329205,1,0,0:0:0:0:
358,0,329205,1,0,0:0:0:0:
460,0,329291,1,0,0:0:0:0:
51,0,329291,1,0,0:0:0:0:
358,0,329377,1,0,0:0:0:0:
256,0,329377,1,0,0:0:0:0:
153,0,329463,1,0,0:0:0:0:
51,0,329463,1,2,0:0:0:0:
460,0,329463,1,0,0:0:0:0:
358,0,329548,1,0,0:0:0:0:
256,0,329548,1,0,0:0:0:0:
460,0,329634,1,0,0:0:0:0:
51,0,329634,1,0,0:0:0:0:
358,0,329720,1,0,0:0:0:0:
153,0,329720,1,0,0:0:0:0:
460,0,329805,1,0,0:0:0:70:chi.wav
256,0,329805,1,8,0:0:0:0:
51,0,329805,1,0,0:0:0:0:
153,0,329891,1,0,0:0:0:0:
358,0,329977,1,0,0:0:0:0:
256,0,329977,1,0,0:0:0:0:
51,0,330063,1,0,0:0:0:0:
460,0,330148,1,4,0:0:0:0:
256,0,330148,1,2,0:0:0:0:
358,0,330148,1,0,0:0:0:0:
153,0,330234,1,0,0:0:0:0:
51,0,330234,1,0,0:0:0:0:
358,192,330320,1,0,0:0:0:0:
460,192,330320,1,0,0:0:0:0:
153,192,330405,1,0,0:0:0:0:
256,192,330405,1,0,0:0:0:0:
51,192,330491,1,8,0:0:0:0:
358,192,330491,1,0,0:0:0:70:chi.wav
460,192,330491,1,0,0:0:0:0:
153,192,330577,1,0,0:0:0:0:
256,192,330577,1,0,0:0:0:0:
358,192,330663,1,0,0:0:0:0:
460,192,330663,1,0,0:0:0:0:
51,192,330748,1,0,0:0:0:0:
153,192,330748,1,0,0:0:0:0:
256,192,330834,1,2,0:0:0:0:
358,192,330834,1,0,0:0:0:0:
460,192,330834,1,0,0:0:0:0:
153,192,330920,1,0,0:0:0:0:
51,192,330920,1,0,0:0:0:0:
358,192,331005,1,0,0:0:0:0:
460,192,331005,1,0,0:0:0:0:
153,192,331091,1,0,0:0:0:0:
256,192,331091,1,0,0:0:0:0:
358,192,331177,1,0,0:0:0:70:chi.wav
460,192,331177,1,8,0:0:0:0:
51,192,331177,1,0,0:0:0:0:
256,192,331263,1,0,0:0:0:0:
358,192,331348,1,0,0:0:0:0:
51,192,331348,1,0,0:0:0:0:
153,192,331434,1,0,0:0:0:0:
256,0,331520,1,4,0:0:0:0:
460,0,331520,1,2,0:0:0:0:
51,0,331520,1,0,0:0:0:0:
358,0,331605,1,0,0:0:0:0:
153,0,331605,1,0,0:0:0:0:
460,0,331691,1,0,0:0:0:0:
256,0,331691,1,0,0:0:0:0:
153,0,331777,1,0,0:0:0:0:
51,0,331777,1,0,0:0:0:0:
256,0,331863,1,8,0:0:0:0:
460,0,331863,1,0,0:0:0:70:chi.wav
358,0,331863,1,0,0:0:0:0:
153,0,331948,1,0,0:0:0:0:
51,0,331948,1,0,0:0:0:0:
256,0,332034,1,0,0:0:0:0:
460,0,332034,1,0,0:0:0:0:
358,0,332120,1,0,0:0:0:0:
153,0,332120,1,0,0:0:0:0:
256,0,332205,1,2,0:0:0:0:
460,0,332205,1,0,0:0:0:0:
51,0,332205,1,0,0:0:0:0:
358,0,332291,1,0,0:0:0:0:
153,0,332291,1,0,0:0:0:0:
256,0,332377,1,0,0:0:0:0:
460,0,332377,1,0,0:0:0:0:
153,0,332463,1,0,0:0:0:0:
51,0,332463,1,0,0:0:0:0:
256,0,332548,1,8,0:0:0:0:
460,0,332548,1,0,0:0:0:70:chi.wav
358,0,332548,1,0,0:0:0:0:
153,0,332634,1,0,0:0:0:0:
51,0,332720,1,0,0:0:0:0:
256,0,332720,1,0,0:0:0:0:
358,0,332805,1,0,0:0:0:0:
460,0,332891,1,4,0:0:0:0:
51,0,332891,1,2,0:0:0:0:
256,0,332891,1,0,0:0:0:0:
358,0,332977,1,0,0:0:0:0:
153,0,332977,1,0,0:0:0:0:
460,0,333063,1,0,0:0:0:0:
51,0,333063,1,0,0:0:0:0:
256,0,333148,1,0,0:0:0:0:
460,0,333234,1,8,0:0:0:0:
358,0,333234,1,0,0:0:0:0:
153,0,333234,1,0,0:0:0:0:
256,0,333320,1,0,0:0:0:0:
51,0,333405,1,0,0:0:0:0:
358,0,333405,1,0,0:0:0:0:
153,0,333491,1,0,0:0:0:0:
460,0,333577,1,2,0:0:0:0:
256,0,333577,1,4,0:0:0:0:
51,0,333577,1,0,0:0:0:0:
358,0,333663,1,0,0:0:0:0:
153,0,333663,1,0,0:0:0:0:
256,0,333748,1,0,0:0:0:0:
460,0,333748,1,0,0:0:0:0:
358,0,333834,1,0,0:0:0:0:
460,0,333920,1,8,0:0:0:0:
153,0,333920,1,0,0:0:0:0:
51,0,333920,1,0,0:0:0:0:
256,0,334005,1,0,0:0:0:0:
460,0,334091,1,0,0:0:0:0:
358,0,334091,1,0,0:0:0:0:
153,0,334177,1,0,0:0:0:0:
358,0,334263,1,4,0:0:0:0:
460,0,334263,1,2,0:0:0:0:
51,0,334263,1,0,0:0:0:0:
256,0,334263,1,0,0:0:0:0:
460,0,334948,1,0,0:0:0:70:climax.wav
256,0,334948,1,0,0:0:0:70:LR3_ReverseFXG.wav
51,0,334948,1,0,0:0:0:0:
358,0,335634,128,0,336148:0:0:0:70:twinkling.wav
460,0,335634,1,2,0:0:0:0:
51,0,335634,128,4,335977:0:0:0:0:
153,0,335634,1,0,0:0:0:70:whistle.wav
256,0,336148,128,2,336663:0:0:0:0:
51,0,336148,1,0,0:0:0:70:whistle.wav
460,0,336320,1,8,0:0:0:0:
358,0,336320,1,0,0:0:0:0:
153,0,336320,1,0,0:0:0:0:
358,0,336491,1,2,0:0:0:0:
51,0,336491,1,0,0:0:0:0:
153,0,336663,128,0,337691:0:0:0:70:whistle.wav
256,0,337005,1,2,0:0:0:0:
51,0,337005,1,0,0:0:0:0:
460,0,337177,1,8,0:0:0:0:
358,0,337177,1,0,0:0:0:0:
51,0,337177,1,0,0:0:0:0:
256,192,337348,1,0,0:0:0:0:
460,0,337520,1,2,0:0:0:0:
358,0,337520,1,0,0:0:0:0:
460,0,337691,1,8,0:0:0:0:
256,0,337691,1,0,0:0:0:0:
51,0,337691,1,0,0:0:0:0:
358,0,337863,1,2,0:0:0:0:
153,0,337863,1,0,0:0:0:0:
358,0,338034,128,0,338377:0:0:0:70:whistle.wav
256,192,338034,1,0,0:0:0:0:
51,0,338205,128,0,338377:0:0:0:0:
460,0,338377,128,0,338891:0:0:0:70:whistle.wav
256,0,338377,1,2,0:0:0:0:
153,0,338377,128,0,338720:0:0:0:0:
358,0,338891,128,2,339405:0:0:0:0:
51,0,338891,1,0,0:0:0:70:whistle.wav
460,0,339063,1,8,0:0:0:0:
256,0,339063,1,0,0:0:0:0:
153,0,339063,1,0,0:0:0:0:
153,0,339234,1,2,0:0:0:0:
51,0,339234,1,0,0:0:0:0:
256,0,339405,128,0,340434:0:0:0:70:whistle.wav
460,0,339748,1,2,0:0:0:0:
153,0,339748,1,0,0:0:0:0:
460,0,339920,1,8,0:0:0:0:
358,0,339920,1,0,0:0:0:0:
51,0,339920,1,0,0:0:0:0:
153,192,340091,1,0,0:0:0:0:
358,0,340263,1,2,0:0:0:0:
51,0,340263,1,0,0:0:0:0:
460,0,340434,1,8,0:0:0:0:
358,0,340434,1,0,0:0:0:0:
153,0,340434,1,0,0:0:0:0:
51,0,340605,1,0,0:0:0:0:
256,0,340605,1,2,0:0:0:0:
51,0,340777,128,0,341120:0:0:0:70:whistle.wav
460,192,340777,1,0,0:0:0:0:
358,0,340948,128,0,341120:0:0:0:0:
460,0,341120,1,0,0:0:0:70:whistle.wav
256,0,341120,128,2,341463:0:0:0:0:
153,0,341120,128,0,341634:0:0:0:0:
358,0,341463,1,0,0:0:0:0:
460,0,341634,128,0,342148:0:0:0:70:whistle.wav
256,0,341634,1,2,0:0:0:0:
358,0,341805,1,8,0:0:0:0:
51,0,341805,1,0,0:0:0:0:
153,0,341805,1,0,0:0:0:0:
358,0,341977,1,2,0:0:0:0:
256,0,341977,1,0,0:0:0:0:
153,0,342148,128,0,343177:0:0:0:70:whistle.wav
51,0,342148,1,0,0:0:0:0:
460,0,342491,1,2,0:0:0:0:
358,0,342491,1,0,0:0:0:0:
460,0,342663,1,8,0:0:0:0:
256,0,342663,1,0,0:0:0:0:
51,0,342663,1,0,0:0:0:0:
358,0,342834,1,0,0:0:0:0:
460,0,343005,1,2,0:0:0:0:
51,0,343005,1,0,0:0:0:0:
358,0,343177,1,8,0:0:0:0:
256,0,343177,1,0,0:0:0:0:
51,0,343177,1,0,0:0:0:0:
460,0,343348,1,2,0:0:0:0:
153,0,343348,1,0,0:0:0:0:
256,0,343520,128,0,343863:0:0:0:70:whistle.wav
460,0,343520,1,0,0:0:0:0:
153,0,343691,128,0,343863:0:0:0:0:
460,0,343863,1,0,0:0:0:70:whistle.wav
358,0,343863,128,2,344205:0:0:0:0:
51,0,343863,128,0,344377:0:0:0:0:
256,0,344205,1,0,0:0:0:0:
358,0,344377,1,0,0:0:0:70:whistle.wav
153,0,344377,128,2,344891:0:0:0:0:
460,0,344548,1,8,0:0:0:0:
256,0,344548,1,0,0:0:0:0:
51,0,344548,1,0,0:0:0:0:
51,0,344720,1,2,0:0:0:0:
358,0,344720,1,0,0:0:0:0:
256,0,344891,128,0,345920:0:0:0:70:whistle.wav
460,0,344891,1,0,0:0:0:0:
358,0,345234,1,2,0:0:0:0:
51,0,345234,1,0,0:0:0:0:
460,0,345405,1,8,0:0:0:0:
153,0,345405,1,0,0:0:0:0:
51,0,345405,1,0,0:0:0:0:
358,0,345577,1,0,0:0:0:0:
460,0,345748,1,2,0:0:0:0:
153,0,345748,1,0,0:0:0:0:
358,0,345920,1,0,0:0:0:70:LR3_ReverseFXG.wav
153,0,345920,1,8,0:0:0:0:
51,0,345920,1,0,0:0:0:0:
460,0,346091,1,2,0:0:0:0:
256,0,346091,1,0,0:0:0:0:
153,0,346262,128,0,346605:0:0:0:70:whistle.wav
358,0,346262,1,0,0:0:0:0:
460,0,346262,1,8,0:0:0:0:
256,0,346434,128,0,346605:0:0:0:0:
460,0,346605,1,4,0:0:0:0:
358,0,346605,128,0,347120:0:0:0:70:whistle.wav
51,0,346605,128,0,346948:0:0:0:70:pplclap.wav
460,0,346948,1,0,0:0:0:70:pplclap.wav
256,0,347120,128,2,347634:0:0:0:0:
51,0,347120,1,0,0:0:0:70:whistle.wav
460,0,347291,1,8,0:0:0:0:
358,0,347291,1,0,0:0:0:70:pplclap.wav
153,0,347291,1,0,0:0:0:0:
358,0,347462,1,2,0:0:0:0:
51,0,347462,1,0,0:0:0:0:
153,0,347634,128,0,348662:0:0:0:70:whistle.wav
460,0,347634,1,0,0:0:0:70:pplclap.wav
460,0,347977,1,2,0:0:0:0:
358,0,347977,1,0,0:0:0:70:pplclap.wav
358,0,348148,1,8,0:0:0:0:
256,0,348148,1,0,0:0:0:0:
51,0,348148,1,0,0:0:0:0:
460,0,348320,1,0,0:0:0:70:pplclap.wav
358,0,348491,1,2,0:0:0:0:
256,0,348491,1,0,0:0:0:0:
460,0,348662,1,8,0:0:0:0:
256,0,348662,1,0,0:0:0:70:pplclap.wav
51,0,348662,1,0,0:0:0:0:
358,0,348834,1,2,0:0:0:0:
153,0,348834,1,0,0:0:0:0:
358,0,349005,128,0,349348:0:0:0:70:whistle.wav
460,0,349005,1,0,0:0:0:70:pplclap.wav
153,192,349177,128,0,349348:0:0:0:0:
460,0,349348,1,0,0:0:0:70:whistle.wav
256,0,349348,128,2,349691:0:0:0:0:
51,0,349348,128,0,349862:0:0:0:70:pplclap.wav
460,0,349691,1,0,0:0:0:70:pplclap.wav
358,0,349862,1,2,0:0:0:0:
153,0,349862,128,0,350377:0:0:0:70:whistle.wav
460,0,350034,1,8,0:0:0:0:
256,0,350034,1,0,0:0:0:70:pplclap.wav
51,0,350034,1,0,0:0:0:0:
358,0,350205,1,2,0:0:0:0:
51,0,350205,1,0,0:0:0:0:
256,0,350377,128,0,351405:0:0:0:70:whistle.wav
460,0,350377,1,0,0:0:0:70:pplclap.wav
460,0,350720,1,2,0:0:0:0:
153,0,350720,1,0,0:0:0:70:pplclap.wav
358,0,350891,1,8,0:0:0:0:
153,0,350891,1,0,0:0:0:0:
51,0,350891,1,0,0:0:0:0:
460,0,351062,1,0,0:0:0:70:pplclap.wav
358,0,351234,1,2,0:0:0:0:
51,0,351234,1,0,0:0:0:0:
460,0,351405,1,8,0:0:0:0:
358,0,351405,1,0,0:0:0:70:pplclap.wav
153,0,351405,1,0,0:0:0:0:
256,0,351577,1,2,0:0:0:0:
51,0,351577,1,0,0:0:0:0:
51,0,351748,128,0,352091:0:0:0:70:whistle.wav
460,0,351748,1,0,0:0:0:70:pplclap.wav
256,192,351920,128,0,352091:0:0:0:0:
358,0,352091,128,6,352605:0:0:0:0:
153,0,352091,128,0,352434:0:0:0:70:whistle.wav
460,192,352091,1,0,0:0:0:70:pplclap.wav
460,0,352434,1,0,0:0:0:70:pplclap.wav
256,0,352605,1,2,0:0:0:0:
153,0,352605,128,0,353120:0:0:0:70:whistle.wav
460,0,352777,1,8,0:0:0:0:
358,0,352777,1,0,0:0:0:70:pplclap.wav
51,0,352777,1,0,0:0:0:0:
358,0,352948,1,2,0:0:0:0:
256,0,352948,1,0,0:0:0:0:
51,0,353120,128,0,354148:0:0:0:70:whistle.wav
460,0,353120,1,0,0:0:0:70:pplclap.wav
460,0,353462,1,4,0:0:0:0:
256,0,353462,1,0,0:0:0:70:pplclap.wav
153,0,353462,1,2,0:0:0:0:
358,0,353634,1,8,0:0:0:0:
256,0,353634,1,0,0:0:0:0:
153,0,353634,1,0,0:0:0:0:
460,0,353805,1,0,0:0:0:70:pplclap.wav
358,0,353977,1,2,0:0:0:0:
256,0,353977,1,0,0:0:0:0:
460,0,354148,1,8,0:0:0:0:
256,0,354148,1,0,0:0:0:70:pplclap.wav
153,0,354148,1,0,0:0:0:0:
358,0,354320,1,2,0:0:0:0:
51,0,354320,1,0,0:0:0:0:
358,0,354491,128,0,354834:0:0:0:70:whistle.wav
460,0,354491,1,0,0:0:0:70:pplclap.wav
51,192,354662,128,0,354834:0:0:0:0:
256,0,354834,128,6,355177:0:0:0:0:
153,0,354834,128,0,355348:0:0:0:70:whistle.wav
460,192,354834,1,0,0:0:0:70:pplclap.wav
460,0,355177,1,0,0:0:0:70:pplclap.wav
256,0,355348,128,2,355862:0:0:0:0:
51,0,355348,1,0,0:0:0:70:whistle.wav
460,0,355520,1,0,0:0:0:70:pplclap.wav
358,0,355520,1,8,0:0:0:0:
153,0,355520,1,0,0:0:0:0:
358,0,355691,1,2,0:0:0:0:
51,0,355691,1,0,0:0:0:0:
153,0,355862,1,0,0:0:0:70:pplclap.wav
460,192,355862,1,0,0:0:0:70:whistle.wav
358,192,356034,1,0,0:0:0:0:
256,0,356205,1,4,0:0:0:0:
51,0,356205,1,2,0:0:0:0:
153,0,356205,1,0,0:0:0:0:
460,192,356205,1,0,0:0:0:0:
256,0,356377,128,2,356548:0:0:0:0:
358,0,356377,128,0,356548:0:0:0:0:
460,0,356377,128,0,356548:0:0:0:0:
153,0,356377,128,4,356548:0:0:0:0:
51,0,356720,128,4,356891:0:0:0:0:
153,0,356720,128,2,356891:0:0:0:0:
256,0,356720,128,0,356891:0:0:0:0:
460,0,356720,128,0,356891:0:0:0:0:
358,192,356891,1,8,0:0:0:50:climax.wav
358,0,357062,1,4,0:0:0:0:
460,0,357062,1,2,0:0:0:0:
51,0,357062,1,0,0:0:0:0:
256,0,357062,1,0,0:0:0:0:
358,0,357234,1,2,0:0:0:0:
460,0,357234,1,4,0:0:0:0:
51,0,357234,1,0,0:0:0:0:
153,0,357234,1,0,0:0:0:0:
358,0,357405,1,4,0:0:0:0:
460,0,357405,1,2,0:0:0:0:
153,0,357405,1,0,0:0:0:0:
256,0,357405,1,0,0:0:0:0:
51,0,357577,128,0,360405:0:0:0:70:twinkling.wav
153,0,357577,128,2,360405:0:0:0:0:
358,0,357577,128,4,358948:0:0:0:0:
460,0,357577,1,0,0:0:0:0:
256,0,357577,128,0,359634:0:0:0:0:
460,0,360405,1,0,0:0:0:0:
358,0,360477,1,0,0:0:0:0:
256,0,360577,1,0,0:0:0:0:
153,0,360684,1,0,0:0:0:0:
51,0,360684,1,0,0:0:0:0:
