osu file format v14

[General]
AudioFilename: audio.mp3
AudioLeadIn: 0
PreviewTime: 222697
Countdown: 0
SampleSet: Soft
StackLeniency: 0.5
Mode: 0
LetterboxInBreaks: 0
WidescreenStoryboard: 0

[Editor]
Bookmarks: 79053,100579,222782,244307
DistanceSpacing: 0.6
BeatDivisor: 4
GridSize: 4
TimelineZoom: 3.399999

[Metadata]
Title:Stella-rium (Asterisk MAKINA Remix)
TitleUnicode:Stella-rium (Asterisk MAKINA Remix)
Artist:Kano
ArtistUnicode:鹿乃
Creator:Vaporfly
Version:Starlight
Source:放課後のプレアデス
Tags:skyflame Houkago no pleiades opening full size version electronic anime japanese jpop dnb stellarium Wish Upon the Pleiades nowhere edm dance music drum and bass j-pop pop op
BeatmapID:2993974
BeatmapSetID:1456709

[Difficulty]
HPDrainRate:5
CircleSize:3.8
OverallDifficulty:9
ApproachRate:9.4
SliderMultiplier:1.8
SliderTickRate:1

[Events]
//Background and Video events
0,0,"bg.png",0,0
//Break Periods
//Storyboard Layer 0 (Background)
//Storyboard Layer 1 (Fail)
//Storyboard Layer 2 (Pass)
//Storyboard Layer 3 (Foreground)
//Storyboard Layer 4 (Overlay)
//Storyboard Sound Samples

[TimingPoints]
579,338.983050847458,4,2,1,100,1,0
579,-125,4,2,1,50,0,0
11426,-111.111111111111,4,2,1,60,0,0
19562,-111.111111111111,4,2,1,50,0,0
19901,-111.111111111111,4,2,1,55,0,0
20240,-111.111111111111,4,2,1,60,0,0
20579,-111.111111111111,4,2,1,65,0,0
22273,-90.9090909090908,4,2,1,70,0,1
31172,-90.9090909090908,4,2,1,5,0,1
31256,-90.9090909090908,4,2,1,70,0,1
37528,-90.9090909090909,4,2,1,70,0,1
37782,-90.9090909090909,4,2,1,5,0,1
37867,-90.9090909090909,4,2,1,70,0,1
41256,-90.9090909090908,4,2,1,55,0,1
41595,-90.9090909090908,4,2,1,60,0,1
41934,-90.9090909090908,4,2,1,65,0,1
42273,-90.9090909090908,4,2,1,70,0,1
43968,-125,4,2,1,50,0,0
54477,-62.5,4,2,1,55,0,0
55155,-111.111111111111,4,2,1,60,0,0
65663,-125,4,2,1,70,0,0
65917,-125,4,2,1,5,0,0
66002,-62.5,4,2,1,70,0,1
66256,-62.5,4,2,1,5,0,1
66341,-58.8235294117647,4,2,1,70,0,1
66595,-58.8235294117647,4,2,1,5,0,1
66680,-66.6666666666667,4,2,1,70,0,1
67273,-66.6666666666667,4,2,1,5,0,1
67358,-62.5,4,2,1,70,0,1
67612,-62.5,4,2,1,5,0,1
67697,-62.5,4,2,1,70,0,1
68375,-166.666666666667,4,2,1,70,0,1
68629,-166.666666666667,4,2,1,5,0,1
68714,-58.8235294117647,4,2,1,70,0,1
68968,-58.8235294117647,4,2,1,5,0,1
69053,-100,4,2,1,70,0,1
71087,-125,4,2,1,50,0,0
71765,-125,4,2,1,55,0,0
72443,-125,4,2,1,60,0,0
73799,-125,4,2,1,65,0,0
79053,-125,4,2,2,50,0,0
79223,-166.666666666667,4,2,4,50,0,0
80070,-166.666666666667,4,2,3,50,0,0
80240,-166.666666666667,4,2,4,50,0,0
80748,-166.666666666667,4,2,5,50,0,0
80917,-166.666666666667,4,2,6,50,0,0
81087,-166.666666666667,4,2,5,50,0,0
81765,-166.666666666667,4,2,2,50,0,0
81934,-166.666666666667,4,2,5,50,0,0
82782,-166.666666666667,4,2,4,50,0,0
82951,-166.666666666667,4,2,5,50,0,0
83460,-166.666666666667,4,2,6,50,0,0
83629,-166.666666666667,4,2,7,50,0,0
83799,-166.666666666667,4,2,6,50,0,0
84477,-166.666666666667,4,2,2,50,0,0
84646,-166.666666666667,4,2,4,50,0,0
84985,-166.666666666667,4,2,3,50,0,0
85324,-166.666666666667,4,2,4,50,0,0
85663,-166.666666666667,4,2,6,50,0,0
86002,-166.666666666667,4,2,5,50,0,0
86341,-166.666666666667,4,2,4,50,0,0
86680,-166.666666666667,4,2,3,50,0,0
87019,-166.666666666667,4,2,4,50,0,0
87358,-166.666666666667,4,2,5,50,0,0
87867,-166.666666666667,4,2,4,50,0,0
88036,-166.666666666667,4,2,5,50,0,0
88545,-166.666666666667,4,2,7,50,0,0
88714,-166.666666666667,4,2,6,50,0,0
89053,-166.666666666667,4,2,6,5,0,0
89901,-166.666666666667,4,2,2,50,0,0
90070,-166.666666666667,4,2,4,60,0,0
90917,-166.666666666667,4,2,3,60,0,0
91087,-166.666666666667,4,2,4,60,0,0
91595,-166.666666666667,4,2,5,60,0,0
91765,-166.666666666667,4,2,6,60,0,0
91934,-166.666666666667,4,2,5,60,0,0
92612,-166.666666666667,4,2,2,60,0,0
92782,-166.666666666667,4,2,5,60,0,0
93629,-166.666666666667,4,2,4,60,0,0
93968,-166.666666666667,4,2,8,60,0,0
94307,-166.666666666667,4,2,7,60,0,0
94477,-166.666666666667,4,2,6,60,0,0
94646,-166.666666666667,4,2,7,60,0,0
94816,-166.666666666667,4,2,6,60,0,0
95324,-166.666666666667,4,2,4,60,0,0
95494,-166.666666666667,4,2,8,60,0,0
95833,-166.666666666667,4,2,7,60,0,0
96172,-166.666666666667,4,2,6,60,0,0
96511,-166.666666666667,4,2,7,60,0,0
96850,-166.666666666667,4,2,6,60,0,0
97189,-166.666666666667,4,2,5,60,0,0
97528,-166.666666666667,4,2,4,60,0,0
97867,-166.666666666667,4,2,5,60,0,0
98206,-166.666666666667,4,2,4,60,0,0
99562,-166.666666666667,4,2,4,30,0,0
100579,-166.666666666667,4,2,4,5,0,0
100917,-125,4,2,1,50,0,0
111765,-125,4,2,1,55,0,0
119901,-125,4,2,1,60,0,0
120240,-90.9090909090908,4,2,1,65,0,0
120579,-71.4285714285714,4,2,1,70,0,0
120917,-125,4,2,1,75,0,0
122612,-90.9090909090909,4,2,1,85,0,1
143968,-90.9090909090909,4,2,1,85,0,0
144307,-83.3333333333333,4,2,1,85,0,1
166002,-125,4,2,1,50,0,0
176850,-125,4,2,1,60,0,0
177104,-125,4,2,1,5,0,0
177189,-90.9090909090909,4,2,1,70,0,1
180409,-76.9230769230769,4,2,1,70,0,1
180748,-90.9090909090909,4,2,1,70,0,1
181511,-90.9090909090909,4,2,1,5,0,1
181595,-90.9090909090909,4,2,1,70,0,1
185748,-90.9090909090909,4,2,1,5,0,1
185833,-90.9090909090909,4,2,1,70,0,1
186341,-71.4285714285714,4,2,1,70,0,0
187697,-125,4,2,1,50,0,0
198206,-62.5,4,2,1,55,0,0
198884,-111.111111111111,4,2,1,60,0,0
209392,-125,4,2,1,70,0,0
209646,-125,4,2,1,5,0,0
209731,-62.5,4,2,1,70,0,1
209985,-62.5,4,2,1,5,0,1
210070,-58.8235294117647,4,2,1,70,0,1
210324,-58.8235294117647,4,2,1,5,0,1
210409,-66.6666666666667,4,2,1,70,0,1
211002,-66.6666666666667,4,2,1,5,0,1
211087,-62.5,4,2,1,70,0,1
211341,-62.5,4,2,1,5,0,1
211426,-62.5,4,2,1,70,0,1
212104,-166.666666666667,4,2,1,70,0,1
212358,-166.666666666667,4,2,1,5,0,1
212443,-58.8235294117647,4,2,1,70,0,1
212697,-58.8235294117647,4,2,1,5,0,1
212782,-100,4,2,1,70,0,1
214816,-125,4,2,1,50,0,0
215494,-125,4,2,1,55,0,0
216172,-125,4,2,1,60,0,0
217528,-125,4,2,1,65,0,0
222782,-125,4,2,2,50,0,0
222951,-166.666666666667,4,2,4,50,0,0
223799,-166.666666666667,4,2,3,50,0,0
223968,-166.666666666667,4,2,4,50,0,0
224477,-166.666666666667,4,2,6,50,0,0
224816,-166.666666666667,4,2,5,50,0,0
225494,-166.666666666667,4,2,2,50,0,0
225663,-166.666666666667,4,2,5,50,0,0
226511,-166.666666666667,4,2,4,50,0,0
226680,-166.666666666667,4,2,5,50,0,0
227189,-166.666666666667,4,2,6,50,0,0
227358,-166.666666666667,4,2,7,50,0,0
227528,-166.666666666667,4,2,6,50,0,0
228206,-166.666666666667,4,2,2,50,0,0
228375,-166.666666666667,4,2,4,50,0,0
228714,-166.666666666667,4,2,3,50,0,0
229053,-166.666666666667,4,2,4,50,0,0
229392,-166.666666666667,4,2,6,50,0,0
229731,-166.666666666667,4,2,5,50,0,0
230070,-166.666666666667,4,2,4,50,0,0
230409,-166.666666666667,4,2,3,50,0,0
230748,-166.666666666667,4,2,4,50,0,0
231087,-166.666666666667,4,2,5,50,0,0
231595,-166.666666666667,4,2,4,50,0,0
231765,-166.666666666667,4,2,5,50,0,0
232273,-166.666666666667,4,2,7,50,0,0
232443,-166.666666666667,4,2,6,50,0,0
232782,-166.666666666667,4,2,6,5,0,0
233629,-166.666666666667,4,2,2,60,0,0
233799,-166.666666666667,4,2,4,60,0,0
234646,-166.666666666667,4,2,3,60,0,0
234816,-166.666666666667,4,2,4,60,0,0
235324,-166.666666666667,4,2,5,60,0,0
235494,-166.666666666667,4,2,6,60,0,0
235663,-166.666666666667,4,2,5,60,0,0
236341,-166.666666666667,4,2,2,60,0,0
236511,-166.666666666667,4,2,5,60,0,0
237358,-166.666666666667,4,2,4,60,0,0
237697,-166.666666666667,4,2,8,60,0,0
238036,-166.666666666667,4,2,7,60,0,0
238206,-166.666666666667,4,2,6,60,0,0
238375,-166.666666666667,4,2,7,60,0,0
238545,-166.666666666667,4,2,6,60,0,0
239053,-166.666666666667,4,2,4,60,0,0
239223,-166.666666666667,4,2,8,60,0,0
239562,-166.666666666667,4,2,7,60,0,0
239901,-166.666666666667,4,2,6,60,0,0
240240,-166.666666666667,4,2,7,60,0,0
240579,-166.666666666667,4,2,6,60,0,0
240917,-166.666666666667,4,2,5,60,0,0
241256,-166.666666666667,4,2,4,60,0,0
241595,-166.666666666667,4,2,5,60,0,0
241934,-166.666666666667,4,2,4,60,0,0
243290,-166.666666666667,4,2,4,30,0,0
244307,-166.666666666667,4,2,4,5,0,0
244646,-125,4,2,1,50,0,0
255494,-125,4,2,1,55,0,0
263629,-125,4,2,1,60,0,0
263968,-90.9090909090909,4,2,1,65,0,0
264307,-71.4285714285714,4,2,1,70,0,0
264646,-125,4,2,1,75,0,0
266341,-90.9090909090909,4,2,1,85,0,1
287697,-90.9090909090909,4,2,1,85,0,0
288036,-90.9090909090909,4,2,1,85,0,1
309731,-125,4,2,1,60,0,0
320579,-111.111111111111,4,2,1,60,0,0
328714,-125,4,2,1,70,0,0
329053,-125,4,2,1,75,0,0
329392,-125,4,2,1,80,0,0
330070,-71.4285714285714,4,2,1,80,0,0

[Colours]
Combo1 : 255,255,43
Combo2 : 182,108,255
Combo3 : 128,255,255
Combo4 : 255,255,128
SliderBorder : 255,255,255

[HitObjects]
199,132,579,6,0,L|214:218,1,72,0|0,1:2|0:0,0:0:0:0:
298,271,917,2,0,L|310:200,1,72,8|0,0:0|0:0,0:0:0:0:
408,84,1256,1,0,0:0:0:0:
385,111,1341,1,0,0:0:0:0:
352,126,1426,1,0,1:2:0:0:
317,125,1511,1,0,0:0:0:0:
285,107,1595,2,0,L|272:36,1,72,8|0,0:0|0:0,0:0:0:0:
391,190,1934,5,0,1:2:0:0:
298,271,2104,1,0,0:0:0:0:
455,317,2273,1,8,0:0:0:0:
455,317,2358,1,0,0:0:0:0:
455,317,2443,2,0,L|447:273,1,36,0|0,0:0|0:0,0:0:0:0:
391,190,2612,1,0,0:0:0:0:
391,190,2697,1,0,0:0:0:0:
391,190,2782,2,0,L|384:225,1,36,0|0,1:2|0:0,0:0:0:0:
362,335,2951,1,8,0:0:0:0:
486,187,3121,1,0,0:0:0:0:
298,271,3290,38,0,L|227:258,1,72,0|0,1:2|0:0,0:0:0:0:
110,173,3629,2,0,L|180:160,1,72,8|0,0:0|0:0,0:0:0:0:
57,250,3968,1,0,0:0:0:0:
30,225,4053,1,0,0:0:0:0:
15,193,4138,1,0,1:2:0:0:
15,157,4223,1,0,0:0:0:0:
30,124,4307,2,0,L|17:54,1,72,8|0,0:0|0:0,0:0:0:0:
110,173,4646,5,0,1:2:0:0:
168,49,4816,1,0,0:0:0:0:
241,167,4985,1,8,0:0:0:0:
241,167,5070,1,0,0:0:0:0:
241,167,5155,2,0,L|193:158,1,36,0|0,0:0|0:0,0:0:0:0:
332,108,5324,1,8,0:0:0:0:
332,108,5409,1,0,0:0:0:0:
332,108,5494,2,0,L|379:99,1,36,0|0,1:2|0:0,0:0:0:0:
418,179,5663,1,8,0:0:0:0:
259,47,5833,1,0,0:0:0:0:
369,248,6002,38,0,P|407:265|444:261,1,72,0|0,1:2|0:0,0:0:0:0:
305,329,6341,2,0,P|273:313|237:313,1,72,8|0,0:0|0:0,0:0:0:0:
150,384,6680,1,0,0:0:0:0:
143,348,6765,1,0,0:0:0:0:
137,313,6850,1,0,1:2:0:0:
131,277,6934,1,0,0:0:0:0:
124,242,7019,2,0,L|206:227,1,72,8|0,0:0|0:0,0:0:0:0:
286,145,7358,5,0,1:2:0:0:
237,312,7528,1,0,0:0:0:0:
157,149,7697,1,8,0:0:0:0:
157,149,7782,1,0,0:0:0:0:
157,149,7867,2,0,L|200:156,1,36,0|0,0:0|0:0,0:0:0:0:
316,230,8036,1,0,0:0:0:0:
316,230,8121,1,0,0:0:0:0:
316,230,8206,2,0,L|272:237,1,36,0|0,1:2|0:0,0:0:0:0:
371,153,8375,1,8,0:0:0:0:
237,312,8545,1,0,0:0:0:0:
230,83,8714,37,0,1:2:0:0:
398,241,8884,1,0,0:0:0:0:
398,241,8968,1,0,0:0:0:0:
398,241,9053,1,8,0:0:0:0:
369,56,9223,5,0,0:0:0:0:
300,234,9392,1,0,0:0:0:0:
300,234,9477,1,0,0:0:0:0:
300,234,9562,2,0,L|256:241,1,36,0|0,1:2|0:0,0:0:0:0:
461,162,9731,1,8,0:0:0:0:
461,162,9816,1,0,0:0:0:0:
461,162,9901,2,0,L|505:169,1,36,0|0,0:0|0:0,0:0:0:0:
345,313,10070,37,0,1:2:0:0:
392,99,10240,1,0,1:2:0:0:
508,282,10409,1,8,1:2:0:0:
380,80,10579,1,0,1:2:0:0:
345,313,10748,1,0,1:2:0:0:
252,98,10917,5,0,1:2:0:0:
226,81,11002,1,0,0:0:0:0:
199,74,11087,1,8,1:2:0:0:
171,74,11172,1,0,0:0:0:0:
144,83,11256,1,0,1:2:0:0:
120,100,11341,1,0,0:0:0:0:
99,120,11426,38,0,L|115:230,1,80.9999975280763,0|0,1:2|0:0,0:0:0:0:
205,247,11765,2,0,L|192:166,1,80.9999975280763,8|0,0:0|0:0,0:0:0:0:
152,316,12104,2,0,P|197:335|238:329,1,80.9999975280763,0|0,1:2|1:2,0:0:0:0:
284,259,12358,1,0,0:0:0:0:
284,259,12443,2,0,L|203:246,1,80.9999975280763,8|0,0:0|0:0,0:0:0:0:
346,342,12782,2,0,L|426:329,1,80.9999975280763,0|0,1:2|0:0,0:0:0:0:
442,148,13121,5,8,0:0:0:0:
316,263,13290,1,0,0:0:0:0:
495,283,13460,37,8,1:2:0:0:
363,141,13629,1,0,1:2:0:0:
346,342,13799,5,8,0:0:0:0:
502,203,13968,1,0,0:0:0:0:
278,172,14138,38,0,L|194:157,1,80.9999975280763,0|0,1:2|0:0,0:0:0:0:
80,117,14477,2,0,L|94:196,1,80.9999975280763,8|0,0:0|0:0,0:0:0:0:
185,59,14816,2,0,P|150:22|115:13,1,80.9999975280763,0|0,1:2|1:2,0:0:0:0:
0,102,15070,1,0,0:0:0:0:
0,102,15155,2,0,L|79:116,1,80.9999975280763,8|0,0:0|0:0,0:0:0:0:
267,29,15494,5,8,1:2:0:0:
198,157,15663,1,0,0:0:0:0:
326,99,15833,37,8,0:0:0:0:
202,175,16002,1,0,0:0:0:0:
342,189,16172,5,8,1:2:0:0:
196,192,16341,1,0,1:2:0:0:
310,274,16511,37,8,0:0:0:0:
182,204,16680,1,2,0:0:0:0:
326,99,16850,5,10,1:2:0:0:
216,291,17019,1,0,0:0:0:0:
444,286,17189,1,10,0:0:0:0:
182,204,17358,1,0,0:0:0:0:
374,384,17528,1,10,1:2:0:0:
455,131,17697,1,0,1:2:0:0:
216,291,17867,1,10,0:0:0:0:
477,384,18036,1,0,0:0:0:0:
182,204,18206,37,10,1:2:0:0:
418,246,18375,1,0,0:0:0:0:
175,379,18545,1,10,0:0:0:0:
319,128,18714,1,0,0:0:0:0:
376,383,18884,1,10,1:2:0:0:
142,192,19053,1,0,1:2:0:0:
447,250,19223,1,10,0:0:0:0:
175,379,19392,1,0,0:0:0:0:
232,98,19562,5,14,3:2:0:0:
229,77,19646,1,0,3:2:0:0:
227,57,19731,2,0,L|221:12,1,40.4999987640381,0|0,3:2|3:2,0:0:0:0:
316,189,19901,37,8,3:2:0:0:
319,163,19985,1,0,3:2:0:0:
322,139,20070,2,0,L|326:86,1,40.4999987640381,0|0,3:2|3:2,0:0:0:0:
209,270,20240,5,8,3:2:0:0:
205,238,20324,1,0,3:2:0:0:
201,210,20409,2,0,L|195:146,1,40.4999987640381,0|0,3:2|3:2,0:0:0:0:
307,332,20579,37,10,3:0:0:0:
365,343,20663,1,2,3:0:0:0:
418,316,20748,1,2,3:0:0:0:
444,263,20833,1,2,3:0:0:0:
432,204,20917,1,10,3:0:0:0:
325,98,21087,6,0,L|322:139,1,40.4999987640381
354,255,21256,2,0,L|357:214,1,40.4999987640381
250,96,21426,2,0,L|246:136,1,40.4999987640381
278,252,21595,37,0,3:2:0:0:
278,252,21680,1,0,3:2:0:0:
278,252,21765,2,0,L|281:211,1,40.4999987640381,0|0,3:2|3:2,0:0:0:0:
295,24,21934,1,12,3:0:0:0:
106,195,22273,22,0,P|157:213|209:196,1,99.0000030212403,0|0,1:2|0:0,0:0:0:0:
295,24,22612,2,0,P|249:6|201:16,1,99.0000030212403,8|0,1:2|0:0,0:0:0:0:
374,213,22951,2,0,L|394:94,1,99.0000030212403,0|0,1:2|1:2,0:0:0:0:
396,81,23206,1,0,0:0:0:0:
396,81,23290,1,8,1:2:0:0:
280,211,23460,2,0,L|296:308,1,99.0000030212403,0|0,1:2|0:0,0:0:0:0:
134,243,23799,6,0,L|187:236,1,49.5000015106202,0|0,1:2|0:0,0:0:0:0:
65,313,23968,2,0,P|36:262|41:213,1,99.0000030212403,8|0,1:2|0:0,0:0:0:0:
0,116,24307,1,0,1:2:0:0:
36,109,24392,1,0,0:0:0:0:
73,103,24477,1,0,1:2:0:0:
109,96,24562,1,0,0:0:0:0:
145,90,24646,2,0,L|155:149,1,49.5000015106202,8|0,1:2|0:0,0:0:0:0:
280,211,24816,2,0,L|288:162,1,49.5000015106202,0|0,1:2|0:0,0:0:0:0:
355,29,24985,37,0,1:2:0:0:
320,15,25070,1,0,0:0:0:0:
283,14,25155,1,0,1:2:0:0:
248,26,25240,1,0,0:0:0:0:
219,49,25324,2,0,L|229:108,1,49.5000015106202,8|0,1:2|0:0,0:0:0:0:
378,192,25494,2,0,L|386:143,1,49.5000015106202,0|0,1:2|0:0,0:0:0:0:
278,298,25663,2,0,L|326:306,1,49.5000015106202,0|0,3:2|0:0,0:0:0:0:
167,232,25833,6,0,B|122:211|122:211|163:367,1,198.000006042481,0|0,1:2|1:2,0:0:0:0:
278,298,26341,2,0,L|230:290,1,49.5000015106202,0|0,1:2|0:0,0:0:0:0:
7,182,26511,2,0,L|55:174,1,49.5000015106202,0|0,1:2|0:0,0:0:0:0:
219,49,26680,2,0,P|237:95|215:156,1,99.0000030212403,8|0,1:2|0:0,0:0:0:0:
38,46,27019,37,0,3:2:0:0:
38,46,27104,1,0,3:2:0:0:
38,46,27189,2,0,L|46:94,1,49.5000015106202,0|0,3:2|0:0,0:0:0:0:
143,186,27358,1,8,1:2:0:0:
136,222,27443,1,0,0:0:0:0:
130,259,27528,1,0,1:2:0:0:
123,295,27613,1,0,0:0:0:0:
116,331,27697,6,0,L|9:312,1,99.0000030212403,0|0,1:2|0:0,0:0:0:0:
233,248,28036,2,0,L|215:345,1,99.0000030212403,8|0,1:2|0:0,0:0:0:0:
317,171,28375,2,0,L|335:268,1,99.0000030212403,0|0,1:2|1:2,0:0:0:0:
341,300,28629,1,0,0:0:0:0:
341,300,28714,1,8,1:2:0:0:
380,100,28884,2,0,P|320:73|279:82,1,99.0000030212403,0|0,1:2|0:0,0:0:0:0:
452,277,29223,38,0,L|461:225,1,49.5000015106202,0|0,1:2|0:0,0:0:0:0:
317,171,29392,2,0,L|335:268,1,99.0000030212403,8|0,1:2|0:0,0:0:0:0:
214,345,29731,1,0,1:2:0:0:
181,362,29816,1,0,0:0:0:0:
145,366,29901,1,0,1:2:0:0:
110,353,29985,1,0,0:0:0:0:
83,328,30070,2,0,L|101:231,1,99.0000030212403,8|0,1:2|0:0,0:0:0:0:
33,127,30409,5,0,1:2:0:0:
68,138,30494,1,0,0:0:0:0:
104,135,30579,1,0,1:2:0:0:
136,116,30663,1,0,0:0:0:0:
159,87,30748,2,0,L|149:31,1,49.5000015106202,8|0,1:2|0:0,0:0:0:0:
315,19,30917,38,0,B|412:-12|385:73|489:24,1,148.50000453186,0|0,1:2|0:0,0:0:0:0:
493,26,31256,1,0,1:2:0:0:
486,62,31341,1,0,0:0:0:0:
480,99,31426,1,8,1:2:0:0:
473,135,31511,1,0,0:0:0:0:
467,172,31595,1,0,1:2:0:0:
353,98,31765,5,0,3:2:0:0:
353,98,31850,1,0,3:2:0:0:
353,98,31934,2,0,L|298:109,1,49.5000015106202,0|0,3:2|1:2,0:0:0:0:
412,267,32104,37,8,1:2:0:0:
412,267,32189,1,0,0:0:0:0:
412,267,32273,2,0,L|467:278,1,49.5000015106202,0|0,3:2|1:2,0:0:0:0:
222,120,32443,6,0,L|231:168,1,49.5000015106202,4|0,3:2|3:2,0:0:0:0:
329,250,32612,2,0,L|338:201,1,49.5000015106202,0|0,3:2|3:2,0:0:0:0:
140,187,32782,1,10,3:0:0:0:
163,196,32867,1,2,3:0:0:0:
189,196,32951,1,2,3:0:0:0:
213,187,33036,1,2,3:0:0:0:
231,168,33121,38,0,L|212:68,1,99.0000030212403,2|0,1:3|0:0,0:0:0:0:
70,117,33460,2,0,P|40:167|47:218,1,99.0000030212403,8|0,1:2|0:0,0:0:0:0:
138,326,33799,2,0,L|157:228,1,99.0000030212403,0|0,1:2|1:2,0:0:0:0:
163,196,34053,1,0,0:0:0:0:
163,196,34138,1,8,1:2:0:0:
273,323,34307,2,0,L|370:303,1,99.0000030212403,0|0,1:2|0:0,0:0:0:0:
450,178,34646,6,0,L|438:241,1,49.5000015106202,0|0,1:2|0:3,0:3:0:0:
369,121,34816,2,0,P|414:82|460:81,1,99.0000030212403,8|0,1:2|0:0,0:0:0:0:
355,220,35155,1,0,1:2:0:0:
318,213,35240,1,0,0:0:0:0:
281,207,35324,1,0,1:2:0:0:
245,200,35409,1,0,0:0:0:0:
208,194,35494,2,0,L|196:130,1,49.5000015106202,8|0,1:2|0:0,0:0:0:0:
265,51,35663,2,0,L|273:99,1,49.5000015106202,0|0,1:2|0:0,0:0:0:0:
133,239,35833,37,0,1:2:0:0:
96,236,35917,1,0,0:0:0:0:
64,218,36002,1,0,1:2:0:0:
44,187,36087,1,0,0:0:0:0:
39,151,36172,2,0,L|87:142,1,49.5000015106202,8|0,1:2|0:0,0:0:0:0:
188,39,36341,2,0,L|139:30,1,49.5000015106202,0|0,1:2|0:0,0:0:0:0:
208,194,36511,2,0,L|256:185,1,49.5000015106202,0|0,3:2|0:0,0:0:0:0:
375,84,36680,6,0,B|325:61|325:61|366:213,1,198.000006042481,0|0,1:2|1:2,0:0:0:0:
492,132,37189,1,0,3:2:0:0:
492,132,37273,1,0,3:2:0:0:
492,132,37358,2,0,L|432:147,1,49.5000015106202,0|0,3:2|1:2,0:0:0:0:
391,292,37528,2,0,L|237:264,1,148.50000453186,8|0,1:2|3:2,0:0:0:0:
197,198,37867,37,2,3:0:0:0:
173,214,37951,1,2,3:0:0:0:
158,240,38036,1,2,3:0:0:0:
157,269,38121,1,2,3:0:0:0:
167,297,38206,2,0,L|119:309,1,49.5000015106202,2|0,3:0|3:0,0:0:0:0:
21,201,38375,2,0,L|81:216,1,49.5000015106202,2|0,3:0|3:0,0:0:0:0:
197,198,38545,5,10,3:0:0:0:
33,329,38714,1,0,0:0:0:0:
293,274,38884,37,8,1:2:0:0:
21,201,39053,1,0,0:0:0:0:
356,143,39223,5,8,1:2:0:0:
118,309,39392,1,0,1:2:0:0:
391,363,39562,37,8,1:2:0:0:
141,125,39731,1,0,0:0:0:0:
460,182,39901,5,8,1:2:0:0:
190,384,40070,1,0,0:0:0:0:
275,90,40240,37,8,1:2:0:0:
391,363,40409,1,0,0:0:0:0:
242,187,40579,5,8,3:2:0:0:
242,187,40663,1,0,3:2:0:0:
242,187,40748,2,0,L|297:177,1,49.5000015106202,0|0,3:2|3:2,0:0:0:0:
424,52,40917,37,8,3:2:0:0:
342,279,41087,1,0,0:0:0:0:
512,144,41256,5,8,3:2:0:0:
487,139,41341,1,0,3:2:0:0:
463,135,41426,2,0,L|408:125,1,49.5000015106202,0|0,3:2|3:2,0:0:0:0:
342,279,41595,37,8,3:2:0:0:
370,273,41680,1,0,3:2:0:0:
400,268,41765,2,0,L|466:256,1,49.5000015106202,0|0,3:2|3:2,0:0:0:0:
275,90,41934,5,8,3:2:0:0:
241,82,42019,1,0,3:2:0:0:
205,76,42104,2,0,L|125:61,1,49.5000015106202,0|0,3:2|3:2,0:0:0:0:
67,219,42273,37,10,3:0:0:0:
110,210,42358,1,2,3:0:0:0:
154,203,42443,1,2,3:0:0:0:
197,195,42528,1,2,3:0:0:0:
242,187,42612,1,14,3:0:0:0:
242,187,42951,5,8,0:0:0:0:
125,294,43121,1,0,0:0:0:0:
216,81,43290,1,10,3:0:0:0:
265,83,43375,1,10,3:0:0:0:
308,106,43460,1,10,3:0:0:0:
338,145,43545,1,10,3:0:0:0:
349,193,43629,1,10,3:0:0:0:
242,187,43799,5,2,0:0:0:0:
242,187,43968,2,0,L|155:202,1,72,6|0,0:0|0:0,0:0:0:0:
125,294,44307,1,10,0:0:0:0:
125,294,44477,2,0,L|54:281,1,72,2|0,0:0|0:0,0:0:0:0:
67,134,44816,2,0,P|75:172|82:221,1,72,2|8,0:0|0:0,0:0:0:0:
31,53,45155,6,0,B|86:45|86:45|126:69|126:69|182:59,1,144,2|0,0:0|0:0,0:0:0:0:
266,29,45663,2,0,P|258:66|251:116,1,72,10|0,0:0|0:0,0:0:0:0:
355,198,46002,2,0,P|353:149|339:119,1,72,2|0,0:0|0:0,0:0:0:0:
307,271,46341,2,0,P|347:286|404:272,1,72,10|0,0:0|0:0,0:0:0:0:
266,188,46680,38,0,P|231:215|215:271,1,72,2|0,0:0|0:0,0:0:0:0:
160,340,47019,1,10,0:0:0:0:
160,340,47189,2,0,P|197:326|249:339,1,72,2|0,0:0|0:0,0:0:0:0:
307,271,47528,2,0,P|344:285|396:272,1,72,2|8,0:0|0:0,0:0:0:0:
496,245,47867,6,0,B|472:254|454:282|454:282|490:396,1,144,2|0,0:0|0:0,0:0:0:0:
375,281,48375,2,0,L|395:203,1,72,8|0,0:0|0:0,0:0:0:0:
448,91,48714,2,0,L|466:160,1,72
404,16,49053,1,8,0:0:0:0:
348,137,49223,37,2,0:0:0:0:
348,137,49392,2,0,L|265:122,1,72,2|0,0:0|0:0,0:0:0:0:
210,208,49731,1,10,0:0:0:0:
210,208,49901,2,0,L|280:220,1,72,2|0,0:0|0:0,0:0:0:0:
351,297,50240,2,0,L|280:309,1,72,2|8,0:0|0:0,0:0:0:0:
163,384,50579,6,0,B|149:366|122:351|122:351|154:249,1,144,2|0,0:0|0:0,0:0:0:0:
119,182,51087,2,0,P|86:201|66:235,1,72,10|0,0:0|0:0,0:0:0:0:
176,121,51426,2,0,P|142:102|103:101,1,72,2|0,0:0|0:0,0:0:0:0:
257,139,51765,2,0,P|256:100|237:66,1,72,10|0,0:0|0:0,0:0:0:0:
211,213,52104,38,0,L|281:225,1,72,2|0,0:0|0:0,0:0:0:0:
411,140,52443,1,10,0:0:0:0:
411,140,52612,2,0,P|377:148|340:152,1,72,2|2,0:0|0:0,0:0:0:0:
493,211,52951,2,0,P|498:174|505:140,1,72,2|8,0:0|0:0,0:0:0:0:
398,243,53290,5,4,1:2:0:0:
361,27,53629,37,4,1:2:0:0:
281,225,53968,5,4,1:2:0:0:
231,8,54307,37,4,1:2:0:0:
172,142,54477,2,0,L|258:126,1,72
316,121,54646,2,0,L|229:105,1,72,2|0,0:0|0:0,0:0:0:0:
70,79,54816,1,6,0:0:0:0:
70,79,55155,5,14,0:0:0:0:
70,79,55324,2,0,P|63:124|57:175,1,80.9999975280763,2|8,0:0|0:0,0:0:0:0:
183,222,55663,2,0,P|177:181|171:141,1,80.9999975280763,2|8,0:0|0:0,0:0:0:0:
55,281,56002,2,0,B|144:255|121:339|225:303,1,161.999995056153,2|0,0:0|0:0,0:0:0:0:
310,255,56511,38,0,L|297:351,1,80.9999975280763,10|0,0:0|0:0,0:0:0:0:
408,207,56850,2,0,L|418:287,1,80.9999975280763,10|0,0:0|0:0,0:0:0:0:
292,91,57189,2,0,L|279:187,1,80.9999975280763,10|0,0:0|0:0,0:0:0:0:
345,25,57528,6,0,P|313:9|241:29,1,80.9999975280763,10|0,0:0|0:0,0:0:0:0:
379,142,57867,1,10,0:0:0:0:
379,142,58036,2,0,P|418:145|455:128,1,80.9999975280763,2|8,0:0|0:0,0:0:0:0:
292,91,58375,2,0,L|279:187,1,80.9999975280763,2|8,0:0|0:0,0:0:0:0:
179,83,58714,37,2,0:0:0:0:
179,83,58884,2,0,L|168:2,1,80.9999975280763,8|0,0:0|0:0,0:0:0:0:
114,171,59223,2,0,L|208:187,1,80.9999975280763,8|0,0:0|0:0,0:0:0:0:
79,70,59562,2,0,L|-15:86,1,80.9999975280763,8|0,0:0|0:0,0:0:0:0:
193,185,59901,5,10,0:0:0:0:
36,155,60070,1,0,0:0:0:0:
168,273,60240,2,0,P|207:266|247:258,1,80.9999975280763,14|0,0:0|0:0,0:0:0:0:
373,166,60579,37,8,0:0:0:0:
373,166,60748,2,0,B|357:191|332:211|332:211|364:316,1,161.999995056153,2|0,0:0|0:0,0:0:0:0:
461,163,61256,2,0,P|450:119|405:85,1,80.9999975280763,10|0,0:0|0:0,0:0:0:0:
422,243,61595,6,0,P|464:254|515:233,1,80.9999975280763,10|0,0:0|0:0,0:0:0:0:
373,166,61934,1,10,0:0:0:0:
373,166,62104,2,0,P|329:153|278:174,1,80.9999975280763,2|8,0:0|0:0,0:0:0:0:
221,321,62443,37,2,0:0:0:0:
334,239,62612,1,8,0:0:0:0:
187,343,62782,1,2,0:0:0:0:
216,153,62951,5,12,0:0:0:0:
334,316,63121,1,0,0:0:0:0:
158,245,63290,2,0,L|75:215,1,80.9999975280763,8|0,0:0|0:0,0:0:0:0:
244,274,63629,37,8,1:2:0:0:
66,316,63799,1,0,0:0:0:0:
129,120,63968,1,8,1:2:0:0:
187,343,64138,1,0,0:0:0:0:
1,181,64307,1,12,1:2:0:0:
1,181,64646,5,8,1:2:0:0:
153,234,64816,1,0,0:0:0:0:
83,90,64985,1,2,3:0:0:0:
103,55,65070,1,2,3:0:0:0:
135,30,65155,1,2,3:0:0:0:
173,20,65240,1,2,3:0:0:0:
213,25,65324,1,6,3:0:0:0:
213,25,65663,6,0,L|233:139,1,108,2|0,3:0|0:0,0:0:0:0:
238,162,66002,6,4,P|355:157|345:57,1,216,12|4,3:2|0:0,0:0:0:0:
350,56,66341,38,0,B|315:103|315:103|324:163|324:163|365:180|365:180|382:267,1,229.500004377365,0|0,1:2|0:0,0:0:0:0:
391,324,66680,5,14,3:2:0:0:
391,324,67019,38,0,B|280:278|315:399|185:331,1,202.500007724762,2|0,3:0|0:0,0:0:0:0:
180,360,67358,6,0,P|202:283|95:294,1,216,8|0,3:2|0:0,0:0:0:0:
92,312,67697,37,2,1:2:0:0:
254,187,67867,1,0,3:2:0:0:
72,327,68036,1,10,1:2:0:0:
153,114,68206,1,0,3:2:0:0:
249,323,68375,6,0,L|338:308,1,80.9999975280763,2|0,3:0|0:0,0:0:0:0:
365,329,68714,38,0,P|348:219|451:184,1,229.500004377365,12|0,3:2|0:0,0:0:0:0:
463,189,69053,5,0,1:2:0:0:
249,323,69223,1,0,3:2:0:0:
426,269,69392,1,14,1:2:0:0:
231,113,69562,1,0,3:2:0:0:
365,329,69731,37,2,3:0:0:0:
381,64,69901,2,0,L|378:126,1,45,0|0,3:2|3:2,0:0:0:0:
364,350,70070,1,0,1:2:0:0:
231,113,70240,1,0,3:2:0:0:
426,269,70409,1,4,1:2:0:0:
254,187,70579,6,0,L|224:192,3,22.5,0|0|0|0,3:2|3:2|3:2|3:2,0:0:0:0:
210,214,70748,2,0,L|154:205,3,45,2|0|0|0,3:2|3:2|3:2|3:2,0:0:0:0:
18,168,71087,6,0,L|34:262,1,72,6|0,3:2|0:0,0:0:0:0:
148,313,71426,2,0,L|160:242,1,72,10|0,0:0|0:0,0:0:0:0:
91,101,71765,6,0,L|103:171,1,72,2|0,0:0|0:0,0:0:0:0:
240,287,72104,2,0,L|256:192,1,72,10|0,0:0|0:0,0:0:0:0:
171,59,72443,37,2,1:2:0:0:
328,139,72612,1,0,0:0:0:0:
185,173,72782,5,10,0:0:0:0:
374,68,72951,1,2,0:0:0:0:
171,59,73121,37,0,1:2:0:0:
413,144,73290,1,0,1:2:0:0:
250,270,73460,5,10,0:0:0:0:
289,63,73629,1,0,0:0:0:0:
410,265,73799,37,10,1:2:0:0:
185,173,73968,1,0,0:0:0:0:
413,143,74138,5,10,0:0:0:0:
171,251,74307,1,0,0:0:0:0:
476,327,74477,37,10,1:2:0:0:
326,140,74646,1,0,1:2:0:0:
410,383,74816,5,10,0:0:0:0:
500,145,74985,1,0,0:0:0:0:
250,270,75155,37,10,3:2:0:0:
232,267,75240,1,0,3:2:0:0:
214,265,75324,1,2,3:2:0:0:
196,262,75409,1,0,3:2:0:0:
178,260,75494,1,10,3:2:0:0:
160,257,75579,1,0,3:2:0:0:
143,255,75663,1,2,3:2:0:0:
125,252,75748,1,0,3:2:0:0:
107,250,75833,6,0,L|43:238,1,36,8|0,3:2|3:2,0:0:0:0:
6,361,76002,2,0,L|69:349,1,36,0|0,3:2|3:2,0:0:0:0:
127,173,76172,37,10,3:2:0:0:
127,173,76256,1,0,3:2:0:0:
127,173,76341,2,0,L|63:161,1,36,0|0,3:2|3:2,0:0:0:0:
226,354,76511,5,10,3:2:0:0:
249,349,76595,1,0,3:2:0:0:
272,347,76680,1,0,3:2:0:0:
295,343,76765,1,0,3:2:0:0:
319,340,76850,1,8,3:2:0:0:
342,336,76934,1,0,3:2:0:0:
364,334,77019,1,0,3:2:0:0:
388,329,77104,1,0,3:2:0:0:
411,327,77189,37,10,3:0:0:0:
421,285,77273,1,2,3:0:0:0:
414,243,77358,1,2,3:0:0:0:
390,206,77443,1,2,3:0:0:0:
354,184,77528,1,10,3:0:0:0:
312,176,77612,1,2,3:0:0:0:
270,188,77697,1,2,3:0:0:0:
238,215,77782,1,2,3:0:0:0:
218,253,77867,5,14,3:0:0:0:
420,124,78036,1,0,3:2:0:0:
420,124,78121,1,0,3:2:0:0:
420,124,78206,1,0,3:2:0:0:
321,272,78375,1,0,3:2:0:0:
321,272,78460,1,0,3:2:0:0:
321,272,78545,1,0,3:2:0:0:
269,107,78714,1,0,3:2:0:0:
411,327,78884,1,12,3:2:0:0:
218,253,79053,5,2,0:0:0:0:
485,185,79223,2,0,L|473:251,3,53.9999983520508,2|2|2|2,0:0|0:0|0:0|0:0,0:0:0:0:
411,327,79901,2,0,L|401:273,3,53.9999983520508,2|2|2|2,0:0|0:0|0:0|0:0,0:0:0:0:
338,144,80579,5,2,0:0:0:0:
407,190,80748,1,2,0:0:0:0:
332,227,80917,1,2,0:0:0:0:
413,107,81087,1,2,0:0:0:0:
159,38,81765,37,2,0:0:0:0:
159,38,81934,1,2,0:0:0:0:
95,153,82273,5,2,0:0:0:0:
172,191,82443,1,2,0:0:0:0:
101,238,82612,2,0,L|47:228,2,53.9999983520508,2|2|2,0:0|0:0|0:0,0:0:0:0:
178,276,83121,1,2,0:0:0:0:
178,276,83460,37,2,0:0:0:0:
172,191,83629,1,2,0:0:0:0:
108,324,83799,1,2,0:0:0:0:
316,133,84477,5,2,0:0:0:0:
316,133,84646,2,0,L|295:251,1,107.999996704102,2|2,0:0|0:0,0:0:0:0:
413,122,85324,2,0,P|394:77|331:42,1,107.999996704102,2|2,0:0|0:0,0:0:0:0:
381,205,86002,2,0,P|429:211|491:173,1,107.999996704102,2|2,0:0|0:0,0:0:0:0:
316,133,86680,37,2,0:0:0:0:
452,293,87019,1,2,0:0:0:0:
216,209,87358,1,2,0:0:0:0:
413,122,87867,5,2,0:0:0:0:
413,122,88036,1,2,0:0:0:0:
281,319,88545,37,2,0:0:0:0:
281,319,88714,2,0,B|165:275|199:393|60:328,1,215.999993408203,2|0,0:0|0:0,0:0:0:0:
90,129,89901,5,2,0:0:0:0:
90,129,90070,1,2,0:0:0:0:
128,259,90409,1,2,0:0:0:0:
90,129,90748,38,0,L|160:116,3,53.9999983520508,2|2|2|2,0:0|0:0|0:0|0:0,0:0:0:0:
197,47,91426,2,0,L|250:56,2,53.9999983520508,2|2|2,0:0|0:0|0:0,0:0:0:0:
103,34,91934,1,2,0:0:0:0:
359,73,92612,5,2,0:0:0:0:
301,151,92782,2,0,L|313:221,3,53.9999983520508,2|2|2|2,0:0|0:0|0:0|0:0,0:0:0:0:
330,307,93629,1,2,0:0:0:0:
301,151,93968,37,2,0:0:0:0:
430,256,94307,2,0,L|377:247,2,53.9999983520508,2|2|2,0:0|0:0|0:0,0:0:0:0:
512,268,94816,1,2,0:0:0:0:
255,263,95324,5,2,0:0:0:0:
255,263,95494,1,2,0:0:0:0:
168,349,95833,1,2,0:0:0:0:
256,83,96172,1,2,0:0:0:0:
344,348,96511,1,2,0:0:0:0:
256,76,96850,37,2,0:0:0:0:
164,356,97189,1,2,0:0:0:0:
400,188,97528,1,2,0:0:0:0:
105,187,97867,1,2,0:0:0:0:
348,356,98206,1,2,0:0:0:0:
256,192,98290,12,0,100579,0:0:0:0:
152,89,100917,21,6,1:2:0:0:
289,170,101087,1,2,0:0:0:0:
129,224,101256,1,10,0:0:0:0:
251,88,101426,2,0,P|333:89|380:146,1,144,2|2,0:0|1:2,0:0:0:0:
152,89,101934,1,10,0:0:0:0:
289,170,102104,6,0,B|274:239|274:239|277:246|277:246|259:323,1,144,2|2,0:0|0:0,0:0:0:0:
355,300,102612,1,10,0:0:0:0:
177,314,102782,2,0,B|141:364|141:364|42:343,1,144,2|2,0:0|1:2,0:0:0:0:
141,237,103290,1,10,0:0:0:0:
226,384,103460,1,2,0:0:0:0:
61,271,103629,37,6,1:2:0:0:
263,310,103799,1,2,0:0:0:0:
35,266,103968,1,10,0:0:0:0:
241,228,104138,6,0,B|298:223|298:223|334:243|334:243|390:237,1,144,2|2,0:0|1:2,0:0:0:0:
263,310,104646,1,10,0:0:0:0:
358,156,104816,2,0,P|323:107|259:144,1,144,2|2,0:0|0:0,0:0:0:0:
379,238,105324,1,10,0:0:0:0:
442,67,105494,1,2,0:0:0:0:
260,140,105663,37,2,0:0:0:0:
446,182,105833,1,2,1:2:0:0:
366,25,106002,1,10,0:0:0:0:
460,207,106172,1,2,0:0:0:0:
260,140,106341,5,6,1:2:0:0:
442,67,106511,1,2,0:0:0:0:
379,238,106680,1,10,0:0:0:0:
296,49,106850,2,0,P|221:47|165:112,1,144,2|2,0:0|1:2,0:0:0:0:
260,140,107358,1,10,0:0:0:0:
84,54,107528,38,0,P|82:128|147:184,1,144,2|2,0:0|0:0,0:0:0:0:
172,91,108036,1,10,0:0:0:0:
91,265,108206,2,0,P|165:266|221:201,1,144,2|2,0:0|1:2,0:0:0:0:
127,176,108714,1,10,0:0:0:0:
303,260,108884,1,2,0:0:0:0:
172,91,109053,5,6,1:2:0:0:
276,343,109223,1,2,0:0:0:0:
127,176,109392,1,10,0:0:0:0:
393,156,109562,2,0,B|379:213|379:213|390:250|390:250|376:311,1,144,2|2,0:0|1:2,0:0:0:0:
473,203,110070,1,10,0:0:0:0:
329,91,110240,38,0,P|389:63|468:103,1,144,2|2,0:0|0:0,0:0:0:0:
296,257,110748,1,10,0:0:0:0:
266,29,110917,1,2,0:0:0:0:
393,156,111087,5,2,0:0:0:0:
158,224,111256,1,2,1:2:0:0:
329,91,111426,1,10,0:0:0:0:
87,55,111595,1,2,0:0:0:0:
309,181,111765,38,0,L|231:202,1,72,12|0,1:2|0:0,0:0:0:0:
106,283,112104,2,0,P|143:304|181:303,1,72,8|0,0:0|0:0,0:0:0:0:
80,204,112443,2,0,P|43:224|24:259,1,72,8|0,0:0|1:2,0:0:0:0:
158,224,112782,2,0,P|157:181|137:147,1,72,8|0,0:0|0:0,0:0:0:0:
100,318,113121,6,0,L|186:302,1,72,8|0,1:2|0:0,0:0:0:0:
305,221,113460,2,0,P|272:202|218:205,1,72,8|0,0:0|0:0,0:0:0:0:
329,351,113799,2,0,L|415:335,1,72,8|0,0:0|1:2,0:0:0:0:
446,181,114138,2,0,L|461:267,1,72,8|0,0:0|0:0,0:0:0:0:
363,145,114477,37,8,1:2:0:0:
329,351,114646,1,0,0:0:0:0:
446,181,114816,1,8,0:0:0:0:
260,285,114985,2,0,P|221:288|181:271,1,72,0|8,0:0|1:2,0:0:0:0:
86,98,115324,5,0,1:2:0:0:
235,202,115494,1,8,0:0:0:0:
72,306,115663,2,0,L|84:235,1,72,0|8,0:0|1:2,0:0:0:0:
187,80,116002,37,0,0:0:0:0:
29,170,116172,1,8,0:0:0:0:
190,277,116341,1,0,0:0:0:0:
86,98,116511,1,8,1:2:0:0:
199,297,116680,1,0,1:2:0:0:
275,113,116850,1,8,0:0:0:0:
208,317,117019,1,2,0:0:0:0:
187,80,117189,5,10,0:0:0:0:
72,306,117358,1,0,0:0:0:0:
315,203,117528,1,10,0:0:0:0:
86,98,117697,1,0,0:0:0:0:
217,337,117867,1,10,1:2:0:0:
286,83,118036,1,0,1:2:0:0:
98,294,118206,1,10,0:0:0:0:
391,272,118375,1,0,0:0:0:0:
149,151,118545,37,10,1:2:0:0:
343,370,118714,1,0,0:0:0:0:
74,275,118884,1,10,0:0:0:0:
350,161,119053,1,0,0:0:0:0:
172,384,119223,1,10,1:2:0:0:
253,99,119392,1,0,1:2:0:0:
358,378,119562,1,10,0:0:0:0:
74,275,119731,1,0,0:0:0:0:
253,99,119901,5,14,3:2:0:0:
253,99,119985,1,0,3:2:0:0:
253,99,120070,2,0,L|260:142,1,36,0|0,3:2|3:2,0:0:0:0:
180,354,120240,37,8,3:2:0:0:
180,354,120324,1,0,3:2:0:0:
180,354,120409,2,0,L|191:287,1,49.5000015106202,0|0,3:2|3:2,0:0:0:0:
379,106,120579,5,8,3:2:0:0:
379,106,120663,1,0,3:2:0:0:
379,106,120748,2,0,L|390:172,1,62.9999980773926,0|0,3:2|3:2,0:0:0:0:
482,304,120917,37,10,3:0:0:0:
438,295,121002,1,2,3:0:0:0:
396,288,121087,1,2,3:0:0:0:
353,281,121172,1,2,3:0:0:0:
311,272,121256,1,10,3:0:0:0:
311,272,121595,5,8,3:2:0:0:
482,304,121765,1,0,3:2:0:0:
379,382,121934,1,10,3:0:0:0:
388,334,122019,1,2,3:0:0:0:
396,288,122104,1,2,3:0:0:0:
403,242,122189,1,2,3:0:0:0:
413,196,122273,1,14,3:0:0:0:
413,196,122612,5,12,1:2:0:0:
379,382,122782,1,0,0:0:0:0:
420,165,122951,1,8,1:2:0:0:
243,295,123121,2,0,L|144:280,1,99.0000030212403,0|8,0:0|1:2,0:0:0:0:
3,181,123460,5,0,0:0:0:0:
98,370,123629,1,8,1:2:0:0:
215,185,123799,2,0,L|117:199,1,99.0000030212403,0|8,0:0|1:2,0:0:0:0:
342,165,124138,37,0,0:0:0:0:
156,76,124307,1,8,1:2:0:0:
323,257,124477,2,0,P|382:254|419:217,1,99.0000030212403,0|8,0:0|1:2,0:0:0:0:
280,96,124816,5,0,0:0:0:0:
243,295,124985,1,8,1:2:0:0:
284,75,125155,1,0,1:2:0:0:
393,331,125324,37,8,1:2:0:0:
145,280,125494,1,0,0:0:0:0:
342,165,125663,1,8,1:2:0:0:
186,371,125833,2,0,P|137:383|94:366,1,99.0000030212403,0|8,0:0|1:2,0:0:0:0:
215,185,126172,5,0,0:0:0:0:
289,384,126341,1,8,1:2:0:0:
209,162,126511,2,0,L|311:180,1,99.0000030212403,0|8,0:0|1:2,0:0:0:0:
445,279,126850,37,0,0:0:0:0:
360,100,127019,1,8,1:2:0:0:
243,295,127189,1,0,0:0:0:0:
472,202,127358,5,8,1:2:0:0:
280,96,127528,1,0,0:0:0:0:
443,280,127697,1,10,3:0:0:0:
322,29,127867,1,2,3:0:0:0:
243,295,128036,37,12,1:2:0:0:
360,100,128206,1,0,0:0:0:0:
131,152,128375,1,8,1:2:0:0:
332,279,128545,2,0,L|313:176,1,99.0000030212403,0|8,0:0|1:2,0:0:0:0:
163,41,128884,5,0,0:0:0:0:
360,100,129053,1,8,1:2:0:0:
191,234,129223,2,0,L|210:131,1,99.0000030212403,0|8,0:0|1:2,0:0:0:0:
332,279,129562,37,0,0:0:0:0:
120,323,129731,1,8,1:2:0:0:
314,181,129901,2,0,P|369:183|416:223,1,99.0000030212403,0|8,0:0|1:2,0:0:0:0:
247,319,130240,5,0,0:0:0:0:
208,136,130409,1,8,1:2:0:0:
251,337,130579,1,0,1:2:0:0:
279,101,130748,37,8,1:2:0:0:
96,232,130917,1,0,0:0:0:0:
332,279,131087,1,8,1:2:0:0:
130,145,131256,2,0,P|77:140|25:173,1,99.0000030212403,0|8,0:0|1:2,0:0:0:0:
191,234,131595,5,0,0:0:0:0:
83,28,131765,1,8,1:2:0:0:
4,247,131934,2,0,P|57:252|109:219,1,99.0000030212403,0|0,1:2|1:2,0:0:0:0:
245,41,132273,37,2,3:0:0:0:
37,159,132443,1,10,3:0:0:0:
270,26,132612,1,0,0:0:0:0:
96,232,132782,1,10,3:0:0:0:
163,41,132951,1,2,3:0:0:0:
163,41,133036,1,2,3:0:0:0:
163,41,133121,1,10,3:0:0:0:
248,269,133290,1,2,3:0:0:0:
37,159,133460,5,12,1:2:0:0:
279,113,133629,1,0,0:0:0:0:
4,247,133799,1,8,1:2:0:0:
265,366,133968,2,0,L|245:255,1,99.0000030212403,0|8,0:0|1:2,0:0:0:0:
279,113,134307,37,0,0:0:0:0:
97,233,134477,1,8,1:2:0:0:
342,283,134646,2,0,L|452:302,1,99.0000030212403,0|8,0:0|1:2,0:0:0:0:
232,182,134985,5,0,0:0:0:0:
367,384,135155,1,8,1:2:0:0:
414,140,135324,2,0,P|368:157|341:201,1,99.0000030212403,0|8,0:0|1:2,0:0:0:0:
439,299,135663,37,0,0:0:0:0:
497,94,135833,1,8,1:2:0:0:
342,283,136002,1,0,1:2:0:0:
306,44,136172,5,8,1:2:0:0:
421,221,136341,1,0,0:0:0:0:
198,108,136511,1,8,1:2:0:0:
432,42,136680,2,0,L|412:145,1,99.0000030212403,0|8,0:0|1:2,0:0:0:0:
342,283,137019,37,0,0:0:0:0:
306,44,137189,1,8,1:2:0:0:
217,273,137358,2,0,P|159:277|123:252,1,99.0000030212403,0|8,0:0|1:2,0:0:0:0:
341,197,137697,5,0,0:0:0:0:
250,384,137867,1,8,1:2:0:0:
189,187,138036,1,0,0:0:0:0:
342,283,138206,37,8,1:2:0:0:
134,359,138375,1,0,0:0:0:0:
362,278,138545,1,10,3:0:0:0:
126,255,138714,1,2,3:0:0:0:
367,384,138884,5,12,1:2:0:0:
189,187,139053,1,0,0:0:0:0:
250,384,139223,1,8,1:2:0:0:
349,192,139392,2,0,P|299:199|252:246,1,99.0000030212403,0|8,0:0|1:2,0:0:0:0:
439,299,139731,37,0,0:0:0:0:
469,111,139901,1,8,1:2:0:0:
434,323,140070,1,0,0:0:0:0:
336,112,140240,5,8,1:2:0:0:
512,272,140409,1,0,0:0:0:0:
262,228,140579,1,8,1:2:0:0:
469,111,140748,2,0,L|449:214,1,99.0000030212403,0|8,0:0|1:2,0:0:0:0:
277,315,141087,37,0,0:0:0:0:
512,272,141256,1,8,1:2:0:0:
336,112,141426,1,0,1:2:0:0:
434,323,141595,5,12,1:2:0:0:
395,55,141765,1,0,0:0:0:0:
350,300,141934,37,8,1:2:0:0:
311,32,142104,1,0,0:0:0:0:
266,277,142273,5,8,1:2:0:0:
227,9,142443,1,0,0:0:0:0:
132,263,142612,37,8,1:2:0:0:
311,32,142782,1,0,0:0:0:0:
45,107,142951,6,0,L|62:172,1,49.5000015106202,2|0,3:0|0:0,0:0:0:0:
205,207,143121,1,0,0:0:0:0:
205,207,143206,1,0,0:0:0:0:
205,207,143290,2,0,L|217:159,1,49.5000015106202,8|0,3:2|0:0,0:0:0:0:
31,296,143460,1,0,0:0:0:0:
31,296,143545,1,0,0:0:0:0:
31,296,143629,37,10,3:0:0:0:
63,344,143714,1,2,3:0:0:0:
117,366,143799,1,2,3:0:0:0:
175,354,143884,1,2,3:0:0:0:
215,312,143968,1,14,3:0:0:0:
127,266,144138,1,2,0:0:0:0:
303,369,144307,5,14,1:2:0:0:
207,163,144477,1,2,0:0:0:0:
117,366,144646,1,10,1:2:0:0:
342,297,144816,1,2,0:0:0:0:
127,266,144985,37,10,1:2:0:0:
384,366,145155,1,2,0:0:0:0:
321,92,145324,1,10,1:2:0:0:
224,293,145494,1,2,0:0:0:0:
435,220,145663,5,10,1:2:0:0:
197,302,145833,1,2,0:0:0:0:
375,160,146002,1,10,1:2:0:0:
234,374,146172,2,0,P|175:383|132:353,1,107.999996704102,2|8,0:0|1:2,0:0:0:0:
289,172,146511,1,0,0:0:0:0:
386,369,146680,2,0,P|445:378|488:348,1,107.999996704102,8|2,1:2|1:2,0:0:0:0:
406,189,147019,38,0,L|423:303,1,107.999996704102,14|0,1:2|0:0,0:0:0:0:
393,88,147358,1,10,1:2:0:0:
342,297,147528,1,2,0:0:0:0:
490,142,147697,1,10,1:2:0:0:
308,174,147867,1,2,0:0:0:0:
499,273,148036,1,10,1:2:0:0:
309,85,148206,6,0,P|256:98|219:152,1,107.999996704102,2|8,0:0|1:2,0:0:0:0:
421,295,148545,1,2,0:0:0:0:
309,85,148714,1,10,1:2:0:0:
235,315,148884,1,2,3:0:0:0:
235,315,148968,1,2,3:0:0:0:
235,315,149053,2,0,L|353:294,1,107.999996704102,10|0,3:0|1:2,0:0:0:0:
422,86,149392,1,10,3:0:0:0:
341,296,149562,1,2,3:0:0:0:
230,93,149731,38,0,L|350:113,1,107.999996704102,14|0,1:2|0:0,0:0:0:0:
134,138,150070,2,0,P|123:63|168:8,1,107.999996704102,10|0,1:2|0:0,0:0:0:0:
222,194,150409,2,0,P|162:238|92:228,1,107.999996704102,10|0,1:2|0:0,0:0:0:0:
230,93,150748,2,0,P|299:121|325:187,1,107.999996704102,10|0,1:2|0:0,0:0:0:0:
204,300,151087,6,0,L|224:178,1,107.999996704102,10|0,1:2|0:0,0:0:0:0:
129,36,151426,2,0,B|113:93|113:93|132:138,1,107.999996704102,10|0,1:2|0:0,0:0:0:0:
319,141,151765,2,0,B|275:98|275:98|229:92,1,107.999996704102,10|0,1:2|0:0,0:0:0:0:
136,248,152104,2,0,B|193:232|193:232|221:192,1,107.999996704102,10|0,1:2|1:2,0:0:0:0:
57,186,152443,38,0,P|30:236|46:297,1,107.999996704102,14|0,1:2|0:0,0:0:0:0:
229,92,152782,1,8,1:2:0:0:
12,56,152951,1,2,0:0:0:0:
136,248,153121,2,0,L|262:225,1,107.999996704102,10|0,1:2|0:0,0:0:0:0:
365,104,153460,5,8,1:2:0:0:
303,316,153629,1,2,1:2:0:0:
149,148,153799,1,10,3:0:0:0:
323,337,153968,1,2,3:0:0:0:
365,104,154138,2,0,P|421:82|479:101,1,107.999996704102,10|0,3:0|0:0,0:0:0:0:
242,228,154477,37,10,3:0:0:0:
502,266,154646,1,2,3:0:0:0:
502,266,154731,1,2,3:0:0:0:
502,266,154816,1,10,3:0:0:0:
295,49,154985,1,2,3:0:0:0:
423,183,155155,6,0,L|403:291,1,107.999996704102,14|0,1:2|0:0,0:0:0:0:
365,104,155494,2,0,P|421:82|479:101,1,107.999996704102,10|0,1:2|0:0,0:0:0:0:
242,228,155833,37,10,1:2:0:0:
423,183,156002,1,2,0:0:0:0:
228,115,156172,1,10,1:2:0:0:
323,337,156341,1,2,0:0:0:0:
295,49,156511,5,10,1:2:0:0:
165,337,156680,1,2,0:0:0:0:
423,183,156850,1,10,1:2:0:0:
153,66,157019,2,0,P|136:120|162:174,1,107.999996704102,2|8,0:0|1:2,0:0:0:0:
329,277,157358,2,0,P|290:235|230:230,1,107.999996704102,0|8,0:0|1:2,0:0:0:0:
59,318,157697,1,2,1:2:0:0:
228,115,157867,37,14,1:2:0:0:
165,337,158036,1,2,0:0:0:0:
57,99,158206,1,10,1:2:0:0:
241,228,158375,2,0,L|367:205,1,107.999996704102,2|8,0:0|1:2,0:0:0:0:
165,337,158714,2,0,L|58:317,1,107.999996704102,2|8,0:0|1:2,0:0:0:0:
245,195,159053,2,0,L|371:172,1,107.999996704102,2|8,0:0|1:2,0:0:0:0:
482,246,159392,5,2,0:0:0:0:
267,84,159562,1,10,1:2:0:0:
323,337,159731,1,2,0:0:0:0:
488,127,159901,2,0,P|445:100|377:108,1,107.999996704102,10|0,1:2|0:0,0:0:0:0:
224,312,160240,2,0,P|267:339|335:331,1,107.999996704102,10|2,3:0|3:0,0:0:0:0:
498,205,160579,37,14,1:2:0:0:
211,136,160748,1,0,0:0:0:0:
395,355,160917,1,10,1:2:0:0:
380,67,161087,1,0,0:0:0:0:
224,312,161256,1,10,1:2:0:0:
502,203,161426,1,0,0:0:0:0:
205,130,161595,1,10,1:2:0:0:
398,362,161765,1,0,0:0:0:0:
281,78,161934,5,14,1:2:0:0:
463,293,162104,1,0,0:0:0:0:
181,226,162273,1,10,1:2:0:0:
462,118,162443,1,0,0:0:0:0:
306,360,162612,1,10,1:2:0:0:
278,71,162782,1,0,0:0:0:0:
467,297,162951,1,10,1:2:0:0:
173,225,163121,1,0,1:2:0:0:
478,111,163290,37,14,3:0:0:0:
398,361,163460,1,0,1:2:0:0:
399,95,163629,5,8,1:2:0:0:
316,356,163799,1,0,1:2:0:0:
321,80,163968,37,14,3:0:0:0:
234,351,164138,1,0,1:2:0:0:
136,80,164307,5,8,1:2:0:0:
241,371,164477,1,0,1:2:0:0:
326,65,164646,1,14,3:0:0:0:
326,65,164985,37,8,0:0:0:0:
162,236,165155,1,0,0:0:0:0:
212,37,165324,2,0,L|221:90,1,53.9999983520508,10|2,3:0|3:0,0:0:0:0:
275,283,165494,2,0,L|284:229,1,53.9999983520508,2|2,3:0|3:0,0:0:0:0:
326,65,165663,1,14,3:0:0:0:
326,65,166002,22,0,L|408:79,1,72,4|0,1:2|0:0,0:0:0:0:
462,171,166341,2,0,L|391:183,1,72,8|0,0:0|0:0,0:0:0:0:
283,229,166680,1,0,0:0:0:0:
247,222,166765,1,0,0:0:0:0:
212,216,166850,1,0,1:2:0:0:
176,210,166934,1,0,0:0:0:0:
137,204,167019,2,0,L|151:121,1,72,8|0,0:0|0:0,0:0:0:0:
111,291,167358,5,0,1:2:0:0:
239,136,167528,1,0,0:0:0:0:
266,330,167697,1,8,0:0:0:0:
266,330,167782,1,0,0:0:0:0:
266,330,167867,2,0,L|317:320,1,36
408,273,168036,1,0,0:0:0:0:
408,273,168121,1,0,0:0:0:0:
408,273,168206,2,0,L|356:263,1,36,0|0,1:2|0:0,0:0:0:0:
481,348,168375,1,8,0:0:0:0:
391,181,168545,1,0,0:0:0:0:
266,330,168714,38,0,L|251:247,1,72,0|0,1:2|0:0,0:0:0:0:
143,144,169053,2,0,L|130:214,1,72,8|0,0:0|0:0,0:0:0:0:
70,85,169392,1,0,0:0:0:0:
97,61,169477,1,0,0:0:0:0:
131,50,169562,1,0,1:2:0:0:
167,53,169646,1,0,0:0:0:0:
199,69,169731,2,0,L|281:54,1,72,8|0,0:0|0:0,0:0:0:0:
391,183,170070,5,0,1:2:0:0:
419,0,170240,1,0,0:0:0:0:
308,145,170409,1,8,0:0:0:0:
308,145,170494,1,0,0:0:0:0:
308,145,170579,2,0,L|260:153,1,36
199,69,170748,1,8,0:0:0:0:
199,69,170833,1,0,0:0:0:0:
199,69,170917,2,0,L|246:77,1,36,0|0,1:2|0:0,0:0:0:0:
132,214,171087,1,8,0:0:0:0:
63,51,171256,1,0,0:0:0:0:
145,244,171426,38,0,L|223:230,1,72,0|0,1:2|0:0,0:0:0:0:
315,349,171765,2,0,L|244:336,1,72,8|0,0:0|0:0,0:0:0:0:
368,220,172104,1,0,0:0:0:0:
377,254,172189,1,0,0:0:0:0:
386,289,172273,1,0,1:2:0:0:
395,324,172358,1,0,0:0:0:0:
405,359,172443,2,0,L|483:345,1,72,8|0,0:0|0:0,0:0:0:0:
368,220,172782,5,0,1:2:0:0:
315,349,172951,1,0,0:0:0:0:
472,265,173121,1,8,0:0:0:0:
472,265,173206,1,0,0:0:0:0:
472,265,173290,2,0,L|462:213,1,36
423,146,173460,1,0,0:0:0:0:
423,146,173545,1,0,0:0:0:0:
423,146,173629,2,0,L|432:94,1,36,0|0,1:2|0:0,0:0:0:0:
490,36,173799,1,8,0:0:0:0:
368,220,173968,1,0,0:0:0:0:
325,4,174138,37,0,1:2:0:0:
203,188,174307,1,0,0:0:0:0:
203,188,174392,1,0,0:0:0:0:
203,188,174477,1,8,0:0:0:0:
343,115,174646,1,0,0:0:0:0:
163,60,174816,1,0,0:0:0:0:
163,60,174901,1,0,0:0:0:0:
163,60,174985,2,0,L|119:48,1,36
203,188,175155,2,0,L|291:164,1,72,8|0,0:0|0:0,0:0:0:0:
53,27,175494,5,0,1:2:0:0:
101,213,175663,1,0,0:0:0:0:
245,76,175833,1,8,0:0:0:0:
245,76,175917,1,0,0:0:0:0:
245,76,176002,2,0,L|298:63,1,36
83,120,176172,2,0,L|30:107,1,36,8|0,0:0|0:0,0:0:0:0:
317,156,176341,1,0,1:2:0:0:
317,156,176426,1,0,0:0:0:0:
317,156,176511,1,8,0:0:0:0:
101,213,176680,1,0,0:0:0:0:
289,316,176850,6,8,L|400:296,1,108,8|8,1:2|0:0,0:0:0:0:
498,323,177189,6,0,L|479:220,1,99.0000030212403,8|0,1:2|0:0,0:0:0:0:
418,93,177528,2,0,L|400:190,1,99.0000030212403,0|0,1:2|1:2,0:0:0:0:
396,218,177782,1,0,0:0:0:0:
396,218,177867,1,8,1:2:0:0:
484,39,178036,2,0,P|437:9|372:25,1,99.0000030212403,0|0,1:2|0:0,0:0:0:0:
279,145,178375,38,0,L|338:134,1,49.5000015106202,0|0,1:2|0:0,0:0:0:0:
206,95,178545,2,0,P|189:151|213:204,1,99.0000030212403,8|0,1:2|0:0,0:0:0:0:
100,297,178884,1,0,1:2:0:0:
142,271,178968,1,0,0:0:0:0:
191,269,179053,1,0,1:2:0:0:
235,291,179138,1,0,0:0:0:0:
264,330,179223,2,0,L|251:385,1,49.5000015106202,8|0,1:2|0:0,0:0:0:0:
100,297,179392,2,0,L|89:248,1,49.5000015106202,0|0,1:2|0:0,0:0:0:0:
42,128,179562,5,0,1:2:0:0:
84,154,179646,1,0,0:0:0:0:
133,156,179731,1,0,1:2:0:0:
177,134,179816,1,0,0:0:0:0:
206,95,179901,2,0,L|193:40,1,49.5000015106202,8|0,1:2|0:0,0:0:0:0:
42,128,180070,2,0,L|29:183,1,49.5000015106202,0|0,1:2|0:0,0:0:0:0:
215,267,180240,2,0,L|203:218,1,49.5000015106202,0|0,3:2|0:0,0:0:0:0:
87,329,180409,38,0,B|59:378|59:378|260:343,1,233.999989288331,0|0,1:2|1:2,0:0:0:0:
375,261,180917,1,0,1:2:0:0:
375,261,181002,1,0,0:0:0:0:
375,261,181087,2,0,L|362:331,1,49.5000015106202,0|0,1:2|0:0,0:0:0:0:
307,191,181256,2,0,P|383:164|457:207,1,148.50000453186,8|0,1:2|0:0,0:0:0:0:
375,261,181595,5,0,3:2:0:0:
375,261,181680,1,0,3:2:0:0:
375,261,181765,1,0,3:2:0:0:
334,83,181934,1,8,1:2:0:0:
334,83,182019,1,0,0:0:0:0:
334,83,182104,2,0,L|325:34,1,49.5000015106202,0|0,1:2|0:0,0:0:0:0:
158,154,182273,38,0,P|212:170|264:147,1,99.0000030212403,0|0,1:2|0:0,0:0:0:0:
82,82,182612,2,0,L|62:192,1,99.0000030212403,8|0,1:2|0:0,0:0:0:0:
207,279,182951,2,0,P|160:262|113:275,1,99.0000030212403,0|0,1:2|1:2,0:0:0:0:
91,296,183206,1,0,0:0:0:0:
91,296,183290,1,8,1:2:0:0:
251,384,183460,2,0,L|369:363,1,99.0000030212403,0|0,1:2|0:0,0:0:0:0:
493,372,183799,6,0,L|483:316,1,49.5000015106202,0|0,1:2|0:0,0:0:0:0:
365,269,183968,2,0,L|344:387,1,99.0000030212403,8|0,1:2|0:0,0:0:0:0:
468,236,184307,1,0,1:2:0:0:
441,194,184392,1,0,0:0:0:0:
400,168,184477,1,0,1:2:0:0:
351,163,184562,1,0,0:0:0:0:
305,180,184646,2,0,L|287:82,1,99.0000030212403,8|0,1:2|0:0,0:0:0:0:
179,167,184985,37,0,1:2:0:0:
179,167,185070,1,0,0:0:0:0:
179,167,185155,2,0,L|234:176,1,49.5000015106202,0|0,1:2|0:0,0:0:0:0:
121,47,185324,2,0,L|65:56,1,49.5000015106202,8|0,1:2|0:0,0:0:0:0:
4,228,185494,6,0,B|-17:188|-17:188|102:218,1,148.50000453186,0|0,1:2|0:0,0:0:0:0:
125,290,185833,1,0,1:2:0:0:
173,281,185917,1,0,0:0:0:0:
222,272,186002,1,8,1:2:0:0:
271,264,186087,1,0,0:0:0:0:
319,255,186172,2,0,L|328:310,1,49.5000015106202,0|0,1:2|0:0,0:0:0:0:
179,167,186341,1,0,1:2:0:0:
179,167,186680,37,0,3:2:0:0:
319,255,186850,1,0,3:2:0:0:
268,127,187019,2,0,L|256:193,1,62.9999980773926,2|2,3:0|3:0,0:0:0:0:
232,334,187189,2,0,L|221:271,1,62.9999980773926,2|2,3:0|3:0,0:0:0:0:
197,81,187358,1,6,3:0:0:0:
341,171,187528,21,2,0:0:0:0:
341,171,187697,2,0,L|439:153,1,72,14|0,0:0|0:0,0:0:0:0:
472,280,188036,1,10,0:0:0:0:
472,280,188206,2,0,L|374:262,1,72,2|8,0:0|0:0,0:0:0:0:
316,160,188545,2,0,L|414:142,1,72,2|8,0:0|0:0,0:0:0:0:
260,276,188884,2,0,B|189:250|198:317|116:286,1,144,2|0,0:0|0:0,0:0:0:0:
138,144,189392,6,0,P|146:184|153:234,1,72,10|0,0:0|0:0,0:0:0:0:
241,92,189731,2,0,P|233:127|227:162,1,72,10|0,0:0|0:0,0:0:0:0:
184,28,190070,2,0,P|216:8|261:9,1,72,10|0,0:0|0:0,0:0:0:0:
311,105,190409,38,0,L|224:89,1,72,10|0,0:0|0:0,0:0:0:0:
138,144,190748,1,10,0:0:0:0:
138,144,190917,2,0,L|67:156,1,72,2|8,0:0|0:0,0:0:0:0:
8,260,191256,2,0,P|50:265|86:292,1,72,2|8,0:0|0:0,0:0:0:0:
195,246,191595,2,0,B|183:263|160:276|160:276|183:381,1,144,2|0,0:0|0:0,0:0:0:0:
274,238,192104,6,0,P|258:196|232:175,1,72,8|0,0:0|0:0,0:0:0:0:
245,313,192443,2,0,P|289:320|320:308,1,72,8|0,0:0|0:0,0:0:0:0:
381,155,192782,1,8,0:0:0:0:
274,238,192951,1,2,0:0:0:0:
431,267,193121,38,0,L|517:282,1,72,10|0,0:0|0:0,0:0:0:0:
381,155,193460,1,10,0:0:0:0:
381,155,193629,2,0,L|365:241,1,72,2|8,0:0|0:0,0:0:0:0:
330,86,193968,2,0,P|367:69|411:72,1,72,2|8,0:0|0:0,0:0:0:0:
295,164,194307,2,0,L|121:133,1,144,2|0,0:0|0:0,0:0:0:0:
100,62,194816,6,0,P|137:45|181:48,1,72,10|0,0:0|0:0,0:0:0:0:
67,179,195155,2,0,P|31:177|0:161,1,72,10|0,0:0|0:0,0:0:0:0:
153,138,195494,2,0,L|137:224,1,72,10|0,0:0|0:0,0:0:0:0:
94,348,195833,2,0,L|81:277,1,72,10|0,0:0|0:0,0:0:0:0:
223,202,196172,1,10,0:0:0:0:
223,202,196341,2,0,L|207:288,1,72,2|8,0:0|0:0,0:0:0:0:
306,164,196680,2,0,P|281:130|249:115,1,72,2|8,0:0|0:0,0:0:0:0:
301,266,197019,37,6,1:2:0:0:
153,138,197358,5,4,1:2:0:0:
380,101,197697,37,4,1:2:0:0:
132,142,198036,5,4,1:2:0:0:
301,266,198206,2,0,L|285:179,1,72
265,121,198375,2,0,L|252:191,1,72,2|0,0:0|0:0,0:0:0:0:
226,363,198545,1,6,0:0:0:0:
226,363,198884,37,14,0:0:0:0:
226,363,199053,2,0,L|316:347,1,80.9999975280763,2|8,0:0|0:0,0:0:0:0:
415,235,199392,2,0,L|402:322,1,80.9999975280763,2|8,0:0|0:0,0:0:0:0:
368,162,199731,2,0,P|436:147|501:234,1,161.999995056153,2|0,0:0|0:0,0:0:0:0:
403,316,200240,6,0,L|415:236,1,80.9999975280763,10|0,0:0|0:0,0:0:0:0:
284,134,200579,2,0,P|280:174|295:214,1,80.9999975280763,10|0,0:0|0:0,0:0:0:0:
353,76,200917,2,0,P|320:52|277:46,1,80.9999975280763,10|0,0:0|0:0,0:0:0:0:
123,164,201256,38,0,L|202:149,1,80.9999975280763,10|0,0:0|0:0,0:0:0:0:
48,66,201595,1,10,0:0:0:0:
48,66,201765,2,0,L|33:145,1,80.9999975280763,2|8,0:0|0:0,0:0:0:0:
137,243,202104,2,0,L|122:163,1,80.9999975280763,2|8,0:0|0:0,0:0:0:0:
54,320,202443,5,2,0:0:0:0:
54,320,202612,2,0,P|105:323|136:348,1,80.9999975280763,8|0,0:0|0:0,0:0:0:0:
266,260,202951,2,0,P|217:276|193:309,1,80.9999975280763,8|0,0:0|0:0,0:0:0:0:
348,298,203290,2,0,P|357:247|341:210,1,80.9999975280763,8|0,0:0|0:0,0:0:0:0:
202,149,203629,37,10,0:0:0:0:
266,260,203799,1,0,0:0:0:0:
356,103,203968,2,0,L|265:87,1,80.9999975280763,14|0,0:0|0:0,0:0:0:0:
410,32,204307,5,8,0:0:0:0:
410,32,204477,2,0,B|432:55|455:73|455:73|437:196,1,161.999995056153,2|0,0:0|0:0,0:0:0:0:
276,88,204985,2,0,L|356:103,1,80.9999975280763,10|0,0:0|0:0,0:0:0:0:
201,141,205324,2,0,P|181:88|198:38,1,80.9999975280763,10|0,0:0|0:0,0:0:0:0:
284,183,205663,1,10,0:0:0:0:
284,183,205833,2,0,P|248:226|196:237,1,80.9999975280763,2|8,0:0|0:0,0:0:0:0:
67,110,206172,37,2,0:0:0:0:
201,141,206341,1,8,0:0:0:0:
47,105,206511,1,2,0:0:0:0:
144,237,206680,5,12,0:0:0:0:
184,65,206850,1,0,0:0:0:0:
227,251,207019,2,0,L|250:339,1,80.9999975280763,8|0,0:0|0:0,0:0:0:0:
201,141,207358,37,8,1:2:0:0:
162,323,207528,1,0,0:0:0:0:
284,183,207697,1,8,1:2:0:0:
85,299,207867,1,0,0:0:0:0:
321,368,208036,1,12,1:2:0:0:
321,368,208375,5,0,1:2:0:0:
142,252,208545,1,0,0:0:0:0:
376,220,208714,1,2,3:0:0:0:
376,220,208799,1,2,3:0:0:0:
376,220,208884,2,0,L|427:210,1,40.4999987640381,2|2,3:0|3:0,0:0:0:0:
274,101,209053,1,6,3:0:0:0:
274,101,209392,6,0,B|248:135|248:135|260:202,1,108,2|0,3:0|0:0,0:0:0:0:
266,232,209731,6,0,B|180:216|180:216|131:232|131:232|34:211,1,216,12|0,3:2|0:0,0:0:0:0:
27,206,210070,38,0,P|56:103|140:161,1,229.500004377365,0|0,1:2|0:0,0:0:0:0:
157,223,210409,5,12,3:2:0:0:
157,223,210748,38,0,B|145:159|145:159|126:143|126:143|154:117|154:117|134:93|134:93|123:33,1,202.500007724762,2|0,3:0|0:0,0:0:0:0:
122,26,211087,6,0,B|246:-17|203:88|351:31,1,216,8|0,3:2|0:0,0:0:0:0:
356,23,211426,37,0,1:2:0:0:
229,166,211595,1,0,3:2:0:0:
378,1,211765,1,8,1:2:0:0:
172,101,211934,1,0,3:2:0:0:
386,252,212104,6,0,L|370:165,1,80.9999975280763,2|0,3:0|0:0,0:0:0:0:
369,139,212443,38,0,P|449:138|477:268,1,229.500004377365,12|0,3:2|0:0,0:0:0:0:
464,285,212782,5,0,1:2:0:0:
285,159,212951,1,0,3:2:0:0:
483,300,213121,1,12,1:2:0:0:
267,362,213290,1,0,3:2:0:0:
369,139,213460,37,2,3:0:0:0:
442,367,213629,1,0,3:2:0:0:
285,159,213799,1,8,1:2:0:0:
356,367,213968,2,0,L|365:315,1,45,0|0,3:2|3:2,0:0:0:0:
369,139,214138,1,4,1:2:0:0:
219,282,214307,6,0,L|187:276,3,22.5,0|0|0|0,3:2|3:2|3:2|3:2,0:0:0:0:
175,254,214477,2,0,L|130:261,3,45,2|0|0|0,3:2|3:2|3:2|3:2,0:0:0:0:
43,154,214816,6,0,L|57:239,1,72,6|0,3:2|0:0,0:0:0:0:
192,96,215155,2,0,L|179:167,1,72,10|0,0:0|0:0,0:0:0:0:
32,83,215494,6,0,L|46:168,1,72,2|0,0:0|0:0,0:0:0:0:
206,26,215833,2,0,L|192:96,1,72,10|0,0:0|0:0,0:0:0:0:
90,259,216172,37,2,1:2:0:0:
247,195,216341,1,0,0:0:0:0:
17,221,216511,5,8,0:0:0:0:
277,268,216680,1,2,0:0:0:0:
21,303,216850,37,0,1:2:0:0:
326,206,217019,1,0,1:2:0:0:
17,221,217189,5,10,0:0:0:0:
307,341,217358,1,0,0:0:0:0:
176,138,217528,37,2,1:2:0:0:
138,365,217697,1,0,0:0:0:0:
181,117,217867,5,10,0:0:0:0:
307,341,218036,1,0,0:0:0:0:
171,96,218206,37,2,1:2:0:0:
138,365,218375,1,0,1:2:0:0:
256,115,218545,5,10,0:0:0:0:
223,384,218714,1,0,0:0:0:0:
269,215,218884,37,10,3:2:0:0:
251,218,218968,1,0,3:2:0:0:
233,220,219053,1,2,3:2:0:0:
215,223,219138,1,0,3:2:0:0:
197,225,219223,1,10,3:2:0:0:
179,228,219307,1,0,3:2:0:0:
162,230,219392,1,2,3:2:0:0:
144,233,219477,1,0,3:2:0:0:
126,235,219562,6,0,L|62:247,1,36,8|0,3:2|3:2,0:0:0:0:
197,128,219731,2,0,L|232:134,1,36,0|0,3:2|3:2,0:0:0:0:
291,312,219901,37,10,3:2:0:0:
291,312,219985,1,0,3:2:0:0:
291,312,220070,2,0,L|255:318,1,36,0|0,3:2|3:2,0:0:0:0:
402,192,220240,5,10,3:2:0:0:
399,205,220324,1,0,3:2:0:0:
397,218,220409,1,0,3:2:0:0:
394,231,220494,1,0,3:2:0:0:
392,245,220579,1,8,3:2:0:0:
390,258,220663,1,0,3:2:0:0:
387,271,220748,1,0,3:2:0:0:
385,285,220833,1,0,3:2:0:0:
383,298,220917,37,10,3:0:0:0:
423,302,221002,1,2,3:0:0:0:
461,290,221087,1,2,3:0:0:0:
492,264,221172,1,2,3:0:0:0:
510,228,221256,1,10,3:0:0:0:
512,188,221341,1,2,3:0:0:0:
498,150,221426,1,2,3:0:0:0:
470,121,221511,1,2,3:0:0:0:
433,105,221595,5,14,3:0:0:0:
383,298,221765,1,0,3:2:0:0:
383,298,221850,1,0,3:2:0:0:
383,298,221934,1,0,3:2:0:0:
318,104,222104,1,0,3:2:0:0:
318,104,222189,1,0,3:2:0:0:
318,104,222273,1,0,3:2:0:0:
209,255,222443,1,0,3:2:0:0:
418,205,222612,1,12,3:2:0:0:
197,128,222782,5,2,0:0:0:0:
306,359,222951,2,0,L|296:305,3,53.9999983520508,2|2|2|2,0:0|0:0|0:0|0:0,0:0:0:0:
209,255,223629,2,0,L|219:201,2,53.9999983520508,2|2|2,0:0|0:0|0:0,0:0:0:0:
195,341,224138,1,2,0:0:0:0:
299,142,224477,1,2,0:0:0:0:
127,285,224816,1,2,0:0:0:0:
82,38,225494,5,2,0:0:0:0:
143,139,225663,2,0,L|153:86,2,53.9999983520508,2|2|2,0:0|0:0|0:0,0:0:0:0:
245,233,226341,38,0,L|254:286,2,53.9999983520508,2|2|2,0:0|0:0|0:0,0:0:0:0:
278,151,226850,1,2,0:0:0:0:
319,341,227189,5,2,0:0:0:0:
254,286,227358,1,2,0:0:0:0:
396,313,227528,1,2,0:0:0:0:
65,205,228206,37,2,0:0:0:0:
65,205,228375,2,0,P|101:246|171:249,1,107.999996704102,2|2,0:0|0:0,0:0:0:0:
233,121,229053,2,0,P|179:131|141:190,1,107.999996704102,2|2,0:0|0:0,0:0:0:0:
228,306,229731,2,0,P|245:254|213:192,1,107.999996704102,2|2,0:0|0:0,0:0:0:0:
65,205,230409,5,2,0:0:0:0:
233,121,230748,1,2,0:0:0:0:
74,286,231087,1,2,0:0:0:0:
309,327,231595,37,2,0:0:0:0:
309,327,231765,1,2,0:0:0:0:
129,136,232273,5,2,0:0:0:0:
129,136,232443,2,0,B|236:95|216:211|344:153,1,215.999993408203,2|0,0:0|0:0,0:0:0:0:
303,39,233629,37,2,0:0:0:0:
303,39,233799,1,2,0:0:0:0:
493,74,234138,1,2,0:0:0:0:
302,148,234477,6,0,L|232:166,3,53.9999983520508,2|2|2|2,0:0|0:0|0:0|0:0,0:0:0:0:
221,71,235155,2,0,L|168:57,2,53.9999983520508,2|2|2,0:0|0:0|0:0,0:0:0:0:
306,30,235663,1,2,0:0:0:0:
45,224,236341,37,2,0:0:0:0:
139,153,236511,2,0,L|128:212,3,53.9999983520508,2|2|2|2,0:0|0:0|0:0|0:0,0:0:0:0:
111,304,237358,1,2,0:0:0:0:
57,140,237697,1,2,0:0:0:0:
203,325,238036,6,0,L|257:336,2,53.9999983520508,2|2|2,0:0|0:0|0:0,0:0:0:0:
111,304,238545,1,2,0:0:0:0:
256,192,239053,37,2,0:0:0:0:
256,192,239223,1,2,0:0:0:0:
256,336,239562,1,2,0:0:0:0:
400,192,239901,1,2,0:0:0:0:
256,352,240240,1,2,0:0:0:0:
112,192,240579,5,2,0:0:0:0:
256,48,240917,1,2,0:0:0:0:
96,192,241256,1,2,0:0:0:0:
416,192,241595,1,2,0:0:0:0:
256,32,241934,1,2,0:0:0:0:
256,192,242019,12,0,244307,0:0:0:0:
327,65,244646,5,6,1:2:0:0:
375,226,244816,1,2,0:0:0:0:
455,79,244985,1,10,0:0:0:0:
291,175,245155,2,0,L|133:147,1,144,2|2,0:0|1:2,0:0:0:0:
327,65,245663,1,10,0:0:0:0:
375,226,245833,6,0,P|313:271|243:255,1,144,2|2,0:0|0:0,0:0:0:0:
149,149,246341,1,10,0:0:0:0:
70,308,246511,2,0,B|148:293|129:354|215:335,1,144,2|2,0:0|1:2,0:0:0:0:
291,175,247019,1,10,0:0:0:0:
343,356,247189,1,2,0:0:0:0:
286,152,247358,37,6,1:2:0:0:
205,336,247528,1,2,0:0:0:0:
375,226,247697,1,10,0:0:0:0:
197,120,247867,6,0,B|167:160|167:160|183:252,1,144,2|2,0:0|1:2,0:0:0:0:
364,141,248375,1,10,0:0:0:0:
242,39,248545,2,0,P|168:32|112:87,1,144,2|2,0:0|0:0,0:0:0:0:
183,252,249053,1,10,0:0:0:0:
197,120,249223,1,2,0:0:0:0:
98,253,249392,37,2,0:0:0:0:
260,186,249562,1,2,1:2:0:0:
73,264,249731,1,10,0:0:0:0:
281,311,249901,1,2,0:0:0:0:
140,181,250070,5,6,1:2:0:0:
205,369,250240,1,2,0:0:0:0:
260,186,250409,1,10,0:0:0:0:
115,338,250579,2,0,P|46:344|-8:286,1,144,2|2,0:0|1:2,0:0:0:0:
205,369,251087,1,10,0:0:0:0:
73,264,251256,38,0,L|99:114,1,144,2|2,0:0|0:0,0:0:0:0:
72,18,251765,1,10,0:0:0:0:
179,177,251934,2,0,B|273:193|273:193|307:160,1,144,2|2,0:0|1:2,0:0:0:0:
215,91,252443,1,10,0:0:0:0:
154,262,252612,1,2,0:0:0:0:
307,160,252782,5,6,1:2:0:0:
98,122,252951,1,2,0:0:0:0:
332,165,253121,1,10,0:0:0:0:
154,262,253290,2,0,P|143:328|196:386,1,144,2|2,0:0|1:2,0:0:0:0:
85,196,253799,1,10,0:0:0:0:
232,307,253968,38,0,L|381:280,1,144,2|2,0:0|0:0,0:0:0:0:
481,157,254477,1,10,0:0:0:0:
410,361,254646,1,2,0:0:0:0:
325,138,254816,1,2,0:0:0:0:
460,288,254985,1,2,1:2:0:0:
501,81,255155,1,10,0:0:0:0:
373,281,255324,1,2,0:0:0:0:
305,57,255494,6,0,P|345:57|380:73,1,72,12|0,1:2|0:0,0:0:0:0:
245,113,255833,2,0,P|222:58|231:22,1,72,8|0,0:0|0:0,0:0:0:0:
325,138,256172,2,0,L|313:208,1,72,8|0,0:0|1:2,0:0:0:0:
223,306,256511,2,0,L|293:294,1,72,8|0,0:0|0:0,0:0:0:0:
217,195,256850,38,0,L|147:183,1,72,8|0,1:2|0:0,0:0:0:0:
72,315,257189,2,0,L|142:303,1,72,8|0,0:0|0:0,0:0:0:0:
68,132,257528,2,0,P|52:173|66:223,1,72,8|0,0:0|1:2,0:0:0:0:
117,60,257867,2,0,P|76:44|26:58,1,72,8|0,0:0|0:0,0:0:0:0:
146,182,258206,5,8,1:2:0:0:
231,38,258375,1,0,0:0:0:0:
260,204,258545,1,8,0:0:0:0:
117,60,258714,2,0,P|76:44|26:58,1,72,0|8,0:0|1:2,0:0:0:0:
135,207,259053,37,0,1:2:0:0:
234,15,259223,1,8,0:0:0:0:
266,235,259392,2,0,L|344:221,1,72,0|8,0:0|1:2,0:0:0:0:
216,125,259731,5,0,0:0:0:0:
174,327,259901,1,8,0:0:0:0:
371,217,260070,1,0,0:0:0:0:
146,182,260240,1,8,1:2:0:0:
398,222,260409,1,0,1:2:0:0:
174,327,260579,1,8,0:0:0:0:
425,227,260748,1,2,0:0:0:0:
216,125,260917,37,10,1:2:0:0:
268,351,261087,1,0,0:0:0:0:
364,121,261256,1,10,0:0:0:0:
174,327,261426,1,0,0:0:0:0:
440,313,261595,1,10,1:2:0:0:
146,182,261765,1,0,1:2:0:0:
362,375,261934,1,10,0:0:0:0:
287,73,262104,1,0,0:0:0:0:
156,353,262273,5,10,1:2:0:0:
132,98,262443,1,0,0:0:0:0:
315,291,262612,1,10,0:0:0:0:
42,235,262782,1,0,0:0:0:0:
287,73,262951,1,10,1:2:0:0:
156,353,263121,1,0,1:2:0:0:
130,66,263290,1,10,0:0:0:0:
315,291,263460,1,0,0:0:0:0:
30,235,263629,37,14,3:2:0:0:
30,235,263714,1,0,3:2:0:0:
30,235,263799,2,0,L|36:199,1,36,0|0,3:2|3:2,0:0:0:0:
201,30,263968,5,8,3:2:0:0:
201,30,264053,1,0,3:2:0:0:
201,30,264138,2,0,L|212:93,1,49.5000015106202,0|0,3:2|3:2,0:0:0:0:
94,304,264307,37,8,3:2:0:0:
94,304,264392,1,0,3:2:0:0:
94,304,264477,2,0,L|164:291,1,62.9999980773926,0|0,3:2|3:2,0:0:0:0:
244,184,264646,5,10,3:0:0:0:
288,193,264731,1,2,3:0:0:0:
330,200,264816,1,2,3:0:0:0:
373,207,264901,1,2,3:0:0:0:
415,216,264985,1,10,3:0:0:0:
415,216,265324,37,8,3:2:0:0:
244,184,265494,1,0,3:2:0:0:
343,106,265663,1,10,3:0:0:0:
337,154,265748,1,2,3:0:0:0:
330,200,265833,1,2,3:0:0:0:
322,248,265917,1,2,3:0:0:0:
315,295,266002,1,14,3:0:0:0:
315,295,266341,21,12,1:2:0:0:
343,106,266511,1,0,0:0:0:0:
312,325,266680,1,8,1:2:0:0:
203,119,266850,2,0,L|96:137,1,99.0000030212403,0|8,0:0|1:2,0:0:0:0:
330,200,267189,5,0,0:0:0:0:
234,25,267358,1,8,1:2:0:0:
147,222,267528,2,0,L|253:240,1,99.0000030212403,0|8,0:0|1:2,0:0:0:0:
393,345,267867,37,0,0:0:0:0:
275,144,268036,1,8,1:2:0:0:
206,372,268206,2,0,P|252:381|307:350,1,99.0000030212403,0|8,0:0|1:2,0:0:0:0:
407,168,268545,5,0,0:0:0:0:
246,291,268714,1,8,1:2:0:0:
422,157,268884,1,0,1:2:0:0:
211,98,269053,37,8,1:2:0:0:
333,270,269223,1,0,0:0:0:0:
387,60,269392,1,8,1:2:0:0:
236,215,269562,2,0,L|129:196,1,99.0000030212403,0|8,0:0|1:2,0:0:0:0:
34,74,269901,5,0,0:0:0:0:
90,279,270070,1,8,1:2:0:0:
211,98,270240,2,0,L|113:115,1,99.0000030212403,0|8,0:0|1:2,0:0:0:0:
312,230,270579,37,0,0:0:0:0:
324,26,270748,1,8,1:2:0:0:
310,252,270917,1,0,0:0:0:0:
422,61,271087,5,8,1:2:0:0:
211,98,271256,1,0,0:0:0:0:
413,225,271426,1,10,3:0:0:0:
324,26,271595,1,2,3:0:0:0:
236,215,271765,37,12,1:2:0:0:
458,142,271934,1,0,0:0:0:0:
217,222,272104,1,8,1:2:0:0:
430,322,272273,2,0,L|410:211,1,99.0000030212403,0|8,0:0|1:2,0:0:0:0:
322,327,272612,5,0,0:0:0:0:
512,384,272782,1,8,1:2:0:0:
336,241,272951,2,0,P|290:244|242:290,1,99.0000030212403,0|8,0:0|1:2,0:0:0:0:
430,322,273290,37,0,0:0:0:0:
304,132,273460,1,8,1:2:0:0:
235,361,273629,2,0,P|281:358|329:312,1,99.0000030212403,0|8,0:0|1:2,0:0:0:0:
152,173,273968,5,0,0:0:0:0:
103,384,274138,1,8,1:2:0:0:
158,146,274307,1,0,1:2:0:0:
235,361,274477,37,8,1:2:0:0:
25,244,274646,1,0,0:0:0:0:
267,210,274816,1,8,1:2:0:0:
103,384,274985,2,0,L|121:281,1,99.0000030212403,0|8,0:0|1:2,0:0:0:0:
39,104,275324,5,0,0:0:0:0:
191,249,275494,1,8,1:2:0:0:
218,25,275663,2,0,P|163:36|132:69,1,99.0000030212403,0|8,1:2|1:2,0:0:0:0:
25,244,276002,37,2,3:0:0:0:
209,109,276172,1,10,3:0:0:0:
7,257,276341,1,0,0:0:0:0:
235,361,276511,1,10,3:0:0:0:
134,153,276680,1,2,3:0:0:0:
134,153,276765,1,2,3:0:0:0:
134,153,276850,1,10,3:0:0:0:
103,384,277019,1,2,3:0:0:0:
139,120,277189,5,12,1:2:0:0:
235,361,277358,1,0,0:0:0:0:
306,114,277528,1,8,1:2:0:0:
145,298,277697,2,0,L|247:279,1,99.0000030212403,0|8,0:0|1:2,0:0:0:0:
430,145,278036,37,0,0:0:0:0:
356,377,278206,1,8,1:2:0:0:
238,178,278375,2,0,L|335:195,1,99.0000030212403,0|8,0:0|1:2,0:0:0:0:
468,313,278714,5,0,0:0:0:0:
381,86,278884,1,8,1:2:0:0:
281,302,279053,2,0,P|341:304|389:276,1,99.0000030212403,0|8,0:0|1:2,0:0:0:0:
430,145,279392,37,0,0:0:0:0:
214,71,279562,1,8,1:2:0:0:
453,153,279731,1,0,1:2:0:0:
214,257,279901,5,8,1:2:0:0:
292,35,280070,1,0,0:0:0:0:
416,221,280240,1,8,1:2:0:0:
172,179,280409,2,0,L|75:162,1,99.0000030212403,0|8,0:0|1:2,0:0:0:0:
214,71,280748,37,0,0:0:0:0:
103,267,280917,1,8,1:2:0:0:
11,64,281087,2,0,L|108:81,1,99.0000030212403,0|8,0:0|1:2,0:0:0:0:
276,236,281426,5,0,0:0:0:0:
152,9,281595,1,8,1:2:0:0:
289,258,281765,1,0,0:0:0:0:
74,161,281934,37,8,1:2:0:0:
343,103,282104,1,0,0:0:0:0:
103,267,282273,1,10,3:0:0:0:
214,71,282443,1,2,3:0:0:0:
256,330,282612,5,12,1:2:0:0:
74,161,282782,1,0,0:0:0:0:
345,184,282951,1,8,1:2:0:0:
140,348,283121,2,0,P|74:352|38:328,1,99.0000030212403,0|8,0:0|1:2,0:0:0:0:
207,175,283460,37,0,0:0:0:0:
275,363,283629,1,8,1:2:0:0:
201,156,283799,1,0,0:0:0:0:
140,348,283968,5,8,1:2:0:0:
349,225,284138,1,0,0:0:0:0:
112,177,284307,1,8,1:2:0:0:
361,321,284477,2,0,P|411:304|441:262,1,99.0000030212403,0|8,0:0|1:2,0:0:0:0:
415,53,284816,37,0,0:0:0:0:
349,225,284985,1,8,1:2:0:0:
425,29,285155,1,0,1:2:0:0:
274,190,285324,5,12,1:2:0:0:
478,133,285494,1,0,1:2:0:0:
224,82,285663,37,8,1:2:0:0:
420,185,285833,1,0,1:2:0:0:
176,269,286002,5,8,1:2:0:0:
403,108,286172,1,0,1:2:0:0:
138,60,286341,37,8,1:2:0:0:
345,160,286511,1,0,1:2:0:0:
92,293,286680,6,0,L|103:229,1,49.5000015106202,10|0,3:0|0:0,0:0:0:0:
234,171,286850,1,0,0:0:0:0:
234,171,286934,1,0,0:0:0:0:
234,171,287019,2,0,L|244:229,1,49.5000015106202,8|0,0:0|0:0,0:0:0:0:
386,338,287189,1,0,0:0:0:0:
386,338,287273,1,0,0:0:0:0:
386,338,287358,37,2,3:0:0:0:
338,347,287442,1,2,3:0:0:0:
289,355,287527,1,2,3:0:0:0:
240,364,287612,1,2,3:0:0:0:
191,373,287696,1,6,3:0:0:0:
112,169,287867,1,2,0:0:0:0:
289,355,288036,5,10,1:2:0:0:
330,115,288206,1,2,0:0:0:0:
177,294,288375,1,10,1:2:0:0:
437,248,288545,1,2,0:0:0:0:
218,92,288714,1,10,1:2:0:0:
386,338,288884,1,2,0:0:0:0:
427,66,289053,1,10,1:2:0:0:
255,246,289223,38,0,L|352:263,1,99.0000030212403,2|8,0:0|1:2,0:0:0:0:
136,200,289562,2,0,L|156:318,1,99.0000030212403,2|8,0:0|1:2,0:0:0:0:
225,139,289901,2,0,P|179:99|112:98,1,99.0000030212403,2|8,0:0|1:2,0:0:0:0:
264,282,290240,1,0,0:0:0:0:
352,87,290409,2,0,L|370:193,1,99.0000030212403,8|2,1:2|1:2,0:0:0:0:
219,24,290748,5,14,1:2:0:0:
459,1,290917,1,2,0:0:0:0:
193,26,291087,1,10,1:2:0:0:
473,154,291256,1,0,0:0:0:0:
318,0,291426,1,10,1:2:0:0:
284,265,291595,1,2,0:0:0:0:
422,78,291765,1,8,1:2:0:0:
166,121,291934,38,0,L|59:139,1,99.0000030212403,2|8,0:0|1:2,0:0:0:0:
284,265,292273,1,2,0:0:0:0:
216,53,292443,1,10,1:2:0:0:
101,258,292612,1,2,0:0:0:0:
317,163,292782,1,10,3:0:0:0:
317,163,292867,1,2,3:0:0:0:
317,163,292951,1,2,3:0:0:0:
82,264,293121,1,2,3:0:0:0:
139,48,293290,1,2,1:2:0:0:
281,268,293460,6,0,L|387:249,1,99.0000030212403,14|0,1:2|0:0,0:0:0:0:
352,71,293799,2,0,L|314:172,1,99.0000030212403,10|0,1:2|0:0,0:0:0:0:
494,230,294138,2,0,L|424:145,1,99.0000030212403,10|0,1:2|0:0,0:0:0:0:
281,268,294477,2,0,L|387:249,1,99.0000030212403,10|0,1:2|0:0,0:0:0:0:
258,380,294816,38,0,P|195:347|172:284,1,99.0000030212403,10|0,1:2|0:0,0:0:0:0:
291,174,295155,2,0,P|293:243|250:294,1,99.0000030212403,10|0,1:2|0:0,0:0:0:0:
97,247,295494,2,0,P|155:208|221:220,1,99.0000030212403,10|0,1:2|0:0,0:0:0:0:
83,345,295833,2,0,P|17:311|-6:248,1,99.0000030212403,10|0,1:2|1:2,0:0:0:0:
114,149,296172,6,0,L|92:270,1,99.0000030212403,14|0,1:2|0:0,0:0:0:0:
259,99,296511,1,8,1:2:0:0:
90,26,296680,1,2,0:0:0:0:
244,191,296850,2,0,P|307:180|344:139,1,99.0000030212403,10|0,1:2|0:0,0:0:0:0:
196,33,297189,37,8,1:2:0:0:
153,257,297358,1,2,1:2:0:0:
336,66,297528,1,10,3:0:0:0:
67,190,297697,1,2,3:0:0:0:
348,254,297867,2,0,L|328:143,1,99.0000030212403,10|0,3:0|0:0,0:0:0:0:
182,12,298206,5,10,3:0:0:0:
427,109,298375,1,2,3:0:0:0:
427,109,298460,1,2,3:0:0:0:
427,109,298545,1,10,3:0:0:0:
243,190,298714,1,2,3:0:0:0:
413,23,298884,38,0,P|470:31|513:78,1,99.0000030212403,14|0,1:2|0:0,0:0:0:0:
340,207,299223,2,0,L|242:189,1,99.0000030212403,10|0,1:2|0:0,0:0:0:0:
384,336,299562,5,10,1:2:0:0:
259,99,299731,1,2,0:0:0:0:
162,351,299901,1,10,1:2:0:0:
340,207,300070,1,2,0:0:0:0:
97,111,300240,37,10,1:2:0:0:
272,347,300409,1,2,0:0:0:0:
336,66,300579,1,10,1:2:0:0:
103,252,300748,2,0,P|149:272|207:262,1,99.0000030212403,2|8,0:0|1:2,0:0:0:0:
97,111,301087,2,0,L|0:128,1,99.0000030212403,0|8,0:0|1:2,0:0:0:0:
196,266,301426,1,2,1:2:0:0:
118,29,301595,5,14,1:2:0:0:
14,259,301765,1,2,0:0:0:0:
125,14,301934,1,10,1:2:0:0:
196,266,302104,2,0,L|293:248,1,99.0000030212403,2|8,0:0|1:2,0:0:0:0:
394,163,302443,2,0,L|296:145,1,99.0000030212403,2|8,0:0|1:2,0:0:0:0:
404,311,302782,2,0,L|501:293,1,99.0000030212403,2|8,0:0|1:2,0:0:0:0:
296,145,303121,37,2,0:0:0:0:
377,384,303290,1,10,1:2:0:0:
489,171,303460,1,2,0:0:0:0:
286,278,303629,2,0,L|189:260,1,99.0000030212403,10|0,1:2|0:0,0:0:0:0:
90,102,303968,2,0,P|148:99|197:136,1,99.0000030212403,2|0,3:0|3:0,0:0:0:0:
286,278,304307,5,14,1:2:0:0:
23,153,304477,1,0,0:0:0:0:
304,98,304646,1,10,1:2:0:0:
109,311,304816,1,0,0:0:0:0:
143,23,304985,1,10,1:2:0:0:
291,283,305155,1,0,0:0:0:0:
15,153,305324,1,10,1:2:0:0:
310,95,305494,1,0,0:0:0:0:
41,243,305663,37,14,1:2:0:0:
317,189,305833,1,0,0:0:0:0:
56,64,306002,1,10,1:2:0:0:
207,324,306172,1,0,0:0:0:0:
237,38,306341,1,10,1:2:0:0:
35,246,306511,1,0,0:0:0:0:
323,189,306680,1,10,1:2:0:0:
50,59,306850,1,0,1:2:0:0:
211,348,307019,5,14,3:0:0:0:
150,70,307189,1,0,1:2:0:0:
212,364,307358,37,8,1:2:0:0:
293,94,307528,1,0,1:2:0:0:
196,378,307697,5,14,3:0:0:0:
409,187,307867,1,0,1:2:0:0:
104,180,308036,37,8,1:2:0:0:
345,384,308206,1,0,1:2:0:0:
289,65,308375,1,14,3:0:0:0:
289,65,308714,5,8,0:0:0:0:
104,180,308884,1,0,0:0:0:0:
217,0,309053,1,10,3:0:0:0:
217,0,309138,1,2,3:0:0:0:
217,0,309223,2,0,L|207:51,1,49.5000015106202,2|2,3:0|3:0,0:0:0:0:
265,247,309392,1,14,3:0:0:0:
265,247,309731,6,0,L|351:231,1,72,4|0,1:2|0:0,0:0:0:0:
435,125,310070,2,0,P|406:157|398:195,1,72,8|0,0:0|0:0,0:0:0:0:
494,259,310409,1,0,0:0:0:0:
460,247,310494,1,0,0:0:0:0:
425,254,310579,1,0,1:2:0:0:
397,276,310663,1,0,0:0:0:0:
383,309,310748,2,0,L|402:382,1,72,8|0,0:0|0:0,0:0:0:0:
335,234,311087,5,0,1:2:0:0:
473,335,311256,1,0,0:0:0:0:
303,384,311426,1,8,0:0:0:0:
303,384,311511,1,0,0:0:0:0:
303,384,311595,2,0,L|310:340,1,36
226,212,311765,1,0,0:0:0:0:
226,212,311850,1,0,0:0:0:0:
226,212,311934,2,0,L|233:255,1,36,0|0,1:2|0:0,0:0:0:0:
176,381,312104,1,8,0:0:0:0:
335,234,312273,1,0,0:0:0:0:
123,198,312443,38,0,L|29:177,1,72,0|0,1:2|0:0,0:0:0:0:
239,141,312782,2,0,L|226:211,1,72,8|0,0:0|0:0,0:0:0:0:
191,66,313121,1,0,0:0:0:0:
224,53,313206,1,0,0:0:0:0:
260,54,313290,1,0,1:2:0:0:
292,69,313375,1,0,0:0:0:0:
317,94,313460,2,0,L|387:81,1,72,8|0,0:0|0:0,0:0:0:0:
512,130,313799,5,0,1:2:0:0:
403,0,313968,1,0,0:0:0:0:
371,178,314138,1,8,0:0:0:0:
371,178,314223,1,0,0:0:0:0:
371,178,314307,2,0,L|363:221,1,36
281,100,314477,1,8,0:0:0:0:
281,100,314562,1,0,0:0:0:0:
281,100,314646,2,0,L|324:92,1,36,0|0,1:2|0:0,0:0:0:0:
236,224,314816,1,8,0:0:0:0:
159,24,314985,1,0,0:0:0:0:
66,206,315155,38,0,P|108:201|149:218,1,72,0|0,1:2|0:0,0:0:0:0:
110,361,315494,2,0,L|94:274,1,72,8|0,0:0|0:0,0:0:0:0:
243,189,315833,1,0,0:0:0:0:
236,224,315917,1,0,0:0:0:0:
230,259,316002,1,0,1:2:0:0:
224,295,316087,1,0,0:0:0:0:
217,330,316172,2,0,L|295:316,1,72,8|0,0:0|0:0,0:0:0:0:
420,231,316511,5,0,1:2:0:0:
362,379,316680,1,0,0:0:0:0:
299,232,316850,1,8,0:0:0:0:
299,232,316934,1,0,0:0:0:0:
299,232,317019,2,0,L|338:238,1,36
463,320,317189,1,0,0:0:0:0:
463,320,317273,1,0,0:0:0:0:
463,320,317358,2,0,L|423:326,1,36,0|0,1:2|0:0,0:0:0:0:
370,138,317528,1,8,0:0:0:0:
287,317,317697,1,0,0:0:0:0:
234,126,317867,37,0,1:2:0:0:
414,249,318036,1,0,0:0:0:0:
414,249,318121,1,0,0:0:0:0:
414,249,318206,1,8,0:0:0:0:
300,74,318375,1,0,0:0:0:0:
219,257,318545,1,0,0:0:0:0:
219,257,318629,1,0,0:0:0:0:
219,257,318714,2,0,L|175:249,1,36,0|0,1:2|0:0,0:0:0:0:
106,133,318884,2,0,L|200:116,1,72,8|0,0:0|0:0,0:0:0:0:
5,265,319223,5,0,1:2:0:0:
64,64,319392,1,0,0:0:0:0:
183,250,319562,1,8,0:0:0:0:
183,250,319646,1,0,0:0:0:0:
183,250,319731,2,0,L|219:257,1,36
279,183,319901,2,0,L|314:176,1,36,8|0,0:0|0:0,0:0:0:0:
400,311,320070,1,0,1:2:0:0:
400,311,320155,1,0,0:0:0:0:
400,311,320240,1,8,0:0:0:0:
445,126,320409,1,0,0:0:0:0:
309,282,320579,38,0,P|307:329|323:364,1,80.9999975280763,0|0,1:2|0:0,0:0:0:0:
485,336,320917,2,0,P|487:289|470:253,1,80.9999975280763,8|0,0:0|0:0,0:0:0:0:
314,175,321256,1,0,0:0:0:0:
352,187,321341,1,0,0:0:0:0:
391,182,321426,1,0,1:2:0:0:
425,160,321511,1,0,0:0:0:0:
445,126,321595,2,0,L|428:31,1,80.9999975280763,8|0,0:0|0:0,0:0:0:0:
262,0,321934,5,0,1:2:0:0:
360,97,322104,1,0,0:0:0:0:
227,182,322273,1,8,0:0:0:0:
227,182,322358,1,0,0:0:0:0:
227,182,322443,2,0,L|219:138,1,40.4999987640381
122,38,322612,1,0,0:0:0:0:
122,38,322697,1,0,0:0:0:0:
122,38,322782,2,0,L|114:81,1,40.4999987640381,0|0,1:2|0:0,0:0:0:0:
87,236,322951,1,8,0:0:0:0:
200,64,323121,1,0,0:0:0:0:
250,267,323290,38,0,L|167:252,1,80.9999975280763,0|0,1:2|0:0,0:0:0:0:
301,174,323629,2,0,P|345:199|363:247,1,80.9999975280763,8|0,0:0|0:0,0:0:0:0:
333,339,323968,1,0,0:0:0:0:
359,308,324053,1,0,0:0:0:0:
396,293,324138,1,0,1:2:0:0:
436,295,324223,1,0,0:0:0:0:
470,316,324307,2,0,L|454:229,1,80.9999975280763,8|0,0:0|0:0,0:0:0:0:
476,103,324646,5,0,1:2:0:0:
301,174,324816,1,0,0:0:0:0:
389,45,324985,1,8,0:0:0:0:
389,45,325070,1,0,0:0:0:0:
389,45,325155,2,0,L|398:96,1,40.4999987640381
301,174,325324,1,8,0:0:0:0:
301,174,325409,1,0,0:0:0:0:
301,174,325494,2,0,L|308:134,1,40.4999987640381,0|0,1:2|0:0,0:0:0:0:
212,75,325663,1,8,0:0:0:0:
372,232,325833,1,0,0:0:0:0:
165,266,326002,37,0,1:2:0:0:
212,75,326172,1,0,0:0:0:0:
183,272,326341,5,8,1:2:0:0:
237,74,326511,1,0,0:0:0:0:
201,278,326680,37,0,1:2:0:0:
262,73,326850,1,0,0:0:0:0:
219,284,327019,5,8,1:2:0:0:
287,72,327189,1,0,0:0:0:0:
372,269,327358,37,0,1:2:0:0:
279,49,327528,1,0,0:0:0:0:
377,284,327697,5,8,1:2:0:0:
186,139,327867,1,0,0:0:0:0:
388,294,328036,37,0,1:2:0:0:
150,264,328206,1,0,0:0:0:0:
371,159,328375,5,8,1:2:0:0:
131,272,328545,1,0,0:0:0:0:
321,370,328714,37,8,3:2:0:0:
317,352,328799,1,0,3:2:0:0:
314,334,328884,2,0,L|307:294,1,36,0|0,3:2|3:2,0:0:0:0:
142,193,329053,5,8,3:2:0:0:
139,215,329138,1,0,3:2:0:0:
136,236,329223,2,0,L|130:276,1,36,0|0,3:2|3:2,0:0:0:0:
350,170,329392,37,8,3:2:0:0:
346,148,329477,1,0,3:2:0:0:
342,127,329562,2,0,L|335:87,1,36,0|0,3:2|3:2,0:0:0:0:
100,52,329731,5,10,3:0:0:0:
140,69,329816,1,2,3:0:0:0:
182,84,329901,1,2,3:0:0:0:
221,64,329985,1,2,3:0:0:0:
259,43,330070,6,0,B|182:85|182:85|99:52|99:52|113:143|113:143|37:213|37:213|144:220|144:220|192:311|192:311|234:220|234:220|339:204|339:204|271:139,1,881.999973083497,12|0,1:2|0:0,0:0:0:0:
189,160,331426,5,14,3:0:0:0:
