osu file format v14

[General]
AudioFilename: audio.mp3
AudioLeadIn: 0
PreviewTime: 144138
Countdown: 0
SampleSet: Normal
StackLeniency: 0.7
Mode: 1
LetterboxInBreaks: 0
WidescreenStoryboard: 0

[Editor]
Bookmarks: 579,43968,79223,122612,166002,222951,266341,309731
DistanceSpacing: 0.6
BeatDivisor: 4
GridSize: 32
TimelineZoom: 3.199999

[Metadata]
Title:Stella-rium (Asterisk MAKINA Remix)
TitleUnicode:Stella-rium (Asterisk MAKINA Remix)
Artist:Kano
ArtistUnicode:鹿乃
Creator:Eriha
Version:Eriha & KTYN's Starlight
Source:放課後のプレアデス
Tags:KTYN KitajimaYN Houkago no pleiades opening full size version electronic anime japanese jpop dnb stellarium Wish Upon the Pleiades nowhere edm dance music drum and bass & 'n' j-pop pop op
BeatmapID:3587614
BeatmapSetID:1753095

[Difficulty]
HPDrainRate:5
CircleSize:5
OverallDifficulty:6.5
ApproachRate:5
SliderMultiplier:1.4
SliderTickRate:1

[Events]
//Background and Video events
0,0,"bg.jpg",0,80
//Break Periods
//Storyboard Layer 0 (Background)
//Storyboard Layer 1 (Fail)
//Storyboard Layer 2 (Pass)
//Storyboard Layer 3 (Foreground)
//Storyboard Layer 4 (Overlay)
//Storyboard Sound Samples

[TimingPoints]
579,338.983050847458,4,1,0,80,1,0
579,-111.111111111111,4,1,0,80,0,0
11405,-105.263157894737,4,1,0,80,0,0
16829,-105.263157894737,4,1,0,80,0,0
16998,-104.896114882291,4,1,0,80,0,0
17167,-104.529473446142,4,1,0,80,0,0
17337,-104.167520386838,4,1,0,80,0,0
17506,-103.805945769356,4,1,0,80,0,0
17676,-103.448977515515,4,1,0,80,0,0
17845,-103.092365406063,4,1,0,80,0,0
18015,-102.740279686363,4,1,0,80,0,0
18184,-102.388528618037,4,1,0,80,0,0
18354,-102.041225939827,4,1,0,80,0,0
18523,-101.694237193207,4,1,0,80,0,0
18693,-101.351620748774,4,1,0,80,0,0
18862,-101.009298259557,4,1,0,80,0,0
19032,-100.671273836162,4,1,0,80,0,0
19201,-100.333524106491,4,1,0,80,0,0
19371,-100,4,1,0,80,0,0
22189,-95.2380952380952,4,1,0,90,0,0
22273,-95.2380952380952,4,1,0,90,0,1
42612,-95.2380952380952,4,1,0,90,0,0
42930,-95.238095238095,4,1,0,90,0,0
43100,-96.388967870344,4,1,0,90,0,0
43269,-97.560975609756,4,1,0,90,0,0
43354,-98.161285652237,4,1,0,90,0,0
43439,-98.769029062568,4,1,0,90,0,0
43608,-100,4,1,0,90,0,0
43884,-100,4,1,0,80,0,0
43968,-105.263157894737,4,1,0,80,0,0
55070,-100,4,1,0,85,0,0
79138,-111.111111111111,4,1,0,85,0,0
98121,-111.111111111111,4,1,0,80,0,0
110557,-111.111111111111,4,1,0,80,0,0
110727,-110.238416136078,4,1,0,80,0,0
110896,-109.379323065572,4,1,0,80,0,0
111066,-108.528550512445,4,1,0,80,0,0
111235,-107.695800227015,4,1,0,80,0,0
111405,-106.87091687317,4,1,0,80,0,0
111574,-106.063316043642,4,1,0,80,0,0
111744,-105.263157894737,4,1,0,85,0,0
117167,-105.263157894737,4,1,0,85,0,0
117337,-104.896114882291,4,1,0,85,0,0
117506,-104.529473446142,4,1,0,85,0,0
117676,-104.167520386838,4,1,0,85,0,0
117845,-103.805945769356,4,1,0,85,0,0
118015,-103.448977515515,4,1,0,85,0,0
118184,-103.092365406063,4,1,0,85,0,0
118354,-102.740279686363,4,1,0,85,0,0
118523,-102.388528618037,4,1,0,85,0,0
118693,-102.041225939827,4,1,0,85,0,0
118862,-101.694237193207,4,1,0,85,0,0
119032,-101.351620748774,4,1,0,85,0,0
119201,-101.009298259557,4,1,0,85,0,0
119371,-100.671273836162,4,1,0,85,0,0
119540,-100.333524106491,4,1,0,85,0,0
119710,-100,4,1,0,85,0,0
122528,-95.2380952380952,4,1,0,95,0,0
122612,-95.2380952380952,4,1,0,95,0,1
164646,-95.2380952380952,4,1,0,95,0,0
164964,-95.238095238095,4,1,0,95,0,0
165134,-96.388967870344,4,1,0,95,0,0
165303,-97.560975609756,4,1,0,95,0,0
165388,-98.161285652237,4,1,0,95,0,0
165473,-98.769029062568,4,1,0,95,0,0
165642,-100,4,1,0,95,0,0
165917,-100,4,1,0,80,0,0
166002,-100,4,1,0,80,0,0
177104,-95.2380952380952,4,1,0,90,0,0
177189,-95.2380952380952,4,1,0,90,0,1
186341,-95.2380952380952,4,1,0,90,0,0
186659,-95.238095238095,4,1,0,90,0,0
186829,-96.388967870344,4,1,0,90,0,0
186998,-97.560975609756,4,1,0,90,0,0
187083,-98.161285652237,4,1,0,90,0,0
187167,-98.769029062568,4,1,0,90,0,0
187337,-100,4,1,0,90,0,0
187612,-100,4,1,0,85,0,0
187697,-100,4,1,0,85,0,0
222867,-111.111111111111,4,1,0,85,0,0
241850,-111.111111111111,4,1,0,80,0,0
254286,-111.111111111111,4,1,0,80,0,0
254456,-110.234026745914,4,1,0,80,0,0
254625,-109.375719880212,4,1,0,80,0,0
254795,-108.525714285714,4,1,0,80,0,0
254964,-107.693703502087,4,1,0,80,0,0
255134,-106.86954173044,4,1,0,80,0,0
255303,-106.062636822589,4,1,0,80,0,0
255473,-105.263157894737,4,1,0,85,0,0
260896,-105.263157894737,4,1,0,85,0,0
261066,-104.89409532452,4,1,0,85,0,0
261235,-104.529759947386,4,1,0,85,0,0
261405,-104.165813296195,4,1,0,85,0,0
261574,-103.806510868456,4,1,0,85,0,0
261744,-103.447574494051,4,1,0,85,0,0
261913,-103.093201443224,4,1,0,85,0,0
262083,-102.739172592114,4,1,0,85,0,0
262252,-102.38962816822,4,1,0,85,0,0
262422,-102.040406877596,4,1,0,85,0,0
262591,-101.695593057666,4,1,0,85,0,0
262761,-101.351082061297,4,1,0,85,0,0
262930,-101.010903457727,4,1,0,85,0,0
263100,-100.671008095643,4,1,0,85,0,0
263269,-100.335371868219,4,1,0,85,0,0
263439,-100,4,1,0,85,0,0
266256,-95.2380952380952,4,1,0,95,0,0
266341,-95.2380952380952,4,1,0,95,0,1
308375,-95.2380952380952,4,1,0,95,0,0
308693,-95.238095238095,4,1,0,95,0,0
308862,-96.388967870344,4,1,0,95,0,0
309032,-97.560975609756,4,1,0,95,0,0
309117,-98.161285652237,4,1,0,95,0,0
309201,-98.769029062568,4,1,0,95,0,0
309371,-100,4,1,0,95,0,0
309731,-100,4,1,0,90,0,0

[HitObjects]
256,192,579,5,4,0:0:0:0:
256,192,833,1,8,0:0:0:0:
256,192,917,1,0,0:0:0:0:
256,192,1087,1,8,0:0:0:0:
256,192,1256,1,8,0:0:0:0:
256,192,1341,1,8,0:0:0:0:
256,192,1426,1,8,0:0:0:0:
256,192,1511,1,8,0:0:0:0:
256,192,1595,1,8,0:0:0:0:
256,192,1765,1,0,0:0:0:0:
256,192,2104,1,8,0:0:0:0:
256,192,2273,1,8,0:0:0:0:
256,192,2358,1,8,0:0:0:0:
256,192,2528,1,8,0:0:0:0:
256,192,2612,1,0,0:0:0:0:
256,192,2697,1,8,0:0:0:0:
256,192,2867,1,8,0:0:0:0:
256,192,2951,1,0,0:0:0:0:
256,192,3121,1,8,0:0:0:0:
256,192,3290,1,8,0:0:0:0:
256,192,3545,1,8,0:0:0:0:
256,192,3629,1,0,0:0:0:0:
256,192,3799,1,8,0:0:0:0:
256,192,3968,1,8,0:0:0:0:
256,192,4053,1,8,0:0:0:0:
256,192,4138,1,8,0:0:0:0:
256,192,4223,1,8,0:0:0:0:
256,192,4307,1,8,0:0:0:0:
256,192,4477,1,0,0:0:0:0:
256,192,4816,1,8,0:0:0:0:
256,192,4985,1,0,0:0:0:0:
256,192,5070,1,8,0:0:0:0:
256,192,5240,1,8,0:0:0:0:
256,192,5324,1,0,0:0:0:0:
256,192,5409,1,8,0:0:0:0:
256,192,5579,1,0,0:0:0:0:
256,192,5663,1,8,0:0:0:0:
256,192,5833,1,0,0:0:0:0:
256,192,6002,1,8,0:0:0:0:
256,192,6256,1,8,0:0:0:0:
256,192,6340,1,0,0:0:0:0:
256,192,6510,1,8,0:0:0:0:
256,192,6679,1,8,0:0:0:0:
256,192,6764,1,8,0:0:0:0:
256,192,6849,1,8,0:0:0:0:
256,192,6934,1,8,0:0:0:0:
256,192,7018,1,8,0:0:0:0:
256,192,7188,1,0,0:0:0:0:
256,192,7527,1,8,0:0:0:0:
256,192,7696,1,8,0:0:0:0:
256,192,7781,1,8,0:0:0:0:
256,192,7951,1,8,0:0:0:0:
256,192,8035,1,0,0:0:0:0:
256,192,8120,1,8,0:0:0:0:
256,192,8290,1,8,0:0:0:0:
256,192,8374,1,0,0:0:0:0:
256,192,8544,1,8,0:0:0:0:
256,192,8713,1,8,0:0:0:0:
256,192,8968,1,8,0:0:0:0:
256,192,9052,1,0,0:0:0:0:
256,192,9222,1,8,0:0:0:0:
256,192,9391,1,8,0:0:0:0:
256,192,9476,1,8,0:0:0:0:
256,192,9561,1,8,0:0:0:0:
256,192,9646,1,8,0:0:0:0:
256,192,9730,1,8,0:0:0:0:
256,192,9900,1,0,0:0:0:0:
256,192,10070,1,8,0:0:0:0:
256,192,10240,1,8,0:0:0:0:
256,192,10408,1,0,0:0:0:0:
256,192,10493,1,8,0:0:0:0:
256,192,10579,1,0,0:0:0:0:
256,192,10663,1,8,0:0:0:0:
256,192,10747,1,0,0:0:0:0:
256,192,10917,1,8,0:0:0:0:
256,192,11087,1,0,0:0:0:0:
256,192,11172,1,0,0:0:0:0:
256,192,11256,1,8,0:0:0:0:
256,192,11426,5,4,0:0:0:0:
256,192,11765,1,8,0:0:0:0:
256,192,11934,1,0,0:0:0:0:
256,192,12104,1,8,0:0:0:0:
256,192,12273,1,0,0:0:0:0:
256,192,12358,1,8,0:0:0:0:
256,192,12528,1,0,0:0:0:0:
256,192,12612,1,8,0:0:0:0:
256,192,12782,1,0,0:0:0:0:
256,192,12951,1,8,0:0:0:0:
256,192,13121,1,0,0:0:0:0:
256,192,13206,1,8,0:0:0:0:
256,192,13290,1,8,0:0:0:0:
256,192,13375,1,0,0:0:0:0:
256,192,13460,1,8,0:0:0:0:
256,192,13629,1,0,0:0:0:0:
256,192,13714,1,0,0:0:0:0:
256,192,13799,1,0,0:0:0:0:
256,192,13968,1,8,0:0:0:0:
256,192,14138,1,8,0:0:0:0:
256,192,14307,1,0,0:0:0:0:
256,192,14477,1,8,0:0:0:0:
256,192,14646,1,0,0:0:0:0:
256,192,14816,1,8,0:0:0:0:
256,192,14985,1,0,0:0:0:0:
256,192,15070,1,8,0:0:0:0:
256,192,15240,1,0,0:0:0:0:
256,192,15324,1,8,0:0:0:0:
256,192,15494,1,0,0:0:0:0:
256,192,15663,1,8,0:0:0:0:
256,192,15833,1,0,0:0:0:0:
256,192,15917,1,0,0:0:0:0:
256,192,16002,1,8,0:0:0:0:
256,192,16087,1,0,0:0:0:0:
256,192,16172,1,8,0:0:0:0:
256,192,16341,1,0,0:0:0:0:
256,192,16426,1,0,0:0:0:0:
256,192,16511,1,0,0:0:0:0:
256,192,16680,1,8,0:0:0:0:
256,192,16850,1,0,0:0:0:0:
256,192,17019,1,0,0:0:0:0:
256,192,17189,1,8,0:0:0:0:
256,192,17358,1,0,0:0:0:0:
256,192,17528,1,8,0:0:0:0:
256,192,17697,1,8,0:0:0:0:
256,192,17867,1,0,0:0:0:0:
256,192,18036,1,8,0:0:0:0:
256,192,18206,1,0,0:0:0:0:
256,192,18375,1,8,0:0:0:0:
256,192,18545,1,8,0:0:0:0:
256,192,18714,1,0,0:0:0:0:
256,192,18884,1,8,0:0:0:0:
256,192,19053,1,0,0:0:0:0:
256,192,19223,1,0,0:0:0:0:
256,192,19392,1,8,0:0:0:0:
256,192,19562,1,0,0:0:0:0:
256,192,19646,1,8,0:0:0:0:
256,192,19731,1,0,0:0:0:0:
256,192,19816,1,0,0:0:0:0:
256,192,19901,1,8,0:0:0:0:
256,192,19985,1,0,0:0:0:0:
256,192,20070,1,8,0:0:0:0:
147,62,20127,1,8,0:0:0:0:
154,72,20183,1,8,0:0:0:0:
256,192,20240,1,0,0:0:0:0:
256,192,20324,1,0,0:0:0:0:
256,192,20409,1,8,0:0:0:0:
256,192,20494,1,8,0:0:0:0:
256,192,20579,1,0,0:0:0:0:
256,192,20663,1,8,0:0:0:0:
256,192,20748,1,8,0:0:0:0:
256,192,20833,1,8,0:0:0:0:
256,192,20917,1,0,0:0:0:0:
256,192,21087,1,8,0:0:0:0:
256,192,21172,1,8,0:0:0:0:
256,192,21256,1,0,0:0:0:0:
256,192,21341,1,0,0:0:0:0:
256,192,21426,1,8,0:0:0:0:
256,192,21511,1,0,0:0:0:0:
256,192,21595,1,8,0:0:0:0:
256,192,21680,1,8,0:0:0:0:
256,192,21765,1,0,0:0:0:0:
256,192,21934,1,12,0:0:0:0:
256,192,22273,1,12,0:0:0:0:
256,192,22442,1,0,0:0:0:0:
256,192,22611,1,8,0:0:0:0:
256,192,22696,1,8,0:0:0:0:
256,192,22781,1,0,0:0:0:0:
256,192,22950,1,8,0:0:0:0:
256,192,23120,1,0,0:0:0:0:
256,192,23205,1,8,0:0:0:0:
256,192,23374,1,0,0:0:0:0:
256,192,23459,1,8,0:0:0:0:
256,192,23628,1,0,0:0:0:0:
256,192,23798,1,8,0:0:0:0:
256,192,23883,1,8,0:0:0:0:
256,192,23967,1,8,0:0:0:0:
256,192,24137,1,0,0:0:0:0:
256,192,24306,1,0,0:0:0:0:
256,192,24391,1,8,0:0:0:0:
256,192,24476,1,0,0:0:0:0:
256,192,24561,1,0,0:0:0:0:
256,192,24645,1,8,0:0:0:0:
256,192,24815,1,8,0:0:0:0:
256,192,24984,1,0,0:0:0:0:
256,192,25069,1,0,0:0:0:0:
172,136,25154,1,0,0:0:0:0:
256,192,25239,1,0,0:0:0:0:
256,192,25323,1,8,0:0:0:0:
256,192,25493,1,8,0:0:0:0:
256,192,25662,1,0,0:0:0:0:
256,192,25747,1,0,0:0:0:0:
256,192,25832,1,8,0:0:0:0:
181,92,25889,1,8,0:0:0:0:
181,92,25945,1,8,0:0:0:0:
256,192,26001,1,0,0:0:0:0:
256,192,26171,1,8,0:0:0:0:
256,192,26340,1,0,0:0:0:0:
157,85,26425,1,0,0:0:0:0:
196,116,26510,1,8,0:0:0:0:
256,192,26594,1,0,0:0:0:0:
196,116,26680,1,8,0:0:0:0:
180,70,26850,1,0,0:0:0:0:
256,192,27019,1,0,0:0:0:0:
256,192,27104,1,0,0:0:0:0:
256,192,27189,1,8,0:0:0:0:
256,192,27358,1,8,0:0:0:0:
151,118,27443,1,8,0:0:0:0:
256,192,27528,1,0,0:0:0:0:
256,192,27612,1,0,0:0:0:0:
256,192,27697,1,8,0:0:0:0:
256,192,27867,1,0,0:0:0:0:
256,192,28036,1,8,0:0:0:0:
256,192,28121,1,8,0:0:0:0:
256,192,28206,1,0,0:0:0:0:
256,192,28375,1,8,0:0:0:0:
256,192,28545,1,0,0:0:0:0:
256,192,28629,1,8,0:0:0:0:
256,192,28799,1,0,0:0:0:0:
256,192,28884,1,8,0:0:0:0:
256,192,29053,1,0,0:0:0:0:
256,192,29223,1,8,0:0:0:0:
256,192,29307,1,8,0:0:0:0:
256,192,29392,1,8,0:0:0:0:
256,192,29562,1,0,0:0:0:0:
256,192,29731,1,0,0:0:0:0:
256,192,29816,1,8,0:0:0:0:
256,192,29901,1,0,0:0:0:0:
256,192,29985,1,0,0:0:0:0:
256,192,30070,1,8,0:0:0:0:
256,192,30240,1,0,0:0:0:0:
256,192,30409,1,0,0:0:0:0:
256,192,30494,1,0,0:0:0:0:
256,192,30579,1,8,0:0:0:0:
256,192,30663,1,0,0:0:0:0:
123,115,30748,1,0,0:0:0:0:
151,69,30917,1,8,0:0:0:0:
151,69,30974,1,8,0:0:0:0:
151,78,31030,1,8,0:0:0:0:
152,85,31087,1,0,0:0:0:0:
256,192,31256,1,8,0:0:0:0:
256,192,31341,1,8,0:0:0:0:
256,192,31426,1,0,0:0:0:0:
256,192,31511,1,8,0:0:0:0:
256,192,31595,1,0,0:0:0:0:
256,192,31765,1,0,0:0:0:0:
195,85,31850,1,0,0:0:0:0:
219,152,31934,1,8,0:0:0:0:
165,117,32019,1,0,0:0:0:0:
165,117,32104,1,8,0:0:0:0:
256,192,32273,1,0,0:0:0:0:
256,192,32443,1,4,0:0:0:0:
256,192,32782,1,8,0:0:0:0:
256,192,32867,1,8,0:0:0:0:
256,192,32951,1,0,0:0:0:0:
256,192,33121,1,12,0:0:0:0:
256,192,33290,1,0,0:0:0:0:
256,192,33459,1,8,0:0:0:0:
256,192,33544,1,8,0:0:0:0:
256,192,33629,1,0,0:0:0:0:
256,192,33798,1,8,0:0:0:0:
256,192,33968,1,0,0:0:0:0:
256,192,34053,1,8,0:0:0:0:
256,192,34222,1,0,0:0:0:0:
256,192,34307,1,8,0:0:0:0:
180,149,34392,1,8,0:0:0:0:
256,192,34476,1,0,0:0:0:0:
256,192,34646,1,8,0:0:0:0:
256,192,34731,1,8,0:0:0:0:
256,192,34815,1,8,0:0:0:0:
256,192,34985,1,0,0:0:0:0:
256,192,35154,1,0,0:0:0:0:
256,192,35239,1,8,0:0:0:0:
256,192,35324,1,0,0:0:0:0:
256,192,35409,1,0,0:0:0:0:
256,192,35493,1,8,0:0:0:0:
179,158,35579,1,0,0:0:0:0:
256,192,35663,1,8,0:0:0:0:
256,192,35832,1,0,0:0:0:0:
256,192,35917,1,0,0:0:0:0:
172,136,36002,1,0,0:0:0:0:
256,192,36087,1,0,0:0:0:0:
256,192,36171,1,8,0:0:0:0:
256,192,36341,1,8,0:0:0:0:
179,158,36426,1,8,0:0:0:0:
256,192,36510,1,0,0:0:0:0:
256,192,36595,1,0,0:0:0:0:
256,192,36680,1,8,0:0:0:0:
181,92,36737,1,8,0:0:0:0:
181,92,36793,1,8,0:0:0:0:
256,192,36849,1,0,0:0:0:0:
256,192,37019,1,8,0:0:0:0:
256,192,37188,1,0,0:0:0:0:
157,85,37273,1,0,0:0:0:0:
196,116,37358,1,8,0:0:0:0:
256,192,37442,1,0,0:0:0:0:
196,116,37528,1,8,0:0:0:0:
177,154,37612,1,8,0:0:0:0:
256,192,37697,1,0,0:0:0:0:
256,192,37867,1,0,0:0:0:0:
200,96,37951,1,8,0:0:0:0:
196,116,38036,1,0,0:0:0:0:
256,192,38121,1,0,0:0:0:0:
256,192,38206,1,8,0:0:0:0:
256,192,38375,1,0,0:0:0:0:
256,192,38545,1,12,0:0:0:0:
256,192,38714,1,0,0:0:0:0:
256,192,38884,1,8,0:0:0:0:
256,192,38968,1,8,0:0:0:0:
256,192,39053,1,0,0:0:0:0:
256,192,39223,1,8,0:0:0:0:
256,192,39392,1,0,0:0:0:0:
256,192,39477,1,8,0:0:0:0:
256,192,39562,1,8,0:0:0:0:
256,192,39646,1,0,0:0:0:0:
256,192,39731,1,8,0:0:0:0:
256,192,39901,1,0,0:0:0:0:
256,192,40070,1,8,0:0:0:0:
256,192,40155,1,8,0:0:0:0:
256,192,40240,1,8,0:0:0:0:
256,192,40409,1,0,0:0:0:0:
256,192,40579,1,0,0:0:0:0:
256,192,40663,1,8,0:0:0:0:
256,192,40748,1,0,0:0:0:0:
256,192,40833,1,0,0:0:0:0:
256,192,40917,1,8,0:0:0:0:
256,192,41087,1,0,0:0:0:0:
256,192,41256,1,0,0:0:0:0:
256,192,41340,1,8,0:0:0:0:
256,192,41425,1,0,0:0:0:0:
256,192,41510,1,0,0:0:0:0:
256,192,41595,1,8,0:0:0:0:
256,192,41679,1,0,0:0:0:0:
256,192,41764,1,8,0:0:0:0:
147,62,41821,1,8,0:0:0:0:
154,72,41877,1,8,0:0:0:0:
256,192,41934,1,0,0:0:0:0:
256,192,42018,1,0,0:0:0:0:
256,192,42103,1,8,0:0:0:0:
256,192,42188,1,8,0:0:0:0:
256,192,42273,1,0,0:0:0:0:
256,192,42357,1,8,0:0:0:0:
256,192,42442,1,8,0:0:0:0:
256,192,42527,1,8,0:0:0:0:
256,192,42611,1,0,0:0:0:0:
256,192,42951,1,0,0:0:0:0:
256,192,43121,1,8,0:0:0:0:
256,192,43290,1,0,0:0:0:0:
256,192,43375,1,0,0:0:0:0:
256,192,43460,1,0,0:0:0:0:
256,192,43629,1,12,0:0:0:0:
162,186,43968,5,4,0:0:0:0:
140,139,44138,1,8,0:0:0:0:
140,139,44477,1,8,0:0:0:0:
140,139,44816,1,8,0:0:0:0:
140,139,45155,1,8,0:0:0:0:
140,139,45494,1,8,0:0:0:0:
140,139,45833,1,8,0:0:0:0:
140,139,46172,1,8,0:0:0:0:
140,139,46511,1,8,0:0:0:0:
140,139,46850,1,0,0:0:0:0:
140,139,47189,1,0,0:0:0:0:
140,139,47528,1,0,0:0:0:0:
140,139,47867,1,0,0:0:0:0:
140,139,48206,1,0,0:0:0:0:
140,139,48545,1,0,0:0:0:0:
140,139,48884,1,0,0:0:0:0:
140,139,49223,1,0,0:0:0:0:
140,139,49562,1,8,0:0:0:0:
140,139,49901,1,8,0:0:0:0:
140,139,50240,1,8,0:0:0:0:
140,139,50579,1,8,0:0:0:0:
140,139,50917,1,8,0:0:0:0:
140,139,51256,1,8,0:0:0:0:
140,139,51595,1,8,0:0:0:0:
140,139,51934,1,8,0:0:0:0:
140,139,52273,5,0,0:0:0:0:
140,139,52612,1,0,0:0:0:0:
140,139,52951,1,0,0:0:0:0:
162,197,53290,5,12,0:0:0:0:
146,202,53629,1,12,0:0:0:0:
146,202,53968,1,12,0:0:0:0:
146,202,54307,1,12,0:0:0:0:
146,202,54477,1,4,0:0:0:0:
146,202,54646,1,8,0:0:0:0:
146,202,54816,1,0,0:0:0:0:
146,202,55155,1,12,0:0:0:0:
171,104,55324,1,8,0:0:0:0:
170,178,55494,1,0,0:0:0:0:
170,178,55663,1,8,0:0:0:0:
178,102,55748,1,8,0:0:0:0:
186,127,55833,1,0,0:0:0:0:
141,68,56002,1,8,0:0:0:0:
141,77,56172,1,0,0:0:0:0:
141,77,56341,1,0,0:0:0:0:
126,71,56426,1,0,0:0:0:0:
141,77,56511,1,8,0:0:0:0:
182,110,56680,1,0,0:0:0:0:
182,110,56850,1,8,0:0:0:0:
160,128,56934,1,0,0:0:0:0:
171,55,57019,1,0,0:0:0:0:
171,56,57189,1,8,0:0:0:0:
200,99,57528,1,0,0:0:0:0:
151,96,57697,1,0,0:0:0:0:
151,96,57782,1,0,0:0:0:0:
170,178,57867,1,8,0:0:0:0:
170,178,58036,1,8,0:0:0:0:
170,178,58206,1,0,0:0:0:0:
170,178,58375,1,8,0:0:0:0:
168,4,58460,1,8,0:0:0:0:
175,122,58545,1,0,0:0:0:0:
170,178,58714,1,8,0:0:0:0:
146,78,58884,1,0,0:0:0:0:
154,75,59053,1,8,0:0:0:0:
161,66,59138,1,0,0:0:0:0:
154,75,59223,1,0,0:0:0:0:
154,75,59392,1,8,0:0:0:0:
176,39,59562,1,0,0:0:0:0:
171,43,59646,1,0,0:0:0:0:
144,159,59731,1,8,0:0:0:0:
183,115,59816,1,8,0:0:0:0:
144,159,59901,1,0,0:0:0:0:
117,219,60070,1,8,0:0:0:0:
177,152,60240,1,4,0:0:0:0:
177,152,60579,1,8,0:0:0:0:
183,163,60748,1,8,0:0:0:0:
170,178,60918,1,0,0:0:0:0:
177,152,61087,1,0,0:0:0:0:
186,97,61172,1,0,0:0:0:0:
160,148,61256,1,8,0:0:0:0:
179,71,61426,1,0,0:0:0:0:
179,71,61595,1,8,0:0:0:0:
186,92,61765,1,0,0:0:0:0:
186,92,61850,1,0,0:0:0:0:
186,92,61934,1,8,0:0:0:0:
156,183,62019,1,0,0:0:0:0:
186,92,62104,1,8,0:0:0:0:
186,92,62273,1,0,0:0:0:0:
163,90,62443,1,8,0:0:0:0:
163,90,62528,1,8,0:0:0:0:
163,90,62612,1,0,0:0:0:0:
183,163,62782,1,0,0:0:0:0:
124,138,62951,1,12,0:0:0:0:
197,82,63290,1,8,0:0:0:0:
197,82,63460,1,8,0:0:0:0:
197,82,63629,1,0,0:0:0:0:
197,82,63799,1,0,0:0:0:0:
165,90,63968,1,0,0:0:0:0:
165,90,64138,1,0,0:0:0:0:
179,153,64307,1,12,0:0:0:0:
197,124,64646,1,0,0:0:0:0:
197,124,64816,1,8,0:0:0:0:
197,124,64985,1,0,0:0:0:0:
197,124,65070,1,0,0:0:0:0:
197,124,65155,1,0,0:0:0:0:
197,124,65240,1,0,0:0:0:0:
197,124,65324,1,8,0:0:0:0:
197,124,65663,1,0,0:0:0:0:
197,124,66002,1,12,0:0:0:0:
197,124,66341,1,8,0:0:0:0:
197,124,66511,1,8,0:0:0:0:
197,124,66680,1,4,0:0:0:0:
197,124,67019,1,4,0:0:0:0:
197,124,67358,1,0,0:0:0:0:
220,117,67528,1,0,0:0:0:0:
197,124,67697,1,8,0:0:0:0:
197,124,67867,1,0,0:0:0:0:
197,124,68206,1,0,0:0:0:0:
197,124,68375,1,0,0:0:0:0:
197,124,68714,1,12,0:0:0:0:
197,80,69053,1,8,0:0:0:0:
150,127,69223,1,8,0:0:0:0:
150,127,69392,1,4,0:0:0:0:
204,74,69731,1,8,0:0:0:0:
176,72,69901,1,0,0:0:0:0:
176,72,70070,1,0,0:0:0:0:
168,85,70409,1,12,0:0:0:0:
204,74,70579,1,8,0:0:0:0:
225,69,70635,1,8,0:0:0:0:
225,69,70691,1,8,0:0:0:0:
225,69,70748,1,0,0:0:0:0:
186,74,70833,1,0,0:0:0:0:
185,74,70917,1,8,0:0:0:0:
170,125,71087,1,4,0:0:0:0:
184,78,71426,1,8,0:0:0:0:
184,78,71765,1,8,0:0:0:0:
184,78,72104,1,8,0:0:0:0:
184,78,72443,1,8,0:0:0:0:
184,78,72782,1,8,0:0:0:0:
184,78,73121,1,8,0:0:0:0:
176,62,73460,1,8,0:0:0:0:
184,78,73799,1,8,0:0:0:0:
176,62,73968,1,0,0:0:0:0:
184,78,74138,1,8,0:0:0:0:
176,62,74307,1,0,0:0:0:0:
184,78,74477,1,8,0:0:0:0:
176,62,74646,1,0,0:0:0:0:
176,62,74816,1,8,0:0:0:0:
176,61,74985,1,0,0:0:0:0:
160,93,75155,1,8,0:0:0:0:
134,125,75240,1,8,0:0:0:0:
160,93,75324,1,0,0:0:0:0:
160,93,75409,1,0,0:0:0:0:
160,93,75494,1,8,0:0:0:0:
159,99,75579,1,0,0:0:0:0:
159,99,75663,1,8,0:0:0:0:
138,147,75748,1,8,0:0:0:0:
159,99,75833,1,0,0:0:0:0:
159,99,75917,1,0,0:0:0:0:
159,99,76002,1,8,0:0:0:0:
159,99,76087,1,0,0:0:0:0:
159,99,76172,1,8,0:0:0:0:
159,98,76256,1,8,0:0:0:0:
160,99,76341,1,8,0:0:0:0:
156,176,76426,1,8,0:0:0:0:
138,147,76511,1,0,0:0:0:0:
138,147,76595,1,0,0:0:0:0:
138,147,76680,1,8,0:0:0:0:
138,147,76765,1,0,0:0:0:0:
138,147,76850,1,8,0:0:0:0:
138,147,76934,1,8,0:0:0:0:
138,147,77019,1,0,0:0:0:0:
123,131,77104,1,8,0:0:0:0:
138,147,77189,1,0,0:0:0:0:
138,147,77273,1,0,0:0:0:0:
138,147,77358,1,8,0:0:0:0:
138,147,77443,1,0,0:0:0:0:
138,147,77528,1,8,0:0:0:0:
138,147,77612,1,8,0:0:0:0:
138,147,77697,1,8,0:0:0:0:
134,154,77782,1,8,0:0:0:0:
134,162,77867,1,0,0:0:0:0:
134,162,78121,5,0,0:0:0:0:
134,162,78206,1,8,0:0:0:0:
133,161,78375,1,0,0:0:0:0:
133,161,78460,1,0,0:0:0:0:
133,161,78545,1,8,0:0:0:0:
133,161,78714,1,0,0:0:0:0:
123,184,78884,1,8,0:0:0:0:
256,192,79223,5,4,0:0:0:0:
256,192,80579,1,0,0:0:0:0:
256,192,81256,1,8,0:0:0:0:
256,192,81595,1,8,0:0:0:0:
256,192,81934,1,0,0:0:0:0:
256,192,83290,1,0,0:0:0:0:
256,192,83968,1,8,0:0:0:0:
256,192,84646,1,0,0:0:0:0:
256,192,86002,1,8,0:0:0:0:
256,192,87358,1,8,0:0:0:0:
256,192,88036,1,0,0:0:0:0:
256,192,88714,1,8,0:0:0:0:
256,192,90070,1,0,0:0:0:0:
256,192,91426,1,0,0:0:0:0:
256,192,92104,1,8,0:0:0:0:
256,192,92443,1,8,0:0:0:0:
256,192,92782,1,0,0:0:0:0:
256,192,94138,1,8,0:0:0:0:
256,192,94816,1,8,0:0:0:0:
256,192,95494,1,0,0:0:0:0:
256,192,96850,1,0,0:0:0:0:
256,192,98206,12,0,100748,0:0:0:0:
256,192,100917,5,4,0:0:0:0:
256,192,101087,1,0,0:0:0:0:
256,192,101256,1,8,0:0:0:0:
256,192,101426,1,0,0:0:0:0:
256,192,101765,1,0,0:0:0:0:
256,192,101934,1,0,0:0:0:0:
256,192,102104,1,8,0:0:0:0:
256,192,102443,1,0,0:0:0:0:
256,192,102612,1,0,0:0:0:0:
256,192,102782,1,8,0:0:0:0:
256,192,103121,1,0,0:0:0:0:
256,192,103290,1,0,0:0:0:0:
256,192,103460,1,0,0:0:0:0:
256,192,103629,1,8,0:0:0:0:
256,192,103799,1,0,0:0:0:0:
256,192,103968,1,0,0:0:0:0:
256,192,104138,1,8,0:0:0:0:
256,192,104477,1,0,0:0:0:0:
256,192,104646,1,0,0:0:0:0:
256,192,104816,1,8,0:0:0:0:
256,192,105155,1,0,0:0:0:0:
256,192,105324,1,0,0:0:0:0:
256,192,105494,1,0,0:0:0:0:
256,192,105663,1,8,0:0:0:0:
256,192,105833,1,8,0:0:0:0:
256,192,106002,1,0,0:0:0:0:
256,192,106172,1,0,0:0:0:0:
256,192,106341,1,8,0:0:0:0:
256,192,106511,1,0,0:0:0:0:
256,192,106680,1,0,0:0:0:0:
256,192,106850,1,8,0:0:0:0:
256,192,107189,1,0,0:0:0:0:
256,192,107358,1,0,0:0:0:0:
256,192,107528,1,8,0:0:0:0:
256,192,107867,1,0,0:0:0:0:
256,192,108036,1,0,0:0:0:0:
256,192,108206,1,8,0:0:0:0:
256,192,108545,1,0,0:0:0:0:
256,192,108714,1,0,0:0:0:0:
256,192,108884,1,0,0:0:0:0:
256,192,109053,1,8,0:0:0:0:
256,192,109223,1,8,0:0:0:0:
256,192,109392,1,0,0:0:0:0:
256,192,109562,1,8,0:0:0:0:
256,192,109901,1,8,0:0:0:0:
256,192,110070,1,0,0:0:0:0:
256,192,110240,1,8,0:0:0:0:
256,192,110579,1,0,0:0:0:0:
256,192,110748,1,0,0:0:0:0:
256,192,110917,1,0,0:0:0:0:
256,192,111087,1,8,0:0:0:0:
256,192,111256,1,8,0:0:0:0:
256,192,111426,1,0,0:0:0:0:
256,192,111595,1,0,0:0:0:0:
256,192,111765,1,12,0:0:0:0:
256,192,111934,1,0,0:0:0:0:
256,192,112019,1,0,0:0:0:0:
256,192,112104,1,0,0:0:0:0:
256,192,112273,1,8,0:0:0:0:
256,192,112612,1,0,0:0:0:0:
256,192,112782,1,0,0:0:0:0:
256,192,112951,1,8,0:0:0:0:
256,192,113290,1,0,0:0:0:0:
256,192,113460,1,0,0:0:0:0:
256,192,113629,1,8,0:0:0:0:
256,192,113968,1,0,0:0:0:0:
256,192,114138,1,0,0:0:0:0:
256,192,114307,1,0,0:0:0:0:
256,192,114477,1,8,0:0:0:0:
256,192,114646,1,0,0:0:0:0:
256,192,114731,1,8,0:0:0:0:
256,192,114816,1,0,0:0:0:0:
256,192,114985,1,8,0:0:0:0:
256,192,115324,1,0,0:0:0:0:
256,192,115493,1,8,0:0:0:0:
256,192,115663,1,8,0:0:0:0:
256,192,116002,1,0,0:0:0:0:
256,192,116172,1,0,0:0:0:0:
256,192,116341,1,0,0:0:0:0:
256,192,116511,1,8,0:0:0:0:
256,192,116680,1,0,0:0:0:0:
256,192,116850,1,0,0:0:0:0:
256,192,117019,1,0,0:0:0:0:
256,192,117189,1,0,0:0:0:0:
256,192,117358,1,0,0:0:0:0:
256,192,117528,1,8,0:0:0:0:
256,192,117697,1,0,0:0:0:0:
256,192,117867,1,8,0:0:0:0:
256,192,118036,1,8,0:0:0:0:
256,192,118206,1,0,0:0:0:0:
256,192,118375,1,8,0:0:0:0:
256,192,118545,1,0,0:0:0:0:
256,192,118714,1,8,0:0:0:0:
256,192,118884,1,8,0:0:0:0:
256,192,119053,1,0,0:0:0:0:
256,192,119223,1,8,0:0:0:0:
256,192,119392,1,0,0:0:0:0:
256,192,119562,1,0,0:0:0:0:
256,192,119731,1,8,0:0:0:0:
256,192,119901,1,0,0:0:0:0:
256,192,119985,1,0,0:0:0:0:
256,192,120070,1,0,0:0:0:0:
256,192,120155,1,0,0:0:0:0:
256,192,120240,1,8,0:0:0:0:
256,192,120324,1,0,0:0:0:0:
256,192,120409,1,8,0:0:0:0:
256,192,120494,1,8,0:0:0:0:
256,192,120579,1,0,0:0:0:0:
256,192,120663,1,0,0:0:0:0:
256,192,120748,1,8,0:0:0:0:
256,192,120833,1,8,0:0:0:0:
256,192,120918,1,0,0:0:0:0:
256,192,121002,1,8,0:0:0:0:
256,192,121087,1,8,0:0:0:0:
256,192,121172,1,8,0:0:0:0:
256,192,121256,1,0,0:0:0:0:
256,192,121595,1,0,0:0:0:0:
256,192,121765,1,8,0:0:0:0:
256,192,121934,1,0,0:0:0:0:
256,192,122019,1,0,0:0:0:0:
256,192,122104,1,0,0:0:0:0:
256,192,122273,1,12,0:0:0:0:
177,242,122612,5,4,0:0:0:0:
179,218,122782,1,8,0:0:0:0:
137,160,122951,1,0,0:0:0:0:
151,142,123036,1,0,0:0:0:0:
179,218,123121,1,8,0:0:0:0:
137,160,123290,1,0,0:0:0:0:
79,148,123460,1,8,0:0:0:0:
201,147,123545,1,8,0:0:0:0:
79,148,123629,1,0,0:0:0:0:
201,147,123714,1,0,0:0:0:0:
179,218,123799,1,8,0:0:0:0:
137,160,123968,1,0,0:0:0:0:
146,134,124138,1,8,0:0:0:0:
143,146,124223,1,0,0:0:0:0:
179,218,124307,1,0,0:0:0:0:
153,107,124477,1,8,0:0:0:0:
153,107,124646,1,0,0:0:0:0:
141,137,124731,1,0,0:0:0:0:
141,133,124816,1,8,0:0:0:0:
181,171,124901,1,8,0:0:0:0:
105,184,124985,1,0,0:0:0:0:
168,156,125155,1,8,0:0:0:0:
168,156,125240,1,0,0:0:0:0:
170,92,125324,1,8,0:0:0:0:
170,92,125494,1,8,0:0:0:0:
164,143,125663,1,0,0:0:0:0:
176,81,125748,1,0,0:0:0:0:
164,143,125833,1,8,0:0:0:0:
143,124,126002,1,0,0:0:0:0:
201,148,126172,1,0,0:0:0:0:
122,140,126256,1,8,0:0:0:0:
164,143,126341,1,0,0:0:0:0:
122,140,126426,1,0,0:0:0:0:
164,143,126511,1,8,0:0:0:0:
199,124,126680,1,0,0:0:0:0:
201,148,126850,1,8,0:0:0:0:
79,218,126934,1,8,0:0:0:0:
156,139,127019,1,0,0:0:0:0:
79,148,127189,1,8,0:0:0:0:
192,56,127273,1,0,0:0:0:0:
151,97,127358,1,8,0:0:0:0:
163,66,127443,1,8,0:0:0:0:
156,139,127528,1,0,0:0:0:0:
132,104,127697,1,8,0:0:0:0:
133,172,127867,1,0,0:0:0:0:
133,172,128036,1,8,0:0:0:0:
179,218,128206,1,8,0:0:0:0:
160,97,128290,1,8,0:0:0:0:
137,160,128375,1,0,0:0:0:0:
179,218,128545,1,8,0:0:0:0:
137,160,128714,1,0,0:0:0:0:
163,61,128799,1,0,0:0:0:0:
168,102,128884,1,8,0:0:0:0:
161,87,128968,1,8,0:0:0:0:
179,218,129053,1,0,0:0:0:0:
179,218,129223,1,8,0:0:0:0:
137,160,129392,1,0,0:0:0:0:
165,93,129477,1,0,0:0:0:0:
146,134,129562,1,8,0:0:0:0:
179,218,129731,1,0,0:0:0:0:
153,107,129901,1,8,0:0:0:0:
201,147,129985,1,8,0:0:0:0:
153,107,130070,1,0,0:0:0:0:
154,176,130155,1,0,0:0:0:0:
141,133,130240,1,8,0:0:0:0:
132,101,130409,1,0,0:0:0:0:
132,101,130579,1,8,0:0:0:0:
132,101,130663,1,0,0:0:0:0:
141,112,130748,1,8,0:0:0:0:
170,92,130918,1,8,0:0:0:0:
164,143,131087,1,0,0:0:0:0:
172,131,131256,1,0,0:0:0:0:
201,143,131341,1,8,0:0:0:0:
143,124,131426,1,0,0:0:0:0:
216,148,131511,1,0,0:0:0:0:
166,72,131595,1,8,0:0:0:0:
161,87,131680,1,8,0:0:0:0:
145,63,131765,1,0,0:0:0:0:
146,68,131934,1,8,0:0:0:0:
199,124,132104,1,0,0:0:0:0:
166,73,132273,1,0,0:0:0:0:
138,64,132358,1,8,0:0:0:0:
138,64,132443,1,0,0:0:0:0:
139,76,132612,1,0,0:0:0:0:
156,139,132782,1,8,0:0:0:0:
161,112,132867,1,8,0:0:0:0:
156,139,132952,1,0,0:0:0:0:
201,118,133036,1,0,0:0:0:0:
156,139,133121,1,8,0:0:0:0:
147,74,133206,1,0,0:0:0:0:
176,78,133290,1,8,0:0:0:0:
177,242,133460,5,4,0:0:0:0:
179,218,133630,1,8,0:0:0:0:
137,160,133799,1,0,0:0:0:0:
151,142,133884,1,0,0:0:0:0:
179,218,133969,1,8,0:0:0:0:
137,160,134138,1,0,0:0:0:0:
79,148,134308,1,8,0:0:0:0:
201,147,134393,1,8,0:0:0:0:
79,148,134477,1,0,0:0:0:0:
201,147,134562,1,0,0:0:0:0:
179,218,134647,1,8,0:0:0:0:
137,160,134816,1,0,0:0:0:0:
146,134,134986,1,8,0:0:0:0:
143,146,135071,1,0,0:0:0:0:
179,218,135155,1,0,0:0:0:0:
153,107,135325,1,8,0:0:0:0:
153,107,135494,1,0,0:0:0:0:
141,137,135579,1,0,0:0:0:0:
141,133,135664,1,8,0:0:0:0:
181,171,135749,1,8,0:0:0:0:
105,184,135833,1,0,0:0:0:0:
168,156,136003,1,8,0:0:0:0:
168,156,136088,1,0,0:0:0:0:
170,92,136172,1,8,0:0:0:0:
170,92,136342,1,8,0:0:0:0:
164,143,136511,1,0,0:0:0:0:
176,81,136596,1,0,0:0:0:0:
164,143,136681,1,8,0:0:0:0:
143,124,136850,1,0,0:0:0:0:
201,148,137020,1,0,0:0:0:0:
122,140,137104,1,8,0:0:0:0:
164,143,137189,1,0,0:0:0:0:
164,143,137359,1,0,0:0:0:0:
165,118,137443,1,8,0:0:0:0:
199,124,137528,1,8,0:0:0:0:
165,118,137612,1,8,0:0:0:0:
136,86,137697,1,0,0:0:0:0:
128,125,137867,1,0,0:0:0:0:
79,148,138037,1,8,0:0:0:0:
192,56,138121,1,0,0:0:0:0:
151,97,138206,1,8,0:0:0:0:
163,66,138291,1,8,0:0:0:0:
156,139,138376,1,0,0:0:0:0:
128,125,138460,1,0,0:0:0:0:
132,104,138545,1,8,0:0:0:0:
133,172,138715,1,0,0:0:0:0:
215,108,138884,5,12,0:0:0:0:
215,108,139053,1,8,0:0:0:0:
182,146,139223,1,0,0:0:0:0:
182,146,139307,1,0,0:0:0:0:
182,146,139392,1,8,0:0:0:0:
182,146,139477,1,8,0:0:0:0:
182,146,139562,1,0,0:0:0:0:
182,146,139731,1,8,0:0:0:0:
182,146,139816,1,0,0:0:0:0:
182,146,139901,1,0,0:0:0:0:
182,146,140070,1,0,0:0:0:0:
182,146,140240,1,8,0:0:0:0:
182,146,140409,1,8,0:0:0:0:
182,146,140494,1,8,0:0:0:0:
182,146,140579,1,0,0:0:0:0:
174,95,140663,1,0,0:0:0:0:
182,146,140748,1,8,0:0:0:0:
182,146,140917,1,0,0:0:0:0:
186,122,141002,1,0,0:0:0:0:
182,146,141087,1,8,0:0:0:0:
182,146,141256,1,0,0:0:0:0:
153,107,141426,1,0,0:0:0:0:
153,107,141595,1,12,0:0:0:0:
153,107,141765,1,0,0:0:0:0:
148,100,141850,1,0,0:0:0:0:
148,100,141934,1,8,0:0:0:0:
148,100,142019,1,0,0:0:0:0:
164,143,142105,1,8,0:0:0:0:
131,57,142189,1,8,0:0:0:0:
143,124,142274,1,0,0:0:0:0:
199,124,142444,1,8,0:0:0:0:
148,100,142528,1,8,0:0:0:0:
164,143,142613,1,0,0:0:0:0:
151,67,142697,1,0,0:0:0:0:
171,67,142782,1,8,0:0:0:0:
148,100,142867,1,0,0:0:0:0:
148,157,142951,1,8,0:0:0:0:
126,159,143121,1,0,0:0:0:0:
164,143,143206,1,8,0:0:0:0:
148,157,143290,1,0,0:0:0:0:
148,157,143375,1,0,0:0:0:0:
148,157,143460,1,8,0:0:0:0:
148,157,143545,1,0,0:0:0:0:
148,158,143629,1,8,0:0:0:0:
150,157,143714,1,8,0:0:0:0:
150,157,143799,1,0,0:0:0:0:
126,159,143968,1,12,0:0:0:0:
148,157,144307,1,4,0:0:0:0:
106,132,144477,1,0,0:0:0:0:
106,132,144646,1,8,0:0:0:0:
190,72,144731,1,8,0:0:0:0:
172,109,144816,1,0,0:0:0:0:
172,109,144985,1,8,0:0:0:0:
172,109,145155,1,0,0:0:0:0:
172,109,145240,1,0,0:0:0:0:
172,109,145324,1,8,0:0:0:0:
171,102,145494,1,8,0:0:0:0:
173,100,145663,1,0,0:0:0:0:
156,87,145748,1,0,0:0:0:0:
173,100,145833,1,8,0:0:0:0:
166,105,145917,1,0,0:0:0:0:
173,100,146002,1,8,0:0:0:0:
190,158,146172,1,8,0:0:0:0:
187,73,146341,1,0,0:0:0:0:
187,73,146511,1,8,0:0:0:0:
183,97,146595,1,0,0:0:0:0:
187,73,146680,1,0,0:0:0:0:
171,106,146850,1,8,0:0:0:0:
173,100,147019,1,0,0:0:0:0:
187,73,147189,1,0,0:0:0:0:
187,73,147273,1,0,0:0:0:0:
171,102,147358,1,8,0:0:0:0:
141,163,147528,1,0,0:0:0:0:
141,163,147697,1,8,0:0:0:0:
190,92,147782,1,0,0:0:0:0:
173,100,147867,1,8,0:0:0:0:
151,71,147951,1,8,0:0:0:0:
173,100,148036,1,0,0:0:0:0:
170,96,148206,1,8,0:0:0:0:
208,151,148290,1,8,0:0:0:0:
176,101,148375,1,0,0:0:0:0:
105,145,148545,1,8,0:0:0:0:
105,145,148714,1,0,0:0:0:0:
180,120,148799,1,0,0:0:0:0:
105,153,148884,1,8,0:0:0:0:
128,82,149053,1,0,0:0:0:0:
190,72,149223,1,8,0:0:0:0:
195,147,149307,1,8,0:0:0:0:
149,108,149392,1,0,0:0:0:0:
149,108,149477,1,8,0:0:0:0:
149,108,149562,1,0,0:0:0:0:
161,48,149731,1,0,0:0:0:0:
145,111,149985,1,0,0:0:0:0:
198,102,150070,1,8,0:0:0:0:
187,196,150240,1,0,0:0:0:0:
187,196,150409,1,8,0:0:0:0:
120,151,150494,1,0,0:0:0:0:
187,196,150579,1,0,0:0:0:0:
176,103,150748,1,8,0:0:0:0:
186,65,150917,1,8,0:0:0:0:
120,151,151002,1,8,0:0:0:0:
180,102,151087,1,0,0:0:0:0:
120,151,151341,1,0,0:0:0:0:
189,189,151426,1,8,0:0:0:0:
189,189,151595,1,0,0:0:0:0:
182,54,151680,1,0,0:0:0:0:
181,102,151765,1,8,0:0:0:0:
188,189,151934,1,0,0:0:0:0:
180,102,152104,1,8,0:0:0:0:
153,198,152189,1,8,0:0:0:0:
153,198,152273,1,0,0:0:0:0:
192,107,152443,1,0,0:0:0:0:
164,90,152528,1,0,0:0:0:0:
145,112,152697,1,0,0:0:0:0:
174,117,152782,1,8,0:0:0:0:
164,90,152951,1,0,0:0:0:0:
164,90,153121,1,8,0:0:0:0:
164,90,153206,1,0,0:0:0:0:
159,141,153375,1,0,0:0:0:0:
138,77,153460,1,8,0:0:0:0:
183,109,153629,1,8,0:0:0:0:
149,126,153799,1,0,0:0:0:0:
177,61,153968,1,0,0:0:0:0:
177,60,154053,1,8,0:0:0:0:
190,66,154138,1,0,0:0:0:0:
190,66,154307,1,8,0:0:0:0:
146,95,154477,1,0,0:0:0:0:
155,71,154562,1,8,0:0:0:0:
176,93,154646,1,0,0:0:0:0:
155,71,154731,1,0,0:0:0:0:
143,185,154816,1,0,0:0:0:0:
143,185,154985,1,8,0:0:0:0:
148,157,155155,1,4,0:0:0:0:
106,132,155494,1,8,0:0:0:0:
172,109,155664,1,0,0:0:0:0:
211,142,155748,1,0,0:0:0:0:
172,109,155833,1,8,0:0:0:0:
172,109,156003,1,0,0:0:0:0:
172,109,156172,1,8,0:0:0:0:
186,147,156256,1,0,0:0:0:0:
171,102,156342,1,8,0:0:0:0:
173,100,156511,1,0,0:0:0:0:
151,177,156680,1,8,0:0:0:0:
154,152,156765,1,0,0:0:0:0:
128,79,156850,1,8,0:0:0:0:
151,177,156934,1,8,0:0:0:0:
163,74,157019,1,0,0:0:0:0:
156,121,157104,1,8,0:0:0:0:
151,85,157189,1,0,0:0:0:0:
151,85,157358,1,8,0:0:0:0:
183,97,157443,1,0,0:0:0:0:
187,73,157528,1,0,0:0:0:0:
171,106,157698,1,8,0:0:0:0:
173,100,157867,1,0,0:0:0:0:
187,73,158037,1,0,0:0:0:0:
187,73,158121,1,0,0:0:0:0:
171,102,158206,1,8,0:0:0:0:
141,163,158376,1,8,0:0:0:0:
141,163,158545,1,0,0:0:0:0:
173,100,158715,1,8,0:0:0:0:
166,99,158799,1,8,0:0:0:0:
173,100,158884,1,0,0:0:0:0:
170,96,159054,1,0,0:0:0:0:
208,151,159138,1,8,0:0:0:0:
176,101,159223,1,8,0:0:0:0:
166,136,159307,1,8,0:0:0:0:
105,145,159393,5,0,0:0:0:0:
136,146,159562,1,8,0:0:0:0:
171,120,159731,1,8,0:0:0:0:
171,120,159901,1,0,0:0:0:0:
196,153,159985,1,0,0:0:0:0:
190,72,160071,1,8,0:0:0:0:
195,147,160155,1,8,0:0:0:0:
149,108,160240,1,0,0:0:0:0:
149,108,160325,1,8,0:0:0:0:
149,108,160410,1,0,0:0:0:0:
131,133,160579,5,4,0:0:0:0:
184,105,160833,1,0,0:0:0:0:
131,133,160917,1,8,0:0:0:0:
131,133,161087,1,0,0:0:0:0:
131,133,161256,1,8,0:0:0:0:
123,107,161341,1,0,0:0:0:0:
123,107,161426,1,0,0:0:0:0:
131,133,161595,1,8,0:0:0:0:
131,133,161765,1,8,0:0:0:0:
154,90,161850,1,8,0:0:0:0:
131,133,161934,1,0,0:0:0:0:
184,105,162189,1,0,0:0:0:0:
184,105,162273,1,8,0:0:0:0:
184,105,162443,1,0,0:0:0:0:
131,133,162528,1,0,0:0:0:0:
151,86,162612,1,8,0:0:0:0:
151,86,162782,1,0,0:0:0:0:
151,86,162951,1,8,0:0:0:0:
151,86,163036,1,8,0:0:0:0:
123,107,163121,1,0,0:0:0:0:
151,155,163290,5,4,0:0:0:0:
111,169,163460,1,0,0:0:0:0:
106,158,163629,1,8,0:0:0:0:
106,158,163799,1,8,0:0:0:0:
111,169,163968,1,0,0:0:0:0:
106,158,164138,1,8,0:0:0:0:
111,169,164307,1,8,0:0:0:0:
109,163,164477,1,8,0:0:0:0:
151,155,164646,1,4,0:0:0:0:
164,117,164985,5,8,0:0:0:0:
164,117,165155,1,8,0:0:0:0:
164,117,165324,1,0,0:0:0:0:
164,117,165409,1,0,0:0:0:0:
164,117,165494,1,0,0:0:0:0:
164,117,165663,1,12,0:0:0:0:
256,192,166002,5,4,0:0:0:0:
256,192,166256,1,8,0:0:0:0:
256,192,166340,1,0,0:0:0:0:
256,192,166510,1,8,0:0:0:0:
256,192,166679,1,8,0:0:0:0:
256,192,166764,1,8,0:0:0:0:
256,192,166849,1,8,0:0:0:0:
256,192,166934,1,8,0:0:0:0:
256,192,167018,1,8,0:0:0:0:
256,192,167188,1,0,0:0:0:0:
256,192,167527,1,8,0:0:0:0:
256,192,167696,1,8,0:0:0:0:
256,192,167781,1,8,0:0:0:0:
256,192,167951,1,8,0:0:0:0:
256,192,168035,1,0,0:0:0:0:
256,192,168120,1,8,0:0:0:0:
256,192,168206,1,8,0:0:0:0:
256,192,168290,1,8,0:0:0:0:
256,192,168374,1,0,0:0:0:0:
256,192,168544,1,8,0:0:0:0:
256,192,168713,1,8,0:0:0:0:
256,192,168968,1,8,0:0:0:0:
256,192,169052,1,0,0:0:0:0:
256,192,169222,1,8,0:0:0:0:
256,192,169391,1,8,0:0:0:0:
256,192,169476,1,8,0:0:0:0:
256,192,169561,1,8,0:0:0:0:
256,192,169646,1,8,0:0:0:0:
256,192,169730,1,8,0:0:0:0:
256,192,169900,1,0,0:0:0:0:
256,192,170239,1,8,0:0:0:0:
256,192,170408,1,0,0:0:0:0:
256,192,170493,1,8,0:0:0:0:
256,192,170663,1,8,0:0:0:0:
256,192,170747,1,0,0:0:0:0:
256,192,170832,1,8,0:0:0:0:
256,192,170917,1,8,0:0:0:0:
256,192,171002,1,0,0:0:0:0:
256,192,171086,1,8,0:0:0:0:
256,192,171256,1,0,0:0:0:0:
256,192,171425,1,8,0:0:0:0:
256,192,171679,1,8,0:0:0:0:
256,192,171765,1,0,0:0:0:0:
256,192,171934,1,8,0:0:0:0:
256,192,172104,1,8,0:0:0:0:
256,192,172189,1,8,0:0:0:0:
256,192,172273,1,8,0:0:0:0:
256,192,172359,1,8,0:0:0:0:
256,192,172443,1,8,0:0:0:0:
256,192,172611,1,0,0:0:0:0:
256,192,172950,1,8,0:0:0:0:
256,192,173121,1,8,0:0:0:0:
256,192,173206,1,8,0:0:0:0:
256,192,173374,1,8,0:0:0:0:
256,192,173460,1,0,0:0:0:0:
256,192,173545,1,8,0:0:0:0:
256,192,173629,1,8,0:0:0:0:
256,192,173713,1,8,0:0:0:0:
256,192,173799,1,0,0:0:0:0:
256,192,173967,1,8,0:0:0:0:
256,192,174138,1,8,0:0:0:0:
256,192,174393,1,8,0:0:0:0:
256,192,174477,1,0,0:0:0:0:
256,192,174645,1,8,0:0:0:0:
256,192,174816,1,8,0:0:0:0:
256,192,174901,1,8,0:0:0:0:
256,192,174986,1,8,0:0:0:0:
256,192,175071,1,8,0:0:0:0:
256,192,175155,1,8,0:0:0:0:
256,192,175323,1,0,0:0:0:0:
256,192,175493,1,8,0:0:0:0:
256,192,175663,1,8,0:0:0:0:
256,192,175833,1,0,0:0:0:0:
256,192,175917,1,8,0:0:0:0:
256,192,176002,1,0,0:0:0:0:
256,192,176172,1,4,0:0:0:0:
256,192,176340,1,8,0:0:0:0:
256,192,176511,1,0,0:0:0:0:
256,192,176553,1,0,0:0:0:0:
256,192,176680,1,8,0:0:0:0:
256,192,176849,5,4,0:0:0:0:
256,192,177189,1,12,0:0:0:0:
256,192,177359,1,0,0:0:0:0:
256,192,177528,1,8,0:0:0:0:
256,192,177698,1,0,0:0:0:0:
256,192,177783,1,8,0:0:0:0:
256,192,177952,1,0,0:0:0:0:
256,192,178037,1,8,0:0:0:0:
156,118,178121,1,8,0:0:0:0:
256,192,178206,1,0,0:0:0:0:
256,192,178376,1,8,0:0:0:0:
256,192,178461,1,8,0:0:0:0:
256,192,178545,1,8,0:0:0:0:
256,192,178715,1,0,0:0:0:0:
256,192,178884,1,0,0:0:0:0:
256,192,178969,1,8,0:0:0:0:
256,192,179054,1,0,0:0:0:0:
256,192,179139,1,0,0:0:0:0:
256,192,179223,1,8,0:0:0:0:
156,118,179307,1,0,0:0:0:0:
256,192,179393,1,8,0:0:0:0:
256,192,179562,1,0,0:0:0:0:
256,192,179647,1,0,0:0:0:0:
172,136,179732,1,0,0:0:0:0:
256,192,179817,1,0,0:0:0:0:
256,192,179901,1,8,0:0:0:0:
256,192,180071,1,8,0:0:0:0:
156,118,180155,1,8,0:0:0:0:
256,192,180240,1,0,0:0:0:0:
256,192,180325,1,0,0:0:0:0:
256,192,180410,1,8,0:0:0:0:
181,92,180467,1,8,0:0:0:0:
181,92,180523,1,8,0:0:0:0:
256,192,180579,1,0,0:0:0:0:
256,192,180749,1,8,0:0:0:0:
256,192,180918,1,0,0:0:0:0:
157,85,181003,1,0,0:0:0:0:
196,116,181088,1,8,0:0:0:0:
256,192,181172,1,0,0:0:0:0:
196,116,181256,1,8,0:0:0:0:
151,118,181341,1,8,0:0:0:0:
180,70,181426,1,0,0:0:0:0:
256,192,181595,1,0,0:0:0:0:
256,192,181680,1,0,0:0:0:0:
256,192,181765,1,8,0:0:0:0:
256,192,181934,1,8,0:0:0:0:
151,118,182019,1,8,0:0:0:0:
256,192,182104,1,0,0:0:0:0:
256,192,182189,1,0,0:0:0:0:
256,192,182273,1,8,0:0:0:0:
256,192,182443,1,0,0:0:0:0:
256,192,182612,1,8,0:0:0:0:
256,192,182697,1,8,0:0:0:0:
256,192,182782,1,0,0:0:0:0:
256,192,182951,1,8,0:0:0:0:
256,192,183121,1,0,0:0:0:0:
256,192,183206,1,8,0:0:0:0:
152,118,183290,1,8,0:0:0:0:
256,192,183375,1,0,0:0:0:0:
256,192,183460,1,8,0:0:0:0:
256,192,183629,1,0,0:0:0:0:
256,192,183799,1,8,0:0:0:0:
256,192,183884,1,8,0:0:0:0:
256,192,183968,1,8,0:0:0:0:
256,192,184138,1,0,0:0:0:0:
256,192,184307,1,0,0:0:0:0:
256,192,184392,1,8,0:0:0:0:
256,192,184477,1,0,0:0:0:0:
256,192,184562,1,0,0:0:0:0:
256,192,184646,1,8,0:0:0:0:
158,148,184816,1,0,0:0:0:0:
256,192,184985,1,0,0:0:0:0:
157,111,185070,1,0,0:0:0:0:
256,192,185155,1,8,0:0:0:0:
256,192,185241,1,0,0:0:0:0:
123,115,185324,1,0,0:0:0:0:
152,118,185409,1,0,0:0:0:0:
151,69,185494,5,8,0:0:0:0:
151,69,185550,1,8,0:0:0:0:
151,78,185607,1,8,0:0:0:0:
152,85,185663,1,0,0:0:0:0:
152,131,185748,1,0,0:0:0:0:
256,192,185833,1,8,0:0:0:0:
256,192,185917,1,8,0:0:0:0:
256,192,186002,1,0,0:0:0:0:
256,192,186087,1,8,0:0:0:0:
256,192,186172,1,0,0:0:0:0:
100,163,186341,1,0,0:0:0:0:
182,232,186680,1,0,0:0:0:0:
91,154,186850,1,8,0:0:0:0:
91,154,187019,1,0,0:0:0:0:
91,154,187104,1,0,0:0:0:0:
96,163,187189,1,0,0:0:0:0:
256,192,187358,1,12,0:0:0:0:
256,192,187697,1,4,0:0:0:0:
256,192,188036,1,0,0:0:0:0:
256,192,188206,1,8,0:0:0:0:
256,192,188375,1,0,0:0:0:0:
256,192,188460,1,0,0:0:0:0:
256,192,188545,1,0,0:0:0:0:
256,192,188714,1,8,0:0:0:0:
256,192,188884,1,0,0:0:0:0:
256,192,189053,1,8,0:0:0:0:
256,192,189223,1,8,0:0:0:0:
256,192,189307,1,8,0:0:0:0:
256,192,189392,1,0,0:0:0:0:
256,192,189562,1,0,0:0:0:0:
256,192,189731,1,0,0:0:0:0:
256,192,189816,1,0,0:0:0:0:
256,192,189901,1,0,0:0:0:0:
256,192,190070,1,8,0:0:0:0:
256,192,190240,1,0,0:0:0:0:
256,192,190409,1,8,0:0:0:0:
256,192,190494,1,8,0:0:0:0:
256,192,190579,1,8,0:0:0:0:
256,192,190748,1,0,0:0:0:0:
256,192,190917,1,8,0:0:0:0:
256,192,191087,1,8,0:0:0:0:
256,192,191256,1,8,0:0:0:0:
256,192,191341,1,0,0:0:0:0:
256,192,191426,1,0,0:0:0:0:
256,192,191595,1,8,0:0:0:0:
256,192,191765,1,0,0:0:0:0:
256,192,191934,1,8,0:0:0:0:
256,192,192019,1,8,0:0:0:0:
256,192,192104,1,0,0:0:0:0:
256,192,192273,1,8,0:0:0:0:
256,192,192443,1,0,0:0:0:0:
256,192,192528,1,0,0:0:0:0:
256,192,192612,1,8,0:0:0:0:
256,192,192697,1,8,0:0:0:0:
256,192,192782,1,0,0:0:0:0:
256,192,192951,1,0,0:0:0:0:
256,192,193121,1,0,0:0:0:0:
256,192,193460,1,8,0:0:0:0:
256,192,193629,1,0,0:0:0:0:
256,192,193799,1,8,0:0:0:0:
256,192,193884,1,8,0:0:0:0:
256,192,193968,1,0,0:0:0:0:
256,192,194138,1,0,0:0:0:0:
256,192,194307,1,8,0:0:0:0:
256,192,194392,1,0,0:0:0:0:
256,192,194477,1,8,0:0:0:0:
256,192,194646,1,0,0:0:0:0:
256,192,194731,1,0,0:0:0:0:
256,192,194816,1,8,0:0:0:0:
256,192,194985,1,0,0:0:0:0:
256,192,195155,1,8,0:0:0:0:
256,192,195240,1,8,0:0:0:0:
256,192,195324,1,0,0:0:0:0:
256,192,195494,1,8,0:0:0:0:
256,192,195663,1,0,0:0:0:0:
256,192,195833,1,8,0:0:0:0:
256,192,195917,1,8,0:0:0:0:
256,192,196002,1,0,0:0:0:0:
256,192,196087,1,0,0:0:0:0:
256,192,196172,1,0,0:0:0:0:
256,192,196341,1,8,0:0:0:0:
256,192,196511,1,0,0:0:0:0:
256,192,196680,1,8,0:0:0:0:
256,192,196765,1,8,0:0:0:0:
256,192,196850,1,0,0:0:0:0:
256,192,197019,1,12,0:0:0:0:
256,192,197358,1,12,0:0:0:0:
256,192,197697,1,12,0:0:0:0:
256,192,198036,1,12,0:0:0:0:
256,192,198206,1,4,0:0:0:0:
256,192,198375,1,8,0:0:0:0:
256,192,198545,1,0,0:0:0:0:
256,192,198884,1,4,0:0:0:0:
256,192,199053,1,8,0:0:0:0:
256,192,199223,1,0,0:0:0:0:
256,192,199392,1,8,0:0:0:0:
256,192,199477,1,8,0:0:0:0:
256,192,199562,1,0,0:0:0:0:
256,192,199731,1,8,0:0:0:0:
256,192,199901,1,0,0:0:0:0:
256,192,200070,1,8,0:0:0:0:
256,192,200155,1,0,0:0:0:0:
256,192,200240,1,8,0:0:0:0:
256,192,200409,1,0,0:0:0:0:
256,192,200579,1,8,0:0:0:0:
256,192,200663,1,0,0:0:0:0:
256,192,200748,1,0,0:0:0:0:
256,192,200917,1,8,0:0:0:0:
256,192,201087,1,0,0:0:0:0:
256,192,201256,1,8,0:0:0:0:
256,192,201341,1,0,0:0:0:0:
256,192,201426,1,0,0:0:0:0:
256,192,201595,1,8,0:0:0:0:
256,192,201765,1,0,0:0:0:0:
256,192,201850,1,0,0:0:0:0:
256,192,201934,1,8,0:0:0:0:
256,192,202104,1,8,0:0:0:0:
256,192,202273,1,0,0:0:0:0:
256,192,202443,1,8,0:0:0:0:
256,192,202612,1,0,0:0:0:0:
256,192,202782,1,8,0:0:0:0:
256,192,202951,1,0,0:0:0:0:
256,192,203036,1,0,0:0:0:0:
256,192,203121,1,8,0:0:0:0:
256,192,203206,1,8,0:0:0:0:
256,192,203290,1,0,0:0:0:0:
256,192,203460,1,8,0:0:0:0:
256,192,203629,1,0,0:0:0:0:
256,192,203799,1,0,0:0:0:0:
256,192,203968,1,4,0:0:0:0:
256,192,204307,1,8,0:0:0:0:
256,192,204477,1,0,0:0:0:0:
256,192,204562,1,0,0:0:0:0:
256,192,204646,1,0,0:0:0:0:
256,192,204816,1,8,0:0:0:0:
256,192,204985,1,0,0:0:0:0:
256,192,205155,1,0,0:0:0:0:
256,192,205324,1,8,0:0:0:0:
256,192,205409,1,8,0:0:0:0:
256,192,205494,1,8,0:0:0:0:
256,192,205663,1,8,0:0:0:0:
256,192,205833,1,0,0:0:0:0:
256,192,206002,1,8,0:0:0:0:
256,192,206172,1,0,0:0:0:0:
256,192,206256,1,0,0:0:0:0:
256,192,206341,1,8,0:0:0:0:
256,192,206511,1,0,0:0:0:0:
256,192,206680,1,12,0:0:0:0:
256,192,207019,1,0,0:0:0:0:
256,192,207189,1,8,0:0:0:0:
256,192,207358,1,0,0:0:0:0:
256,192,207528,1,0,0:0:0:0:
256,192,207697,1,8,0:0:0:0:
256,192,207867,1,8,0:0:0:0:
256,192,208036,1,4,0:0:0:0:
256,192,208375,1,0,0:0:0:0:
256,192,208545,1,8,0:0:0:0:
256,192,208714,1,0,0:0:0:0:
256,192,208799,1,0,0:0:0:0:
256,192,208884,1,0,0:0:0:0:
256,192,208968,1,0,0:0:0:0:
256,192,209053,1,8,0:0:0:0:
256,192,209392,1,0,0:0:0:0:
256,192,209731,1,4,0:0:0:0:
256,192,210070,1,8,0:0:0:0:
256,192,210240,1,0,0:0:0:0:
256,192,210409,1,4,0:0:0:0:
256,192,210748,1,4,0:0:0:0:
256,192,211087,1,0,0:0:0:0:
256,192,211426,1,8,0:0:0:0:
256,192,211595,1,0,0:0:0:0:
256,192,211934,1,0,0:0:0:0:
256,192,212104,1,0,0:0:0:0:
256,192,212443,1,4,0:0:0:0:
256,192,212782,1,8,0:0:0:0:
256,192,213121,1,4,0:0:0:0:
256,192,213460,1,8,0:0:0:0:
256,192,213629,1,0,0:0:0:0:
256,192,213799,1,0,0:0:0:0:
256,192,214138,1,12,0:0:0:0:
256,192,214307,1,8,0:0:0:0:
256,192,214364,1,8,0:0:0:0:
256,192,214420,1,8,0:0:0:0:
256,192,214477,1,0,0:0:0:0:
256,192,214562,1,0,0:0:0:0:
256,192,214646,1,8,0:0:0:0:
256,192,214816,1,4,0:0:0:0:
256,192,215155,1,8,0:0:0:0:
256,192,215494,1,8,0:0:0:0:
256,192,215833,1,8,0:0:0:0:
256,192,216172,1,8,0:0:0:0:
256,192,216511,1,8,0:0:0:0:
256,192,216850,1,8,0:0:0:0:
256,192,217189,1,8,0:0:0:0:
256,192,217528,1,8,0:0:0:0:
256,192,217697,1,0,0:0:0:0:
256,192,217867,1,8,0:0:0:0:
256,192,218036,1,0,0:0:0:0:
256,192,218206,1,8,0:0:0:0:
256,192,218375,1,0,0:0:0:0:
256,192,218545,1,8,0:0:0:0:
256,192,218714,1,0,0:0:0:0:
256,192,218884,1,8,0:0:0:0:
256,192,218968,1,8,0:0:0:0:
256,192,219053,1,0,0:0:0:0:
256,192,219138,1,0,0:0:0:0:
256,192,219223,1,8,0:0:0:0:
256,192,219307,1,0,0:0:0:0:
256,192,219392,1,8,0:0:0:0:
256,192,219477,1,8,0:0:0:0:
256,192,219562,1,0,0:0:0:0:
256,192,219646,1,0,0:0:0:0:
256,192,219731,1,8,0:0:0:0:
256,192,219816,1,0,0:0:0:0:
256,192,219901,1,8,0:0:0:0:
256,192,219985,1,8,0:0:0:0:
256,192,220070,1,0,0:0:0:0:
256,192,220155,1,0,0:0:0:0:
256,192,220240,1,8,0:0:0:0:
256,192,220324,1,0,0:0:0:0:
256,192,220409,1,0,0:0:0:0:
256,192,220494,1,0,0:0:0:0:
256,192,220579,1,8,0:0:0:0:
256,192,220663,1,8,0:0:0:0:
256,192,220748,1,0,0:0:0:0:
256,192,220833,1,0,0:0:0:0:
256,192,220917,1,8,0:0:0:0:
256,192,221002,1,8,0:0:0:0:
256,192,221087,1,8,0:0:0:0:
256,192,221172,1,8,0:0:0:0:
256,192,221256,1,0,0:0:0:0:
256,192,221341,1,0,0:0:0:0:
256,192,221426,1,8,0:0:0:0:
256,192,221511,1,8,0:0:0:0:
256,192,221595,1,0,0:0:0:0:
256,192,221850,1,8,0:0:0:0:
256,192,221935,1,0,0:0:0:0:
256,192,222104,1,0,0:0:0:0:
256,192,222189,1,0,0:0:0:0:
256,192,222273,1,8,0:0:0:0:
256,192,222443,1,0,0:0:0:0:
256,192,222612,1,12,0:0:0:0:
126,180,222951,5,4,0:0:0:0:
126,180,224307,1,8,0:0:0:0:
171,191,225324,1,8,0:0:0:0:
171,191,225663,1,0,0:0:0:0:
171,191,227019,1,8,0:0:0:0:
171,191,227697,1,8,0:0:0:0:
171,191,228375,1,0,0:0:0:0:
169,191,229731,1,8,0:0:0:0:
169,191,231087,1,0,0:0:0:0:
203,188,232443,1,8,0:0:0:0:
203,188,233799,1,0,0:0:0:0:
203,188,235155,1,8,0:0:0:0:
203,188,236172,1,8,0:0:0:0:
203,188,236511,1,0,0:0:0:0:
203,188,237867,1,8,0:0:0:0:
203,188,238545,1,8,0:0:0:0:
203,188,239223,1,0,0:0:0:0:
203,188,240579,1,8,0:0:0:0:
256,192,241934,12,0,244477,0:0:0:0:
186,146,244646,5,4,0:0:0:0:
155,180,244985,1,0,0:0:0:0:
110,143,245155,1,8,0:0:0:0:
166,106,245494,1,0,0:0:0:0:
184,200,245663,1,8,0:0:0:0:
166,106,245833,1,8,0:0:0:0:
176,100,246172,1,0,0:0:0:0:
184,200,246341,1,8,0:0:0:0:
133,116,246511,1,8,0:0:0:0:
133,116,246850,1,0,0:0:0:0:
184,200,247019,1,8,0:0:0:0:
133,116,247189,1,0,0:0:0:0:
184,200,247358,1,8,0:0:0:0:
162,188,247528,1,8,0:0:0:0:
162,188,247697,1,0,0:0:0:0:
143,146,247867,1,8,0:0:0:0:
157,86,248206,1,0,0:0:0:0:
184,200,248375,1,8,0:0:0:0:
177,211,248545,1,8,0:0:0:0:
141,86,248884,1,0,0:0:0:0:
184,200,249053,1,8,0:0:0:0:
141,86,249223,1,0,0:0:0:0:
184,200,249392,1,8,0:0:0:0:
184,200,249562,1,8,0:0:0:0:
136,117,249731,1,0,0:0:0:0:
141,86,249901,1,0,0:0:0:0:
184,200,250070,1,8,0:0:0:0:
143,146,250409,1,0,0:0:0:0:
143,146,250579,1,8,0:0:0:0:
141,86,250917,1,0,0:0:0:0:
184,200,251087,1,8,0:0:0:0:
138,103,251256,1,8,0:0:0:0:
136,117,251595,1,0,0:0:0:0:
184,200,251765,1,8,0:0:0:0:
131,85,251934,1,8,0:0:0:0:
131,87,252273,1,0,0:0:0:0:
184,200,252443,1,8,0:0:0:0:
131,85,252612,1,0,0:0:0:0:
143,146,252782,1,8,0:0:0:0:
143,146,252951,1,8,0:0:0:0:
143,146,253121,1,0,0:0:0:0:
155,180,253290,1,0,0:0:0:0:
167,92,253629,1,8,0:0:0:0:
167,92,253799,1,0,0:0:0:0:
155,180,253968,1,0,0:0:0:0:
155,180,254307,1,8,0:0:0:0:
155,180,254477,1,0,0:0:0:0:
167,92,254646,1,0,0:0:0:0:
184,200,254816,1,8,0:0:0:0:
184,200,254985,1,8,0:0:0:0:
167,92,255155,1,0,0:0:0:0:
184,200,255324,1,8,0:0:0:0:
244,125,255494,1,4,0:0:0:0:
158,72,255833,1,0,0:0:0:0:
202,126,256002,1,8,0:0:0:0:
155,180,256172,1,0,0:0:0:0:
155,180,256341,1,0,0:0:0:0:
202,126,256511,1,8,0:0:0:0:
202,126,256680,1,8,0:0:0:0:
155,180,256850,1,0,0:0:0:0:
155,180,257019,1,0,0:0:0:0:
202,126,257189,1,8,0:0:0:0:
202,126,257358,1,8,0:0:0:0:
175,117,257528,1,0,0:0:0:0:
232,234,257697,1,0,0:0:0:0:
232,234,257867,1,8,0:0:0:0:
232,234,258036,1,0,0:0:0:0:
232,234,258206,1,8,0:0:0:0:
232,234,258375,1,8,0:0:0:0:
232,234,258545,1,0,0:0:0:0:
232,234,258714,1,8,0:0:0:0:
159,76,258884,1,0,0:0:0:0:
159,76,259053,1,0,0:0:0:0:
159,76,259223,1,8,0:0:0:0:
159,76,259392,1,8,0:0:0:0:
159,76,259562,1,0,0:0:0:0:
159,76,259731,5,0,0:0:0:0:
185,92,259901,1,8,0:0:0:0:
185,92,260070,1,0,0:0:0:0:
185,92,260240,1,8,0:0:0:0:
185,92,260409,1,8,0:0:0:0:
172,102,260579,1,0,0:0:0:0:
172,102,260748,1,0,0:0:0:0:
186,151,260917,5,8,0:0:0:0:
186,151,261087,1,0,0:0:0:0:
186,151,261256,1,8,0:0:0:0:
176,135,261426,1,8,0:0:0:0:
176,135,261595,1,0,0:0:0:0:
176,135,261765,1,0,0:0:0:0:
186,151,261934,1,8,0:0:0:0:
176,135,262104,1,0,0:0:0:0:
176,135,262273,1,8,0:0:0:0:
176,135,262443,1,0,0:0:0:0:
186,151,262612,1,8,0:0:0:0:
176,135,262782,1,8,0:0:0:0:
176,135,262951,1,0,0:0:0:0:
176,135,263121,1,0,0:0:0:0:
186,151,263290,1,8,0:0:0:0:
176,135,263460,1,0,0:0:0:0:
176,135,263629,1,8,0:0:0:0:
176,135,263714,1,8,0:0:0:0:
176,135,263799,1,0,0:0:0:0:
176,135,263884,1,0,0:0:0:0:
176,135,263968,1,8,0:0:0:0:
176,135,264053,1,0,0:0:0:0:
176,135,264138,1,8,0:0:0:0:
176,135,264223,1,8,0:0:0:0:
176,135,264307,1,0,0:0:0:0:
176,135,264392,1,0,0:0:0:0:
176,135,264477,1,8,0:0:0:0:
176,135,264562,1,0,0:0:0:0:
176,135,264646,1,8,0:0:0:0:
176,135,264731,1,8,0:0:0:0:
176,135,264816,1,8,0:0:0:0:
176,135,264901,1,8,0:0:0:0:
176,135,264985,1,0,0:0:0:0:
197,96,265324,1,8,0:0:0:0:
194,113,265494,1,8,0:0:0:0:
193,118,265663,1,0,0:0:0:0:
193,122,265748,1,0,0:0:0:0:
193,124,265833,1,0,0:0:0:0:
193,131,266002,1,12,0:0:0:0:
256,192,266341,1,12,0:0:0:0:
256,192,266511,1,0,0:0:0:0:
256,192,266680,1,0,0:0:0:0:
256,192,266765,1,0,0:0:0:0:
256,192,266850,1,8,0:0:0:0:
256,192,267019,1,0,0:0:0:0:
256,192,267189,1,8,0:0:0:0:
256,192,267273,1,0,0:0:0:0:
256,192,267358,1,8,0:0:0:0:
256,192,267528,1,0,0:0:0:0:
256,192,267697,1,8,0:0:0:0:
256,192,267782,1,8,0:0:0:0:
256,192,267867,1,0,0:0:0:0:
256,192,267951,1,0,0:0:0:0:
256,192,268036,1,8,0:0:0:0:
256,192,268206,1,0,0:0:0:0:
256,192,268375,1,8,0:0:0:0:
256,192,268460,1,0,0:0:0:0:
256,192,268545,1,0,0:0:0:0:
256,192,268714,1,0,0:0:0:0:
256,192,268884,1,8,0:0:0:0:
256,192,269053,1,8,0:0:0:0:
256,192,269138,1,8,0:0:0:0:
256,192,269223,1,0,0:0:0:0:
256,192,269392,1,0,0:0:0:0:
256,192,269562,1,8,0:0:0:0:
256,192,269731,1,8,0:0:0:0:
256,192,269901,1,0,0:0:0:0:
256,192,269985,1,8,0:0:0:0:
256,192,270070,1,0,0:0:0:0:
256,192,270240,1,8,0:0:0:0:
256,192,270409,1,0,0:0:0:0:
256,192,270494,1,0,0:0:0:0:
256,192,270579,1,8,0:0:0:0:
256,192,270663,1,8,0:0:0:0:
256,192,270748,1,0,0:0:0:0:
256,192,270917,1,8,0:0:0:0:
256,192,271002,1,8,0:0:0:0:
256,192,271087,1,8,0:0:0:0:
256,192,271256,1,8,0:0:0:0:
256,192,271426,1,0,0:0:0:0:
256,192,271595,1,0,0:0:0:0:
256,192,271765,1,8,0:0:0:0:
256,192,271934,1,0,0:0:0:0:
256,192,272103,1,0,0:0:0:0:
256,192,272188,1,0,0:0:0:0:
256,192,272273,1,8,0:0:0:0:
256,192,272442,1,0,0:0:0:0:
256,192,272612,1,8,0:0:0:0:
256,192,272696,1,0,0:0:0:0:
256,192,272781,1,8,0:0:0:0:
256,192,272951,1,0,0:0:0:0:
256,192,273120,1,8,0:0:0:0:
256,192,273205,1,8,0:0:0:0:
256,192,273290,1,0,0:0:0:0:
256,192,273374,1,0,0:0:0:0:
256,192,273459,1,8,0:0:0:0:
256,192,273629,1,0,0:0:0:0:
256,192,273798,1,8,0:0:0:0:
256,192,273883,1,0,0:0:0:0:
256,192,273968,1,0,0:0:0:0:
256,192,274137,1,0,0:0:0:0:
256,192,274307,1,8,0:0:0:0:
256,192,274476,1,8,0:0:0:0:
256,192,274561,1,8,0:0:0:0:
256,192,274646,1,0,0:0:0:0:
256,192,274815,1,0,0:0:0:0:
256,192,274985,1,8,0:0:0:0:
256,192,275154,1,8,0:0:0:0:
256,192,275324,1,8,0:0:0:0:
256,192,275408,1,0,0:0:0:0:
256,192,275493,1,0,0:0:0:0:
256,192,275663,1,8,0:0:0:0:
256,192,275832,1,0,0:0:0:0:
256,192,275917,1,8,0:0:0:0:
256,192,276002,1,0,0:0:0:0:
256,192,276086,1,8,0:0:0:0:
256,192,276171,1,0,0:0:0:0:
256,192,276340,1,8,0:0:0:0:
256,192,276510,1,8,0:0:0:0:
256,192,276679,1,8,0:0:0:0:
256,192,276765,1,8,0:0:0:0:
256,192,276849,1,0,0:0:0:0:
256,192,277018,1,0,0:0:0:0:
256,192,277189,1,12,0:0:0:0:
256,192,277358,1,0,0:0:0:0:
256,192,277528,1,0,0:0:0:0:
256,192,277612,1,0,0:0:0:0:
256,192,277697,1,8,0:0:0:0:
256,192,277867,1,8,0:0:0:0:
256,192,278036,1,0,0:0:0:0:
256,192,278121,1,0,0:0:0:0:
256,192,278206,1,0,0:0:0:0:
256,192,278375,1,8,0:0:0:0:
256,192,278545,1,8,0:0:0:0:
256,192,278714,1,0,0:0:0:0:
256,192,278799,1,0,0:0:0:0:
256,192,278884,1,8,0:0:0:0:
256,192,279053,1,0,0:0:0:0:
256,192,279223,1,0,0:0:0:0:
256,192,279392,1,8,0:0:0:0:
256,192,279477,1,8,0:0:0:0:
256,192,279562,1,0,0:0:0:0:
256,192,279731,1,0,0:0:0:0:
256,192,279901,1,8,0:0:0:0:
256,192,280070,1,8,0:0:0:0:
256,192,280155,1,0,0:0:0:0:
256,192,280240,1,0,0:0:0:0:
256,192,280409,1,8,0:0:0:0:
256,192,280579,1,8,0:0:0:0:
256,192,280748,1,0,0:0:0:0:
256,192,280833,1,0,0:0:0:0:
256,192,280917,1,8,0:0:0:0:
256,192,281087,1,8,0:0:0:0:
256,192,281256,1,0,0:0:0:0:
256,192,281341,1,0,0:0:0:0:
256,192,281426,1,8,0:0:0:0:
256,192,281511,1,8,0:0:0:0:
256,192,281595,1,0,0:0:0:0:
256,192,281765,1,8,0:0:0:0:
256,192,281850,1,0,0:0:0:0:
256,192,281934,1,8,0:0:0:0:
256,192,282104,1,8,0:0:0:0:
256,192,282273,1,0,0:0:0:0:
256,192,282443,1,0,0:0:0:0:
256,192,282612,1,12,0:0:0:0:
256,192,282782,1,0,0:0:0:0:
256,192,282951,1,0,0:0:0:0:
256,192,283036,1,0,0:0:0:0:
256,192,283121,1,8,0:0:0:0:
256,192,283290,1,8,0:0:0:0:
256,192,283460,1,0,0:0:0:0:
256,192,283545,1,0,0:0:0:0:
256,192,283629,1,0,0:0:0:0:
256,192,283799,1,8,0:0:0:0:
256,192,283968,1,8,0:0:0:0:
256,192,284053,1,8,0:0:0:0:
256,192,284138,1,0,0:0:0:0:
256,192,284307,1,0,0:0:0:0:
256,192,284477,1,8,0:0:0:0:
256,192,284646,1,8,0:0:0:0:
256,192,284816,1,0,0:0:0:0:
256,192,284901,1,8,0:0:0:0:
256,192,284985,1,0,0:0:0:0:
256,192,285155,1,8,0:0:0:0:
256,192,285324,1,8,0:0:0:0:
256,192,285409,1,8,0:0:0:0:
256,192,285494,1,0,0:0:0:0:
256,192,285579,1,0,0:0:0:0:
256,192,285663,1,8,0:0:0:0:
256,192,285748,1,0,0:0:0:0:
256,192,285833,1,8,0:0:0:0:
256,192,286002,1,0,0:0:0:0:
256,192,286087,1,8,0:0:0:0:
256,192,286172,1,0,0:0:0:0:
256,192,286256,1,0,0:0:0:0:
256,192,286341,1,8,0:0:0:0:
256,192,286426,1,8,0:0:0:0:
256,192,286511,1,0,0:0:0:0:
256,192,286595,1,8,0:0:0:0:
256,192,286680,1,0,0:0:0:0:
256,192,286850,1,8,0:0:0:0:
256,192,286935,1,8,0:0:0:0:
256,192,287019,1,0,0:0:0:0:
256,192,287104,1,0,0:0:0:0:
256,192,287189,1,8,0:0:0:0:
256,192,287274,1,0,0:0:0:0:
256,192,287358,1,8,0:0:0:0:
256,192,287443,1,8,0:0:0:0:
256,192,287528,1,0,0:0:0:0:
256,192,287697,1,12,0:0:0:0:
256,192,288036,1,4,0:0:0:0:
256,192,288206,1,8,0:0:0:0:
256,192,288290,1,8,0:0:0:0:
256,192,288375,1,8,0:0:0:0:
256,192,288545,1,0,0:0:0:0:
256,192,288714,1,8,0:0:0:0:
256,192,288799,1,8,0:0:0:0:
256,192,288884,1,0,0:0:0:0:
256,192,288968,1,0,0:0:0:0:
256,192,289053,1,8,0:0:0:0:
256,192,289223,1,0,0:0:0:0:
256,192,289307,1,0,0:0:0:0:
256,192,289392,1,8,0:0:0:0:
256,192,289562,1,8,0:0:0:0:
256,192,289731,1,0,0:0:0:0:
256,192,289901,1,8,0:0:0:0:
256,192,290070,1,0,0:0:0:0:
256,192,290155,1,8,0:0:0:0:
256,192,290240,1,8,0:0:0:0:
256,192,290409,1,0,0:0:0:0:
256,192,290579,1,8,0:0:0:0:
256,192,290663,1,8,0:0:0:0:
256,192,290748,1,0,0:0:0:0:
256,192,290917,1,0,0:0:0:0:
256,192,291087,1,8,0:0:0:0:
256,192,291256,1,0,0:0:0:0:
256,192,291426,1,8,0:0:0:0:
256,192,291511,1,0,0:0:0:0:
256,192,291595,1,0,0:0:0:0:
256,192,291765,1,0,0:0:0:0:
256,192,291934,1,8,0:0:0:0:
256,192,292019,1,8,0:0:0:0:
256,192,292104,1,8,0:0:0:0:
256,192,292273,1,8,0:0:0:0:
256,192,292443,1,0,0:0:0:0:
256,192,292612,1,8,0:0:0:0:
256,192,292782,1,0,0:0:0:0:
256,192,292867,1,0,0:0:0:0:
256,192,292951,1,8,0:0:0:0:
256,192,293036,1,8,0:0:0:0:
256,192,293121,1,0,0:0:0:0:
256,192,293290,1,0,0:0:0:0:
256,192,293460,1,0,0:0:0:0:
256,192,293629,1,0,0:0:0:0:
256,192,293714,1,0,0:0:0:0:
256,192,293799,1,8,0:0:0:0:
256,192,293968,1,0,0:0:0:0:
256,192,294138,1,8,0:0:0:0:
256,192,294307,1,0,0:0:0:0:
256,192,294392,1,0,0:0:0:0:
256,192,294477,1,8,0:0:0:0:
256,192,294646,1,0,0:0:0:0:
256,192,294816,1,8,0:0:0:0:
256,192,294901,1,8,0:0:0:0:
256,192,294985,1,0,0:0:0:0:
256,192,295155,1,8,0:0:0:0:
256,192,295324,1,0,0:0:0:0:
256,192,295494,1,8,0:0:0:0:
256,192,295579,1,0,0:0:0:0:
256,192,295663,1,0,0:0:0:0:
256,192,295833,1,8,0:0:0:0:
256,192,296002,1,0,0:0:0:0:
256,192,296172,1,8,0:0:0:0:
256,192,296256,1,0,0:0:0:0:
256,192,296341,1,0,0:0:0:0:
256,192,296426,1,0,0:0:0:0:
256,192,296511,1,8,0:0:0:0:
256,192,296680,1,0,0:0:0:0:
256,192,296765,1,0,0:0:0:0:
256,192,296850,1,8,0:0:0:0:
256,192,297019,1,0,0:0:0:0:
256,192,297104,1,8,0:0:0:0:
256,192,297189,1,8,0:0:0:0:
256,192,297358,1,8,0:0:0:0:
256,192,297528,1,0,0:0:0:0:
256,192,297612,1,8,0:0:0:0:
256,192,297697,1,0,0:0:0:0:
256,192,297782,1,8,0:0:0:0:
256,192,297867,1,0,0:0:0:0:
256,192,298036,1,8,0:0:0:0:
256,192,298206,1,0,0:0:0:0:
256,192,298375,1,8,0:0:0:0:
256,192,298460,1,8,0:0:0:0:
256,192,298545,1,8,0:0:0:0:
256,192,298714,1,8,0:0:0:0:
256,192,298884,1,4,0:0:0:0:
256,192,299053,1,8,0:0:0:0:
256,192,299138,1,8,0:0:0:0:
256,192,299223,1,8,0:0:0:0:
256,192,299392,1,0,0:0:0:0:
256,192,299562,1,8,0:0:0:0:
256,192,299646,1,0,0:0:0:0:
256,192,299731,1,0,0:0:0:0:
256,192,299901,1,8,0:0:0:0:
256,192,300070,1,0,0:0:0:0:
256,192,300155,1,0,0:0:0:0:
256,192,300240,1,8,0:0:0:0:
256,192,300409,1,8,0:0:0:0:
256,192,300579,1,0,0:0:0:0:
256,192,300748,1,8,0:0:0:0:
256,192,300917,1,0,0:0:0:0:
256,192,301002,1,0,0:0:0:0:
256,192,301087,1,8,0:0:0:0:
256,192,301172,1,8,0:0:0:0:
256,192,301256,1,0,0:0:0:0:
256,192,301426,1,8,0:0:0:0:
256,192,301511,1,8,0:0:0:0:
256,192,301595,1,8,0:0:0:0:
256,192,301765,1,8,0:0:0:0:
256,192,301934,1,0,0:0:0:0:
256,192,302104,1,8,0:0:0:0:
256,192,302273,1,0,0:0:0:0:
256,192,302358,1,0,0:0:0:0:
256,192,302443,1,8,0:0:0:0:
256,192,302528,1,0,0:0:0:0:
256,192,302612,1,0,0:0:0:0:
256,192,302782,1,8,0:0:0:0:
256,192,302867,1,8,0:0:0:0:
256,192,302951,1,8,0:0:0:0:
256,192,303121,1,8,0:0:0:0:
256,192,303290,1,0,0:0:0:0:
256,192,303460,1,0,0:0:0:0:
256,192,303629,1,8,0:0:0:0:
256,192,303799,1,0,0:0:0:0:
256,192,303884,1,0,0:0:0:0:
256,192,303968,1,8,0:0:0:0:
256,192,304138,1,8,0:0:0:0:
256,192,304307,1,4,0:0:0:0:
256,192,304477,1,8,0:0:0:0:
256,192,304562,1,8,0:0:0:0:
256,192,304646,1,8,0:0:0:0:
256,192,304816,1,0,0:0:0:0:
256,192,304985,1,8,0:0:0:0:
256,192,305070,1,8,0:0:0:0:
256,192,305155,1,0,0:0:0:0:
256,192,305324,1,8,0:0:0:0:
256,192,305494,1,0,0:0:0:0:
256,192,305663,1,8,0:0:0:0:
256,192,305748,1,0,0:0:0:0:
256,192,305833,1,0,0:0:0:0:
256,192,305917,1,0,0:0:0:0:
256,192,306002,1,8,0:0:0:0:
256,192,306172,1,0,0:0:0:0:
256,192,306256,1,0,0:0:0:0:
256,192,306341,1,8,0:0:0:0:
256,192,306511,1,0,0:0:0:0:
256,192,306680,1,8,0:0:0:0:
256,192,306850,1,8,0:0:0:0:
256,192,307019,1,0,0:0:0:0:
256,192,307189,1,0,0:0:0:0:
256,192,307358,1,8,0:0:0:0:
256,192,307528,1,0,0:0:0:0:
256,192,307697,1,8,0:0:0:0:
256,192,307867,1,8,0:0:0:0:
256,192,308036,1,0,0:0:0:0:
256,192,308206,1,8,0:0:0:0:
256,192,308375,1,0,0:0:0:0:
256,192,308714,1,0,0:0:0:0:
256,192,308884,1,8,0:0:0:0:
256,192,309053,1,0,0:0:0:0:
256,192,309138,1,0,0:0:0:0:
256,192,309223,1,0,0:0:0:0:
256,192,309392,1,12,0:0:0:0:
239,193,309731,5,4,0:0:0:0:
170,130,309901,1,0,0:0:0:0:
239,193,309985,1,8,0:0:0:0:
239,193,310070,1,0,0:0:0:0:
189,150,310240,1,8,0:0:0:0:
239,193,310409,1,0,0:0:0:0:
205,167,310494,1,8,0:0:0:0:
137,84,310579,1,8,0:0:0:0:
130,76,310663,1,8,0:0:0:0:
189,44,310748,1,0,0:0:0:0:
189,44,310917,1,8,0:0:0:0:
215,156,311002,1,8,0:0:0:0:
239,193,311087,1,0,0:0:0:0:
186,153,311256,1,8,0:0:0:0:
239,193,311426,1,0,0:0:0:0:
198,98,311511,1,8,0:0:0:0:
151,85,311680,1,8,0:0:0:0:
239,193,311765,1,0,0:0:0:0:
198,148,311850,1,8,0:0:0:0:
163,87,311934,1,8,0:0:0:0:
203,88,312019,1,8,0:0:0:0:
186,61,312104,1,0,0:0:0:0:
163,87,312273,1,8,0:0:0:0:
239,193,312443,1,0,0:0:0:0:
170,130,312612,1,0,0:0:0:0:
145,143,312697,1,8,0:0:0:0:
239,193,312782,1,0,0:0:0:0:
145,143,312951,1,8,0:0:0:0:
239,193,313121,1,0,0:0:0:0:
200,145,313206,1,8,0:0:0:0:
145,143,313290,1,8,0:0:0:0:
159,57,313375,1,8,0:0:0:0:
189,42,313460,1,0,0:0:0:0:
189,42,313629,1,8,0:0:0:0:
215,156,313714,1,8,0:0:0:0:
239,193,313799,1,0,0:0:0:0:
145,143,313968,1,8,0:0:0:0:
239,193,314138,1,0,0:0:0:0:
203,88,314223,1,8,0:0:0:0:
203,88,314392,1,8,0:0:0:0:
186,123,314477,1,0,0:0:0:0:
200,145,314562,1,8,0:0:0:0:
159,57,314646,1,0,0:0:0:0:
186,123,314731,1,0,0:0:0:0:
203,88,314816,1,8,0:0:0:0:
157,144,314985,1,8,0:0:0:0:
163,146,315155,1,0,0:0:0:0:
170,130,315324,1,0,0:0:0:0:
239,193,315409,1,8,0:0:0:0:
239,193,315494,1,0,0:0:0:0:
189,150,315664,1,8,0:0:0:0:
200,145,315833,1,0,0:0:0:0:
139,76,315917,1,8,0:0:0:0:
206,188,316002,1,8,0:0:0:0:
200,145,316087,1,8,0:0:0:0:
206,188,316172,1,0,0:0:0:0:
206,188,316341,1,8,0:0:0:0:
215,156,316426,1,8,0:0:0:0:
239,193,316511,1,0,0:0:0:0:
186,153,316680,1,8,0:0:0:0:
239,193,316850,1,0,0:0:0:0:
198,98,316935,1,8,0:0:0:0:
151,85,317104,1,8,0:0:0:0:
239,193,317189,1,0,0:0:0:0:
224,183,317273,1,8,0:0:0:0:
228,106,317358,1,8,0:0:0:0:
228,106,317443,1,8,0:0:0:0:
186,61,317528,1,0,0:0:0:0:
163,87,317697,1,8,0:0:0:0:
239,193,317867,1,0,0:0:0:0:
170,130,318036,1,0,0:0:0:0:
145,143,318121,1,8,0:0:0:0:
239,193,318206,1,0,0:0:0:0:
145,143,318375,1,8,0:0:0:0:
239,193,318545,1,0,0:0:0:0:
248,163,318629,1,8,0:0:0:0:
147,99,318714,1,8,0:0:0:0:
136,104,318799,1,8,0:0:0:0:
181,76,318884,1,0,0:0:0:0:
145,143,319053,1,8,0:0:0:0:
215,156,319138,1,8,0:0:0:0:
239,193,319223,1,0,0:0:0:0:
145,143,319392,1,8,0:0:0:0:
239,193,319562,1,0,0:0:0:0:
203,88,319647,1,8,0:0:0:0:
203,88,319816,1,8,0:0:0:0:
248,163,319901,1,0,0:0:0:0:
180,42,319985,5,0,0:0:0:0:
165,94,320070,1,8,0:0:0:0:
164,101,320155,1,8,0:0:0:0:
164,101,320240,1,8,0:0:0:0:
153,83,320409,1,8,0:0:0:0:
147,147,320579,1,0,0:0:0:0:
239,193,320833,1,8,0:0:0:0:
239,193,320918,1,0,0:0:0:0:
189,150,321088,1,8,0:0:0:0:
239,193,321257,1,0,0:0:0:0:
178,82,321341,1,8,0:0:0:0:
108,45,321427,1,8,0:0:0:0:
203,88,321511,1,8,0:0:0:0:
210,141,321596,1,0,0:0:0:0:
185,52,321765,1,8,0:0:0:0:
239,193,321935,1,0,0:0:0:0:
186,153,322104,1,8,0:0:0:0:
239,193,322274,1,0,0:0:0:0:
198,98,322359,1,8,0:0:0:0:
151,85,322528,1,8,0:0:0:0:
239,193,322613,1,0,0:0:0:0:
147,147,322697,1,8,0:0:0:0:
163,87,322782,1,8,0:0:0:0:
203,88,322867,1,8,0:0:0:0:
186,61,322952,1,0,0:0:0:0:
163,87,323121,1,8,0:0:0:0:
239,193,323291,1,0,0:0:0:0:
145,143,323545,1,8,0:0:0:0:
239,193,323630,1,0,0:0:0:0:
145,143,323799,1,8,0:0:0:0:
239,193,323969,1,0,0:0:0:0:
147,147,324053,1,8,0:0:0:0:
145,143,324138,1,8,0:0:0:0:
145,143,324223,1,8,0:0:0:0:
181,76,324308,1,0,0:0:0:0:
145,143,324477,1,8,0:0:0:0:
239,193,324647,1,0,0:0:0:0:
145,143,324816,1,8,0:0:0:0:
239,193,324986,1,0,0:0:0:0:
203,88,325071,1,8,0:0:0:0:
203,88,325240,1,8,0:0:0:0:
239,193,325325,1,0,0:0:0:0:
161,63,325409,5,8,0:0:0:0:
161,63,325494,1,0,0:0:0:0:
159,69,325579,1,0,0:0:0:0:
203,88,325664,1,8,0:0:0:0:
153,83,325833,1,8,0:0:0:0:
175,71,326002,1,4,0:0:0:0:
173,103,326172,1,0,0:0:0:0:
239,193,326257,1,8,0:0:0:0:
239,193,326342,1,0,0:0:0:0:
189,150,326512,1,8,0:0:0:0:
239,193,326681,1,0,0:0:0:0:
224,183,326765,1,8,0:0:0:0:
146,101,326850,1,0,0:0:0:0:
173,103,326934,1,8,0:0:0:0:
210,141,327020,1,0,0:0:0:0:
185,52,327189,1,8,0:0:0:0:
239,193,327359,1,0,0:0:0:0:
186,153,327528,1,8,0:0:0:0:
239,193,327698,1,0,0:0:0:0:
198,98,327783,1,8,0:0:0:0:
151,85,327952,1,8,0:0:0:0:
239,193,328037,1,0,0:0:0:0:
224,183,328121,1,8,0:0:0:0:
171,102,328206,1,0,0:0:0:0:
146,101,328290,1,8,0:0:0:0:
186,61,328376,1,0,0:0:0:0:
146,101,328545,1,0,0:0:0:0:
146,101,328714,1,8,0:0:0:0:
96,94,328799,1,8,0:0:0:0:
171,102,328884,1,0,0:0:0:0:
66,128,328968,1,8,0:0:0:0:
97,130,329053,1,0,0:0:0:0:
97,130,329138,1,0,0:0:0:0:
97,130,329223,1,8,0:0:0:0:
97,130,329307,1,8,0:0:0:0:
136,91,329392,1,0,0:0:0:0:
135,93,329477,1,0,0:0:0:0:
165,76,329562,1,8,0:0:0:0:
165,76,329646,1,0,0:0:0:0:
151,72,329731,1,8,0:0:0:0:
151,73,329816,1,8,0:0:0:0:
145,143,329901,1,8,0:0:0:0:
159,108,329985,1,8,0:0:0:0:
239,193,330071,1,0,0:0:0:0:
172,90,331426,1,4,0:0:0:0:
