osu file format v14

[General]
AudioFilename: audio.mp3
AudioLeadIn: 0
PreviewTime: 6653
Countdown: 1
SampleSet: Soft
StackLeniency: 0.7
Mode: 2
LetterboxInBreaks: 0
WidescreenStoryboard: 0

[Editor]
Bookmarks: 1568,5636,6992,17840,28687,33433,34111,39365,42416
DistanceSpacing: 2.8
BeatDivisor: 4
GridSize: 4
TimelineZoom: 2.3

[Metadata]
Title:Stella-rium
TitleUnicode:Stella-rium
Artist:Kano
ArtistUnicode:鹿乃
Creator:Asrasz
Version:Welcome uWu
Source:放課後のプレアデス
Tags:tv size anime opening short ReFaller Kyptronic Chalwa CptSqBany Myle kotachi CookieBite
BeatmapID:1919567
BeatmapSetID:597783

[Difficulty]
HPDrainRate:6
CircleSize:4
OverallDifficulty:9
ApproachRate:9
SliderMultiplier:1.70000000596046
SliderTickRate:2

[Events]
//Background and Video events
0,0,"Kano_Official_Site_BG (1).png",0,0
//Break Periods
//Storyboard Layer 0 (Background)
//Storyboard Layer 1 (Fail)
//Storyboard Layer 2 (Pass)
//Storyboard Layer 3 (Foreground)
//Storyboard Sound Samples

[TimingPoints]
213,338.983050847458,4,2,0,100,1,0
213,-100,4,2,1,80,0,0
6992,-100,4,2,1,90,0,1
17162,-100,4,2,1,80,0,0
17840,-100,4,2,1,90,0,1
27331,-100,4,2,1,90,0,1
28687,-100,4,2,1,80,0,0
34111,-100,4,2,1,90,0,0

[HitObjects]
320,192,213,5,0,0:0:0:0:
192,192,382,2,0,L|136:192,2,42.5000001490115
320,192,721,1,0,0:0:0:0:
192,192,890,1,0,0:0:0:0:
320,192,1061,2,0,L|376:192,2,42.5000001490115
192,192,1399,1,0,0:0:0:0:
447,192,1568,6,0,L|335:192,1,85.000000298023
192,104,1908,2,0,L|304:104,1,85.000000298023
456,216,2246,2,0,L|464:304,1,85.000000298023
296,280,2586,2,0,L|288:368,1,85.000000298023
40,292,2924,6,0,L|52:196,1,85.000000298023
220,192,3263,2,0,L|216:96,1,85.000000298023
388,92,3602,2,0,L|392:4,1,85.000000298023
214,212,3941,2,0,L|218:279,1,42.5000001490115
385,142,4112,2,0,L|388:100,1,42.5000001490115
198,28,4280,6,0,B|108:70|141:176|212:181|212:181|348:202|286:360|223:325|191:326|191:326|63:327,1,595.000002086161
320,332,5636,5,0,0:0:0:0:
352,307,5720,1,0,0:0:0:0:
353,266,5805,1,0,0:0:0:0:
321,241,5890,1,0,0:0:0:0:
148,232,5976,5,0,0:0:0:0:
115,207,6061,1,0,0:0:0:0:
114,166,6145,1,0,0:0:0:0:
146,141,6230,1,0,0:0:0:0:
316,132,6314,6,0,L|340:80,1,42.5000001490115
164,64,6484,2,0,L|146:25,1,42.5000001490115
348,16,6653,6,0,L|448:12,1,85.000000298023
192,108,6992,2,0,L|376:104,1,170.000000596046
224,144,7501,1,0,0:0:0:0:
396,192,7670,2,0,L|400:288,1,85.000000298023
272,280,8009,1,0,0:0:0:0:
404,296,8179,1,0,0:0:0:0:
104,200,8348,6,0,L|100:296,1,85.000000298023
236,280,8688,1,0,0:0:0:0:
96,296,8857,1,0,0:0:0:0:
248,276,9026,2,0,L|352:272,1,85.000000298023
180,148,9365,2,0,L|76:144,1,85.000000298023
332,76,9704,6,0,P|368:120|324:220,1,170.000000596046
212,224,10213,1,0,0:0:0:0:
92,228,10382,1,0,0:0:0:0:
220,212,10551,2,0,L|324:204,1,85.000000298023
68,208,10890,1,0,0:0:0:0:
304,200,11060,6,0,P|336:220|292:336,1,170.000000596046
232,332,11568,1,0,0:0:0:0:
392,332,11738,2,0,L|480:328,2,85.000000298023
488,308,12246,1,0,0:0:0:0:
248,312,12416,6,0,L|256:124,1,170.000000596046
376,136,12924,1,0,0:0:0:0:
144,224,13093,2,0,L|152:36,1,170.000000596046
264,40,13602,1,0,0:0:0:0:
24,48,13772,6,0,L|132:44,1,85.000000298023
260,76,14112,2,0,L|152:72,1,85.000000298023
336,156,14451,2,0,L|228:152,1,85.000000298023
0,216,14789,2,0,L|120:216,1,85.000000298023
380,220,15128,6,0,P|416:168|352:80,1,170.000000596046
248,80,15636,1,0,0:0:0:0:
143,84,15806,2,0,P|95:148|132:220,1,170.000000596046
240,232,16314,1,0,0:0:0:0:
388,240,16484,6,0,L|384:348,1,85.000000298023
236,292,16823,2,0,L|240:400,1,85.000000298023
392,360,17162,5,0,0:0:0:0:
414,325,17246,1,0,0:0:0:0:
408,284,17331,1,0,0:0:0:0:
376,257,17416,1,0,0:0:0:0:
224,248,17501,2,0,L|168:192,1,42.5000001490115
348,200,17671,2,0,L|404:144,1,42.5000001490115
180,120,17840,6,0,L|80:120,2,85.000000298023
272,132,18348,1,0,0:0:0:0:
112,132,18518,2,0,L|197:132,1,85.000000298023
436,156,18857,2,0,L|351:156,1,85.000000298023
112,160,19196,6,0,L|116:252,1,85.000000298023
248,220,19535,2,0,L|244:312,1,85.000000298023
103,281,19874,2,0,P|47:225|131:213,1,170.000000596046
248,192,20382,1,0,0:0:0:0:
96,184,20551,6,0,L|220:180,2,85.000000298023
220,156,21060,1,0,0:0:0:0:
68,156,21229,1,0,0:0:0:0:
392,120,21399,1,0,0:0:0:0:
144,192,21738,6,0,P|132:264|236:304,1,170.000000596046
324,316,22246,1,0,0:0:0:0:
192,332,22416,2,0,L|296:332,1,85.000000298023
172,352,22755,1,0,0:0:0:0:
292,352,22924,1,0,0:0:0:0:
44,356,23094,1,0,0:0:0:0:
302,320,23263,6,0,L|502:312,1,170.000000596046
340,312,23772,1,0,0:0:0:0:
76,312,23941,2,0,L|245:305,1,170.000000596046
372,296,24449,1,0,0:0:0:0:
64,276,24619,6,0,P|56:200|136:156,1,170.000000596046
248,144,25128,1,0,0:0:0:0:
388,140,25297,6,0,P|396:64|316:20,1,170.000000596046
216,24,25806,1,0,0:0:0:0:
336,24,25975,6,0,L|248:28,3,85.000000298023
20,92,26654,2,0,L|108:96,3,85.000000298023
340,116,27331,6,0,L|396:160,1,42.5000001490115
212,180,27501,2,0,L|156:224,1,42.5000001490115
340,200,27671,2,0,L|396:244,1,42.5000001490115
212,264,27840,2,0,L|156:308,1,42.5000001490115
216,316,28010,2,0,L|272:360,1,42.5000001490115
412,344,28179,2,0,L|368:380,1,42.5000001490115
216,376,28348,2,0,L|176:344,1,42.5000001490115
388,364,28518,2,0,L|428:332,1,42.5000001490115
260,312,28687,6,0,P|220:284|292:220,1,170.000000596046
368,216,29196,1,0,0:0:0:0:
216,216,29365,2,0,L|128:216,2,85.000000298023
104,240,29874,1,0,0:0:0:0:
340,252,30043,6,0,P|388:188|312:148,1,170.000000596046
184,144,30552,2,0,P|135:84|194:35,1,170.000000596046
336,28,31060,2,0,L|224:36,1,85.000000298023
488,68,31399,6,0,L|304:80,1,170.000000596046
468,100,31907,1,0,0:0:0:0:
232,120,32076,2,0,L|416:132,1,170.000000596046
280,148,32585,1,0,0:0:0:0:
432,168,32755,6,0,L|320:164,1,85.000000298023
200,208,33095,2,0,L|324:204,1,85.000000298023
436,224,33433,2,0,L|412:280,1,42.5000001490115
256,260,33603,2,0,L|292:304,1,42.5000001490115
448,280,33773,2,0,L|424:336,1,42.5000001490115
268,316,33942,2,0,L|304:360,1,42.5000001490115
468,336,34111,6,0,L|456:152,1,170.000000596046
228,184,34619,2,0,L|236:-12,1,170.000000596046
360,16,35128,1,0,0:0:0:0:
132,128,35297,6,0,P|80:188|144:256,1,170.000000596046
236,264,35806,1,0,0:0:0:0:
464,248,35975,2,0,P|516:308|452:376,1,170.000000596046
316,376,36484,2,0,L|420:368,1,85.000000298023
164,332,36823,6,0,L|60:324,1,85.000000298023
400,284,37162,2,0,L|504:276,1,85.000000298023
80,244,37500,2,0,L|164:250,1,85.000000298023
400,204,37840,2,0,L|296:212,1,85.000000298023
88,144,38179,5,0,0:0:0:0:
224,136,38348,1,0,0:0:0:0:
364,124,38518,1,0,0:0:0:0:
80,112,38687,2,0,L|76:0,1,85.000000298023
232,88,39027,2,0,L|236:-24,1,85.000000298023
480,24,39365,1,0,0:0:0:0:
