osu file format v14

[General]
AudioFilename: audio.mp3
AudioLeadIn: 0
PreviewTime: 6653
Countdown: 1
SampleSet: Soft
StackLeniency: 0.7
Mode: 2
LetterboxInBreaks: 0
WidescreenStoryboard: 0

[Editor]
Bookmarks: 3602,4280,5636,6907,17162,17755,27331,28602,33433,34026
DistanceSpacing: 3.8
BeatDivisor: 4
GridSize: 4
TimelineZoom: 1.9

[Metadata]
Title:Stella-rium
TitleUnicode:Stella-rium
Artist:Kano
ArtistUnicode:鹿乃
Creator:Asrasz
Version:Rain
Source:放課後のプレアデス
Tags:tv size anime opening short ReFaller Kyptronic Chalwa CptSqBany Myle kotachi CookieBite
BeatmapID:1263657
BeatmapSetID:597783

[Difficulty]
HPDrainRate:6
CircleSize:3.8
OverallDifficulty:9
ApproachRate:9
SliderMultiplier:1.8
SliderTickRate:2

[Events]
//Background and Video events
0,0,"Kano_Official_Site_BG (1).png",0,0
//Break Periods
//Storyboard Layer 0 (Background)
//Storyboard Layer 1 (Fail)
//Storyboard Layer 2 (Pass)
//Storyboard Layer 3 (Foreground)
//Storyboard Sound Samples

[TimingPoints]
213,338.983050847458,4,2,0,100,1,0
213,-100,4,2,1,80,0,0
6992,-100,4,2,1,90,0,1
17162,-100,4,2,1,80,0,0
17840,-100,4,2,1,90,0,1
27331,-100,4,2,1,90,0,1
28687,-100,4,2,1,80,0,0
34111,-100,4,2,1,90,0,0

[HitObjects]
160,280,1399,5,8,0:1:0:0:
204,272,1484,1,8,0:1:0:0:
372,256,1568,6,0,L|376:156,1,90,12|8,1:1|1:0,1:0:0:0:
212,168,1907,2,8,L|208:68,1,90,8|8,1:0|1:0,1:0:0:0:
372,64,2246,2,8,L|492:68,2,90,8|8|8,0:1|0:1|0:1,0:1:0:0:
280,68,2755,1,8,1:0:0:0:
236,68,2840,1,8,1:0:0:0:
404,96,2924,6,0,L|412:200,1,90,12|8,0:1|1:0,0:0:0:0:
248,200,3263,2,8,L|124:192,1,90,8|8,0:1|0:1,0:1:0:0:
320,212,3602,5,8,0:1:0:0:
356,233,3687,1,8,1:0:0:0:
352,275,3772,1,8,1:0:0:0:
311,288,3857,1,8,1:0:0:0:
132,272,3941,5,8,1:0:0:0:
96,251,4026,1,8,1:0:0:0:
100,209,4111,1,8,1:0:0:0:
141,196,4196,1,8,1:0:0:0:
344,200,4280,5,8,1:0:0:0:
256,192,4450,12,0,5467,0:0:0:0:
108,172,5636,6,8,L|56:168,2,45,8|8|8,0:1|0:1|0:1,0:1:0:0:
152,176,5890,1,8,1:0:0:0:
320,180,5975,5,8,1:0:0:0:
323,135,6060,1,8,1:0:0:0:
326,90,6145,1,8,0:0:0:0:
284,84,6229,1,8,0:0:0:0:
116,96,6314,6,8,L|112:20,1,45
281,39,6484,2,8,L|285:99,1,45
113,51,6653,2,8,L|109:-25,1,45
283,83,6823,2,8,L|287:159,1,45
68,172,6992,6,0,L|260:184,1,180,12|8,0:1|0:0,0:0:0:0:
152,208,7501,1,0,0:0:0:0:
312,232,7670,2,8,L|320:336,1,90,8|8,0:1|0:1,0:1:0:0:
156,320,8009,2,0,L|260:324,1,90,8|0,0:0|0:0,0:0:0:0:
498,329,8348,6,0,L|302:321,2,180,0|8|8,0:0|0:0|0:1,0:0:0:0:
408,300,9196,1,8,0:1:0:0:
248,280,9365,2,0,L|240:168,1,90,8|0,0:0|0:0,0:0:0:0:
292,180,9619,1,8,0:1:0:0:
460,164,9704,2,0,P|500:92|416:88,1,180,12|8,0:1|0:0,0:0:0:0:
304,68,10213,1,0,0:0:0:0:
180,72,10382,2,8,L|188:168,1,90,8|8,0:1|0:1,0:1:0:0:
336,232,10721,2,0,L|328:136,1,90,8|0,0:0|0:0,0:0:0:0:
284,140,10975,1,8,1:0:0:0:
116,144,11060,6,0,L|8:144,2,90,12|0|8,1:0|0:0|0:0,0:0:0:0:
200,144,11568,1,0,0:1:0:0:
360,156,11738,2,8,L|368:256,1,90,8|8,0:1|0:1,0:1:0:0:
204,252,12077,2,0,L|200:356,1,90,8|0,0:0|0:0,0:0:0:0:
452,352,12416,6,0,L|260:344,1,180,12|8,0:1|0:0,0:0:0:0:
360,352,12924,1,0,0:0:0:0:
200,336,13094,2,8,L|192:224,1,90,8|8,0:1|0:1,0:1:0:0:
352,204,13433,2,0,L|460:200,1,90,8|0,0:0|0:0,0:0:0:0:
192,160,13772,6,0,L|4:164,1,180,0|8,0:0|0:0,0:0:0:0:
104,140,14280,1,0,0:0:0:0:
264,128,14450,2,8,L|268:24,1,90,8|8,0:1|0:1,0:1:0:0:
104,28,14789,2,0,L|208:28,1,90,8|0,0:0|0:0,0:0:0:0:
240,28,15043,1,8,0:1:0:0:
420,48,15128,6,0,L|324:48,1,90,12|0,0:1|0:0,0:0:0:0:
164,84,15467,2,0,L|284:88,1,90,8|0,0:0|0:0,0:0:0:0:
412,120,15806,2,0,L|424:216,1,90
260,188,16145,2,0,L|272:284,1,90,8|0,0:0|0:0,0:0:0:0:
320,288,16399,1,8,0:1:0:0:
488,296,16484,6,0,L|508:404,1,90,12|0,0:1|0:0,0:0:0:0:
344,376,16823,1,8,0:0:0:0:
428,376,16992,1,0,0:0:0:0:
264,346,17162,5,8,0:0:0:0:
235,314,17246,1,8,0:1:0:0:
237,271,17331,1,8,0:0:0:0:
272,244,17416,1,0,1:0:0:0:
444,232,17501,6,8,L|452:152,1,45
280,164,17670,2,8,L|268:96,1,45,8|0,0:0|0:0,0:0:0:0:
464,80,17840,6,0,L|256:68,1,180,12|8,0:1|0:0,0:0:0:0:
196,60,18348,1,0,0:0:0:0:
352,108,18518,2,8,L|356:212,1,90,8|8,0:1|0:1,0:1:0:0:
192,212,18857,2,0,P|304:220|304:220,1,90,8|0,0:0|0:0,0:0:0:0:
120,240,19196,6,0,L|236:248,2,90,12|0|8,0:1|0:0|0:0,0:0:0:0:
208,264,19704,1,0,0:0:0:0:
32,288,19874,2,8,L|20:392,1,90,8|8,0:1|0:1,0:1:0:0:
184,372,20213,2,0,L|308:368,1,90,8|0,0:0|0:0,0:0:0:0:
324,368,20467,1,0,0:0:0:0:
156,340,20551,6,0,L|56:332,2,90,12|0|8,0:1|0:0|0:0,0:0:0:0:
320,348,21060,1,0,0:0:0:0:
196,320,21229,1,8,0:0:0:0:
356,304,21399,1,0,0:0:0:0:
184,256,21738,6,0,L|376:252,1,180,12|0,0:1|0:0,0:0:0:0:
272,232,22246,1,8,0:0:0:0:
112,208,22416,2,0,L|4:196,2,90,0|8|8,0:0|0:1|0:1,0:0:0:0:
276,208,22924,2,0,L|280:104,1,90,8|0,0:0|0:0,0:0:0:0:
28,88,23263,6,0,P|32:28|144:24,1,180,12|8,0:1|0:0,0:0:0:0:
220,28,23772,1,0,0:0:0:0:
380,60,23941,2,8,L|380:168,1,90,8|8,0:1|0:1,0:1:0:0:
216,156,24280,2,0,L|208:264,1,90,8|0,0:0|0:0,0:0:0:0:
456,236,24619,6,0,P|500:316|432:332,1,180,12|8,0:1|0:0,0:0:0:0:
356,332,25128,1,0,0:0:0:0:
196,336,25297,2,8,L|192:236,1,90,8|8,0:1|0:1,0:1:0:0:
352,220,25636,2,0,L|256:212,1,90,8|0,0:0|0:0,0:0:0:0:
12,192,25975,6,0,L|8:88,1,90,12|0,0:1|0:0,0:0:0:0:
172,88,26314,2,0,L|56:80,1,90,8|0,0:0|0:0,0:0:0:0:
244,72,26653,2,8,L|128:64,1,90,8|8,0:1|0:1,0:1:0:0:
316,64,26992,2,0,L|200:60,1,90,8|0,0:0|0:0,0:0:0:0:
368,112,27331,5,8,1:0:0:0:
401,138,27416,1,8,1:0:0:0:
397,181,27501,1,8,1:0:0:0:
359,200,27585,1,8,1:0:0:0:
312,200,27670,1,8,1:0:0:0:
274,219,27755,1,8,1:0:0:0:
270,262,27840,1,8,1:0:0:0:
304,289,27924,1,8,1:0:0:0:
464,320,28009,6,8,L|516:316,2,45,8|8|8,1:0|1:0|1:0,1:0:0:0:
416,324,28263,1,8,1:0:0:0:
248,324,28348,6,8,L|196:324,1,45,8|8,1:0|1:0,1:0:0:0:
368,284,28518,2,8,L|432:280,1,45,8|8,1:0|1:0,1:0:0:0:
232,240,28687,6,0,L|40:248,1,180,12|8,0:1|0:0,0:0:0:0:
140,232,29196,1,0,0:0:0:0:
296,196,29365,2,8,L|296:96,1,90,8|8,0:1|0:1,0:1:0:0:
132,104,29704,6,0,L|344:92,1,180,8|0,0:0|0:0,0:0:0:0:
224,72,30213,1,0,0:0:0:0:
384,48,30382,2,0,L|392:160,1,90,8|0,0:0|0:0,0:0:0:0:
232,164,30721,2,8,L|220:268,1,90,8|8,0:1|0:1,0:1:0:0:
384,268,31060,1,8,0:0:0:0:
296,260,31229,1,0,0:0:0:0:
52,244,31399,6,12,P|48:312|168:312,1,180,12|8,0:1|0:0,0:0:0:0:
268,348,31907,1,0,0:0:0:0:
396,352,32077,2,8,L|404:240,1,90,8|8,0:1|0:1,0:1:0:0:
240,244,32416,2,0,L|236:136,1,90,8|0,0:0|0:0,0:0:0:0:
292,148,32670,1,8,0:1:0:0:
460,132,32755,6,0,L|356:112,1,90,12|0,0:1|0:0,0:0:0:0:
124,88,33094,2,0,L|240:80,1,90,8|0,0:0|0:0,0:0:0:0:
376,64,33433,5,8,0:1:0:0:
409,91,33518,1,8,0:1:0:0:
403,134,33602,1,8,0:1:0:0:
363,150,33687,1,8,0:1:0:0:
192,176,33772,2,8,L|124:184,1,45,8|8,0:1|0:1,0:1:0:0:
320,196,33941,2,8,L|372:200,1,45,8|8,0:1|0:1,0:1:0:0:
136,248,34111,6,0,L|28:260,2,90,12|0|8,0:1|0:0|0:0,0:0:0:0:
400,264,34619,2,0,P|440:248|368:164,1,180,12|8,0:1|0:1,0:0:0:0:
312,148,35128,1,8,0:0:0:0:
60,144,35297,6,0,L|264:132,1,180,12|8,0:1|0:1,0:0:0:0:
152,116,35806,1,8,0:0:0:0:
312,136,35975,2,0,L|320:240,1,90,12|0,0:1|0:0,0:0:0:0:
236,232,36314,1,8,0:1:0:0:
400,244,36484,2,0,L|412:344,1,90,8|0,0:0|0:0,0:0:0:0:
248,328,36823,6,0,L|136:320,1,90,8|8,0:0|0:1,0:0:0:0:
316,280,37162,2,0,L|436:280,1,90,8|8,0:0|0:1,0:0:0:0:
252,232,37501,2,0,L|356:232,1,90,8|8,0:0|0:1,0:0:0:0:
176,204,37840,2,0,L|168:104,1,90,8|0,0:0|0:0,0:0:0:0:
332,108,38179,5,8,0:0:0:0:
196,104,38348,1,8,0:0:0:0:
448,104,38518,1,8,0:0:0:0:
88,108,38687,1,8,0:0:0:0:
328,160,39026,1,8,0:0:0:0:
208,168,39365,1,12,0:0:0:0:
256,192,39535,12,0,41992,0:0:0:0:
160,168,42162,5,0,0:0:0:0:
138,132,42246,1,0,0:0:0:0:
171,107,42331,1,0,0:0:0:0:
344,100,42416,1,0,0:0:0:0:
