osu file format v14

[General]
AudioFilename: audio.mp3
AudioLeadIn: 0
PreviewTime: 6653
Countdown: 1
SampleSet: Soft
StackLeniency: 0.7
Mode: 2
LetterboxInBreaks: 0
WidescreenStoryboard: 1

[Editor]
Bookmarks: 3602,4280,5636,6907,17162,17755,27331,28602,33433,34026
DistanceSpacing: 1.9
BeatDivisor: 4
GridSize: 4
TimelineZoom: 2.6

[Metadata]
Title:Stella-rium
TitleUnicode:Stella-rium
Artist:Kano
ArtistUnicode:鹿乃
Creator:Asrasz
Version:Platter
Source:放課後のプレアデス
Tags:tv size anime opening short ReFaller Kyptronic Chalwa CptSqBany Myle kotachi CookieBite
BeatmapID:1316139
BeatmapSetID:597783

[Difficulty]
HPDrainRate:5
CircleSize:3.4
OverallDifficulty:8
ApproachRate:8
SliderMultiplier:1.6
SliderTickRate:2

[Events]
//Background and Video events
0,0,"Kano_Official_Site_BG (1).png",0,0
//Break Periods
//Storyboard Layer 0 (Background)
//Storyboard Layer 1 (Fail)
//Storyboard Layer 2 (Pass)
//Storyboard Layer 3 (Foreground)
//Storyboard Sound Samples

[TimingPoints]
213,338.983050847458,4,2,0,100,1,0
213,-100,4,2,1,80,0,0
6992,-100,4,2,1,90,0,1
17162,-100,4,2,1,80,0,0
17840,-100,4,2,1,90,0,1
27331,-100,4,2,1,90,0,1
28687,-100,4,2,1,80,0,0
34111,-100,4,2,1,90,0,0

[HitObjects]
136,168,213,6,0,L|312:164,2,160
360,164,1229,1,0,0:0:0:0:
120,160,1568,6,0,L|112:52,1,80,4|0,1:0|0:0,0:0:0:0:
252,124,1907,2,0,L|264:8,1,80
396,168,2246,2,0,L|384:52,1,80
243,203,2585,2,0,L|255:87,1,80
396,168,2924,6,0,P|436:120|376:56,1,160,4|0,1:0|0:0,0:0:0:0:
300,56,3433,1,0,0:0:0:0:
156,60,3602,2,0,L|164:232,1,160
408,228,4280,5,4,1:0:0:0:
224,272,5636,5,8,0:0:0:0:
193,248,5720,1,8,1:0:0:0:
191,210,5805,1,8,1:0:0:0:
220,184,5890,1,8,1:0:0:0:
260,180,5976,1,8,1:0:0:0:
290,156,6061,1,8,1:0:0:0:
292,118,6145,1,8,0:2:0:0:
263,92,6230,1,8,0:2:0:0:
224,88,6314,6,8,L|160:84,2,40,8|8|8,0:2|0:2|0:2,0:2:0:0:
263,92,6568,1,8,0:2:0:0:
302,88,6654,2,8,L|366:84,2,40,8|8|8,0:2|0:2|0:2,0:2:0:0:
263,92,6908,1,8,0:2:0:0:
108,92,6992,6,0,P|64:116|120:188,1,160,12|8,1:0|0:0,0:0:0:0:
192,196,7501,1,0,0:0:0:0:
352,200,7670,2,8,L|240:196,1,80,10|8,1:0|1:0,1:0:0:0:
136,212,8009,2,0,L|236:216,1,80,8|0,0:0|0:0,0:0:0:0:
448,244,8348,6,0,P|488:308|428:340,1,160,12|8,1:0|0:0,0:0:0:0:
292,332,8857,2,0,L|180:328,2,80,0|8|8,0:0|1:0|1:0,0:0:0:0:
428,332,9365,2,0,L|440:224,1,80,8|0,0:0|0:0,0:0:0:0:
204,192,9704,6,0,L|376:208,1,160,12|8,1:0|0:0,0:0:0:0:
284,164,10213,1,0,0:0:0:0:
420,160,10382,2,8,L|432:68,1,80,8|8,1:0|1:0,1:0:0:0:
296,52,10721,2,0,L|192:32,1,80,8|0,0:0|0:0,0:0:0:0:
460,32,11060,6,0,P|512:72|460:136,1,160,12|8,1:0|0:0,0:0:0:0:
384,140,11568,1,0,0:0:0:0:
224,148,11738,2,8,L|324:148,2,80,8|8|8,1:0|1:0|0:0,1:0:0:0:
144,148,12246,1,0,0:0:0:0:
408,152,12416,6,0,P|456:192|392:252,1,160,12|8,1:0|0:0,0:0:0:0:
232,276,12924,1,0,0:0:0:0:
312,280,13094,2,8,L|424:280,1,80,8|8,1:0|1:0,1:0:0:0:
232,296,13433,2,0,L|144:296,1,80,8|0,0:0|0:0,0:0:0:0:
408,316,13772,6,0,P|456:268|392:220,1,160,12|8,1:0|0:0,0:0:0:0:
316,216,14280,1,0,0:0:0:0:
164,212,14450,2,8,L|56:212,1,80,8|8,1:0|1:0,1:0:0:0:
228,172,14789,2,0,P|240:224|220:272,1,80,8|0,0:0|0:0,0:0:0:0:
0,132,15128,6,0,L|184:132,1,160,12|8,1:0|0:0,0:0:0:0:
240,128,15636,1,0,0:0:0:0:
392,128,15806,2,0,L|384:312,1,160,12|8,1:0|0:0,0:0:0:0:
304,288,16314,1,0,0:0:0:0:
152,296,16484,6,0,P|104:256|176:212,1,160,12|8,1:0|0:0,0:0:0:0:
352,192,17162,5,8,0:0:0:0:
380,165,17246,1,8,0:0:0:0:
379,126,17331,1,8,0:0:0:0:
349,102,17416,1,8,0:0:0:0:
308,100,17501,1,8,0:0:0:0:
279,73,17586,1,8,0:0:0:0:
280,34,17671,1,8,0:0:0:0:
310,10,17756,1,8,0:0:0:0:
352,8,17840,2,0,L|520:8,1,160,6|8,1:0|0:0,0:0:0:0:
420,96,18348,1,0,0:0:0:0:
228,100,18518,2,0,L|120:96,2,80,8|8|0,1:0|1:0|1:0,0:0:0:0:
304,100,19026,1,0,0:0:0:0:
160,120,19196,6,0,L|152:212,1,80,12|0,1:0|0:0,0:0:0:0:
296,200,19535,2,0,L|304:296,1,80,8|0,0:0|0:0,0:0:0:0:
64,292,19874,2,0,L|240:292,1,160,0|8,1:0|0:0,0:0:0:0:
144,256,20382,1,0,0:0:0:0:
288,244,20551,6,0,L|388:240,2,80,8|0|8,0:0|0:0|0:0,0:0:0:0:
144,224,21060,1,0,0:0:0:0:
284,200,21229,2,8,L|288:112,1,80,8|8,1:0|1:0,1:0:0:0:
48,100,21738,6,0,L|220:96,1,160,12|0,1:0|0:0,0:0:0:0:
352,88,22246,2,0,L|368:184,1,80,8|0,0:0|0:0,0:0:0:0:
224,200,22585,2,0,L|124:204,2,80,8|8|8,1:0|1:0|0:0,0:0:0:0:
308,196,23094,1,0,0:0:0:0:
68,212,23263,6,2,P|20:244|76:312,1,160,12|8,1:0|0:0,0:0:0:0:
148,316,23772,1,0,0:0:0:0:
388,312,23941,2,0,P|439:261|387:211,1,160,12|12,1:0|0:0,1:0:0:0:
304,208,24450,1,0,0:0:0:0:
160,200,24619,6,0,L|156:104,1,80,12|0,1:0|0:0,0:0:0:0:
300,92,24958,2,0,L|304:188,1,80,8|0,0:0|0:0,0:0:0:0:
160,208,25297,2,0,L|0:208,1,160,12|8,1:0|0:0,0:0:0:0:
76,176,25806,1,0,0:0:0:0:
316,172,25975,6,0,P|368:204|308:252,1,160,12|8,1:0|0:0,0:0:0:0:
88,268,26653,2,0,L|192:264,2,80,8|8|8,1:0|1:0|0:0,0:0:0:0:
200,288,27162,1,0,0:0:0:0:
312,304,27331,5,8,1:0:0:0:
341,279,27415,1,8,1:0:0:0:
337,241,27500,1,8,1:0:0:0:
303,223,27585,1,8,1:0:0:0:
264,220,27670,1,8,1:0:0:0:
224,218,27754,1,8,1:0:0:0:
184,217,27839,1,8,1:0:0:0:
144,216,27924,1,8,1:0:0:0:
104,212,28009,5,8,1:0:0:0:
75,186,28093,1,8,1:0:0:0:
78,147,28178,1,8,1:0:0:0:
110,127,28263,1,8,1:0:0:0:
148,124,28348,1,8,1:0:0:0:
187,122,28432,1,8,1:0:0:0:
227,121,28517,1,8,1:0:0:0:
267,120,28602,1,8,1:0:0:0:
312,124,28687,2,0,L|496:128,1,160
376,232,29196,1,0,0:0:0:0:
240,232,29365,2,8,L|232:324,1,80,8|8,1:0|1:0,1:0:0:0:
368,320,29704,2,0,L|256:312,1,80,8|0,0:0|0:0,0:0:0:0:
152,304,30043,6,0,L|40:308,2,80,12|0|8,1:0|0:0|0:0,0:0:0:0:
376,288,30551,2,0,P|424:260|364:208,1,160,12|0,1:0|0:0,0:0:0:0:
216,184,31060,1,8,0:0:0:0:
300,184,31229,1,0,0:0:0:0:
496,176,31399,6,0,L|320:176,1,160,12|8,1:0|0:0,0:0:0:0:
172,172,31907,1,0,0:0:0:0:
308,180,32077,2,0,P|360:220|296:272,1,160,12|8,1:0|0:0,0:0:0:0:
224,280,32585,1,0,0:0:0:0:
360,296,32755,6,0,L|456:296,2,80,12|0|8,1:0|0:0|0:0,0:0:0:0:
276,296,33263,1,0,0:0:0:0:
120,296,33433,5,8,1:0:0:0:
88,273,33517,1,8,1:0:0:0:
91,235,33602,1,8,1:0:0:0:
126,218,33687,1,8,1:0:0:0:
168,216,33773,1,8,1:0:0:0:
199,193,33857,1,8,1:0:0:0:
196,155,33942,1,8,1:0:0:0:
161,138,34027,1,8,1:0:0:0:
112,132,34111,6,0,L|284:128,1,160,12|8,1:0|0:0,0:0:0:0:
192,108,34619,1,0,0:0:0:0:
492,172,34789,2,0,L|320:168,1,160,12|8,1:0|0:0,0:0:0:0:
92,196,35297,6,0,P|48:216|124:276,1,160,12|0,1:0|0:0,0:0:0:0:
176,296,35806,1,8,0:0:0:0:
416,296,35975,2,0,P|464:256|392:204,1,160,12|0,1:0|0:0,0:0:0:0:
272,184,36484,2,0,L|264:288,1,80,8|0,0:0|0:0,0:0:0:0:
500,192,36823,6,0,L|504:88,1,80,8|0,0:0|0:0,0:0:0:0:
352,100,37162,2,0,L|356:-4,1,80,8|0,0:0|0:0,0:0:0:0:
212,184,37501,2,0,L|216:80,1,80,8|0,0:0|0:0,0:0:0:0:
72,264,37840,2,0,L|76:160,1,80,8|0,0:0|0:0,0:0:0:0:
316,164,38179,6,8,L|416:168,2,80
76,168,38687,2,8,P|24:192|88:244,1,160
348,272,39365,1,12,0:0:0:0:
256,192,39535,12,0,42416,0:0:0:0:
