osu file format v14

[General]
AudioFilename: audio.mp3
AudioLeadIn: 0
PreviewTime: 6653
Countdown: 1
SampleSet: Soft
StackLeniency: 0.5
Mode: 0
LetterboxInBreaks: 0
WidescreenStoryboard: 1

[Editor]
Bookmarks: 3602,4280,5636,6907,17162,17755,18857,27331,28602,33433,34026
DistanceSpacing: 4.1
BeatDivisor: 4
GridSize: 4
TimelineZoom: 2.200003

[Metadata]
Title:Stella-rium
TitleUnicode:Stella-rium
Artist:Kano
ArtistUnicode:鹿乃
Creator:Asrasz
Version:Insane
Source:放課後のプレアデス
Tags:tv size anime opening short ReFaller Kyptronic Chalwa CptSqBany Myle kotachi CookieBite
BeatmapID:1977303
BeatmapSetID:597783

[Difficulty]
HPDrainRate:6
CircleSize:3.8
OverallDifficulty:7.8
ApproachRate:9
SliderMultiplier:1.8
SliderTickRate:1

[Events]
//Background and Video events
0,0,"Kano_Official_Site_BG (1).png",0,0
//Break Periods
//Storyboard Layer 0 (Background)
//Storyboard Layer 1 (Fail)
//Storyboard Layer 2 (Pass)
//Storyboard Layer 3 (Foreground)
//Storyboard Sound Samples

[TimingPoints]
213,338.983050847458,4,2,0,100,1,0
213,-100,4,2,1,80,0,0
17162,-100,4,2,1,80,0,0
17840,-100,4,2,1,90,0,1
27331,-100,4,2,1,90,0,1
28687,-100,4,2,1,80,0,0
34111,-100,4,2,1,90,0,0
42246,-71.4285714285714,4,2,1,90,0,0

[HitObjects]
200,176,1399,5,0,0:0:0:0:
236,100,1569,2,0,P|274:135|270:207,1,90
151,104,1908,2,0,P|200:88|261:128,1,90
112,179,2247,2,0,P|123:128|188:95,1,90
158,249,2585,2,0,P|119:213|123:141,1,90
244,244,2925,2,0,L|201:342,1,90
75,260,3264,2,0,L|118:162,1,90
207,328,3602,6,0,P|156:343|144:340,1,45
111,177,3773,6,0,P|162:162|174:165,1,45
93,300,3941,6,0,P|80:281|74:259,1,45
225,203,4111,6,0,P|237:221|243:243,1,45
158,249,4280,1,0,0:0:0:0:
256,192,4365,12,0,5467,0:0:0:0:
149,244,5636,6,0,L|146:176,3,45
223,149,5976,6,0,L|226:217,3,45
234,269,6314,2,0,P|280:245|293:225,1,45
129,130,6484,2,0,P|83:154|70:174,1,45
222,104,6653,2,0,L|223:149,1,45
149,244,6823,2,0,L|150:330,1,45
283,337,6992,6,0,P|260:284|206:264,1,90
201,345,7331,1,0,0:0:0:0:
372,328,7501,1,0,0:0:0:0:
233,269,7670,1,0,0:0:0:0:
413,250,7840,1,0,0:0:0:0:
262,190,8009,1,0,0:0:0:0:
283,337,8179,1,0,0:0:0:0:
348,179,8348,6,0,P|310:119|268:103,1,90
323,261,8687,2,0,L|432:247,1,90
295,110,9026,1,0,0:0:0:0:
227,268,9196,1,0,0:0:0:0:
244,36,9366,1,0,0:0:0:0:
171,195,9535,1,0,0:0:0:0:
348,179,9704,6,0,L|468:164,1,90
470,86,10044,2,0,L|377:95,1,90
323,27,10383,2,0,L|413:17,1,90
291,105,10721,1,0,0:0:0:0:
235,22,10890,1,0,0:0:0:0:
380,94,11060,6,0,L|347:191,1,90
206,107,11399,2,0,L|239:10,1,90
261,188,11738,1,0,0:0:0:0:
114,120,11907,1,0,0:0:0:0:
169,193,12077,1,0,0:0:0:0:
146,45,12246,1,0,0:0:0:0:
73,210,12416,6,0,P|103:268|146:289,1,90
261,188,12756,2,0,P|231:130|188:109,1,90
123,281,13094,2,0,L|236:270,1,90
211,117,13434,2,0,L|98:128,1,90
212,272,13772,2,0,P|260:190|246:137,1,135
211,117,14110,2,0,L|47:139,1,135
35,100,14451,2,0,L|199:78,1,135
142,41,14789,1,0,0:0:0:0:
74,212,14958,1,0,0:0:0:0:
