osu file format v14

[General]
AudioFilename: audio.mp3
AudioLeadIn: 1000
PreviewTime: 52141
Countdown: 0
SampleSet: None
StackLeniency: 0.7
Mode: 0
LetterboxInBreaks: 0
WidescreenStoryboard: 1

[Editor]
DistanceSpacing: 0.8
BeatDivisor: 4
GridSize: 4
TimelineZoom: 1

[Metadata]
Title:Stella-rium
TitleUnicode:Stella-rium
Artist:Kano
ArtistUnicode:鹿乃
Creator:-Liddell
Version:Starlight
Source:放課後のプレアデス
Tags:Houkago no pleiades M45 opening TV Size tvsize
BeatmapID:1213627
BeatmapSetID:572814

[Difficulty]
HPDrainRate:5
CircleSize:4
OverallDifficulty:8
ApproachRate:9.2
SliderMultiplier:1.8
SliderTickRate:1

[Events]
//Background and Video events
0,0,"bg 2.jpg",0,0
//Break Periods
//Storyboard Layer 0 (Background)
//Storyboard Layer 1 (Fail)
//Storyboard Layer 2 (Pass)
//Storyboard Layer 3 (Foreground)
//Storyboard Sound Samples

[TimingPoints]
955,338.983050847458,4,2,1,60,1,0
5870,-181.818181818181,4,2,1,60,0,0
6378,-83.3333333333333,4,2,1,60,0,0
20955,-133.333333333333,4,2,1,60,0,0
28073,-100,4,2,1,60,0,0
38921,-133.333333333333,4,2,1,60,0,0
44344,-117.647058823529,4,2,1,60,0,0
47056,-100,4,2,1,60,0,0
52480,-83.3333333333333,4,2,1,60,0,0

[HitObjects]
127,154,955,5,6,0:0:0:0:
122,198,1124,5,6,0:0:0:0:
117,243,1293,5,6,0:0:0:0:
262,106,1632,6,0,B|250:72|250:72|223:13,1,90
266,231,1971,1,2,0:0:0:0:
266,231,2141,1,2,0:0:0:0:
369,157,2310,2,0,B|366:121|366:121|355:57,1,90
340,278,2649,1,2,0:0:0:0:
230,326,2819,2,0,P|139:307|42:337,1,180
23,219,3327,2,0,L|42:114,1,90
156,42,3666,5,6,0:0:0:0:
147,86,3836,5,6,0:0:0:0:
139,130,4005,5,6,0:0:0:0:
274,217,4344,6,0,P|262:247|276:306,1,90
337,133,4683,2,0,P|349:103|335:44,1,90
236,99,5022,1,8,0:0:0:0:
133,55,5192,6,0,L|-4:88,1,135
41,158,5531,6,0,B|54:189|54:189|38:219|38:219|55:289,1,135
141,323,5870,6,0,B|175:314|175:314|255:324,1,99.0000030212403
330,248,6378,6,0,P|350:133|284:46,1,215.999993408203,4|8,0:0|0:0,0:0:0:0:
151,63,6887,2,0,B|141:86|141:86|150:176,1,107.999996704102
279,154,7226,1,0,0:0:0:0:
156,264,7395,1,8,0:0:0:0:
295,74,7565,6,0,P|346:110|360:159,1,107.999996704102
346,331,7904,2,0,P|295:295|281:246,1,107.999996704102,0|8,0:0|0:0,0:0:0:0:
197,71,8243,2,0,L|182:200,1,107.999996704102
359,151,8582,2,0,L|371:43,1,107.999996704102,0|8,0:0|0:0,0:0:0:0:
270,167,8921,1,0,0:0:0:0:
166,314,9090,6,0,P|271:277|371:318,1,215.999993408203,4|8,0:0|0:0,0:0:0:0:
359,151,9599,2,0,P|342:99|365:47,1,107.999996704102
426,208,9938,1,0,0:0:0:0:
301,232,10107,1,8,0:0:0:0:
195,192,10277,6,0,B|188:157|188:157|136:97,1,107.999996704102
112,249,10616,2,0,B|119:284|119:284|171:344,1,107.999996704102,0|8,0:0|0:0,0:0:0:0:
386,320,10955,2,0,P|424:219|364:108,1,215.999993408203
207,86,11463,1,8,0:0:0:0:
299,231,11632,1,0,0:0:0:0:
117,139,11802,6,0,B|129:301,1,161.999995056153,4|0,0:0|0:0,0:0:0:0:
211,262,12141,2,0,P|266:317|344:307,1,161.999995056153,8|0,0:0|0:0,0:0:0:0:
438,287,12480,2,0,B|424:243|424:243|431:125,1,161.999995056153
345,88,12819,2,0,B|310:81|310:81|291:91|291:91|181:62,1,161.999995056153,8|0,0:0|0:0,0:0:0:0:
99,39,13158,6,0,L|110:177,1,107.999996704102
188,64,13497,1,8,0:0:0:0:
211,231,13666,1,0,0:0:0:0:
275,13,13836,2,0,P|291:82|265:131,1,107.999996704102
135,197,14175,1,8,0:0:0:0:
188,64,14344,1,0,0:0:0:0:
237,282,14514,6,0,P|132:322|35:271,1,215.999993408203,4|8,0:0|0:0,0:0:0:0:
64,79,15022,1,0,0:0:0:0:
135,197,15192,2,0,P|171:175|248:161,1,107.999996704102
359,160,15531,1,8,0:0:0:0:
231,71,15700,1,0,0:0:0:0:
294,278,15870,6,2,L|275:214,1,53.9999983520508
144,88,16039,2,2,L|159:139,1,53.9999983520508
155,310,16209,2,2,L|136:246,1,53.9999983520508
22,127,16378,2,2,L|37:178,1,53.9999983520508
155,310,16548,6,2,L|136:246,1,53.9999983520508
144,88,16717,2,2,L|159:139,1,53.9999983520508
294,278,16887,2,2,L|275:214,1,53.9999983520508
265,58,17056,2,2,L|280:109,1,53.9999983520508
292,278,17226,1,2,0:0:0:0:
329,139,19768,5,2,0:0:0:0:
329,139,19938,1,2,0:0:0:0:
110,173,20955,5,0,0:0:0:0:
189,219,21124,1,0,0:0:0:0:
264,162,21293,2,0,P|315:154|343:169,1,67.5000025749208
403,214,21632,1,0,0:0:0:0:
331,279,21802,2,0,P|280:287|252:272,1,67.5000025749208
189,219,22141,1,0,0:0:0:0:
132,141,22310,2,0,L|142:63,1,67.5000025749208
276,22,22649,6,0,P|245:87|286:162,1,135.000005149842
318,229,23158,2,0,P|337:291|306:350,1,135.000005149842
211,316,23666,1,0,0:0:0:0:
162,235,23836,2,0,B|128:220|128:220|99:236|99:236|13:207,1,135.000005149842
48,125,24344,6,0,P|60:100|63:46,1,67.5000025749208
169,26,24683,2,0,P|165:59|152:90,1,67.5000025749208
223,154,25022,2,0,P|235:129|238:75,1,67.5000025749208
325,33,25361,6,0,L|338:190,1,135.000005149842
297,254,25870,2,0,B|261:239|261:239|150:257,1,135.000005149842
91,187,26378,2,0,L|110:100,1,67.5000025749208
219,36,26717,1,0,0:0:0:0:
283,161,26887,6,2,L|276:215,1,33.7500012874604
292,209,27226,6,2,L|297:176,1,33.7500012874604
314,195,27565,5,14,0:0:0:0:
314,195,27734,5,14,0:0:0:0:
314,195,27904,5,14,0:0:0:0:
305,326,28073,6,0,P|227:296|130:336,1,180,4|8,0:0|0:0,0:0:0:0:
74,199,28582,2,0,L|88:95,1,90
174,228,28921,1,0,0:0:0:0:
239,75,29090,1,8,0:0:0:0:
285,240,29260,6,0,P|293:295|282:331,1,90
174,228,29599,1,0,0:0:0:0:
77,191,29768,2,0,P|69:136|80:100,1,90,8|0,0:0|0:0,0:0:0:0:
201,30,30107,1,0,0:0:0:0:
201,30,30277,1,0,0:0:0:0:
308,96,30446,2,0,B|337:86|337:86|405:98,1,90,8|0,0:0|0:0,0:0:0:0:
451,178,30785,6,0,P|421:268|454:348,1,180,4|8,0:0|0:0,0:0:0:0:
336,267,31293,1,0,0:0:0:0:
231,295,31463,2,0,L|216:397,1,90
142,212,31802,1,8,0:0:0:0:
142,212,31971,1,0,0:0:0:0:
41,125,32141,6,0,B|28:95|28:95|40:19,1,90
137,125,32480,2,0,B|150:155|150:155|141:211,1,90,8|0,0:0|0:0,0:0:0:0:
231,295,32819,2,0,P|251:221|235:184,1,90
346,136,33158,2,0,P|358:178|333:266,1,135,8|0,0:0|0:0,0:0:0:0:
250,115,33497,6,0,P|175:99|138:113,1,90,4|0,0:0|0:0,0:0:0:0:
77,193,33836,1,8,0:0:0:0:
134,306,34005,2,0,B|161:291|161:291|230:304,1,90
335,264,34344,1,0,0:0:0:0:
371,154,34514,2,0,P|346:97|392:6,1,135,8|0,0:0|0:0,0:0:0:0:
273,19,34853,6,0,L|258:134,1,90,4|0,0:0|0:0,0:0:0:0:
167,18,35192,1,8,0:0:0:0:
162,165,35361,2,0,P|197:260|150:339,1,180
77,243,35870,1,8,0:0:0:0:
77,243,36039,1,0,0:0:0:0:
58,119,36209,6,0,L|83:6,1,90
177,87,36548,2,0,L|202:-26,1,90,8|0,0:0|0:0,0:0:0:0:
290,137,36887,2,0,L|309:49,1,90
409,105,37226,2,0,L|428:17,1,90,8|0,0:0|0:0,0:0:0:0:
307,116,37565,5,2,0:0:0:0:
452,196,37734,1,2,0:0:0:0:
321,260,37904,2,0,P|284:251|214:248,1,90,8|2,0:0|0:0,0:0:0:0:
232,247,38158,1,2,0:0:0:0:
232,247,38243,1,2,0:0:0:0:
93,191,38412,5,2,0:0:0:0:
229,143,38582,1,10,0:0:0:0:
149,309,38751,1,2,0:0:0:0:
162,71,38921,6,0,P|237:43|300:81,1,135.000005149842,4|0,0:0|0:0,0:0:0:0:
334,157,39429,2,0,L|322:253,1,67.5000025749208
266,312,39768,1,2,0:0:0:0:
266,312,39938,1,2,0:0:0:0:
226,182,40107,1,2,0:0:0:0:
411,177,40277,6,0,P|431:256|389:310,1,135.000005149842
323,141,40785,2,0,P|294:81|317:19,1,135.000005149842
202,70,41293,1,2,0:0:0:0:
99,24,41463,1,2,0:0:0:0:
111,142,41632,6,0,P|133:215|92:275,1,135.000005149842
228,353,42141,2,0,P|200:292|224:231,1,135.000005149842
323,167,42649,2,0,P|320:193|328:257,1,67.5000025749208,2|2,0:0|0:0,0:0:0:0:
423,185,42988,1,2,0:0:0:0:
358,81,43158,2,0,B|339:75|339:75|275:85,1,67.5000025749208,2|2,0:0|0:0,0:0:0:0:
200,128,43497,1,2,0:0:0:0:
214,243,43666,2,0,L|202:328,1,67.5000025749208,0|2,0:0|0:0,0:0:0:0:
204,309,43921,1,2,0:0:0:0:
204,309,44005,1,2,0:0:0:0:
90,209,44175,5,2,0:0:0:0:
90,209,44260,1,2,0:0:0:0:
90,209,44344,2,0,L|86:118,1,76.5000014591217,2|0,0:0|0:0,0:0:0:0:
225,43,44683,2,0,L|228:119,1,76.5000014591217,2|0,0:0|0:0,0:0:0:0:
335,231,45022,1,2,0:0:0:0:
322,74,45192,1,0,0:0:0:0:
235,224,45361,2,0,P|245:276|276:316,1,76.5000014591217,2|0,0:0|0:0,0:0:0:0:
435,214,45700,6,0,P|425:162|394:122,1,76.5000014591217,2|0,0:0|0:0,0:0:0:0:
247,323,46039,1,2,0:0:0:0:
247,323,46209,2,0,P|347:323|398:268,1,153.000002918243,2|2,0:0|0:0,0:0:0:0:
291,190,46717,2,0,L|193:174,1,76.5000014591217,2|0,0:0|0:0,0:0:0:0:
57,99,47056,6,0,L|175:86,1,90,2|0,0:0|0:0,0:0:0:0:
303,117,47395,1,2,0:0:0:0:
143,168,47565,1,0,0:0:0:0:
307,27,47734,2,0,P|302:85|306:151,1,90,2|0,0:0|0:0,0:0:0:0:
221,307,48073,2,0,P|226:249|222:183,1,90,2|0,0:0|0:0,0:0:0:0:
152,84,48412,6,0,B|145:127|145:127|152:181,1,90,6|0,0:0|0:0,0:0:0:0:
302,116,48751,1,8,0:0:0:0:
101,85,48921,6,0,B|94:128|94:128|101:182,1,90,6|0,0:0|0:0,0:0:0:0:
331,116,49260,1,8,0:0:0:0:
60,82,49429,6,0,B|53:125|53:125|60:179,1,90,6|0,0:0|0:0,0:0:0:0:
378,114,49768,1,8,0:0:0:0:
256,192,49853,12,0,50785,0:0:0:0:
77,197,51124,5,2,0:0:0:0:
135,197,51208,1,2,0:0:0:0:
193,185,51293,1,2,0:0:0:0:
252,178,51378,1,2,0:0:0:0:
310,175,51462,1,2,0:0:0:0:
368,181,51547,1,2,0:0:0:0:
428,174,51632,1,2,0:0:0:0:
385,234,52226,6,0,L|261:224,1,90,2|2,0:0|0:0,0:0:0:0:
199,143,52480,6,0,L|346:129,1,107.999996704102,4|0,0:0|0:0,0:0:0:0:
155,280,52819,1,8,0:0:0:0:
91,144,52988,1,0,0:0:0:0:
279,35,53158,6,0,P|311:97|302:143,1,107.999996704102
155,280,53497,1,8,0:0:0:0:
206,108,53666,1,0,0:0:0:0:
63,342,53836,6,0,P|70:298|67:223,1,107.999996704102
203,346,54175,1,8,0:0:0:0:
287,167,54344,2,0,B|297:200|297:200|289:275,1,107.999996704102
397,84,54683,5,0,0:0:0:0:
386,298,54853,1,8,0:0:0:0:
201,223,55022,1,0,0:0:0:0:
317,34,55192,6,0,P|309:109|332:150,1,107.999996704102,4|0,0:0|0:0,0:0:0:0:
137,308,55531,2,0,L|112:202,1,107.999996704102,8|0,0:0|0:0,0:0:0:0:
112,202,55785,1,0,0:0:0:0:
112,202,55870,1,0,0:0:0:0:
347,202,56039,1,0,0:0:0:0:
235,325,56209,1,8,0:0:0:0:
210,138,56378,6,0,P|194:86|219:28,1,107.999996704102
426,89,56717,1,0,0:0:0:0:
282,89,56887,1,8,0:0:0:0:
512,15,57056,2,0,P|506:58|506:130,1,107.999996704102
407,314,57395,2,0,P|413:271|413:199,1,107.999996704102,0|8,0:0|0:0,0:0:0:0:
169,167,57734,5,0,0:0:0:0:
341,230,57904,1,4,0:0:0:0:
108,235,58073,5,0,0:0:0:0:
350,154,58243,1,8,0:0:0:0:
105,118,58412,5,0,0:0:0:0:
361,251,58582,2,0,P|354:329|359:368,1,107.999996704102
119,140,58921,2,0,P|126:62|121:23,1,107.999996704102,8|0,0:0|0:0,0:0:0:0:
234,308,59260,5,0,0:0:0:0:
256,65,59429,1,0,0:0:0:0:
297,314,59599,5,8,0:0:0:0:
359,59,59768,1,0,0:0:0:0:
207,313,59938,6,0,L|195:190,1,107.999996704102
388,47,60277,2,0,L|376:170,1,107.999996704102,8|0,0:0|0:0,0:0:0:0:
232,116,60616,6,0,P|135:120|99:226,1,215.999993408203,4|8,0:0|0:0,0:0:0:0:
317,281,61124,1,0,0:0:0:0:
477,134,61293,6,0,L|461:358,1,215.999993408203,4|8,0:0|0:0,0:0:0:0:
327,196,61802,1,0,0:0:0:0:
186,346,61971,6,0,B|179:295|179:295|197:243|197:243|179:115,1,215.999993408203,4|8,0:0|0:0,0:0:0:0:
282,17,62480,2,0,L|295:131,1,107.999996704102,0|6,0:0|0:0,0:0:0:0:
292,139,62734,1,2,0:0:0:0:
289,161,62818,1,2,0:0:0:0:
286,183,62903,1,2,0:0:0:0:
283,205,62988,1,10,0:0:0:0:
280,228,63072,1,2,0:0:0:0:
278,250,63157,1,2,0:0:0:0:
80,312,63327,6,0,L|66:198,1,107.999996704102,4|0,0:0|0:0,0:0:0:0:
192,27,63666,2,0,L|178:134,1,107.999996704102,8|0,0:0|0:0,0:0:0:0:
212,306,64005,1,0,0:0:0:0:
302,86,64175,1,0,0:0:0:0:
352,293,64344,1,8,0:0:0:0:
178,134,64514,5,0,0:0:0:0:
369,186,64683,2,0,L|350:304,1,107.999996704102
212,306,65022,1,8,0:0:0:0:
325,118,65192,2,0,P|387:108|435:144,1,107.999996704102
345,340,65531,1,0,0:0:0:0:
369,186,65700,1,8,0:0:0:0:
465,335,65870,1,0,0:0:0:0:
279,212,66039,6,0,P|207:197|171:220,1,107.999996704102,4|0,0:0|0:0,0:0:0:0:
228,359,66378,1,8,0:0:0:0:
360,262,66548,1,0,0:0:0:0:
125,106,66887,5,10,0:0:0:0:
379,53,67226,6,0,P|364:84|364:273,1,215.999993408203
100,244,67734,2,0,L|81:129,1,107.999996704102,8|0,0:0|0:0,0:0:0:0:
236,64,68073,1,0,0:0:0:0:
212,286,68243,1,0,0:0:0:0:
152,99,68412,2,8,P|150:37|177:-4,1,107.999996704102,8|0,0:0|0:0,0:0:0:0:
301,331,68751,5,10,0:0:0:0:
137,105,68921,5,10,0:0:0:0:
402,192,69090,5,10,0:0:0:0:
137,278,69260,5,10,0:0:0:0:
301,52,69429,5,10,0:0:0:0:
305,345,69599,5,10,0:0:0:0:
125,96,69769,5,10,0:0:0:0:
417,192,69938,5,10,0:0:0:0:
125,287,70108,5,10,0:0:0:0:
305,38,70277,5,10,0:0:0:0:
310,359,70446,5,10,0:0:0:0:
113,88,70616,5,10,0:0:0:0:
432,192,70785,5,10,0:0:0:0:
113,295,70955,5,10,0:0:0:0:
310,24,71124,5,10,0:0:0:0:
315,375,71293,5,10,0:0:0:0:
98,77,71463,5,14,0:0:0:0:
256,192,71548,12,0,72649,0:0:0:0:
351,136,72819,5,2,0:0:0:0:
394,166,72903,1,2,0:0:0:0:
412,216,72988,1,2,0:0:0:0:
398,268,73073,1,2,0:0:0:0:
357,302,73157,1,2,0:0:0:0:
304,306,73242,1,2,0:0:0:0:
258,280,73327,1,2,0:0:0:0:
235,232,73412,1,2,0:0:0:0:
237,182,73497,5,2,0:0:0:0:
217,140,73581,1,2,0:0:0:0:
178,118,73666,1,2,0:0:0:0:
133,122,73751,1,2,0:0:0:0:
98,151,73835,1,2,0:0:0:0:
86,194,73920,1,2,0:0:0:0:
101,237,74005,1,2,0:0:0:0:
138,263,74090,1,2,0:0:0:0:
188,260,74175,6,0,B|228:254|228:254|325:267,1,107.999996704102,4|0,0:0|0:0,0:0:0:0:
449,188,74514,1,8,0:0:0:0:
270,166,74683,1,0,0:0:0:0:
405,23,74853,2,0,L|392:133,1,107.999996704102
310,18,75192,1,8,0:0:0:0:
262,202,75361,1,0,0:0:0:0:
195,0,75531,6,0,P|209:48|198:109,1,107.999996704102
188,352,75870,2,0,P|174:304|185:243,1,107.999996704102,8|0,0:0|0:0,0:0:0:0:
420,314,76209,1,0,0:0:0:0:
264,293,76378,1,0,0:0:0:0:
498,159,76548,2,0,P|485:222|486:278,1,107.999996704102,8|0,0:0|0:0,0:0:0:0:
363,221,76887,6,0,P|244:188|144:245,1,215.999993408203,4|8,0:0|0:0,0:0:0:0:
80,67,77395,2,0,L|69:187,1,107.999996704102
159,344,77734,1,0,0:0:0:0:
286,224,77904,1,8,0:0:0:0:
191,75,78073,6,0,P|185:161|193:204,1,107.999996704102
387,351,78412,2,0,P|393:265|385:222,1,107.999996704102,0|8,0:0|0:0,0:0:0:0:
285,126,78751,2,0,B|255:127|234:121|234:121|215:116|188:133|188:133|151:121|124:136|124:136|56:133,1,215.999993408203,0|2,0:0|0:0,0:0:0:0:
74,133,79175,1,2,0:0:0:0:
74,133,79260,1,10,0:0:0:0:
74,133,79344,1,2,0:0:0:0:
74,133,79429,1,2,0:0:0:0:
74,133,79514,1,2,0:0:0:0:
106,228,79599,6,0,L|343:244,1,215.999993408203,6|8,0:0|0:0,0:0:0:0:
469,117,80107,6,0,P|372:63|296:147,1,215.999993408203,4|0,0:0|0:0,0:0:0:0:
278,325,80616,1,8,0:0:0:0:
160,109,80785,6,0,P|175:215|148:335,1,215.999993408203,4|0,0:0|0:0,0:0:0:0:
0,200,81293,1,8,0:0:0:0:
30,19,81463,6,0,B|60:20|81:14|81:14|100:9|127:26|127:26|164:14|191:29|191:29|259:26,1,215.999993408203,4|0,0:0|0:0,0:0:0:0:
392,126,81971,1,8,0:0:0:0:
197,144,82141,1,2,0:0:0:0:
377,232,82310,6,8,L|388:345,1,107.999996704102
135,232,82649,2,8,L|124:345,1,107.999996704102
412,196,82988,6,10,L|460:308,1,107.999996704102
100,196,83327,2,10,L|52:308,1,107.999996704102
403,141,83666,5,10,0:0:0:0:
106,146,83836,5,10,0:0:0:0:
349,316,84005,5,10,0:0:0:0:
253,35,84175,5,10,0:0:0:0:
166,319,84514,5,10,0:0:0:0:
403,141,84853,5,8,0:0:0:0:
256,192,84938,12,0,87395,0:0:0:0:
308,186,87649,5,2,0:0:0:0:
276,190,87733,1,2,0:0:0:0:
244,194,87818,1,2,0:0:0:0:
212,198,87903,1,2,0:0:0:0:
