osu file format v14

[General]
AudioFilename: Kano- Six Trillion Years and Overnight Story.mp3
AudioLeadIn: 0
PreviewTime: 55306
Countdown: 0
SampleSet: Soft
StackLeniency: 0.4
Mode: 0
LetterboxInBreaks: 0
WidescreenStoryboard: 0

[Editor]
Bookmarks: 45387,86919,161758
DistanceSpacing: 1.1
BeatDivisor: 4
GridSize: 32
TimelineZoom: 3.3

[Metadata]
Title:Six trillion years and overnight story
TitleUnicode:六兆年と一夜物語
Artist:Kano
ArtistUnicode:鹿乃
Creator:Creamy Candy
Version:Past
Source:
Tags:kemu IA Vocaloid Vocaloid3 Roku_Chounen_to_Ichiya_Monogatari Starfy Fort arronchu1207 Regraz -Nanaka- utaite cover
BeatmapID:1945344
BeatmapSetID:931676

[Difficulty]
HPDrainRate:6
CircleSize:4
OverallDifficulty:9
ApproachRate:9.6
SliderMultiplier:1.9
SliderTickRate:1

[Events]
//Background and Video events
0,0,"BG.png",0,0
//Break Periods
2,163248,166087
//Storyboard Layer 0 (Background)
//Storyboard Layer 1 (Fail)
//Storyboard Layer 2 (Pass)
//Storyboard Layer 3 (Foreground)
//Storyboard Sound Samples

[TimingPoints]
13371,322.58064516129,4,2,2,65,1,0
14661,-76.9230769230769,4,2,2,65,0,0
19822,-58.8235294117647,4,2,2,65,0,0
20145,-76.9230769230769,4,2,2,65,0,0
24983,-111.111111111111,4,2,3,45,0,0
25064,-111.111111111111,4,2,1,65,0,0
30145,-111.111111111111,4,2,3,65,0,0
30225,-111.111111111111,4,2,1,65,0,0
34983,-90.9090909090909,4,2,1,65,0,0
35306,-90.9090909090909,4,2,3,65,0,0
35387,-90.9090909090909,4,2,1,65,0,0
40467,-90.9090909090909,4,2,3,65,0,0
40548,-90.9090909090909,4,2,1,65,0,0
43048,-76.9230769230769,4,2,1,65,0,0
43370,-90.9090909090909,4,2,1,65,0,0
45629,-90.9090909090909,4,2,3,65,0,0
45709,-90.9090909090909,4,2,1,65,0,0
54741,-90.9090909090909,4,2,1,5,0,0
55306,-250,4,2,1,25,0,0
55548,-250,4,2,1,15,0,0
55629,-125,4,2,3,35,0,0
55870,-125,4,2,1,15,0,0
55951,-71.4285714285714,4,2,2,65,0,1
57887,-58.8235294117647,4,2,2,65,0,1
61112,-58.8235294117647,4,2,4,75,0,1
61193,-58.8235294117647,4,2,2,65,0,1
64983,-58.8235294117647,4,2,2,50,0,1
65145,-58.8235294117647,4,2,2,45,0,1
65306,-58.8235294117647,4,2,2,40,0,1
65467,-58.8235294117647,4,2,2,35,0,1
65951,-71.4285714285714,4,2,1,35,0,0
66032,-71.4285714285714,4,2,1,10,0,0
66112,-71.4285714285714,4,2,1,35,0,0
66193,-71.4285714285714,4,2,1,10,0,0
66274,-71.4285714285714,4,2,3,50,0,0
66596,-58.8235294117647,4,2,2,65,0,1
70145,-43.4782608695652,4,2,2,65,0,1
71112,-76.9230769230769,4,2,2,65,0,1
71274,-58.8235294117647,4,2,2,65,0,1
71435,-58.8235294117647,4,2,4,75,0,1
71516,-58.8235294117647,4,2,2,65,0,1
76596,-76.9230769230769,4,2,4,75,0,0
84338,-76.9230769230769,4,2,2,65,0,0
86919,-111.111111111111,4,2,3,45,0,0
87000,-111.111111111111,4,2,1,65,0,0
96919,-249.999999999999,4,2,1,65,0,0
97241,-90.9090909090909,4,2,3,65,0,0
97322,-90.9090909090909,4,2,1,65,0,0
102403,-90.9090909090909,4,2,3,65,0,0
102483,-90.9090909090909,4,2,1,65,0,0
115306,-71.4285714285714,4,2,1,65,0,0
116677,-71.4285714285714,4,2,1,5,0,0
117241,-71.4285714285714,4,2,1,20,0,0
117564,-50,4,2,3,65,0,0
117645,-50,4,2,1,20,0,0
117887,-58.8235294117647,4,2,2,65,0,1
123048,-58.8235294117647,4,2,4,75,0,1
123129,-58.8235294117647,4,2,2,65,0,1
124338,-45.4545454545455,4,2,2,65,0,1
124661,-38.4615384615385,4,2,2,65,0,1
125306,-52.6315789473684,4,2,2,65,0,1
126919,-52.6315789473684,4,2,2,50,0,1
127080,-52.6315789473684,4,2,2,45,0,1
127241,-52.6315789473684,4,2,2,40,0,1
127403,-52.6315789473684,4,2,2,35,0,1
127887,-133.333333333333,4,2,1,35,0,0
127967,-133.333333333333,4,2,1,10,0,0
128048,-133.333333333333,4,2,1,35,0,0
128129,-133.333333333333,4,2,1,10,0,0
128209,-100,4,2,3,50,0,0
128532,-52.6315789473684,4,2,2,65,0,1
132080,-43.4782608695652,4,2,2,65,0,1
133370,-43.4782608695652,4,2,4,75,0,1
133451,-43.4782608695652,4,2,2,65,0,1
138532,-71.4285714285714,4,2,4,75,0,0
138612,-71.4285714285714,4,2,2,65,0,0
141112,-71.4285714285714,4,2,1,27,0,0
141919,-71.4285714285714,4,2,1,32,0,0
142000,-71.4285714285714,4,2,1,34,0,0
142080,-71.4285714285714,4,2,1,36,0,0
142161,-71.4285714285714,4,2,1,38,0,0
142241,-71.4285714285714,4,2,1,40,0,0
142322,-71.4285714285714,4,2,1,42,0,0
142403,-71.4285714285714,4,2,2,65,0,0
146919,-71.4285714285714,4,2,2,65,0,0
148612,-50,4,2,2,65,0,0
148693,-30.3030303030303,4,2,2,65,0,0
148774,-25,4,2,2,65,0,0
148854,-76.9230769230769,4,2,2,65,0,0
151274,-76.9230769230769,4,2,2,65,0,0
154338,-100,4,2,2,65,0,0
161193,-76.9230769230769,4,2,2,65,0,0
161354,-58.8235294117647,4,2,2,65,0,0
161516,-43.4782608695652,4,2,2,65,0,0
161758,-43.4782608695652,4,2,2,5,0,0
162403,-43.4782608695652,4,2,1,25,0,0
162645,-43.4782608695652,4,2,1,15,0,0
162725,-43.4782608695652,4,2,1,35,0,0
162967,-43.4782608695652,4,2,1,15,0,0
163048,-43.4782608695652,4,2,3,65,0,0
166596,-250,4,2,2,65,0,0
166919,-71.4285714285714,4,2,2,65,0,0
167241,-33.3333333333333,4,2,2,65,0,0
167887,-125,4,2,2,65,0,0
168209,-58.8235294117647,4,2,4,75,0,1
168290,-58.8235294117647,4,2,2,65,0,1
169500,-47.6190476190476,4,2,2,65,0,1
170467,-52.6315789473684,4,2,2,65,0,1
172080,-52.6315789473684,4,2,2,50,0,1
172241,-52.6315789473684,4,2,2,45,0,1
172403,-52.6315789473684,4,2,2,40,0,1
172564,-52.6315789473684,4,2,2,35,0,1
173048,-333.333333333333,4,2,1,35,0,0
173129,-333.333333333333,4,2,1,15,0,0
173209,-333.333333333333,4,2,1,35,0,0
173290,-333.333333333333,4,2,1,15,0,0
173370,-100,4,2,3,60,0,0
173693,-52.6315789473684,4,2,2,65,0,1
176274,-43.4782608695652,4,2,2,65,0,1
176435,-100,4,2,2,65,0,1
176596,-100,4,2,2,65,0,1
176919,-43.4782608695652,4,2,2,65,0,1
177241,-43.4782608695652,4,2,2,65,0,1
178532,-52.6315789473684,4,2,4,75,0,1
178612,-52.6315789473684,4,2,2,65,0,1
183693,-52.6315789473684,4,2,4,75,0,1
183774,-52.6315789473684,4,2,2,65,0,1
184338,342.857142857143,4,2,2,65,1,1
184338,-80,4,2,2,65,0,1
184680,342.857142857143,4,2,2,65,1,1
185022,387.096774193548,4,2,2,65,1,0
185215,392.156862745098,4,2,2,65,1,0
185411,419.58041958042,4,2,2,65,1,0
185620,428.571428571429,4,2,2,65,1,0
185834,444.444444444444,4,2,2,65,1,0
186056,500,4,2,2,65,1,0
186306,555.555555555556,4,2,2,65,1,0
186583,635.593220338983,4,2,2,65,1,0
187854,322.58064516129,4,2,2,65,1,0
188499,322.58064516129,4,2,2,65,1,1
188499,-52.6315789473684,4,2,2,65,0,1
191079,-76.9230769230769,4,2,4,75,0,0

[Colours]
Combo1 : 137,89,101
Combo2 : 253,90,207
Combo3 : 89,255,159
Combo4 : 255,62,67

[HitObjects]
256,192,10145,12,0,13935,0:0:0:0:
81,106,14338,5,2,0:0:0:0:
108,98,14419,1,2,0:0:0:0:
135,91,14500,1,2,0:0:0:0:
162,82,14580,1,2,0:0:0:0:
189,74,14661,6,0,L|176:144,1,61.7499971733095,8|0,0:0|0:0,0:0:0:0:
149,278,14822,1,8,0:0:0:0:
264,166,14983,1,8,0:0:0:0:
149,278,15145,5,0,0:0:0:0:
178,256,15225,1,0,0:0:0:0:
214,261,15306,1,2,0:0:0:0:
233,292,15387,1,2,0:0:0:0:
222,327,15467,1,2,0:0:0:0:
188,343,15548,1,2,0:0:0:0:
161,315,15629,2,0,P|169:288|182:207,1,61.7499971733095,4|0,0:0|0:0,0:0:0:0:
108,181,15790,2,0,P|99:160|89:100,1,61.7499971733095,0|0,0:0|0:0,0:0:0:0:
216,17,15951,5,8,0:0:0:0:
237,211,16112,1,8,0:0:0:0:
98,193,16274,1,8,0:0:0:0:
336,188,16435,5,0,0:0:0:0:
348,223,16516,1,0,0:0:0:0:
335,257,16596,1,2,0:0:0:0:
315,288,16677,1,2,0:0:0:0:
281,304,16758,1,2,0:0:0:0:
244,305,16838,1,2,0:0:0:0:
255,273,16919,2,0,P|299:282|351:304,1,61.7499971733095,4|0,0:0|0:0,0:0:0:0:
420,368,17080,2,0,P|447:355|488:347,1,61.7499971733095,0|0,0:0|0:0,0:0:0:0:
512,207,17241,5,8,0:0:0:0:
263,370,17403,1,8,0:0:0:0:
239,195,17564,1,8,0:0:0:0:
263,370,17725,5,0,0:0:0:0:
226,365,17805,1,0,0:0:0:0:
189,361,17886,1,2,0:0:0:0:
152,356,17966,1,0,0:0:0:0:
115,352,18047,1,2,0:0:0:0:
79,347,18128,1,2,0:0:0:0:
42,343,18209,2,0,L|23:236,1,61.7499971733095,4|0,0:0|0:0,0:0:0:0:
152,153,18371,1,0,0:0:0:0:
147,188,18451,1,0,0:0:0:0:
143,225,18532,6,0,P|110:194|94:163,1,61.7499971733095,8|0,0:0|0:0,0:0:0:0:
244,134,18693,2,0,P|242:178|232:224,1,61.7499971733095,8|0,0:0|0:0,0:0:0:0:
115,79,18854,2,0,P|151:59|198:62,1,61.7499971733095,8|0,0:0|0:0,0:0:0:0:
302,251,19016,2,0,P|265:272|221:282,1,61.7499971733095,8|0,0:0|0:0,0:0:0:0:
103,66,19177,1,4,0:0:0:0:
368,143,19338,1,0,0:0:0:0:
368,143,19419,1,0,0:0:0:0:
368,143,19500,1,8,0:0:0:0:
355,190,19580,1,0,0:0:0:0:
347,239,19661,1,0,0:0:0:0:
335,286,19741,1,0,0:0:0:0:
406,263,19822,6,0,P|356:214|271:246,1,161.500003080368,8|0,0:0|0:0,0:0:0:0:
106,351,20145,2,0,P|73:335|26:332,1,61.7499971733095,8|0,0:0|0:0,0:0:0:0:
192,218,20306,2,0,P|200:266|217:305,1,61.7499971733095,0|0,0:0|0:0,0:0:0:0:
86,214,20467,1,2,0:0:0:0:
86,176,20547,1,2,0:0:0:0:
86,139,20628,1,2,0:0:0:0:
86,102,20708,1,2,0:0:0:0:
86,65,20789,1,2,0:0:0:0:
0,243,20951,1,0,0:0:0:0:
176,119,21112,6,0,B|218:113|218:113|341:165,1,123.499994346619,8|0,0:0|0:0,0:0:0:0:
386,236,21435,2,0,L|309:243,1,61.7499971733095,8|0,0:0|0:0,0:0:0:0:
476,207,21596,1,0,0:0:0:0:
476,207,21677,1,0,0:0:0:0:
476,207,21758,2,0,P|474:255|465:286,1,61.7499971733095,10|2,0:0|0:0,0:0:0:0:
249,279,21919,1,2,0:0:0:0:
249,279,22000,1,2,0:0:0:0:
249,279,22080,2,0,P|243:234|255:191,1,61.7499971733095,2|2,0:0|0:0,0:0:0:0:
260,366,22241,1,2,0:0:0:0:
260,366,22322,1,2,0:0:0:0:
260,366,22403,6,0,L|187:359,1,61.7499971733095,8|0,0:0|0:0,0:0:0:0:
104,232,22564,2,0,L|21:258,1,61.7499971733095,0|0,0:0|0:0,0:0:0:0:
259,384,22725,1,8,0:0:0:0:
391,118,22887,6,0,L|451:128,1,61.7499971733095,8|0,0:0|0:0,0:0:0:0:
256,218,23048,2,0,L|329:211,1,61.7499971733095,0|0,0:0|0:0,0:0:0:0:
400,99,23209,1,8,0:0:0:0:
255,237,23371,6,0,L|328:230,1,61.7499971733095,8|0,0:0|0:0,0:0:0:0:
155,85,23532,2,0,L|82:78,1,61.7499971733095,0|0,0:0|0:0,0:0:0:0:
257,258,23693,1,8,0:0:0:0:
257,18,23854,5,8,0:0:0:0:
257,98,23934,1,0,0:0:0:0:
257,178,24015,1,0,0:0:0:0:
257,258,24095,1,0,0:0:0:0:
257,339,24176,1,8,0:0:0:0:
7,321,24983,6,0,P|62:280|180:277,1,170.999994781494,8|8,0:0|0:0,0:0:0:0:
198,185,25467,1,0,0:0:0:0:
198,185,25629,2,0,P|254:217|364:229,1,170.999994781494,0|8,0:0|0:0,0:0:0:0:
443,178,26112,1,0,0:0:0:0:
443,178,26274,2,0,L|437:272,1,85.4999973907472,2|0,0:0|0:0,0:0:0:0:
364,123,26596,2,0,L|359:26,1,85.4999973907472,10|0,0:0|0:0,0:0:0:0:
443,178,26919,2,0,B|391:240|321:212|321:212|342:263,1,170.999994781494,0|8,0:0|0:0,0:0:0:0:
392,332,27403,1,0,0:0:0:0:
392,332,27564,6,0,P|450:309|498:308,1,85.4999973907472,2|0,0:0|0:0,0:0:0:0:
297,320,27887,2,0,P|326:253|353:222,1,85.4999973907472,8|0,0:0|0:0,0:0:0:0:
220,371,28209,2,0,P|189:303|187:259,1,85.4999973907472,0|0,0:0|0:0,0:0:0:0:
93,306,28532,2,0,P|111:237|144:203,1,85.4999973907472,8|0,0:0|0:0,0:0:0:0:
44,162,28854,6,0,P|109:131|196:166,1,170.999994781494,2|10,0:0|0:0,0:0:0:0:
221,63,29338,1,0,0:0:0:0:
221,63,29500,2,0,P|271:102|314:117,1,85.4999973907472,0|0,0:0|0:0,0:0:0:0:
385,3,29822,2,0,P|334:26|290:18,1,85.4999973907472,8|0,0:0|0:0,0:0:0:0:
106,55,30145,6,0,L|120:246,1,170.999994781494,8|8,0:0|0:0,0:0:0:0:
60,302,30629,1,0,0:0:0:0:
60,302,30790,2,0,P|27:244|30:203,1,85.4999973907472,0|0,0:0|0:0,0:0:0:0:
118,225,31112,2,0,P|174:261|230:256,1,85.4999973907472,8|0,0:0|0:0,0:0:0:0:
189,168,31435,2,0,P|223:142|264:128,1,85.4999973907472,2|0,0:0|0:0,0:0:0:0:
307,225,31758,2,0,P|364:255|389:255,1,85.4999973907472,8|0,0:0|0:0,0:0:0:0:
452,85,32080,2,0,P|394:115|378:205,1,128.249996086121,0|0,0:0|0:0,0:0:0:0:
372,171,32403,2,0,P|418:180|462:144,1,85.4999973907472,8|0,0:0|0:0,0:0:0:0:
264,43,32725,6,0,L|264:146,1,85.4999973907472,2|0,0:0|0:0,0:0:0:0:
201,209,33048,2,0,L|213:298,1,85.4999973907472,8|2,0:0|0:0,0:0:0:0:
328,296,33370,2,0,L|309:401,1,85.4999973907472,0|0,0:0|0:0,0:0:0:0:
187,206,33693,2,0,L|199:295,1,85.4999973907472,8|0,0:0|0:0,0:0:0:0:
346,300,34016,6,0,L|327:405,1,85.4999973907472,2|0,0:0|0:0,0:0:0:0:
170,205,34338,2,0,L|182:294,1,85.4999973907472,2|0,0:0|0:0,0:0:0:0:
284,44,34661,2,0,L|284:147,1,85.4999973907472,2|0,0:0|0:0,0:0:0:0:
56,67,34983,2,0,B|86:61|86:61|173:113|173:113|231:115,1,156.750004783631,4|0,0:0|0:0,0:0:0:0:
197,113,35306,6,0,P|146:68|101:90,1,104.500003189087,8|0,0:0|0:0,0:0:0:0:
44,163,35629,1,8,0:0:0:0:
88,238,35790,1,0,0:0:0:0:
44,163,35951,2,0,L|52:297,1,104.500003189087,0|0,0:0|0:0,0:0:0:0:
53,361,36274,1,8,0:0:0:0:
53,361,36435,1,0,0:0:0:0:
134,314,36596,6,0,P|187:308|256:318,1,104.500003189087,2|0,0:0|0:0,0:0:0:0:
51,268,36919,2,0,P|86:215|141:186,1,104.500003189087,8|0,0:0|0:0,0:0:0:0:
329,288,37241,2,0,B|276:270|244:302|244:302|178:348|115:302,1,209.000006378174,0|8,0:0|0:0,0:0:0:0:
303,370,37725,1,0,0:0:0:0:
177,236,37887,6,0,P|175:188|167:110,1,104.500003189087,2|0,0:0|0:0,0:0:0:0:
264,41,38209,2,0,P|259:93|256:145,1,104.500003189087,8|0,0:0|0:0,0:0:0:0:
116,55,38532,2,0,P|163:41|240:189,1,209.000006378174,0|8,0:0|0:0,0:0:0:0:
85,142,39016,1,8,0:0:0:0:
264,41,39177,6,0,B|325:63|368:72|368:72|396:60|414:40,1,156.750004783631,2|0,0:0|0:0,0:0:0:0:
408,45,39500,2,0,P|383:100|381:147,1,104.500003189087,8|0,0:0|0:0,0:0:0:0:
304,245,39822,2,0,P|336:314|337:352,1,104.500003189087,0|0,0:0|0:0,0:0:0:0:
93,317,40145,2,0,L|252:319,1,156.750004783631,8|0,0:0|0:0,0:0:0:0:
249,318,40467,6,0,P|163:318|170:260,1,156.750004783631,8|0,0:0|0:0,0:0:0:0:
221,202,40790,2,0,P|269:161|325:156,1,104.500003189087,8|0,0:0|0:0,0:0:0:0:
416,264,41112,2,0,P|338:264|302:239,1,104.500003189087,0|0,0:0|0:0,0:0:0:0:
300,24,41435,1,8,0:0:0:0:
300,24,41596,1,0,0:0:0:0:
434,161,41758,6,0,P|422:220|411:307,1,104.500003189087,2|0,0:0|0:0,0:0:0:0:
335,354,42080,2,0,P|327:302|316:251,1,104.500003189087,8|0,0:0|0:0,0:0:0:0:
453,157,42403,1,0,0:0:0:0:
204,322,42725,2,0,P|134:296|97:295,1,104.500003189087,8|0,0:0|0:0,0:0:0:0:
5,149,43048,6,0,B|30:115|30:115|26:300,1,185.249991519928,2|0,0:0|0:0,0:0:0:0:
27,259,43370,2,0,P|71:216|131:215,1,104.500003189087,8|0,0:0|0:0,0:0:0:0:
224,118,43693,2,0,P|294:161|348:166,1,104.500003189087,0|0,0:0|0:0,0:0:0:0:
253,35,44016,2,0,P|190:33|150:61,1,104.500003189087,8|0,0:0|0:0,0:0:0:0:
224,118,44338,5,2,0:0:0:0:
388,48,44500,1,8,0:0:0:0:
403,42,44661,1,0,0:0:0:0:
253,35,44822,1,0,0:0:0:0:
428,158,44983,5,2,0:0:0:0:
204,249,45145,1,0,0:0:0:0:
312,293,45306,1,10,0:2:0:0:
312,261,45387,1,0,0:0:0:0:
312,229,45467,1,0,0:0:0:0:
313,197,45548,1,0,0:0:0:0:
314,165,45629,5,8,0:0:0:0:
314,165,46112,5,8,0:0:0:0:
314,165,46596,5,8,0:2:0:0:
87,62,48209,5,8,0:0:0:0:
171,230,48532,1,0,0:0:0:0:
197,123,48693,1,8,0:0:0:0:
75,337,49016,1,0,0:0:0:0:
30,227,49177,1,8,0:0:0:0:
75,337,50145,6,0,P|135:318|171:324,1,69.6666687927247,8|8,0:0|0:0,0:0:0:0:
369,365,50360,5,8,0:0:0:0:
369,289,50468,5,8,0:0:0:0:
370,213,50575,5,8,0:0:0:0:
369,137,50683,5,8,0:0:0:0:
371,53,50790,5,8,0:0:0:0:
342,213,52564,5,0,0:0:0:0:
342,213,52645,1,0,0:0:0:0:
342,213,52725,1,8,0:0:0:0:
423,160,52887,1,2,0:0:0:0:
423,160,52967,1,2,0:0:0:0:
423,160,53048,2,0,P|380:130|342:125,1,52.2500015945435,2|2,0:0|0:0,0:0:0:0:
261,165,53209,2,0,P|201:185|187:184,1,52.2500015945435,2|2,0:0|0:0,0:0:0:0:
46,82,53370,6,0,B|98:66|98:66|159:65|225:112,1,156.750004783631,8|0,0:0|0:0,0:0:0:0:
195,93,53693,5,8,0:0:0:0:
26,198,53854,1,0,0:0:0:0:
341,275,54016,1,8,0:0:0:0:
1,326,54177,1,8,0:0:0:0:
347,186,54338,1,8,0:0:0:0:
46,82,54500,1,8,0:0:0:0:
364,49,54661,1,8,0:0:0:0:
318,151,55306,6,0,P|286:133|254:144,1,57,2|0,0:0|0:0,0:0:0:0:
267,135,55629,6,0,P|316:164|349:124,1,114,8|0,0:0|0:0,0:0:0:0:
215,66,55951,6,0,B|229:111|229:111|215:197|215:197|223:252,1,132.999995941162,6|0,0:0|0:0,0:0:0:0:
133,245,56193,1,0,0:0:0:0:
133,245,56274,2,0,B|137:177|137:177|206:205,1,132.999995941162,8|0,0:0|0:0,0:0:0:0:
51,355,56596,6,0,P|18:337|67:266,1,132.999995941162,2|0,0:0|0:0,0:0:0:0:
133,245,56838,1,0,0:0:0:0:
133,245,56919,2,0,P|167:271|211:281,1,66.4999979705811,8|0,0:0|0:0,0:0:0:0:
282,334,57080,2,0,P|327:317|357:316,1,66.4999979705811,0|0,0:0|0:0,0:0:0:0:
480,200,57241,6,0,P|453:256|423:187,1,132.999995941162,2|0,0:0|0:0,0:0:0:0:
424,142,57483,1,0,0:0:0:0:
424,142,57564,2,0,P|444:103|431:64,1,66.4999979705811,8|0,0:0|0:0,0:0:0:0:
363,22,57725,2,0,P|357:66|387:102,1,66.4999979705811,0|0,0:0|0:0,0:0:0:0:
442,49,57887,6,0,B|354:24|323:26|323:26|257:56,1,161.500003080368,2|0,0:0|0:0,0:0:0:0:
193,101,58129,1,0,0:0:0:0:
193,101,58209,2,0,P|165:59|203:46,1,80.750001540184,8|0,0:0|0:0,0:0:0:0:
269,154,58370,2,0,P|288:174|254:238,1,80.750001540184,0|0,0:0|0:0,0:0:0:0:
159,232,58532,6,0,B|178:222|190:192|190:192|200:254|200:254|182:303|182:303|189:393,1,242.250004620552,2|0,0:0|0:0,0:0:0:0:
187,378,58854,6,0,B|159:344|159:344|67:368,1,80.750001540184,8|0,0:0|0:0,0:0:0:0:
8,304,59016,2,0,B|31:263|31:263|91:286,1,80.750001540184,0|0,0:0|0:0,0:0:0:0:
187,189,59177,2,0,B|160:154|160:154|100:148,1,80.750001540184,2|0,0:0|0:0,0:0:0:0:
11,85,59338,2,0,B|45:61|45:61|111:60,1,80.750001540184,0|0,0:0|0:0,0:0:0:0:
195,198,59500,5,8,0:0:0:0:
0,91,59661,1,0,0:0:0:0:
258,61,59822,6,0,B|250:98|250:98|309:133|299:237,1,161.500003080368,2|0,0:0|0:0,0:0:0:0:
379,247,60064,1,0,0:0:0:0:
379,247,60145,2,0,P|371:306|318:270,1,80.750001540184,8|0,0:0|0:0,0:0:0:0:
300,204,60306,2,0,P|314:170|379:188,1,80.750001540184,0|0,0:0|0:0,0:0:0:0:
242,301,60467,6,0,B|205:275|205:275|144:266|50:295,1,161.500003080368,2|0,0:0|0:0,0:0:0:0:
89,284,60709,1,0,0:0:0:0:
89,284,60790,2,0,P|77:326|87:396,1,80.750001540184,8|0,0:0|0:0,0:0:0:0:
139,155,60951,2,0,P|123:121|113:55,1,80.750001540184,8|0,0:0|0:0,0:0:0:0:
235,294,61112,6,0,B|343:348|414:299|414:299|368:189,1,242.250004620552,8|0,0:0|0:0,0:0:0:0:
314,169,61435,2,0,P|297:203|329:249,1,80.750001540184,8|0,0:0|0:0,0:0:0:0:
391,163,61596,2,0,P|403:126|381:52,1,80.750001540184,0|0,0:0|0:0,0:0:0:0:
306,9,61758,2,0,P|301:103|331:216,1,161.500003080368,2|0,0:0|0:0,0:0:0:0:
393,249,62000,1,0,0:0:0:0:
393,249,62080,6,0,P|435:256|463:203,1,80.750001540184,8|0,0:0|0:0,0:0:0:0:
391,163,62241,2,0,P|349:157|280:204,1,80.750001540184,0|0,0:0|0:0,0:0:0:0:
187,250,62403,2,0,P|154:278|112:286,1,80.750001540184,2|0,0:0|0:0,0:0:0:0:
44,145,62564,2,0,P|96:166|89:242,1,80.750001540184,0|0,0:0|0:0,0:0:0:0:
34,291,62725,6,0,P|28:243|72:260,1,80.750001540184,8|0,0:0|0:0,0:0:0:0:
118,286,62887,2,0,P|121:335|67:339,1,80.750001540184,0|0,0:0|0:0,0:0:0:0:
23,301,63048,2,0,L|248:267,1,161.500003080368,0|0,0:0|0:0,0:0:0:0:
255,212,63290,1,0,0:0:0:0:
255,212,63370,2,0,B|288:238|288:238|306:286,1,80.750001540184,8|0,0:0|0:0,0:0:0:0:
302,368,63532,1,0,0:0:0:0:
169,174,63693,6,0,P|187:138|246:128,1,80.750001540184,8|0,0:0|0:0,0:0:0:0:
404,186,63854,1,0,0:0:0:0:
404,186,64016,6,0,P|348:203|340:144,1,80.750001540184,8|0,0:0|0:0,0:0:0:0:
326,17,64177,1,0,0:0:0:0:
326,17,64338,6,0,P|371:36|326:62,1,80.750001540184,8|0,0:0|0:0,0:0:0:0:
132,70,64500,1,0,0:0:0:0:
132,70,64661,6,0,P|176:14|192:50,1,80.750001540184,8|0,0:0|0:0,0:0:0:0:
245,139,64822,1,0,0:0:0:0:
48,184,64983,5,8,0:0:0:0:
316,238,65145,1,8,0:0:0:0:
8,374,65306,1,2,0:0:0:0:
343,362,65467,1,2,0:0:0:0:
25,279,65629,1,2,0:0:0:0:
25,279,65951,6,0,P|56:258|196:223,1,178.12500679493,2|0,0:0|0:0,0:0:0:0:
190,222,66274,1,10,0:0:0:0:
36,138,66435,5,0,0:0:0:0:
36,138,66516,1,0,0:0:0:0:
36,138,66596,2,0,P|154:203|321:184,1,242.250004620552,12|0,0:0|0:0,0:0:0:0:
259,204,66919,2,0,B|276:168|276:168|260:106,1,80.750001540184,2|0,0:0|0:0,0:0:0:0:
171,29,67080,1,0,0:0:0:0:
171,29,67161,1,0,0:0:0:0:
171,29,67241,1,8,0:0:0:0:
358,54,67403,1,0,0:0:0:0:
173,175,67564,6,0,B|158:211|158:211|185:288|185:288|249:327|335:302,1,242.250004620552,2|0,0:0|0:0,0:0:0:0:
302,309,67887,2,0,P|250:272|210:323,1,80.750001540184,8|0,0:0|0:0,0:0:0:0:
129,345,68048,2,0,P|103:363|36:343,1,80.750001540184,0|0,0:0|0:0,0:0:0:0:
64,210,68209,2,0,B|93:185|172:171|172:171|233:195,1,161.500003080368,2|0,0:0|0:0,0:0:0:0:
214,187,68451,1,0,0:0:0:0:
214,187,68532,2,0,P|225:133|202:80,1,80.750001540184,8|0,0:0|0:0,0:0:0:0:
104,19,68693,2,0,P|107:55|156:86,1,80.750001540184,0|0,0:0|0:0,0:0:0:0:
350,49,68854,6,0,B|276:13|178:30|178:30|125:101,1,242.250004620552,2|0,0:0|0:0,0:0:0:0:
138,83,69177,1,8,0:0:0:0:
341,171,69338,1,0,0:0:0:0:
61,256,69500,1,0,0:0:0:0:
382,263,69661,1,0,0:0:0:0:
382,263,69741,1,0,0:0:0:0:
382,263,69822,1,8,0:0:0:0:
71,364,69983,1,0,0:0:0:0:
71,364,70064,1,0,0:0:0:0:
71,364,70145,6,0,P|14:327|-28:338,1,109.250002083778,8|0,0:0|0:0,0:0:0:0:
221,351,70467,6,0,P|241:360|287:295,1,109.250002083778,8|0,0:0|0:0,0:0:0:0:
73,127,70790,6,0,P|43:132|87:193,1,109.250002083778,8|0,0:0|0:0,0:0:0:0:
186,178,70951,1,8,0:0:0:0:
186,178,71032,1,8,0:0:0:0:
186,178,71112,2,0,P|215:164|297:156,1,61.7499971733095,8|8,0:0|0:0,0:0:0:0:
314,64,71274,2,0,P|350:81|426:83,1,80.750001540184,8|8,0:0|0:0,0:0:0:0:
511,203,71435,6,0,P|418:158|431:301,1,242.250004620552,8|0,0:0|0:0,0:0:0:0:
376,262,71758,2,0,P|443:223|441:211,1,80.750001540184,8|0,0:0|0:0,0:0:0:0:
270,188,71919,2,0,P|221:172|162:226,1,80.750001540184,0|0,0:0|0:0,0:0:0:0:
104,280,72080,2,0,B|131:295|131:295|99:122,1,161.500003080368,2|0,0:0|0:0,0:0:0:0:
107,166,72322,1,0,0:0:0:0:
107,166,72403,2,0,P|153:99|191:93,1,80.750001540184,8|0,0:0|0:0,0:0:0:0:
270,188,72564,2,0,P|200:192|209:143,1,80.750001540184,0|0,0:0|0:0,0:0:0:0:
233,64,72725,6,0,P|286:96|228:118,1,80.750001540184,2|0,0:0|0:0,0:0:0:0:
183,204,72887,2,0,P|179:169|228:136,1,80.750001540184,0|0,0:0|0:0,0:0:0:0:
285,196,73048,2,0,P|275:253|240:269,1,80.750001540184,8|0,0:0|0:0,0:0:0:0:
285,99,73209,2,0,P|319:101|310:177,1,80.750001540184,0|0,0:0|0:0,0:0:0:0:
196,141,73370,6,0,B|397:118|397:118,1,161.500003080368,0|0,0:0|0:0,0:0:0:0:
454,48,73612,1,0,0:0:0:0:
454,48,73693,2,0,L|442:127,1,80.750001540184,8|0,0:0|0:0,0:0:0:0:
418,220,73854,1,0,0:0:0:0:
418,220,74016,6,0,L|327:211,1,80.750001540184,8|0,0:0|0:0,0:0:0:0:
368,42,74177,1,0,0:0:0:0:
368,42,74338,6,0,L|356:121,1,80.750001540184,8|0,0:0|0:0,0:0:0:0:
354,300,74500,1,0,0:0:0:0:
354,300,74661,6,0,L|263:291,1,80.750001540184,8|0,0:0|0:0,0:0:0:0:
279,32,74822,1,0,0:0:0:0:
279,32,74983,6,0,L|267:111,1,80.750001540184,8|0,0:0|0:0,0:0:0:0:
287,381,75145,1,0,0:0:0:0:
443,313,75306,5,8,0:0:0:0:
162,277,75467,1,10,0:0:0:0:
422,218,75629,1,2,0:0:0:0:
139,175,75790,1,2,0:0:0:0:
443,129,75951,1,2,0:0:0:0:
443,129,76274,1,8,0:0:0:0:
411,104,76354,1,8,0:0:0:0:
371,112,76435,1,8,0:0:0:0:
351,147,76516,1,8,0:0:0:0:
361,191,76596,6,0,B|285:148|230:145|230:145|171:174,1,185.249991519928,10|0,0:0|0:0,0:0:0:0:
189,164,76919,2,0,P|150:142|111:151,1,61.7499971733095,0|0,0:0|0:0,0:0:0:0:
164,265,77080,1,0,0:0:0:0:
164,265,77161,1,0,0:0:0:0:
164,265,77241,2,0,P|202:267|241:258,1,61.7499971733095,0|0,0:0|0:0,0:0:0:0:
319,328,77403,2,0,P|354:308|420:312,1,61.7499971733095,0|0,0:0|0:0,0:0:0:0:
436,191,77564,2,0,P|471:210|515:212,1,61.7499971733095,0|0,0:0|0:0,0:0:0:0:
299,309,77725,1,0,0:0:0:0:
339,34,77887,6,0,B|373:91|366:125|366:125|332:164|344:228,1,185.249991519928,0|0,0:0|0:0,0:0:0:0:
341,207,78209,2,0,P|291:168|257:166,1,61.7499971733095,0|0,0:0|0:0,0:0:0:0:
174,74,78370,1,0,0:0:0:0:
174,74,78451,1,0,0:0:0:0:
174,74,78532,2,0,P|121:96|79:138,1,61.7499971733095,0|0,0:0|0:0,0:0:0:0:
13,148,78693,2,0,P|13:104|46:44,1,61.7499971733095,0|0,0:0|0:0,0:0:0:0:
187,158,78854,2,0,P|206:205|207:254,1,61.7499971733095,0|0,0:0|0:0,0:0:0:0:
137,363,79016,1,0,0:0:0:0:
293,179,79177,6,0,B|360:165|360:165|427:176|475:214,1,185.249991519928,0|0,0:0|0:0,0:0:0:0:
467,208,79500,2,0,P|443:151|442:121,1,61.7499971733095,0|0,0:0|0:0,0:0:0:0:
503,302,79661,1,0,0:0:0:0:
503,302,79741,1,0,0:0:0:0:
503,302,79822,2,0,P|430:294|409:282,1,61.7499971733095,0|0,0:0|0:0,0:0:0:0:
337,350,79983,2,0,P|273:323|252:324,1,61.7499971733095,0|0,0:0|0:0,0:0:0:0:
187,249,80145,2,0,P|130:276|112:278,1,61.7499971733095,0|0,0:0|0:0,0:0:0:0:
331,369,80306,1,0,0:0:0:0:
121,188,80467,5,0,0:0:0:0:
309,63,80629,1,0,0:0:0:0:
204,194,80790,1,0,0:0:0:0:
229,167,80870,1,0,0:0:0:0:
264,156,80951,1,0,0:0:0:0:
300,151,81032,1,0,0:0:0:0:
336,157,81112,2,0,P|347:212|339:251,1,61.7499971733095,0|0,0:0|0:0,0:0:0:0:
336,157,81435,2,0,P|405:175|506:86,1,185.249991519928,0|0,0:0|0:0,0:0:0:0:
495,115,81758,6,0,P|446:30|388:97,1,185.249991519928,0|0,0:0|0:0,0:0:0:0:
392,63,82080,2,0,P|404:97|406:139,1,61.7499971733095,0|0,0:0|0:0,0:0:0:0:
345,254,82241,1,0,0:0:0:0:
345,254,82322,1,0,0:0:0:0:
345,254,82403,2,0,P|372:226|398:210,1,61.7499971733095,0|0,0:0|0:0,0:0:0:0:
485,323,82564,2,0,P|413:319|406:316,1,61.7499971733095,0|0,0:0|0:0,0:0:0:0:
325,234,82725,2,0,P|262:212|218:225,1,61.7499971733095,0|0,0:0|0:0,0:0:0:0:
128,290,82887,1,0,0:0:0:0:
186,56,83048,2,0,B|175:103|175:103|193:164|193:164|186:273,1,185.249991519928,0|0,0:0|0:0,0:0:0:0:
188,237,83370,6,0,P|139:204|52:296,1,185.249991519928,0|0,0:0|0:0,0:0:0:0:
50,271,83693,2,0,P|111:287|131:278,1,61.7499971733095,0|0,0:0|0:0,0:0:0:0:
124,123,83854,2,0,P|80:127|35:155,1,61.7499971733095,0|0,0:0|0:0,0:0:0:0:
107,322,84016,2,0,P|133:297|146:263,1,61.7499971733095,0|0,0:0|0:0,0:0:0:0:
63,99,84177,2,0,P|36:131|27:176,1,61.7499971733095,0|0,0:0|0:0,0:0:0:0:
207,193,84338,6,0,L|301:194,1,61.7499971733095,8|0,0:0|0:0,0:0:0:0:
373,100,84500,1,0,0:0:0:0:
373,100,84580,1,0,0:0:0:0:
373,100,84661,1,8,0:0:0:0:
512,284,84822,6,0,L|437:275,1,61.7499971733095,8|0,0:0|0:0,0:0:0:0:
366,195,84983,1,0,0:0:0:0:
366,195,85064,1,0,0:0:0:0:
366,195,85145,1,8,0:0:0:0:
222,172,85306,6,0,L|297:163,1,61.7499971733095,8|0,0:0|0:0,0:0:0:0:
383,77,85467,1,0,0:0:0:0:
383,77,85548,1,0,0:0:0:0:
383,77,85629,1,8,0:0:0:0:
484,363,85790,6,0,L|409:354,1,61.7499971733095,8|0,0:0|0:0,0:0:0:0:
301,270,85951,1,0,0:0:0:0:
301,270,86032,1,0,0:0:0:0:
301,270,86113,1,8,0:0:0:0:
151,322,86919,6,0,B|112:301|112:301|63:297|-5:357,1,170.999994781494,8|8,0:0|0:0,0:0:0:0:
181,244,87403,1,0,0:0:0:0:
95,132,87564,2,0,L|112:308,1,170.999994781494,0|8,0:0|0:0,0:0:0:0:
181,244,88048,1,0,0:0:0:0:
15,140,88209,6,0,L|26:256,1,85.4999973907472,2|0,0:0|0:0,0:0:0:0:
48,59,88532,1,8,0:0:0:0:
95,132,88693,1,2,0:0:0:0:
227,72,88854,1,2,0:0:0:0:
227,72,89177,2,0,P|261:59|340:56,1,85.4999973907472,8|0,0:0|0:0,0:0:0:0:
309,52,89500,6,0,B|275:146|324:220|324:220|266:263|271:313,1,256.499992172241,2|0,0:0|0:0,0:0:0:0:
354,297,90145,2,0,P|312:211|190:288,1,256.499992172241,0|0,0:0|0:0,0:0:0:0:
273,283,90790,5,2,0:0:0:0:
273,283,91112,1,8,0:0:0:0:
191,267,91274,1,0,0:0:0:0:
112,257,91435,1,0,0:0:0:0:
8,10,92080,6,0,B|47:60|110:77|110:77|176:64,1,170.999994781494,6|0,0:0|0:0,0:0:0:0:
246,27,92564,1,0,0:0:0:0:
73,174,92725,1,8,0:0:0:0:
18,368,93209,1,0,0:0:0:0:
18,368,93370,6,0,P|97:377|202:338,1,170.999994781494,6|8,0:0|0:0,0:0:0:0:
234,247,93854,1,0,0:0:0:0:
234,247,94016,2,0,P|287:298|304:307,1,85.4999973907472,0|0,0:0|0:0,0:0:0:0:
386,172,94338,2,0,P|332:199|314:232,1,85.4999973907472,8|0,0:0|0:0,0:0:0:0:
296,303,94661,6,0,L|287:132,1,170.999994781494,6|8,0:0|0:0,0:0:0:0:
287,132,95145,1,2,0:0:0:0:
185,118,95306,2,0,P|139:139|85:137,1,85.4999973907472,0|0,0:0|0:0,0:0:0:0:
35,24,95629,1,8,0:0:0:0:
123,51,95790,1,0,0:0:0:0:
123,51,96919,6,0,P|98:102|101:106,1,57,4|0,0:0|0:0,0:0:0:0:
93,91,97241,6,0,L|201:87,1,104.500003189087,8|0,0:0|0:0,0:0:0:0:
311,24,97564,2,0,P|286:88|271:164,1,104.500003189087,8|0,0:0|0:0,0:0:0:0:
355,279,97887,2,0,P|360:242|346:157,1,104.500003189087,0|0,0:0|0:0,0:0:0:0:
177,250,98209,2,0,P|177:308|202:367,1,104.500003189087,8|0,0:0|0:0,0:0:0:0:
272,264,98532,5,2,0:0:0:0:
272,264,98693,1,0,0:0:0:0:
177,250,98854,1,8,0:0:0:0:
348,174,99016,1,0,0:0:0:0:
203,79,99177,1,0,0:0:0:0:
203,79,99500,2,0,B|165:62|165:62|131:88|86:81,1,104.500003189087,8|0,0:0|0:0,0:0:0:0:
107,2,99822,6,0,P|133:67|116:217,1,209.000006378174,2|8,0:0|0:0,0:0:0:0:
32,250,100306,1,0,0:0:0:0:
122,203,100467,2,0,B|163:188|163:188|204:198|240:219,1,104.500003189087,0|0,0:0|0:0,0:0:0:0:
108,384,100790,2,0,L|-43:385,1,104.500003189087,8|0,0:0|0:0,0:0:0:0:
113,299,101112,5,2,0:0:0:0:
113,299,101274,1,0,0:0:0:0:
266,333,101435,1,8,0:0:0:0:
122,203,101596,1,0,0:0:0:0:
309,135,101758,1,8,0:0:0:0:
309,135,101838,1,8,0:0:0:0:
309,135,101919,1,8,0:0:0:0:
220,208,102080,1,8,0:0:0:0:
227,10,102241,1,0,0:0:0:0:
227,36,102322,1,0,0:0:0:0:
227,62,102403,6,0,P|287:27|343:37,1,104.500003189087,8|0,0:0|0:0,0:0:0:0:
394,195,102725,2,0,P|342:242|297:246,1,104.500003189087,8|0,0:0|0:0,0:0:0:0:
403,95,103048,2,0,L|537:94,1,104.500003189087,0|0,0:0|0:0,0:0:0:0:
309,135,103370,2,0,L|191:137,1,104.500003189087,8|0,0:0|0:0,0:0:0:0:
47,34,103693,2,0,P|82:87|94:159,1,104.500003189087,2|0,0:0|0:0,0:0:0:0:
144,244,104016,2,0,P|116:311|106:379,1,104.500003189087,8|0,0:0|0:0,0:0:0:0:
67,196,104338,2,0,P|152:154|233:209,1,156.750004783631,0|0,0:0|0:0,0:0:0:0:
205,174,104661,2,0,P|220:230|142:242,1,156.750004783631,8|0,0:0|0:0,0:0:0:0:
143,243,104983,6,0,L|326:231,1,156.750004783631,2|0,0:0|0:0,0:0:0:0:
300,232,105306,1,8,0:0:0:0:
363,157,105467,2,0,P|392:218|388:281,1,104.500003189087,0|0,0:0|0:0,0:0:0:0:
336,336,105790,1,0,0:0:0:0:
487,286,105951,1,8,0:0:0:0:
303,235,106112,1,8,0:0:0:0:
303,235,106435,5,0,0:0:0:0:
438,93,106596,1,8,0:0:0:0:
438,93,106677,1,0,0:0:0:0:
438,93,106758,1,0,0:0:0:0:
243,35,106919,1,2,0:0:0:0:
396,0,107080,1,0,0:0:0:0:
268,132,107241,1,8,0:0:0:0:
293,125,107322,1,0,0:0:0:0:
318,118,107403,1,0,0:0:0:0:
143,67,107564,6,0,L|243:35,1,104.500003189087,6|0,0:0|0:0,0:0:0:0:
55,101,107887,1,8,0:0:0:0:
242,35,108048,1,2,0:0:0:0:
39,195,108370,1,0,0:0:0:0:
292,238,108532,1,8,0:0:0:0:
282,225,109016,5,0,0:0:0:0:
362,338,109177,1,8,0:0:0:0:
362,338,109500,1,8,0:0:0:0:
177,311,109661,1,0,0:0:0:0:
268,322,109822,1,2,0:0:0:0:
102,132,110145,5,6,0:0:0:0:
141,219,110306,1,0,0:0:0:0:
161,41,110467,1,8,0:0:0:0:
148,234,110629,1,2,0:0:0:0:
148,234,110951,1,0,0:0:0:0:
382,167,111112,1,8,0:0:0:0:
155,134,111596,5,0,0:0:0:0:
316,229,111758,1,8,0:0:0:0:
286,35,111973,5,8,0:0:0:0:
251,110,112080,5,8,0:0:0:0:
234,192,112188,5,8,0:0:0:0:
228,275,112295,5,8,0:0:0:0:
247,356,112403,5,8,0:0:0:0:
306,297,112510,5,8,0:0:0:0:
228,275,112618,5,8,0:0:0:0:
162,326,112725,5,8,0:0:0:0:
162,326,113048,5,0,0:0:0:0:
75,219,113370,5,8,0:0:0:0:
256,136,113693,5,0,0:0:0:0:
437,219,114016,5,8,0:0:0:0:
365,146,114500,1,0,0:0:0:0:
365,146,114580,1,0,0:0:0:0:
365,146,114661,2,0,P|345:198|346:251,1,104.500003189087,8|2,0:0|0:0,0:0:0:0:
437,219,114903,1,2,0:0:0:0:
364,231,114983,1,2,0:0:0:0:
292,243,115064,1,2,0:0:0:0:
220,255,115144,1,2,0:0:0:0:
148,268,115225,1,2,0:0:0:0:
76,282,115306,6,0,B|137:241|137:241|259:386,1,199.499993911743,8|0,0:0|0:0,0:0:0:0:
218,337,115629,1,8,0:0:0:0:
77,165,115790,1,0,0:0:0:0:
126,365,115951,1,8,0:0:0:0:
278,162,116112,1,8,0:0:0:0:
17,235,116274,1,8,0:0:0:0:
292,243,116435,1,8,0:0:0:0:
43,80,116596,1,8,0:0:0:0:
28,201,117241,5,8,0:0:0:0:
28,201,117322,1,0,0:0:0:0:
28,201,117403,2,0,P|91:181|103:183,1,66.4999979705811,8|0,0:0|0:0,0:0:0:0:
177,93,117564,2,0,P|207:115|266:133,1,95,8|0,0:0|0:0,0:0:0:0:
350,232,117725,2,0,P|398:198|459:187,1,95,0|0,0:0|0:0,0:0:0:0:
262,134,117887,6,0,B|235:233|281:289|281:289|213:256|166:307,1,242.250004620552,6|0,0:0|0:0,0:0:0:0:
203,280,118209,2,0,P|221:238|281:232,1,80.750001540184,8|0,0:0|0:0,0:0:0:0:
133,344,118370,2,0,P|103:337|61:297,1,80.750001540184,0|0,0:0|0:0,0:0:0:0:
12,81,118532,2,0,L|15:306,1,161.500003080368,2|0,0:0|0:0,0:0:0:0:
14,242,118774,1,0,0:0:0:0:
14,242,118854,2,0,P|79:223|129:277,1,80.750001540184,8|0,0:0|0:0,0:0:0:0:
195,88,119016,2,0,P|238:124|322:128,1,80.750001540184,0|0,0:0|0:0,0:0:0:0:
422,119,119177,6,0,P|346:75|352:213,1,242.250004620552,2|0,0:0|0:0,0:0:0:0:
304,188,119500,2,0,P|356:197|429:183,1,80.750001540184,8|0,0:0|0:0,0:0:0:0:
397,37,119661,2,0,P|437:39|472:58,1,80.750001540184,0|0,0:0|0:0,0:0:0:0:
314,258,119822,2,0,P|312:145|421:118,1,242.250004620552,2|0,0:0|0:0,0:0:0:0:
420,117,120145,2,0,P|458:148|465:216,1,80.750001540184,8|0,0:0|0:0,0:0:0:0:
365,333,120306,2,0,P|322:352|249:331,1,80.750001540184,0|0,0:0|0:0,0:0:0:0:
127,156,120467,6,0,P|185:246|58:255,1,242.250004620552,2|0,0:0|0:0,0:0:0:0:
87,285,120790,2,0,P|184:238|217:257,1,80.750001540184,8|0,0:0|0:0,0:0:0:0:
288,328,120951,2,0,P|331:341|400:288,1,80.750001540184,0|0,0:0|0:0,0:0:0:0:
469,177,121112,2,0,P|384:187|378:232,1,80.750001540184,2|0,0:0|0:0,0:0:0:0:
395,255,121274,2,0,P|432:267|468:251,1,80.750001540184,0|0,0:0|0:0,0:0:0:0:
424,122,121435,2,0,P|383:137|426:207,1,80.750001540184,8|0,0:0|0:0,0:0:0:0:
453,300,121596,2,0,P|488:294|476:236,1,80.750001540184,0|0,0:0|0:0,0:0:0:0:
306,230,121758,6,0,B|223:198|140:193|140:193|110:213|67:259,1,242.250004620552,2|0,0:0|0:0,0:0:0:0:
85,239,122080,2,0,B|126:249|193:204,1,80.750001540184,8|0,0:0|0:0,0:0:0:0:
275,135,122241,2,0,P|185:117|146:117,1,80.750001540184,0|0,0:0|0:0,0:0:0:0:
6,314,122403,2,0,P|45:320|84:331,1,80.750001540184,2|0,0:0|0:0,0:0:0:0:
240,241,122564,1,0,0:0:0:0:
240,241,122645,1,0,0:0:0:0:
240,241,122725,2,0,P|149:215|131:204,1,80.750001540184,8|0,0:0|0:0,0:0:0:0:
131,129,122887,2,0,P|204:134|197:164,1,80.750001540184,8|0,0:0|0:0,0:0:0:0:
69,206,123048,6,0,B|97:133|78:45|78:45|5:8,1,242.250004620552,8|0,0:0|0:0,0:0:0:0:
7,9,123370,2,0,P|71:42|100:22,1,80.750001540184,8|0,0:0|0:0,0:0:0:0:
255,35,123532,2,0,P|201:14|141:33,1,80.750001540184,0|0,0:0|0:0,0:0:0:0:
0,162,123693,2,0,P|37:127|138:208,1,161.500003080368,0|0,0:0|0:0,0:0:0:0:
197,236,123935,1,0,0:0:0:0:
197,236,124016,2,0,P|241:254|291:236,1,80.750001540184,8|0,0:0|0:0,0:0:0:0:
282,165,124177,2,0,P|246:147|206:151,1,80.750001540184,0|0,0:0|0:0,0:0:0:0:
265,332,124338,6,0,P|323:319|347:248,1,104.500003189087,2|0,0:0|0:0,0:0:0:0:
282,164,124500,2,0,P|229:169|199:250,1,104.500003189087,0|0,0:0|0:0,0:0:0:0:
430,307,124661,2,0,P|416:231|368:197,1,123.499994346619,8|0,0:0|0:0,0:0:0:0:
272,247,124822,2,0,P|281:340|335:375,1,123.499994346619,0|0,0:0|0:0,0:0:0:0:
422,282,124983,2,0,L|117:274,1,246.999988693238,0|0,0:0|0:0,0:0:0:0:
82,343,125225,1,0,0:0:0:0:
82,343,125306,2,0,P|36:306|44:251,1,90.2499975900651,8|0,0:0|0:0,0:0:0:0:
101,111,125467,1,0,0:0:0:0:
208,54,125629,5,8,0:0:0:0:
208,54,125790,6,0,P|246:92|175:106,1,90.2499975900651
40,97,125951,1,8,0:0:0:0:
40,97,126112,6,0,P|64:77|75:139,1,90.2499975900651,0|0,0:0|0:0,0:0:0:0:
179,256,126274,1,8,0:0:0:0:
179,256,126435,2,0,P|120:236|144:197,1,90.2499975900651,0|0,0:0|0:0,0:0:0:0:
309,146,126596,1,8,0:0:0:0:
309,146,126758,6,0,P|311:200|262:207,1,90.2499975900651,0|0,0:0|0:0,0:0:0:0:
100,110,126919,1,8,0:0:0:0:
298,57,127080,1,8,0:0:0:0:
38,223,127241,1,2,0:0:0:0:
354,256,127403,1,2,0:0:0:0:
69,373,127564,1,2,0:0:0:0:
69,373,127887,6,0,P|97:314|161:327,1,106.875004076958,2|0,0:0|0:0,0:0:0:0:
132,309,128209,6,0,P|56:343|56:301,1,142.5,8|0,0:0|0:0,0:0:0:0:
50,323,128532,6,0,L|353:308,1,270.749992770195,8|0,0:0|0:0,0:0:0:0:
320,309,128854,1,2,0:0:0:0:
419,137,129016,1,0,0:0:0:0:
419,137,129096,1,0,0:0:0:0:
419,137,129177,2,0,B|432:181|432:181|423:236,1,90.2499975900651,8|0,0:0|0:0,0:0:0:0:
303,168,129338,2,0,B|295:124|295:124|308:80,1,90.2499975900651,0|0,0:0|0:0,0:0:0:0:
452,236,129500,6,0,L|239:210,1,180.49999518013,2|0,0:0|0:0,0:0:0:0:
180,140,129741,1,0,0:0:0:0:
180,140,129822,2,0,L|67:175,1,90.2499975900651,8|0,0:0|0:0,0:0:0:0:
0,58,129983,2,0,L|92:69,1,90.2499975900651,0|0,0:0|0:0,0:0:0:0:
95,262,130145,2,0,L|3:251,1,90.2499975900651,2|0,0:0|0:0,0:0:0:0:
236,77,130306,1,0,0:0:0:0:
236,77,130387,1,0,0:0:0:0:
236,77,130467,2,0,P|265:127|229:203,1,90.2499975900651,8|0,0:0|0:0,0:0:0:0:
321,258,130629,2,0,P|279:284|214:269,1,90.2499975900651,0|0,0:0|0:0,0:0:0:0:
263,157,130790,6,0,B|458:163|458:163|509:196|478:259,1,270.749992770195,2|0,0:0|0:0,0:0:0:0:
488,226,131112,2,0,L|366:225,1,90.2499975900651,8|0,0:0|0:0,0:0:0:0:
308,106,131274,2,0,L|398:108,1,90.2499975900651,0|0,0:0|0:0,0:0:0:0:
336,290,131435,2,0,P|311:250|335:175,1,90.2499975900651,2|0,0:0|0:0,0:0:0:0:
469,164,131596,2,0,P|490:222|477:279,1,90.2499975900651,0|0,0:0|0:0,0:0:0:0:
319,366,131758,2,0,P|260:326|256:267,1,90.2499975900651,8|0,0:0|0:0,0:0:0:0:
406,233,131919,1,0,0:0:0:0:
406,233,132000,1,0,0:0:0:0:
406,233,132080,6,0,P|420:298|406:343,1,109.250002083778,8|0,0:0|0:0,0:0:0:0:
145,314,132403,6,0,L|288:309,1,109.250002083778,8|0,0:0|0:0,0:0:0:0:
224,290,132725,6,0,L|115:294,1,109.250002083778,8|0,0:0|0:0,0:0:0:0:
92,278,132887,5,8,0:0:0:0:
59,209,132967,1,8,0:0:0:0:
67,134,133048,1,8,0:0:0:0:
113,74,133128,1,8,0:0:0:0:
183,46,133209,1,8,0:0:0:0:
258,59,133290,1,8,0:0:0:0:
315,108,133370,6,0,L|36:101,1,218.500004167557,8|0,0:0|0:0,0:0:0:0:
178,185,133612,1,0,0:0:0:0:
178,185,133693,2,0,L|385:190,1,109.250002083778,8|0,0:0|0:0,0:0:0:0:
424,111,133854,2,0,L|314:108,1,109.250002083778,0|0,0:0|0:0,0:0:0:0:
346,316,134016,2,0,B|366:263|331:211|331:211|301:177|318:87,1,218.500004167557,2|0,0:0|0:0,0:0:0:0:
381,18,134258,1,0,0:0:0:0:
381,18,134338,2,0,P|422:69|415:134,1,109.250002083778,8|0,0:0|0:0,0:0:0:0:
209,143,134500,2,0,P|203:73|252:7,1,109.250002083778,0|0,0:0|0:0,0:0:0:0:
392,207,134661,6,0,P|340:239|252:217,1,109.250002083778,2|0,0:0|0:0,0:0:0:0:
140,89,134822,2,0,P|189:60|289:92,1,109.250002083778,0|0,0:0|0:0,0:0:0:0:
346,316,134983,2,0,P|270:320|215:256,1,109.250002083778,8|0,0:0|0:0,0:0:0:0:
239,60,135145,2,0,P|288:99|301:190,1,109.250002083778,0|0,0:0|0:0,0:0:0:0:
140,89,135306,6,0,P|242:69|294:163,1,218.500004167557,0|0,0:0|0:0,0:0:0:0:
203,218,135548,1,0,0:0:0:0:
203,218,135629,2,0,P|133:195|81:190,1,109.250002083778,8|0,0:0|0:0,0:0:0:0:
32,100,135790,2,0,P|119:95|181:68,1,109.250002083778,0|0,0:0|0:0,0:0:0:0:
139,295,135951,1,8,0:0:0:0:
139,295,136112,6,0,P|86:283|31:284,1,109.250002083778,0|0,0:0|0:0,0:0:0:0:
139,88,136274,1,8,0:0:0:0:
139,88,136435,6,0,P|189:102|258:107,1,109.250002083778,0|0,0:0|0:0,0:0:0:0:
310,231,136596,1,8,0:0:0:0:
310,231,136758,6,0,P|240:218|185:219,1,109.250002083778,0|0,0:0|0:0,0:0:0:0:
373,131,136919,1,8,0:0:0:0:
373,131,137080,6,0,P|426:149|490:158,1,109.250002083778,0|0,0:0|0:0,0:0:0:0:
306,12,137241,1,10,0:0:0:0:
315,343,137403,1,10,0:0:0:0:
245,107,137564,1,2,0:0:0:0:
202,217,137725,1,2,0:0:0:0:
25,106,137887,1,2,0:0:0:0:
38,214,138048,5,2,0:0:0:0:
80,179,138128,1,2,0:0:0:0:
126,150,138209,1,2,0:0:0:0:
169,162,138289,1,2,0:0:0:0:
213,194,138370,1,2,0:0:0:0:
266,204,138451,1,2,0:0:0:0:
318,188,138532,6,0,B|274:232|274:232|279:393,1,199.499993911743,8|0,0:0|0:0,0:0:0:0:
278,369,138854,1,8,0:0:0:0:
411,291,139016,1,0,0:0:0:0:
198,315,139177,1,2,0:0:0:0:
421,158,139338,1,0,0:0:0:0:
421,158,139419,1,0,0:0:0:0:
421,158,139500,2,0,P|412:227|411:307,1,132.999995941162,8|0,0:0|0:0,0:0:0:0:
309,55,139822,5,2,0:0:0:0:
318,188,139983,1,0,0:0:0:0:
401,39,140145,2,0,P|479:44|508:105,1,132.999995941162,8|0,0:0|0:0,0:0:0:0:
318,188,140467,2,0,P|248:177|268:141,1,132.999995941162,2|2,0:0|0:0,0:0:0:0:
318,206,140709,1,2,0:0:0:0:
317,226,140790,1,10,0:0:0:0:
317,245,140870,1,2,0:0:0:0:
317,271,140951,1,2,0:0:0:0:
317,304,141032,1,2,0:0:0:0:
317,343,141112,1,8,0:0:0:0:
317,343,142403,5,8,0:0:0:0:
249,304,142483,1,8,0:0:0:0:
172,315,142564,1,8,0:0:0:0:
101,346,142644,1,8,0:0:0:0:
25,319,142725,2,0,P|97:261|172:315,1,199.499993911743,8|8,0:0|0:0,0:0:0:0:
176,320,143048,2,0,P|154:258|148:203,1,66.4999979705811,10|2,0:0|0:0,0:0:0:0:
235,166,143209,2,0,P|246:127|246:67,1,66.4999979705811,2|2,0:0|0:0,0:0:0:0:
106,30,143370,2,0,P|102:77|115:115,1,66.4999979705811,2|2,0:0|0:0,0:0:0:0:
269,106,143532,1,2,0:0:0:0:
269,106,143612,1,2,0:0:0:0:
269,106,143693,6,0,P|219:57|175:60,1,66.4999979705811,10|0,0:0|0:0,0:0:0:0:
23,207,143935,1,8,0:0:0:0:
23,207,144016,1,8,0:0:0:0:
62,200,144096,1,0,0:0:0:0:
101,193,144177,1,8,0:0:0:0:
140,186,144257,1,0,0:0:0:0:
180,179,144338,1,0,0:0:0:0:
246,242,144419,1,0,0:0:0:0:
285,243,144499,1,8,0:0:0:0:
325,245,144580,1,0,0:0:0:0:
365,247,144660,1,8,0:0:0:0:
415,89,144822,5,8,0:0:0:0:
375,94,144903,1,0,0:0:0:0:
335,99,144983,6,0,L|217:111,1,66.4999979705811,2|0,0:0|0:0,0:0:0:0:
151,42,145145,1,8,0:0:0:0:
65,215,145306,1,8,0:0:0:0:
65,234,145386,1,8,0:0:0:0:
65,254,145467,1,8,0:0:0:0:
65,274,145547,1,8,0:0:0:0:
65,294,145628,1,8,0:0:0:0:
65,314,145709,1,0,0:0:0:0:
66,333,145790,5,8,0:0:0:0:
134,292,145870,1,8,0:0:0:0:
212,307,145951,1,8,0:0:0:0:
277,351,146031,1,8,0:0:0:0:
357,354,146112,1,8,0:0:0:0:
430,321,146193,1,8,0:0:0:0:
441,241,146274,5,0,0:0:0:0:
474,67,146435,1,0,0:0:0:0:
474,67,146516,1,2,0:0:0:0:
401,99,146596,1,10,0:0:0:0:
326,75,146677,1,2,0:0:0:0:
247,60,146758,1,2,0:0:0:0:
176,96,146838,1,2,0:0:0:0:
163,179,146919,2,0,L|228:168,1,66.4999979705811
326,75,147080,2,0,L|238:70,1,66.4999979705811
161,190,147241,2,0,L|226:179,1,66.4999979705811
460,206,147403,5,2,0:0:0:0:
439,202,147483,1,2,0:0:0:0:
423,197,147564,1,8,0:0:0:0:
403,193,147645,1,8,0:0:0:0:
383,189,147725,1,8,0:0:0:0:
335,197,147806,5,8,0:0:0:0:
341,164,147887,1,8,0:0:0:0:
301,188,147967,1,8,0:0:0:0:
307,155,148048,1,8,0:0:0:0:
266,178,148129,1,8,0:0:0:0:
272,145,148210,1,8,0:0:0:0:
235,172,148290,1,8,0:0:0:0:
225,140,148371,1,8,0:0:0:0:
200,178,148451,1,8,0:0:0:0:
177,154,148532,6,0,L|208:188,1,33.2499989852906,2|2,0:0|0:0,0:0:0:0:
154,168,148612,2,0,P|191:178|236:168,1,47.5,2|2,0:0|0:0,0:0:0:0:
124,188,148693,2,0,P|163:191|208:172,1,78.3750007474423,2|2,0:0|0:0,0:0:0:0:
97,205,148774,2,0,P|138:201|203:176,1,95,2|2,0:0|0:0,0:0:0:0:
70,210,148854,5,10,0:0:0:0:
313,59,149016,1,8,0:0:0:0:
313,59,149500,1,8,0:0:0:0:
26,22,149661,1,8,0:0:0:0:
26,22,150145,5,8,0:0:0:0:
240,98,150467,5,8,0:0:0:0:
21,188,150790,5,8,0:0:0:0:
184,318,151112,5,8,0:0:0:0:
184,318,151193,1,0,0:0:0:0:
184,318,151274,1,0,0:0:0:0:
263,309,151354,1,0,0:0:0:0:
343,299,151435,5,8,0:0:0:0:
98,325,151596,1,8,0:0:0:0:
431,297,151919,1,0,0:0:0:0:
431,297,152000,1,0,0:0:0:0:
431,297,152080,1,8,0:0:0:0:
18,334,152241,1,8,0:0:0:0:
510,288,152725,5,8,0:0:0:0:
263,309,152887,1,0,0:0:0:0:
464,205,153048,1,8,0:0:0:0:
298,166,153209,1,0,0:0:0:0:
502,128,153370,1,8,0:0:0:0:
216,66,153612,5,0,0:0:0:0:
216,66,153693,1,8,0:0:0:0:
216,103,153773,1,0,0:0:0:0:
216,140,153854,1,0,0:0:0:0:
216,177,153934,1,0,0:0:0:0:
216,214,154016,6,0,P|281:260|357:239,1,123.499994346619,8|0,0:0|0:0,0:0:0:0:
389,176,154338,2,0,P|309:162|258:187,1,95,8|0,0:0|0:0,0:0:0:0:
150,286,154661,2,0,P|101:259|22:256,1,95,8|0,0:0|0:0,0:0:0:0:
216,214,154983,1,8,0:0:0:0:
74,347,155145,1,0,0:0:0:0:
244,315,155306,5,8,0:0:0:0:
42,165,155467,1,0,0:0:0:0:
198,122,155629,1,8,0:0:0:0:
55,81,155790,1,0,0:0:0:0:
242,37,155951,5,8,0:0:0:0:
294,95,156058,1,8,0:0:0:0:
282,175,156166,1,8,0:0:0:0:
271,191,156273,5,8,0:0:0:0:
347,163,156381,1,8,0:0:0:0:
418,201,156488,1,8,0:0:0:0:
447,276,156596,2,0,P|365:323|350:235,1,190,12|0,0:0|0:0,0:0:0:0:
337,256,157080,5,0,0:0:0:0:
499,212,157241,1,8,0:0:0:0:
335,71,157403,1,0,0:0:0:0:
347,163,157564,1,0,0:0:0:0:
415,6,157725,1,0,0:0:0:0:
245,30,157887,5,8,0:0:0:0:
347,163,158048,1,8,0:0:0:0:
177,184,158209,1,0,0:0:0:0:
257,124,158370,1,0,0:0:0:0:
104,238,158532,2,0,P|40:203|1:207,1,95,8|0,0:0|0:0,0:0:0:0:
31,299,158854,1,0,0:0:0:0:
183,277,159016,1,0,0:0:0:0:
183,277,159096,1,0,0:0:0:0:
183,277,159177,6,0,P|184:211|156:146,1,95,8|0,0:0|0:0,0:0:0:0:
113,347,159500,5,8,0:0:0:0:
328,341,159661,1,0,0:0:0:0:
102,367,159822,5,8,0:0:0:0:
307,251,159983,1,0,0:0:0:0:
124,329,160145,5,8,0:0:0:0:
390,280,160306,1,0,0:0:0:0:
104,238,160467,5,8,0:0:0:0:
374,181,160629,5,0,0:0:0:0:
67,40,160790,5,8,0:0:0:0:
392,19,160951,5,8,0:0:0:0:
228,95,161112,1,8,0:0:0:0:
228,95,161220,6,0,P|254:114|317:110,1,82.3333295644126
299,205,161435,6,0,P|332:202|392:140,1,107.666668720245,0|8,0:0|0:0,0:0:0:0:
468,206,161650,6,0,P|480:166|427:60,1,145.666669445038
444,72,163048,5,10,0:0:0:0:
128,140,166596,6,0,P|153:127|197:130,1,57,8|0,0:0|0:0,0:0:0:0:
181,125,166919,6,0,L|158:326,1,199.499993911743,8|0,0:0|0:0,0:0:0:0:
159,324,167241,6,0,L|154:12,2,285.000010871888,8|8|8,0:0|0:0|0:0,0:0:0:0:
159,324,167887,6,0,P|213:289|269:287,1,114,8|0,0:0|0:0,0:0:0:0:
261,285,168209,6,0,L|61:283,1,161.500003080368,8|0,0:0|0:0,0:0:0:0:
16,227,168451,1,0,0:0:0:0:
16,227,168532,2,0,P|25:288|31:358,1,80.750001540184,8|0,0:0|0:0,0:0:0:0:
99,194,168693,2,0,P|101:154|111:92,1,80.750001540184,0|0,0:0|0:0,0:0:0:0:
1,239,168854,2,0,P|92:187|183:237,1,161.500003080368,2|0,0:0|0:0,0:0:0:0:
228,143,169096,1,0,0:0:0:0:
228,143,169177,2,0,P|267:181|312:184,1,80.750001540184,8|0,0:0|0:0,0:0:0:0:
373,131,169338,2,0,P|311:103|269:130,1,80.750001540184,0|0,0:0|0:0,0:0:0:0:
275,276,169500,6,0,P|317:272|371:203,1,99.7499969558717,2|0,0:0|0:0,0:0:0:0:
307,95,169661,2,0,P|282:137|291:186,1,99.7499969558717,0|0,0:0|0:0,0:0:0:0:
456,122,169822,2,0,P|438:76|397:48,1,99.7499969558717,8|0,0:0|0:0,0:0:0:0:
429,203,169983,2,0,P|482:200|536:138,1,99.7499969558717,0|0,0:0|0:0,0:0:0:0:
373,131,170145,2,0,L|106:113,1,199.499993911743,0|0,0:0|0:0,0:0:0:0:
63,46,170387,1,0,0:0:0:0:
63,46,170467,2,0,L|59:167,1,90.2499975900651,8|0,0:0|0:0,0:0:0:0:
38,365,170629,1,0,0:0:0:0:
38,365,170790,6,0,P|-1:269|-1:250,1,90.2499975900651,8|0,0:0|0:0,0:0:0:0:
153,222,170951,1,0,0:0:0:0:
153,222,171112,6,0,P|98:268|78:309,1,90.2499975900651,8|0,0:0|0:0,0:0:0:0:
252,360,171274,1,0,0:0:0:0:
252,360,171435,6,0,P|199:334|174:306,1,90.2499975900651,8|0,0:0|0:0,0:0:0:0:
346,259,171596,1,0,0:0:0:0:
346,259,171758,6,0,P|289:252|249:265,1,90.2499975900651,8|0,0:0|0:0,0:0:0:0:
423,354,171919,1,0,0:0:0:0:
481,195,172080,5,8,0:0:0:0:
258,260,172241,1,8,0:0:0:0:
453,274,172403,1,2,0:0:0:0:
213,168,172564,1,2,0:0:0:0:
512,119,172725,1,0,0:0:0:0:
503,117,172806,1,0,0:0:0:0:
494,115,172887,1,0,0:0:0:0:
485,113,172967,1,0,0:0:0:0:
481,112,173048,6,0,L|438:105,1,42.7499986953736,2|2,0:0|0:0,0:0:0:0:
341,40,173370,1,8,0:0:0:0:
366,121,173451,1,0,0:0:0:0:
379,206,173532,1,0,0:0:0:0:
314,261,173612,1,0,0:0:0:0:
234,229,173693,6,0,B|306:219|306:219|375:273|375:273|501:276,1,270.749992770195,8|0,0:0|0:0,0:0:0:0:
479,202,174016,2,0,P|440:182|426:310,1,180.49999518013,2|0,0:0|0:0,0:0:0:0:
444,359,174258,1,0,0:0:0:0:
444,359,174338,2,0,L|341:345,1,90.2499975900651,8|0,0:0|0:0,0:0:0:0:
284,196,174500,2,0,L|194:208,1,90.2499975900651,0|0,0:0|0:0,0:0:0:0:
371,271,174661,6,0,P|404:201|218:110,1,270.749992770195,2|0,0:0|0:0,0:0:0:0:
285,80,174983,2,0,P|313:118|372:103,1,90.2499975900651,8|0,0:0|0:0,0:0:0:0:
426,45,175145,2,0,P|385:15|332:56,1,90.2499975900651,0|0,0:0|0:0,0:0:0:0:
185,146,175306,2,0,P|226:202|233:390,1,180.49999518013,2|0,0:0|0:0,0:0:0:0:
183,362,175548,1,0,0:0:0:0:
183,362,175629,2,0,P|230:314|290:310,1,90.2499975900651,8|0,0:0|0:0,0:0:0:0:
361,355,175790,2,0,P|398:374|472:362,1,90.2499975900651,0|0,0:0|0:0,0:0:0:0:
466,100,175951,6,0,B|422:296|422:296|495:230,1,270.749992770195,2|0,0:0|0:0,0:0:0:0:
473,249,176274,2,0,P|415:221|371:225,1,109.250002083778,12|0,0:0|0:0,0:0:0:0:
250,307,176435,2,0,L|317:306,1,47.5,0|0,0:0|0:0,0:0:0:0:
274,96,176596,6,0,L|275:216,1,95,2|0,0:0|0:0,0:0:0:0:
279,200,176838,1,0,0:0:0:0:
279,200,176919,2,0,P|192:164|148:178,1,109.250002083778,8|0,0:0|0:0,0:0:0:0:
80,320,177080,1,0,0:0:0:0:
87,240,177161,1,0,0:0:0:0:
95,161,177241,6,0,P|49:166|10:252,1,109.250002083778,8|0,0:0|0:0,0:0:0:0:
208,363,177564,6,0,L|210:240,1,109.250002083778,8|0,0:0|0:0,0:0:0:0:
224,255,177887,2,0,L|223:365,1,109.250002083778,8|0,0:0|0:0,0:0:0:0:
253,369,178048,5,8,0:0:0:0:
321,334,178129,1,8,0:0:0:0:
352,264,178209,1,8,0:0:0:0:
420,229,178290,1,8,0:0:0:0:
484,268,178370,1,8,0:0:0:0:
498,343,178451,1,8,0:0:0:0:
418,321,178532,6,0,B|420:107|420:107|496:180,1,270.749992770195,8|0,0:0|0:0,0:0:0:0:
460,146,178854,2,0,P|390:158|326:106,1,90.2499975900651,8|0,0:0|0:0,0:0:0:0:
317,74,179016,2,0,P|357:54|400:65,1,90.2499975900651,0|0,0:0|0:0,0:0:0:0:
242,243,179177,2,0,B|260:206|260:206|232:131|232:131|235:20,1,180.49999518013,2|0,0:0|0:0,0:0:0:0:
162,23,179419,1,0,0:0:0:0:
162,23,179500,2,0,P|105:52|72:41,1,90.2499975900651,8|0,0:0|0:0,0:0:0:0:
1,114,179661,2,0,P|34:83|109:112,1,90.2499975900651,0|0,0:0|0:0,0:0:0:0:
158,174,179822,6,0,B|115:183|115:183|0:146,1,90.2499975900651,2|0,0:0|0:0,0:0:0:0:
233,71,179983,2,0,B|273:57|273:57|358:81,1,90.2499975900651,0|0,0:0|0:0,0:0:0:0:
153,260,180145,2,0,B|143:217|143:217|181:102,1,90.2499975900651,8|0,0:0|0:0,0:0:0:0:
289,156,180306,2,0,B|303:199|303:199|293:242,1,90.2499975900651,0|0,0:0|0:0,0:0:0:0:
150,349,180467,2,0,B|199:347|226:306|226:306|269:348|313:334,1,180.49999518013,0|0,0:0|0:0,0:0:0:0:
378,252,180709,1,0,0:0:0:0:
378,252,180790,2,0,P|308:237|253:277,1,90.2499975900651,8|0,0:0|0:0,0:0:0:0:
411,342,180951,2,0,P|455:324|512:323,1,90.2499975900651,0|0,0:0|0:0,0:0:0:0:
467,135,181112,6,0,P|371:150|358:142,1,90.2499975900651,8|0,0:0|0:0,0:0:0:0:
411,342,181274,1,0,0:0:0:0:
411,342,181435,6,0,P|359:328|317:336,1,90.2499975900651,8|0,0:0|0:0,0:0:0:0:
261,156,181596,1,0,0:0:0:0:
261,156,181758,6,0,P|208:177|168:175,1,90.2499975900651,8|0,0:0|0:0,0:0:0:0:
86,323,181919,1,0,0:0:0:0:
86,323,182080,6,0,P|27:288|-14:287,1,90.2499975900651,8|0,0:0|0:0,0:0:0:0:
261,173,182241,1,0,0:0:0:0:
220,319,182403,5,10,0:0:0:0:
200,85,182564,1,10,0:0:0:0:
218,339,182725,1,2,0:0:0:0:
261,156,182887,1,2,0:0:0:0:
38,192,183048,1,2,0:0:0:0:
295,72,183209,1,8,0:0:0:0:
331,76,183290,1,8,0:0:0:0:
355,101,183370,1,8,0:0:0:0:
362,136,183451,1,8,0:0:0:0:
338,163,183532,1,8,0:0:0:0:
303,154,183612,1,8,0:0:0:0:
289,119,183693,6,0,L|475:105,1,180.49999518013,8|0,0:0|0:0,0:0:0:0:
195,160,184016,2,0,P|191:116|204:73,1,90.2499975900651,8|0,0:0|0:0,0:0:0:0:
271,228,184177,2,0,P|276:281|264:321,1,90.2499975900651,0|0,0:0|0:0,0:0:0:0:
67,336,184338,1,2,0:0:0:0:
186,268,184509,1,0,0:0:0:0:
186,268,184595,1,0,0:0:0:0:
186,268,184680,2,0,P|111:276|110:275,1,47.5,8|0,0:0|0:0,0:0:0:0:
68,252,184851,2,0,P|48:229|44:185,1,47.5,0|0,0:0|0:0,0:0:0:0:
43,128,185022,5,8,0:0:0:0:
453,128,185215,5,8,0:0:0:0:
42,213,185411,5,8,0:0:0:0:
452,213,185620,5,8,0:0:0:0:
44,300,185834,5,8,0:0:0:0:
43,128,186056,5,8,0:0:0:0:
193,214,186306,5,8,0:0:0:0:
44,300,186583,5,8,0:0:0:0:
44,300,187854,5,2,0:0:0:0:
145,300,188015,1,0,0:0:0:0:
145,300,188095,1,0,0:0:0:0:
145,300,188176,1,8,0:0:0:0:
252,302,188337,1,0,0:0:0:0:
252,302,188417,1,0,0:0:0:0:
252,302,188499,6,0,P|291:321|330:302,1,90.2499975900651,8|0,0:0|0:0,0:0:0:0:
300,219,188660,2,0,P|260:199|221:218,1,90.2499975900651,0|0,0:0|0:0,0:0:0:0:
304,353,188821,2,0,P|354:324|366:253,1,90.2499975900651,8|0,0:0|0:0,0:0:0:0:
248,168,188982,2,0,P|198:197|186:268,1,90.2499975900651,0|0,0:0|0:0,0:0:0:0:
388,354,189144,2,0,P|403:320|374:248,1,90.2499975900651,8|0,0:0|0:0,0:0:0:0:
173,159,189305,2,0,P|152:217|182:278,1,90.2499975900651,0|0,0:0|0:0,0:0:0:0:
436,289,189467,2,0,P|411:240|348:235,1,90.2499975900651,8|0,0:0|0:0,0:0:0:0:
99,219,189628,2,0,P|124:268|187:273,1,90.2499975900651,0|0,0:0|0:0,0:0:0:0:
432,214,189789,5,8,0:0:0:0:
111,299,189950,1,8,0:0:0:0:
289,129,190111,1,8,0:0:0:0:
313,377,190273,1,8,0:0:0:0:
208,40,190434,1,0,0:0:0:0:
208,40,190757,6,0,P|173:82|183:148,1,90.2499975900651,8|8,0:0|0:0,0:0:0:0:
84,150,190918,2,0,P|104:181|170:206,1,90.2499975900651,8|8,0:0|0:0,0:0:0:0:
265,117,191079,6,0,P|391:89|426:108,1,123.499994346619,0|0,0:0|0:0,0:0:0:0:
348,226,191402,2,0,P|286:224|233:194,1,123.499994346619,0|0,0:0|0:0,0:0:0:0:
462,84,191724,1,0,0:0:0:0:
462,121,191804,1,0,0:0:0:0:
463,158,191885,1,0,0:0:0:0:
463,195,191966,1,0,0:0:0:0:
464,232,192046,1,0,0:0:0:0:
413,6,192208,1,0,0:0:0:0:
265,117,192369,6,0,P|168:70|115:72,1,123.499994346619,0|0,0:0|0:0,0:0:0:0:
60,212,192692,2,0,P|149:173|200:170,1,123.499994346619,0|0,0:0|0:0,0:0:0:0:
273,298,193015,1,0,0:0:0:0:
237,305,193095,1,0,0:0:0:0:
206,284,193176,1,0,0:0:0:0:
172,299,193257,1,0,0:0:0:0:
139,282,193337,1,0,0:0:0:0:
285,200,193499,1,0,0:0:0:0:
138,368,193660,6,0,L|-4:368,1,123.499994346619,0|0,0:0|0:0,0:0:0:0:
206,284,193982,2,0,L|348:284,1,123.499994346619,0|0,0:0|0:0,0:0:0:0:
457,222,194305,1,0,0:0:0:0:
481,250,194386,1,0,0:0:0:0:
489,285,194466,1,0,0:0:0:0:
481,319,194547,1,0,0:0:0:0:
449,338,194628,1,0,0:0:0:0:
480,145,194789,1,0,0:0:0:0:
291,186,194950,5,0,0:0:0:0:
457,222,195111,1,0,0:0:0:0:
253,263,195273,1,0,0:0:0:0:
224,240,195353,1,0,0:0:0:0:
206,207,195434,1,0,0:0:0:0:
204,170,195514,1,0,0:0:0:0:
215,136,195595,2,0,L|361:143,1,123.499994346619,0|0,0:0|0:0,0:0:0:0:
120,194,195918,1,0,0:0:0:0:
217,47,196079,1,0,0:0:0:0:
217,47,196160,1,0,0:0:0:0:
217,47,196240,6,0,L|362:53,1,123.499994346619,0|0,0:0|0:0,0:0:0:0:
50,266,196563,2,0,P|34:222|52:125,1,123.499994346619,0|0,0:0|0:0,0:0:0:0:
230,201,196886,1,0,0:0:0:0:
215,234,196966,1,0,0:0:0:0:
219,270,197047,1,0,0:0:0:0:
193,297,197128,1,0,0:0:0:0:
202,332,197208,1,0,0:0:0:0:
120,194,197369,1,0,0:0:0:0:
309,319,197531,6,0,P|348:294|473:289,1,123.499994346619,0|0,0:0|0:0,0:0:0:0:
488,166,197853,2,0,P|391:200|333:189,1,123.499994346619,0|0,0:0|0:0,0:0:0:0:
326,23,198176,1,0,0:0:0:0:
363,22,198257,1,0,0:0:0:0:
394,41,198337,1,0,0:0:0:0:
410,74,198418,1,0,0:0:0:0:
409,111,198499,1,0,0:0:0:0:
274,97,198660,1,0,0:0:0:0:
138,86,198821,6,0,P|148:144|156:234,1,123.499994346619,0|0,0:0|0:0,0:0:0:0:
282,271,199144,1,0,0:0:0:0:
63,328,199305,1,0,0:0:0:0:
63,328,199386,1,0,0:0:0:0:
63,328,199466,2,0,P|93:300|130:295,1,61.7499971733095,0|0,0:0|0:0,0:0:0:0:
154,208,199627,2,0,P|190:224|222:253,1,61.7499971733095,0|0,0:0|0:0,0:0:0:0:
362,314,199789,5,0,0:0:0:0:
362,294,199869,1,0,0:0:0:0:
363,275,199950,1,0,0:0:0:0:
364,258,200030,1,0,0:0:0:0:
364,238,200111,6,0,P|365:195|372:157,1,61.7499971733095
474,69,200273,1,0,0:0:0:0:
474,69,200353,1,0,0:0:0:0:
474,69,200434,2,0,P|413:127|403:128,1,61.7499971733095,0|0,0:0|0:0,0:0:0:0:
348,76,200595,2,0,P|288:55|232:63,1,61.7499971733095,0|0,0:0|0:0,0:0:0:0:
186,92,200757,1,0,0:0:0:0:
186,92,201079,1,0,0:0:0:0:
194,140,201160,1,0,0:0:0:0:
198,188,201240,1,0,0:0:0:0:
204,237,201321,1,0,0:0:0:0:
128,200,201402,6,0,P|201:157|291:226,1,185.249991519928,0|0,0:0|0:0,0:0:0:0:
281,201,201724,1,0,0:0:0:0:
139,340,201886,1,0,0:0:0:0:
102,341,201966,1,0,0:0:0:0:
64,342,202047,2,0,P|132:305|164:311,1,61.7499971733095,0|0,0:0|0:0,0:0:0:0:
235,350,202208,2,0,P|261:370|338:360,1,61.7499971733095,0|0,0:0|0:0,0:0:0:0:
399,288,202369,1,0,0:0:0:0:
220,357,202531,1,0,0:0:0:0:
423,194,202692,5,0,0:0:0:0:
303,291,202853,1,0,0:0:0:0:
273,56,203015,1,0,0:0:0:0:
424,107,203176,1,0,0:0:0:0:
461,107,203257,1,0,0:0:0:0:
497,105,203337,2,0,P|467:73|417:66,1,61.7499971733095,0|0,0:0|0:0,0:0:0:0:
320,130,203499,2,0,P|273:147|252:142,1,61.7499971733095,0|0,0:0|0:0,0:0:0:0:
165,65,203660,1,0,0:0:0:0:
334,148,203821,1,0,0:0:0:0:
80,132,203982,5,0,0:0:0:0:
273,56,204144,1,0,0:0:0:0:
65,135,204305,2,0,L|58:296,1,123.499994346619,0|0,0:0|0:0,0:0:0:0:
123,329,204628,2,0,P|146:313|216:307,1,61.7499971733095,0|0,0:0|0:0,0:0:0:0:
253,227,204789,2,0,P|304:258|323:293,1,61.7499971733095,0|0,0:0|0:0,0:0:0:0:
378,350,204950,1,0,0:0:0:0:
253,208,205111,1,0,0:0:0:0:
455,226,205273,5,0,0:0:0:0:
260,342,205434,1,0,0:0:0:0:
163,164,205595,1,0,0:0:0:0:
179,130,205676,1,0,0:0:0:0:
210,109,205757,1,0,0:0:0:0:
246,102,205837,1,0,0:0:0:0:
281,112,205918,1,0,0:0:0:0:
281,112,206240,1,0,0:0:0:0:
494,9,206402,1,0,0:0:0:0:
494,45,206482,1,0,0:0:0:0:
491,82,206563,6,0,B|440:120|440:120|361:106,1,123.499994346619,0|0,0:0|0:0,0:0:0:0:
227,0,206886,1,0,0:0:0:0:
376,206,207047,1,0,0:0:0:0:
390,240,207128,1,0,0:0:0:0:
388,276,207208,1,0,0:0:0:0:
217,271,207369,1,0,0:0:0:0:
247,250,207450,1,0,0:0:0:0:
284,249,207531,1,0,0:0:0:0:
116,348,207692,1,0,0:0:0:0:
79,354,207773,1,0,0:0:0:0:
44,340,207853,5,0,0:0:0:0:
81,41,208015,1,0,0:0:0:0:
81,78,208095,1,0,0:0:0:0:
82,115,208176,1,0,0:0:0:0:
83,152,208256,1,0,0:0:0:0:
83,189,208337,1,0,0:0:0:0:
84,226,208418,1,0,0:0:0:0:
85,263,208498,6,0,P|26:235|21:216,1,61.7499971733095,0|0,0:0|0:0,0:0:0:0:
135,161,208660,2,0,P|164:185|158:238,1,61.7499971733095,0|0,0:0|0:0,0:0:0:0:
28,154,208821,2,0,P|41:122|92:111,1,61.7499971733095,0|0,0:0|0:0,0:0:0:0:
217,271,208982,2,0,P|192:288|161:286,1,61.7499971733095,0|0,0:0|0:0,0:0:0:0:
212,135,209144,6,0,L|306:136,1,61.7499971733095
378,50,209306,1,0,0:0:0:0:
378,50,209386,1,0,0:0:0:0:
378,50,209467,1,0,0:0:0:0:
512,218,209628,6,0,L|437:209,1,61.7499971733095,0|0,0:0|0:0,0:0:0:0:
360,148,209789,1,0,0:0:0:0:
360,148,209870,1,0,0:0:0:0:
360,148,209951,1,0,0:0:0:0:
208,100,210111,6,0,L|302:101,1,61.7499971733095
339,239,210273,1,0,0:0:0:0:
339,239,210354,1,0,0:0:0:0:
339,239,210435,1,0,0:0:0:0:
484,297,210596,6,0,L|409:288,1,61.7499971733095,0|0,0:0|0:0,0:0:0:0:
265,306,210757,1,0,0:0:0:0:
265,306,210838,1,0,0:0:0:0:
265,306,210919,1,0,0:0:0:0:
118,256,211079,5,0,0:0:0:0:
118,256,211160,1,0,0:0:0:0:
118,256,211240,1,0,0:0:0:0:
80,253,211321,1,0,0:0:0:0:
42,254,211402,1,0,0:0:0:0:
59,208,211482,1,0,0:0:0:0:
103,186,211563,1,0,0:0:0:0:
151,195,211644,1,0,0:0:0:0:
188,228,211724,6,0,L|282:227,1,61.7499971733095
379,322,211886,1,0,0:0:0:0:
379,322,211966,1,0,0:0:0:0:
379,322,212047,1,0,0:0:0:0:
497,131,212208,6,0,L|422:140,1,61.7499971733095
354,225,212369,1,0,0:0:0:0:
354,225,212450,1,0,0:0:0:0:
354,225,212531,1,0,0:0:0:0:
192,253,212692,6,0,L|286:252,1,61.7499971733095
332,131,212853,1,0,0:0:0:0:
332,131,212934,1,0,0:0:0:0:
332,131,213015,1,0,0:0:0:0:
465,58,213176,6,0,L|390:67,1,61.7499971733095
174,168,213337,2,0,L|268:167,1,61.7499971733095
459,46,213499,1,0,0:0:0:0:
