osu file format v14

[General]
AudioFilename: audio.mp3
AudioLeadIn: 0
PreviewTime: 458
Countdown: 0
SampleSet: Soft
StackLeniency: 0.5
Mode: 0
LetterboxInBreaks: 0
WidescreenStoryboard: 0

[Editor]
Bookmarks: 19208,24008,38408,197490,260190
DistanceSpacing: 0.8
BeatDivisor: 4
GridSize: 16
TimelineZoom: 0.6999999

[Metadata]
Title:Shinpakusuu #0822
TitleUnicode:Shinpakusuu #0822
Artist:Kano
ArtistUnicode:Kano
Creator:Star
Version:aishiteru
Source:
Tags:vocaloid miku hatsune chouchoup utaite
BeatmapID:1660778
BeatmapSetID:791677

[Difficulty]
HPDrainRate:4
CircleSize:3.8
OverallDifficulty:6
ApproachRate:7
SliderMultiplier:1.4
SliderTickRate:1

[Events]
//Background and Video events
0,0,"kano 113.png",0,0
//Break Periods
//Storyboard Layer 0 (Background)
//Storyboard Layer 1 (Fail)
//Storyboard Layer 2 (Pass)
//Storyboard Layer 3 (Foreground)
//Storyboard Sound Samples

[TimingPoints]
8,600,4,2,1,100,1,0
608,-66.6666666666667,4,2,1,50,0,1
1208,-66.6666666666667,4,2,1,75,0,1
19208,-90.4977375565611,4,2,1,65,0,0
24308,-66.6666666666667,4,2,1,65,0,0
29408,-66.6666666666667,4,2,1,60,0,0
39008,-66.6666666666667,4,2,1,40,0,0
41408,-66.6666666666667,4,2,1,40,0,0
43808,-58.8235294117647,4,2,1,40,0,0
58358,-50,4,2,1,10,0,0

[HitObjects]
256,82,608,6,0,L|220:206,1,105.000004005432
200,257,1058,1,0,0:0:0:0:
200,257,1208,1,0,0:0:0:0:
400,176,1508,1,0,0:0:0:0:
256,82,1808,1,0,0:0:0:0:
288,208,2108,1,0,0:0:0:0:
120,208,2408,5,0,0:0:0:0:
304,312,2708,1,0,0:0:0:0:
184,112,3008,2,0,B|168:113|168:113|236:205,1,105.000004005432
290,261,3458,1,0,0:0:0:0:
290,261,3608,2,0,L|322:213,1,52.5000020027161
355,123,3908,2,0,B|326:60|326:60|321:89|298:89|298:111,1,105.000004005432
248,157,4508,1,0,0:0:0:0:
128,224,4808,5,0,0:0:0:0:
141,219,5108,1,0,0:0:0:0:
216,168,5408,2,0,P|248:160|216:208,1,105.000004005432
162,220,5858,2,0,L|109:191,1,52.5000020027161
41,150,6158,2,0,L|96:123,1,52.5000020027161
124,64,6458,1,0,0:0:0:0:
124,64,6608,2,0,B|100:64|100:64|172:136,1,105.000004005432
256,208,7208,5,0,0:0:0:0:
224,80,7508,1,0,0:0:0:0:
299,118,7808,2,0,P|287:174|219:219,1,105.000004005432
160,240,8258,1,0,0:0:0:0:
160,240,8408,2,0,L|147:189,1,52.5000020027161
112,48,8708,2,0,L|96:112,1,52.5000020027161
92,120,9008,1,0,0:0:0:0:
80,224,9308,5,0,0:0:0:0:
156,164,9608,1,0,0:0:0:0:
192,256,9908,1,0,0:0:0:0:
192,256,10208,2,0,P|256:240|320:208,1,105.000004005432
288,144,10658,1,0,0:0:0:0:
288,144,10808,2,0,P|336:192|384:192,1,105.000004005432
448,208,11408,6,0,P|440:160|368:120,1,105.000004005432
400,48,12008,2,0,L|312:136,1,105.000004005432
272,184,12458,1,0,0:0:0:0:
272,184,12608,1,0,0:0:0:0:
193,202,12908,1,0,0:0:0:0:
193,202,13058,1,0,0:0:0:0:
193,202,13208,2,0,P|218:248|278:263,1,105.000004005432
359,264,13808,5,0,0:0:0:0:
359,264,14108,2,0,P|351:207|333:151,1,105.000004005432
297,87,14708,1,0,0:0:0:0:
213,93,15008,1,0,0:0:0:0:
258,163,15308,1,0,0:0:0:0:
337,161,15608,6,0,P|341:218|319:276,1,105.000004005432
261,328,16208,1,0,0:0:0:0:
261,328,16508,2,0,B|237:307|233:302|233:302|236:289|236:289|225:293|225:293|176:244,1,105.000004005432
209,193,17108,1,0,0:0:0:0:
209,193,17408,2,0,P|176:227|96:211,1,105.000004005432
45,182,17858,2,0,L|83:143,1,52.5000020027161
92,131,18158,1,0,0:0:0:0:
144,64,18308,2,0,P|185:118|153:121,1,105.000004005432
240,320,19208,6,0,B|96:240|48:160|48:32|176:-16|256:32|256:32|336:-16|464:32|464:160|416:240|303:301|304:352|0:336,1,1237.6000476828
16,240,24308,5,0,0:0:0:0:
16,240,24458,1,0,0:0:0:0:
16,240,24608,2,0,L|128:272,1,105.000004005432
256,304,25208,1,0,0:0:0:0:
304,144,25508,5,0,0:0:0:0:
304,144,25658,1,0,0:0:0:0:
304,144,25808,2,0,L|192:176,1,105.000004005432
80,208,26408,1,0,0:0:0:0:
48,64,26708,5,0,0:0:0:0:
48,64,26858,1,0,0:0:0:0:
48,64,27008,2,0,L|160:96,1,105.000004005432
263,127,27458,1,0,0:0:0:0:
263,127,27608,1,0,0:0:0:0:
160,176,27908,5,0,0:0:0:0:
224,256,28058,1,0,0:0:0:0:
250,177,28208,2,0,L|266:113,1,52.5000020027161
288,48,28508,1,0,0:0:0:0:
288,48,28658,1,0,0:0:0:0:
384,48,28808,2,0,P|327:32|274:52,1,105.000004005432
113,92,29408,5,0,0:0:0:0:
205,186,29708,1,0,0:0:0:0:
144,272,30008,2,0,L|224:160,1,105.000004005432
272,80,30608,1,8,0:1:0:0:
320,192,30908,1,0,0:0:0:0:
205,186,31208,2,0,P|183:191|225:210,1,105.000004005432
320,176,31808,5,0,0:0:0:0:
256,128,32108,1,0,0:0:0:0:
176,128,32408,1,0,0:0:0:0:
230,202,32708,5,0,0:0:0:0:
150,213,33008,1,8,0:1:0:0:
94,269,33308,1,0,0:0:0:0:
94,269,33608,2,0,P|142:293|211:270,1,105.000004005432
277,231,34208,5,0,0:0:0:0:
184,136,34508,1,0,0:0:0:0:
253,71,34808,2,0,P|204:91|187:163,1,105.000004005432
185,228,35408,5,8,0:1:0:0:
299,161,35708,1,0,0:0:0:0:
378,175,36008,2,0,B|387:160|387:160|267:162,1,105.000004005432
156,176,36608,6,0,P|179:250|216:267,1,105.000004005432
297,307,37058,1,0,0:0:0:0:
297,307,37208,2,0,L|271:192,1,105.000004005432
252,108,37808,1,8,0:1:0:0:
156,176,38108,1,0,0:0:0:0:
346,176,38408,1,0,0:0:0:0:
252,108,39008,2,0,B|228:84|228:84|246:194|222:240|239:261|315:295|381:289|421:195|371:125|300:131,1,420.000016021729,0|8,0:0|0:1,0:0:0:0:
352,176,41408,6,0,P|321:222|241:219,1,105.000004005432
240,224,41858,1,0,0:0:0:0:
144,96,42308,1,0,0:0:0:0:
278,155,42608,1,8,0:1:0:0:
160,76,43058,5,0,0:0:0:0:
160,76,43208,2,0,P|213:61|263:70,1,105.000004005432
320,157,43808,2,0,B|335:288|207:304|95:240|111:144|159:128|223:80|303:112|287:192|255:240|204:171,1,472.500018024445,0|8,0:0|0:1,0:0:0:0:
96,96,46208,6,0,L|144:224,1,119.000002269745
144,224,46658,1,0,0:0:0:0:
176,96,47108,5,0,0:0:0:0:
224,208,47408,1,8,0:1:0:0:
273,83,47708,1,0,0:0:0:0:
273,83,48008,2,0,P|321:109|350:151,1,105.000004005432
332,349,48608,2,0,B|252:349|252:349|332:269|332:269|252:269|252:269|236:221|300:205|316:141|300:109|256:64,1,476.00000907898,0|8,0:0|0:1,0:0:0:0:
208,34,51008,6,0,P|182:122|223:164,1,119.000002269745
202,156,51458,1,0,0:0:0:0:
262,239,51908,2,0,P|298:254|264:201,1,119.000002269745,0|8,0:0|0:1,0:0:0:0:
250,120,52508,1,0,0:0:0:0:
184,189,52808,1,0,0:0:0:0:
126,116,53108,1,0,0:0:0:0:
40,176,53408,2,0,B|135:303|135:303|191:261|191:261|119:163|119:163|123:114|123:114|174:119|174:119|223:184,1,476.00000907898,0|8,0:0|0:1,0:0:0:0:
301,239,55808,6,0,B|287:220|287:220|252:352,1,119.000002269745
261,327,56258,1,0,0:0:0:0:
368,272,56708,5,0,0:0:0:0:
448,224,57008,1,8,0:1:0:0:
384,144,57308,1,0,0:0:0:0:
464,96,57608,1,0,0:0:0:0:
400,32,57908,1,0,0:0:0:0:
256,192,58358,12,0,63008,0:0:0:0:
