osu file format v14

[General]
AudioFilename: audio.mp3
AudioLeadIn: 0
PreviewTime: 56467
Countdown: 0
SampleSet: Soft
StackLeniency: 0.2
Mode: 0
LetterboxInBreaks: 0
EpilepsyWarning: 1
WidescreenStoryboard: 1

[Editor]
DistanceSpacing: 1.4
BeatDivisor: 4
GridSize: 32
TimelineZoom: 1.6

[Metadata]
Title:Sentimental na Aiboshin
TitleUnicode:センチメンタルな愛慕心
Artist:Kano
ArtistUnicode:鹿乃
Creator:Petal
Version:vick's Light Insane
Source:
Tags:Natsume Chiaki GUMI Japanese cover female namki garden utaite vocaloid matha affirmation neoskylove vick pop -_Matha_- なつめ千秋
BeatmapID:2632164
BeatmapSetID:1097489

[Difficulty]
HPDrainRate:5.5
CircleSize:3.8
OverallDifficulty:7
ApproachRate:8.7
SliderMultiplier:1.6
SliderTickRate:1

[Events]
//Background and Video events
0,0,"78724156_p0.jpg",0,0
//Break Periods
2,79267,91022
2,144867,156822
//Storyboard Layer 0 (Background)
//Storyboard Layer 1 (Fail)
//Storyboard Layer 2 (Pass)
//Storyboard Layer 3 (Foreground)
//Storyboard Layer 4 (Overlay)
//Storyboard Sound Samples

[TimingPoints]
2267,400,4,2,1,40,1,0
2267,-200,4,2,1,40,0,0
8667,-133.333333333333,4,2,1,55,0,0
15067,-105.263157894737,4,2,1,65,0,0
28867,-117.64705882353,4,2,1,45,0,0
29467,-117.64705882353,4,2,1,65,0,0
39067,-117.64705882353,4,2,1,25,0,0
39667,-117.64705882353,4,2,1,30,0,0
39867,-117.64705882353,4,2,1,35,0,0
40067,-117.64705882353,4,2,1,40,0,0
40267,-117.64705882353,4,2,1,45,0,0
40567,-117.64705882353,4,2,1,45,0,0
40667,-117.64705882353,4,2,1,65,0,0
55567,-117.64705882353,4,2,1,5,0,0
55667,-117.64705882353,4,2,1,55,0,0
56667,-105.263157894737,4,2,1,75,0,1
78267,-105.263157894737,4,2,1,30,0,1
78967,-105.263157894737,4,2,1,5,0,1
79067,-105.263157894737,4,2,1,75,0,0
91867,-117.64705882353,4,2,1,55,0,0
101467,-117.64705882353,4,2,1,65,0,0
106267,-117.64705882353,4,2,1,45,0,0
107467,-117.64705882353,4,2,1,65,0,0
107767,-117.64705882353,4,2,1,5,0,0
107867,-105.263157894737,4,2,1,75,0,1
129467,-105.263157894737,4,2,1,40,0,0
130067,-105.263157894737,4,2,1,55,0,0
130267,-125,4,2,1,65,0,0
136667,-100,4,2,1,65,0,0
141567,-100,4,2,1,65,0,0
144667,-100,4,2,1,65,0,0
146267,-100,4,2,1,45,0,0
147867,-100,4,2,1,35,0,0
151067,-100,4,2,1,45,0,0
157467,-117.647058823529,4,2,1,55,0,0
165467,-117.647058823529,4,2,1,65,0,0
166267,-117.647058823529,4,2,1,65,0,0
167467,-105.263157894737,4,2,1,75,0,1
188667,-285.714285714287,4,2,1,35,0,0
189467,-285.714285714287,4,2,1,20,0,0
194267,-285.714285714287,4,2,1,5,0,0

[Colours]
Combo1 : 71,184,97
Combo2 : 246,172,123
Combo3 : 248,131,114
Combo4 : 157,184,253

[HitObjects]
105,13,2267,6,0,P|100:68|98:106,1,80,2|2,0:0|0:0,0:0:0:0:
43,166,2867,1,2,0:0:0:0:
82,249,3067,2,0,P|125:265|169:259,1,80,2|2,0:0|0:0,0:0:0:0:
239,217,3667,1,2,0:0:0:0:
303,282,3867,6,0,L|301:335,2,40,2|2|2,0:0|0:0|0:0,0:0:0:0:
367,216,4467,2,0,P|364:164|362:126,1,80,2|2,0:0|0:0,0:0:0:0:
229,8,5267,1,2,0:0:0:0:
229,8,6867,5,2,0:0:0:0:
167,76,7067,2,0,P|139:70|117:65,1,40,2|2,0:0|0:0,0:0:0:0:
167,76,8667,6,0,P|165:111|164:141,1,60.0000022888184,2|0,1:2|0:0,0:0:0:0:
78,165,9067,2,0,P|80:209|81:233,1,60.0000022888184,2|0,1:2|0:0,0:0:0:0:
126,297,9467,2,0,P|191:311|255:282,1,120.000004577637,2|2,1:2|1:2,0:0:0:0:
329,240,10067,1,2,0:0:0:0:
329,240,10167,1,2,0:0:0:0:
329,240,10267,6,0,P|371:242|405:245,2,60.0000022888184,0|2|2,1:0|0:0|1:2,0:0:0:0:
275,175,10867,2,0,P|236:176|204:178,1,60.0000022888184,2|0,0:0|1:0,0:0:0:0:
140,214,11267,2,0,B|122:253|122:253|135:351,1,120.000004577637,2|2,0:0|0:0,0:0:0:0:
164,356,11767,1,2,0:0:0:0:
164,356,11867,6,0,P|208:353|245:353,1,60.0000022888184,2|0,1:2|0:0,0:0:0:0:
337,280,12267,2,0,P|293:277|257:274,1,60.0000022888184,0|2,1:0|0:0,0:0:0:0:
140,214,12667,2,0,P|184:211|221:211,1,60.0000022888184,0|2,1:0|0:0,0:0:0:0:
313,138,13067,2,0,P|269:135|233:132,1,60.0000022888184,0|0,1:0|0:0,0:0:0:0:
390,206,13467,6,0,L|381:283,1,60.0000022888184,4|8,1:2|0:0,0:0:0:0:
376,307,13767,1,8,0:0:0:0:
376,307,13867,1,0,1:0:0:0:
245,355,14067,2,0,L|246:396,2,30.0000011444092,8|8|0,0:0|0:0|1:0,0:0:0:0:
194,271,14467,1,8,0:0:0:0:
194,271,14567,1,8,0:0:0:0:
194,271,14667,2,0,L|191:229,3,30.0000011444092,8|8|8|8,1:2|0:0|0:0|0:0,0:0:0:0:
162,192,15067,6,0,P|171:110|178:33,1,151.999995941162,6|8,1:2|0:0,0:0:0:0:
289,2,15667,1,2,0:0:0:0:
375,112,15867,2,0,P|335:110|283:108,1,75.9999979705811,0|2,1:0|0:0,0:0:0:0:
432,210,16267,2,0,P|472:208|524:206,1,75.9999979705811,8|2,0:0|0:0,0:0:0:0:
346,282,16667,6,0,P|341:340|338:383,2,75.9999979705811,0|2|8,1:2|0:0|0:0,0:0:0:0:
274,199,17267,2,0,P|197:175|117:199,1,151.999995941162,2|2,0:0|0:0,0:0:0:0:
35,141,17867,1,8,0:0:0:0:
106,45,18067,1,2,0:0:0:0:
106,45,18167,1,8,0:0:0:0:
106,45,18267,6,0,P|185:43|280:40,1,151.999995941162,0|8,1:0|0:0,0:0:0:0:
329,131,18867,1,2,0:0:0:0:
416,47,19067,2,0,L|420:9,2,37.9999989852906,0|2|2,1:0|0:0|0:0,0:0:0:0:
329,131,19467,2,0,P|331:178|334:226,1,75.9999979705811,8|2,0:0|0:0,0:0:0:0:
365,328,19867,6,0,P|312:292|211:302,1,151.999995941162,0|8,1:0|0:0,0:0:0:0:
119,300,20467,1,10,0:0:0:0:
175,209,20667,2,0,L|179:163,3,37.9999989852906,8|8|8|8,0:0|0:0|0:0|0:0,0:0:0:0:
157,122,21067,2,0,L|161:76,3,37.9999989852906,8|8|8|8,3:0|3:0|3:0|3:0,0:0:0:0:
195,43,21467,6,0,B|240:21|240:21|348:28,1,151.999995941162,6|8,1:2|0:0,0:0:0:0:
422,96,22067,1,2,0:0:0:0:
422,96,22167,1,2,0:0:0:0:
422,96,22267,2,0,P|416:179|411:262,1,151.999995941162,0|8,1:0|0:0,0:0:0:0:
350,335,22867,1,2,0:0:0:0:
246,258,23067,6,0,P|202:265|159:273,2,75.9999979705811,0|2|8,1:0|0:0|0:0,0:0:0:0:
286,161,23667,2,0,P|363:167|442:175,1,151.999995941162,2|2,0:0|0:0,0:0:0:0:
197,43,24267,2,0,P|200:89|203:126,1,75.9999979705811,8|8,0:0|0:0,0:0:0:0:
182,168,24567,1,8,0:0:0:0:
182,168,24667,1,6,1:2:0:0:
258,277,24867,5,8,0:0:0:0:
294,287,24967,1,8,0:0:0:0:
331,284,25067,1,8,0:0:0:0:
364,265,25167,1,8,0:0:0:0:
387,235,25267,2,0,P|392:182|399:79,1,151.999995941162,6|8,1:2|3:0,0:0:0:0:
362,45,25767,1,8,3:0:0:0:
362,45,25867,2,0,L|308:41,3,37.9999989852906,4|8|8|8,3:0|0:0|0:0|0:0,0:0:0:0:
276,18,26267,6,0,P|238:21|195:24,1,75.9999979705811,6|8,1:2|3:0,0:0:0:0:
115,89,26667,1,4,3:0:0:0:
180,172,26867,2,0,P|174:252|168:341,1,151.999995941162,6|8,1:2|0:0,0:0:0:0:
120,344,27367,1,8,0:0:0:0:
120,344,27467,2,0,L|75:347,2,37.9999989852906,8|8|8,0:0|0:0|0:0,0:0:0:0:
274,374,27867,5,4,0:0:0:0:
274,374,28867,1,0,1:0:0:0:
348,297,29067,2,0,P|343:243|339:179,1,102.000001945496,8|0,0:0|0:0,0:0:0:0:
303,149,29467,6,0,P|267:146|231:142,1,68.0000012969971,6|2,0:0|0:0,0:0:0:0:
161,67,29867,1,8,0:0:0:0:
80,174,30067,1,2,0:0:0:0:
80,174,30167,1,8,0:0:0:0:
80,174,30267,2,0,P|84:219|88:266,1,68.0000012969971,0|0,1:0|1:0,0:0:0:0:
185,343,30667,2,0,P|187:309|190:275,1,68.0000012969971,8|2,0:0|0:0,0:0:0:0:
280,207,31067,6,0,P|317:204|354:201,1,68.0000012969971,0|2,1:0|0:0,0:0:0:0:
433,126,31467,1,8,0:0:0:0:
317,33,31667,1,2,0:0:0:0:
317,33,31767,1,8,0:0:0:0:
317,33,31867,2,0,P|281:30|247:27,1,68.0000012969971,0|0,1:0|1:0,0:0:0:0:
143,76,32267,2,0,P|141:114|138:161,1,68.0000012969971,8|2,0:0|0:0,0:0:0:0:
52,209,32667,6,0,P|54:247|57:294,1,68.0000012969971,0|2,1:0|0:0,0:0:0:0:
162,338,33067,2,0,P|200:334|239:330,1,68.0000012969971,8|2,0:0|0:0,0:0:0:0:
276,325,33367,1,8,0:0:0:0:
276,325,33467,1,0,1:0:0:0:
364,244,33667,1,0,1:0:0:0:
279,175,33867,2,0,P|277:138|274:91,1,68.0000012969971,8|2,0:0|0:0,0:0:0:0:
309,73,34167,1,8,0:0:0:0:
309,73,34267,6,0,P|376:55|450:84,1,136.000002593994,0|8,1:0|0:0,0:0:0:0:
475,194,34867,1,2,0:0:0:0:
475,194,34967,1,8,0:0:0:0:
475,194,35067,2,0,P|471:237|467:281,1,68.0000012969971,0|0,1:0|1:0,0:0:0:0:
381,340,35467,1,8,0:0:0:0:
298,244,35667,1,2,0:0:0:0:
298,244,35767,1,2,0:0:0:0:
298,244,35867,6,0,P|238:220|163:236,1,136.000002593994,0|8,1:0|0:0,0:0:0:0:
67,170,36467,1,2,0:0:0:0:
67,170,36567,1,8,0:0:0:0:
67,170,36667,2,0,P|63:126|60:89,1,68.0000012969971,0|0,1:0|1:0,0:0:0:0:
162,28,37067,2,0,P|164:61|167:95,1,68.0000012969971,8|2,0:0|0:0,0:0:0:0:
253,183,37467,6,0,P|327:192|382:160,1,136.000002593994,0|8,1:0|0:0,0:0:0:0:
481,201,38067,1,2,0:0:0:0:
481,201,38167,1,8,0:0:0:0:
481,201,38267,2,0,P|477:244|473:286,1,68.0000012969971,0|0,1:0|1:0,0:0:0:0:
377,318,38667,2,0,L|380:362,2,34.0000006484985,8|8|0,0:0|0:0|1:0,0:0:0:0:
377,318,39867,6,0,P|339:311|293:304,1,68.0000012969971,2|2,0:3|0:0,0:0:0:0:
271,278,40167,1,0,0:0:0:0:
271,278,40267,2,0,P|233:280|186:284,1,68.0000012969971,2|0,0:3|0:0,0:0:0:0:
77,188,40667,6,0,P|147:198|208:159,1,136.000002593994,6|8,1:2|0:0,0:0:0:0:
296,81,41267,1,2,0:0:0:0:
296,81,41367,1,8,0:0:0:0:
296,81,41467,2,0,P|337:85|374:88,1,68.0000012969971,0|0,1:0|1:0,0:0:0:0:
449,178,41867,1,8,0:0:0:0:
480,74,42067,1,2,0:0:0:0:
336,193,42267,6,0,P|339:228|343:272,1,68.0000012969971,0|2,1:0|0:0,0:0:0:0:
251,355,42667,2,0,P|247:321|245:287,1,68.0000012969971,8|2,0:0|0:0,0:0:0:0:
219,247,42967,1,8,0:0:0:0:
219,247,43067,2,0,P|183:239|137:243,1,68.0000012969971,0|0,1:0|1:0,0:0:0:0:
45,157,43467,2,0,P|78:157|111:149,1,68.0000012969971,8|2,0:0|0:0,0:0:0:0:
214,73,43867,6,0,P|283:77|350:79,1,136.000002593994,0|8,1:0|0:0,0:0:0:0:
427,177,44467,1,2,0:0:0:0:
427,177,44567,1,8,0:0:0:0:
427,177,44667,2,0,P|423:218|424:253,1,68.0000012969971,0|0,1:0|1:0,0:0:0:0:
318,336,45067,2,0,P|318:302|314:268,1,68.0000012969971,8|2,0:0|0:0,0:0:0:0:
235,207,45467,6,0,P|238:140|241:57,1,136.000002593994,0|8,1:0|0:0,0:0:0:0:
118,18,46067,1,2,0:0:0:0:
118,18,46167,1,8,0:0:0:0:
118,18,46267,2,0,P|119:62|121:107,1,68.0000012969971,0|0,1:0|1:0,0:0:0:0:
44,181,46667,1,8,0:0:0:0:
149,248,46867,1,8,0:0:0:0:
149,248,46967,1,8,0:0:0:0:
149,248,47067,6,0,P|208:222|282:230,1,136.000002593994,0|8,1:0|0:0,0:0:0:0:
373,314,47667,1,2,0:0:0:0:
373,314,47767,1,8,0:0:0:0:
373,314,47867,2,0,P|407:311|447:306,1,68.0000012969971,0|0,1:0|1:0,0:0:0:0:
512,204,48267,2,0,P|478:201|438:196,1,68.0000012969971,8|2,0:0|0:0,0:0:0:0:
346,121,48667,6,0,P|285:98|208:117,1,136.000002593994,0|8,1:0|0:0,0:0:0:0:
132,204,49267,1,2,0:0:0:0:
132,204,49367,1,8,0:0:0:0:
132,204,49467,1,0,1:0:0:0:
185,336,49667,1,8,0:0:0:0:
207,334,49767,1,8,0:0:0:0:
230,332,49867,1,8,3:0:0:0:
253,331,49967,1,8,3:0:0:0:
276,329,50067,1,4,3:0:0:0:
298,328,50167,1,4,3:0:0:0:
320,326,50267,6,0,P|393:321|456:317,1,136.000002593994,6|8,1:2|0:0,0:0:0:0:
240,227,50867,1,2,0:0:0:0:
240,227,50967,1,8,0:0:0:0:
240,227,51067,2,0,P|234:186|229:153,1,68.0000012969971,0|0,1:0|1:0,0:0:0:0:
229,33,51467,1,8,0:0:0:0:
150,108,51667,1,0,1:0:0:0:
308,104,51867,6,0,P|388:102|440:144,1,136.000002593994,0|8,1:0|0:0,0:0:0:0:
366,271,52467,1,2,0:0:0:0:
366,271,52567,1,8,0:0:0:0:
366,271,52667,2,0,P|326:264|296:259,1,68.0000012969971,0|0,1:0|1:0,0:0:0:0:
185,293,53067,1,8,0:0:0:0:
140,185,53267,1,8,0:0:0:0:
140,185,53367,1,8,0:0:0:0:
140,185,53467,6,0,P|137:138|135:87,1,68.0000012969971,6|0,1:2|1:0,0:0:0:0:
244,11,53867,1,8,0:0:0:0:
224,147,54067,1,0,1:0:0:0:
344,229,54267,1,14,0:0:0:0:
335,91,54467,1,0,1:0:0:0:
457,23,54667,1,8,0:0:0:0:
437,159,54867,1,0,1:0:0:0:
244,11,55067,5,14,1:2:0:0:
244,11,55667,5,2,0:0:0:0:
318,112,55867,1,0,1:0:0:0:
199,73,56067,1,8,0:0:0:0:
318,35,56267,1,10,0:0:0:0:
244,135,56467,1,8,0:0:0:0:
318,35,56667,6,0,P|408:30|459:89,1,151.999995941162,6|8,0:0|0:0,0:0:0:0:
382,221,57267,1,2,1:2:0:0:
382,221,57367,1,8,0:0:0:0:
382,221,57467,2,0,P|335:215|294:210,1,75.9999979705811,0|0,1:0|1:0,0:0:0:0:
181,333,57867,2,0,P|228:327|269:322,1,75.9999979705811,8|2,0:0|0:0,0:0:0:0:
92,256,58267,6,0,P|82:181|73:101,1,151.999995941162,0|8,1:0|0:0,0:0:0:0:
212,31,58867,1,2,0:0:0:0:
212,31,58967,1,8,0:0:0:0:
212,31,59067,2,0,P|209:76|207:122,1,75.9999979705811,0|0,1:0|1:0,0:0:0:0:
295,210,59467,1,8,0:0:0:0:
370,97,59667,1,2,0:0:0:0:
414,299,59867,6,0,P|336:293|256:290,1,151.999995941162,0|8,1:0|0:0,0:0:0:0:
102,194,60467,1,2,0:0:0:0:
102,194,60567,1,8,0:0:0:0:
102,194,60667,2,0,P|146:196|186:189,1,75.9999979705811,0|0,1:0|1:0,0:0:0:0:
314,109,61067,2,0,P|308:158|304:197,1,75.9999979705811,8|2,0:0|0:0,0:0:0:0:
449,59,61467,6,0,P|452:121|458:225,1,151.999995941162,0|8,1:0|0:0,0:0:0:0:
372,332,62067,1,0,1:0:0:0:
372,332,62167,1,8,0:0:0:0:
372,332,62267,1,0,1:0:0:0:
282,214,62467,1,8,0:0:0:0:
262,202,62567,1,8,0:0:0:0:
239,195,62667,1,8,0:0:0:0:
216,194,62767,1,8,0:0:0:0:
194,197,62867,1,8,0:0:0:0:
172,206,62967,1,8,0:0:0:0:
154,220,63067,6,0,P|110:219|2:214,1,151.999995941162,6|8,1:2|0:0,0:0:0:0:
65,46,63667,1,2,1:2:0:0:
65,46,63767,1,8,0:0:0:0:
65,46,63867,2,0,P|62:93|59:131,1,75.9999979705811,0|0,1:0|1:0,0:0:0:0:
186,75,64267,2,0,P|183:37|180:0,1,75.9999979705811,8|2,0:0|0:0,0:0:0:0:
274,169,64667,6,0,P|230:222|257:317,1,151.999995941162,0|8,1:0|0:0,0:0:0:0:
373,348,65267,1,2,0:0:0:0:
373,348,65367,1,8,0:0:0:0:
373,348,65467,2,0,P|412:344|456:337,1,75.9999979705811,0|0,1:0|1:0,0:0:0:0:
512,207,65867,2,0,P|474:212|436:216,1,75.9999979705811,8|0,0:0|0:0,0:0:0:0:
321,159,66267,6,0,P|250:152|161:144,1,151.999995941162,0|8,1:0|0:0,0:0:0:0:
41,282,66867,1,2,0:0:0:0:
41,282,66967,1,8,0:0:0:0:
41,282,67067,2,0,P|86:274|132:277,1,75.9999979705811,0|0,1:0|1:0,0:0:0:0:
223,342,67467,1,8,0:0:0:0:
202,205,67667,1,8,0:0:0:0:
381,270,67867,6,0,P|338:266|294:262,1,75.9999979705811,0|0,1:0|1:0,0:0:0:0:
485,193,68267,1,8,0:0:0:0:
439,96,68467,1,8,1:2:0:0:
416,75,68567,1,8,0:0:0:0:
389,62,68667,1,8,1:2:0:0:
359,57,68767,1,8,0:0:0:0:
329,60,68867,1,0,1:0:0:0:
301,72,68967,1,8,0:0:0:0:
278,92,69067,2,0,L|240:90,3,37.9999989852906,8|8|4|4,3:0|3:0|3:0|3:0,0:0:0:0:
193,63,69467,6,0,P|122:54|56:107,1,151.999995941162,6|8,1:2|0:0,0:0:0:0:
87,244,70067,1,2,1:2:0:0:
87,244,70167,1,8,0:0:0:0:
87,244,70267,2,0,P|140:236|177:231,1,75.9999979705811,0|0,1:0|1:0,0:0:0:0:
287,326,70667,2,0,P|249:331|211:337,1,75.9999979705811,8|2,0:0|0:0,0:0:0:0:
361,234,71067,6,0,P|366:168|373:67,1,151.999995941162,0|8,1:0|0:0,0:0:0:0:
225,21,71667,1,2,0:0:0:0:
225,21,71767,1,8,0:0:0:0:
225,21,71867,2,0,P|227:67|228:108,1,75.9999979705811,0|0,1:0|1:0,0:0:0:0:
99,203,72267,1,8,0:0:0:0:
130,85,72467,1,2,0:0:0:0:
221,259,72667,6,0,P|303:243|370:230,1,151.999995941162,0|8,1:0|0:0,0:0:0:0:
457,123,73267,1,2,0:0:0:0:
457,123,73367,1,8,0:0:0:0:
457,123,73467,1,0,1:0:0:0:
368,14,73667,1,0,1:0:0:0:
249,127,73867,2,0,P|296:121|341:114,1,75.9999979705811,8|2,0:0|0:0,0:0:0:0:
162,47,74267,6,0,P|82:43|21:89,1,151.999995941162,0|8,1:0|0:0,0:0:0:0:
77,214,74867,1,2,0:0:0:0:
77,214,74967,1,8,0:0:0:0:
77,214,75067,2,0,P|73:250|71:279,1,37.9999989852906,0|8,1:0|0:0,0:0:0:0:
152,348,75267,2,0,P|153:329|156:310,1,37.9999989852906,8|8,1:2|0:0,0:0:0:0:
237,219,75467,1,8,0:0:0:0:
236,200,75567,1,8,0:0:0:0:
235,182,75667,1,8,0:0:0:0:
234,164,75767,1,8,0:0:0:0:
233,146,75867,6,0,P|235:100|236:59,1,75.9999979705811,12|0,1:2|1:0,0:0:0:0:
348,25,76267,2,0,P|347:62|345:100,1,75.9999979705811,10|0,0:0|1:0,0:0:0:0:
420,189,76667,1,10,0:0:0:0:
244,229,76867,1,0,1:0:0:0:
367,283,77067,1,10,0:0:0:0:
236,110,77267,1,0,1:0:0:0:
236,110,77367,1,8,0:0:0:0:
236,110,77467,6,0,P|199:110|157:111,1,75.9999979705811,14|0,0:0|1:0,0:0:0:0:
77,33,77867,1,14,0:0:0:0:
77,33,79067,5,6,0:0:0:0:
77,33,91667,5,2,0:0:0:0:
77,33,91867,2,0,P|74:83|71:114,1,68.0000012969971,4|2,1:2|0:0,0:0:0:0:
147,169,92267,2,0,P|150:219|153:250,1,68.0000012969971,0|2,1:0|0:0,0:0:0:0:
225,101,92667,2,0,P|267:93|306:101,1,68.0000012969971,0|2,1:0|0:0,0:0:0:0:
388,157,93067,1,0,1:0:0:0:
309,245,93267,1,2,0:0:0:0:
309,245,93367,1,2,0:0:0:0:
309,245,93467,6,0,P|311:293|313:326,1,68.0000012969971,0|2,1:0|0:0,0:0:0:0:
213,362,93867,1,0,1:0:0:0:
177,266,94067,2,0,P|111:245|43:267,1,136.000002593994,2|2,0:0|0:0,0:0:0:0:
0,175,94667,1,8,0:0:0:0:
85,78,94867,1,2,0:0:0:0:
171,137,95067,6,0,P|218:131|254:128,1,68.0000012969971,4|2,1:2|0:0,0:0:0:0:
369,60,95467,2,0,P|322:54|286:51,1,68.0000012969971,0|2,1:0|0:0,0:0:0:0:
422,144,95867,2,0,P|424:185|425:221,1,68.0000012969971,0|2,1:0|0:0,0:0:0:0:
342,265,96267,1,0,1:0:0:0:
384,355,96467,1,2,0:0:0:0:
246,306,96667,6,0,P|209:309|169:312,1,68.0000012969971,0|2,1:0|0:0,0:0:0:0:
66,231,97067,2,0,P|99:228|133:225,1,68.0000012969971,0|2,1:0|0:0,0:0:0:0:
218,153,97467,2,0,P|222:116|224:77,1,68.0000012969971,0|2,1:0|0:0,0:0:0:0:
293,19,97867,1,0,1:0:0:0:
353,92,98067,1,8,0:0:0:0:
353,92,98167,1,8,0:0:0:0:
353,92,98267,6,0,P|423:108|492:78,1,136.000002593994,0|0,1:0|1:0,0:0:0:0:
293,19,98867,1,2,0:0:0:0:
256,146,99067,2,0,P|216:141|185:137,1,68.0000012969971,0|2,1:0|0:0,0:0:0:0:
74,208,99467,2,0,P|107:212|141:216,1,68.0000012969971,0|2,1:0|0:0,0:0:0:0:
172,252,99767,1,2,0:0:0:0:
172,252,99867,6,0,P|245:244|329:235,1,136.000002593994,0|0,1:0|1:0,0:0:0:0:
388,187,100467,1,2,0:0:0:0:
388,187,100567,1,8,0:0:0:0:
388,187,100667,2,0,L|395:140,3,34.0000006484985,0|8|8|8,1:0|0:0|3:0|3:0,0:0:0:0:
385,105,101067,1,4,3:0:0:0:
371,81,101167,1,4,3:0:0:0:
352,62,101267,1,4,3:0:0:0:
327,51,101367,1,4,3:0:0:0:
300,47,101467,6,0,P|234:49|156:47,1,136.000002593994,6|8,1:2|0:0,0:0:0:0:
78,150,102067,1,2,0:0:0:0:
78,150,102167,1,2,0:0:0:0:
78,150,102267,2,0,P|129:148|165:146,1,68.0000012969971,0|0,1:0|1:0,0:0:0:0:
263,122,102667,1,8,0:0:0:0:
216,252,102867,1,2,0:0:0:0:
399,204,103067,6,0,P|356:206|304:208,1,68.0000012969971,0|2,1:2|0:0,0:0:0:0:
445,313,103467,2,0,P|478:311|512:309,1,68.0000012969971,8|2,0:0|0:0,0:0:0:0:
338,367,103867,1,0,1:0:0:0:
271,298,104067,1,0,1:0:0:0:
334,227,104267,2,0,P|336:188|337:157,1,68.0000012969971,8|8,0:0|0:0,0:0:0:0:
310,119,104567,1,8,0:0:0:0:
310,119,104667,6,0,P|306:75|302:30,1,68.0000012969971,6|0,1:2|1:0,0:0:0:0:
191,3,105067,1,8,0:0:0:0:
211,121,105267,1,0,1:0:0:0:
81,206,105467,1,14,0:0:0:0:
101,88,105667,1,0,1:0:0:0:
184,257,105867,1,8,0:0:0:0:
55,307,106067,1,0,1:0:0:0:
258,340,106267,5,14,1:2:0:0:
258,340,106867,5,2,0:0:0:0:
258,216,107067,1,2,0:0:0:0:
332,316,107267,1,0,1:0:0:0:
213,278,107467,1,2,0:0:0:0:
332,239,107667,1,2,0:0:0:0:
213,278,107867,6,0,P|135:273|58:268,1,151.999995941162,6|8,0:0|0:0,0:0:0:0:
0,154,108467,1,2,1:2:0:0:
0,154,108567,1,8,0:0:0:0:
0,154,108667,2,0,P|48:151|85:148,1,75.9999979705811,0|0,1:0|1:0,0:0:0:0:
182,48,109067,2,0,P|144:45|106:42,1,75.9999979705811,8|2,0:0|0:0,0:0:0:0:
261,125,109467,6,0,P|247:202|232:281,1,151.999995941162,0|8,1:0|0:0,0:0:0:0:
341,368,110067,1,2,0:0:0:0:
341,368,110167,1,8,0:0:0:0:
341,368,110267,2,0,P|393:362|427:357,1,75.9999979705811,0|0,1:0|1:0,0:0:0:0:
512,257,110667,2,0,P|474:252|436:247,1,75.9999979705811,8|0,0:0|0:0,0:0:0:0:
326,175,111067,6,0,P|249:160|177:199,1,151.999995941162,0|8,1:0|0:0,0:0:0:0:
63,176,111667,1,2,0:0:0:0:
63,176,111767,1,8,0:0:0:0:
63,176,111867,2,0,P|68:136|73:96,1,75.9999979705811,0|0,1:0|1:0,0:0:0:0:
162,0,112267,1,8,0:0:0:0:
215,127,112467,1,2,0:0:0:0:
307,31,112667,6,0,P|366:26|467:18,1,151.999995941162,0|8,1:0|0:0,0:0:0:0:
478,190,113267,1,2,0:0:0:0:
478,190,113367,1,8,0:0:0:0:
478,190,113467,1,0,1:0:0:0:
355,98,113667,1,0,1:0:0:0:
368,256,113867,1,8,0:0:0:0:
443,107,114067,1,8,0:0:0:0:
273,216,114267,6,0,P|212:212|111:207,1,151.999995941162,6|8,1:2|0:0,0:0:0:0:
15,333,114867,1,2,1:2:0:0:
15,333,114967,1,8,0:0:0:0:
15,333,115067,2,0,P|54:328|102:335,1,75.9999979705811,0|0,1:0|1:0,0:0:0:0:
226,298,115467,1,8,0:0:0:0:
99,189,115667,1,2,0:0:0:0:
229,113,115867,6,0,P|313:107|387:101,1,151.999995941162,0|8,1:0|0:0,0:0:0:0:
498,241,116467,1,2,0:0:0:0:
498,241,116567,1,8,0:0:0:0:
498,241,116667,2,0,P|454:237|403:233,1,75.9999979705811,0|0,1:0|1:0,0:0:0:0:
277,341,117067,2,0,P|321:337|372:333,1,75.9999979705811,8|0,0:0|0:0,0:0:0:0:
182,272,117467,6,0,P|147:191|186:124,1,151.999995941162,0|8,1:0|0:0,0:0:0:0:
273,47,118067,1,2,0:0:0:0:
273,47,118167,1,8,0:0:0:0:
273,47,118267,2,0,P|326:44|361:42,1,75.9999979705811,0|0,1:0|1:0,0:0:0:0:
488,84,118667,1,8,0:0:0:0:
353,176,118867,1,2,0:0:0:0:
453,311,119067,6,0,P|448:261|444:217,1,75.9999979705811,0|0,1:0|1:0,0:0:0:0:
332,357,119467,2,0,P|283:351|242:347,1,75.9999979705811,8|8,0:0|0:0,0:0:0:0:
136,261,119867,1,0,1:0:0:0:
121,240,119967,1,8,0:0:0:0:
113,216,120067,1,8,1:3:0:0:
112,191,120167,1,8,1:3:0:0:
120,166,120267,2,0,L|119:125,3,37.9999989852906,4|4|4|4,1:3|1:3|3:0|3:0,0:0:0:0:
140,80,120667,6,0,P|185:73|300:56,1,151.999995941162,6|8,1:2|0:0,0:0:0:0:
445,90,121267,1,2,1:2:0:0:
445,90,121367,1,8,0:0:0:0:
445,90,121467,1,0,1:0:0:0:
299,175,121667,1,0,1:0:0:0:
417,306,121867,2,0,P|411:264|405:220,1,75.9999979705811,8|2,0:0|0:0,0:0:0:0:
306,358,122267,6,0,P|231:350|152:341,1,151.999995941162,0|8,1:0|0:0,0:0:0:0:
29,215,122867,1,2,0:0:0:0:
29,215,122967,1,8,0:0:0:0:
29,215,123067,2,0,P|79:220|120:225,1,75.9999979705811,0|0,1:0|1:0,0:0:0:0:
255,120,123467,2,0,P|205:125|164:130,1,75.9999979705811,8|0,0:0|0:0,0:0:0:0:
348,214,123867,6,0,P|434:213|480:169,1,151.999995941162,0|8,1:0|0:0,0:0:0:0:
391,39,124467,1,2,0:0:0:0:
391,39,124567,1,8,0:0:0:0:
391,39,124667,2,0,P|389:76|387:114,1,75.9999979705811,0|0,1:0|1:0,0:0:0:0:
257,223,125067,2,0,P|254:185|253:147,1,75.9999979705811,8|2,0:0|0:0,0:0:0:0:
167,41,125467,6,0,P|85:45|38:117,1,151.999995941162,0|8,1:0|0:0,0:0:0:0:
69,258,126067,1,2,1:2:0:0:
170,180,126267,1,0,1:0:0:0:
195,176,126367,1,8,0:0:0:0:
220,172,126467,1,0,1:0:0:0:
245,168,126567,1,8,0:0:0:0:
270,165,126667,2,0,L|315:169,3,37.9999989852906,8|8|8|8,0:0|0:0|0:0|0:0,0:0:0:0:
351,145,127067,6,0,P|411:139|452:136,1,75.9999979705811,14|0,0:0|1:0,0:0:0:0:
512,258,127467,2,0,P|474:261|436:265,1,75.9999979705811,10|0,0:0|1:0,0:0:0:0:
332,354,127867,1,10,0:0:0:0:
327,228,128067,1,0,1:0:0:0:
208,174,128267,1,10,0:0:0:0:
218,302,128467,1,0,1:0:0:0:
218,302,128567,1,8,0:0:0:0:
218,302,128667,6,0,P|158:333|62:305,1,151.999995941162,14|14,0:0|0:0,0:0:0:0:
78,317,129467,1,2,0:0:0:0:
62,238,129667,1,2,0:0:0:0:
46,159,129867,1,2,0:0:0:0:
207,212,130067,5,2,0:0:0:0:
207,212,130167,1,2,0:0:0:0:
207,212,130267,2,0,P|305:207|366:283,1,192,6|0,0:0|1:0,0:0:0:0:
436,324,131067,2,0,P|441:216|444:119,1,192,8|8,0:0|0:0,0:0:0:0:
384,64,131867,5,6,0:0:0:0:
314,120,132067,2,0,P|276:132|181:104,1,128,8|0,0:0|0:0,0:0:0:0:
112,71,132667,2,0,P|49:91|29:168,1,128,8|0,0:0|1:0,0:0:0:0:
66,224,133267,1,8,0:0:0:0:
66,224,133367,1,2,0:0:0:0:
66,224,133467,6,0,L|55:325,2,96,4|2|2,1:2|0:0|1:2,0:0:0:0:
155,216,134267,2,0,L|144:317,2,96,14|2|10,0:0|0:0|0:0,0:0:0:0:
227,163,135067,6,0,P|221:108|211:33,1,128,6|0,0:0|1:0,0:0:0:0:
296,8,135667,1,2,0:0:0:0:
308,96,135867,2,0,P|375:92|440:87,1,128,6|0,0:0|1:0,0:0:0:0:
512,185,136467,1,8,0:0:0:0:
512,185,136567,1,8,0:0:0:0:
512,185,136667,6,0,P|438:190|351:197,1,160,4|8,1:2|0:0,0:0:0:0:
260,260,137267,1,2,0:0:0:0:
158,211,137467,2,0,P|132:128|180:54,1,160,0|8,1:0|0:0,0:0:0:0:
272,40,138067,1,2,0:0:0:0:
356,113,138267,6,0,P|345:201|336:281,1,160,0|8,1:0|0:0,0:0:0:0:
246,339,138867,1,2,0:0:0:0:
161,265,139067,2,0,P|117:261|72:260,1,80,0|0,1:0|1:0,0:0:0:0:
13,170,139467,1,8,0:0:0:0:
160,105,139667,1,8,0:0:0:0:
160,105,139767,1,8,0:0:0:0:
160,105,139867,6,0,P|237:127|316:99,1,160,14|10,0:0|0:0,0:0:0:0:
394,27,140467,1,0,1:0:0:0:
467,111,140667,2,0,P|462:160|457:210,1,80,10|0,0:0|1:0,0:0:0:0:
347,206,141067,2,0,P|342:255|337:305,1,80,10|4,0:0|3:0,0:0:0:0:
293,319,141367,1,8,3:0:0:0:
293,319,141467,5,6,0:0:0:0:
256,192,141567,12,2,144667,0:0:0:0:
293,319,157467,6,0,P|251:314|206:309,1,68.0000012969971,0|2,1:0|0:0,0:0:0:0:
131,294,157867,2,0,P|115:256|118:211,1,68.0000012969971,0|2,1:0|0:0,0:0:0:0:
167,151,158267,2,0,P|153:69|142:9,1,136.000002593994,0|0,1:0|1:0,0:0:0:0:
249,75,158867,1,2,0:0:0:0:
249,75,158967,1,2,0:0:0:0:
249,75,159067,6,0,P|322:62|387:87,1,136.000002593994,0|0,1:0|1:0,0:0:0:0:
450,145,159667,1,2,0:0:0:0:
390,219,159867,2,0,P|341:211|296:203,1,68.0000012969971,0|2,1:0|0:0,0:0:0:0:
235,168,160267,2,0,P|194:167|158:177,1,68.0000012969971,0|2,1:0|0:0,0:0:0:0:
127,198,160567,1,2,0:0:0:0:
127,198,160667,6,0,P|133:270|139:351,1,136.000002593994,0|0,1:0|1:0,0:0:0:0:
231,352,161267,2,0,P|309:349|356:288,1,136.000002593994,2|2,0:0|0:0,0:0:0:0:
387,224,161867,2,0,P|381:188|373:144,1,68.0000012969971,0|2,1:0|0:0,0:0:0:0:
296,104,162267,6,0,L|308:-4,2,102.000001945496,2|2|2,1:2|0:0|0:0,0:0:0:0:
206,137,163067,2,0,L|218:29,2,102.000001945496,0|2|2,1:0|0:0|0:0,0:0:0:0:
172,171,163767,1,2,0:0:0:0:
172,171,163867,6,0,P|176:219|180:265,1,68.0000012969971,0|2,1:0|0:0,0:0:0:0:
104,331,164267,2,0,P|101:297|98:263,1,68.0000012969971,0|2,1:0|0:0,0:0:0:0:
190,359,164667,2,0,P|236:357|277:355,1,68.0000012969971,0|2,1:0|0:0,0:0:0:0:
379,280,165067,2,0,P|333:278|292:276,1,68.0000012969971,0|2,1:0|0:0,0:0:0:0:
449,356,165467,5,6,0:0:0:0:
388,109,165867,1,6,0:0:0:0:
388,109,166267,5,8,0:0:0:0:
355,132,166367,1,8,3:0:0:0:
317,143,166467,1,4,3:0:0:0:
277,142,166567,1,4,3:0:0:0:
240,128,166667,1,4,3:2:0:0:
240,128,167467,6,0,P|158:125|76:122,1,151.999995941162,6|0,0:0|1:0,0:0:0:0:
35,117,167967,1,8,0:0:0:0:
35,117,168067,1,0,1:0:0:0:
0,258,168267,2,0,P|40:261|75:252,1,75.9999979705811,8|2,0:0|0:0,0:0:0:0:
179,335,168667,6,0,P|253:336|339:337,1,151.999995941162,0|8,1:0|0:0,0:0:0:0:
468,226,169267,1,2,0:0:0:0:
468,226,169367,1,8,0:0:0:0:
468,226,169467,2,0,P|427:227|385:228,1,75.9999979705811,0|0,1:0|1:0,0:0:0:0:
247,173,169867,1,8,0:0:0:0:
387,108,170067,1,2,0:0:0:0:
217,28,170267,6,0,P|141:20|62:70,1,151.999995941162,0|8,1:0|0:0,0:0:0:0:
83,205,170867,1,2,1:2:0:0:
83,205,170967,1,8,0:0:0:0:
83,205,171067,2,0,P|81:243|79:290,1,75.9999979705811,0|0,1:0|1:0,0:0:0:0:
199,373,171467,2,0,P|200:335|202:297,1,75.9999979705811,8|2,0:0|0:0,0:0:0:0:
249,126,171867,5,0,1:0:0:0:
83,205,172067,1,0,1:0:0:0:
220,281,172267,2,0,P|265:278|307:276,1,75.9999979705811,8|2,0:0|1:2,0:0:0:0:
348,268,172567,1,8,0:0:0:0:
379,247,172667,1,0,1:0:0:0:
399,215,172767,1,8,0:0:0:0:
402,178,172867,1,0,1:0:0:0:
331,40,173067,1,8,0:0:0:0:
237,137,173267,1,8,0:0:0:0:
237,137,173367,1,8,0:0:0:0:
237,137,173467,6,0,L|83:128,1,151.999995941162,6|8,1:2|0:0,0:0:0:0:
10,261,174067,1,2,1:2:0:0:
10,261,174167,1,8,0:0:0:0:
10,261,174267,2,0,P|70:256|110:253,1,75.9999979705811,0|0,1:0|1:0,0:0:0:0:
236,357,174667,2,0,P|176:352|136:349,1,75.9999979705811,8|8,0:0|0:0,0:0:0:0:
320,268,175067,6,0,P|311:221|291:113,1,151.999995941162,0|8,1:0|0:0,0:0:0:0:
209,29,175667,1,0,1:0:0:0:
171,23,175767,1,8,0:0:0:0:
135,32,175867,1,0,1:0:0:0:
106,56,175967,1,8,0:0:0:0:
89,90,176067,1,0,1:0:0:0:
130,201,176267,2,0,P|126:252|122:300,1,75.9999979705811,8|2,0:0|0:0,0:0:0:0:
245,356,176667,6,0,P|315:323|407:338,1,151.999995941162,0|8,1:0|0:0,0:0:0:0:
470,224,177267,1,2,0:0:0:0:
470,224,177367,1,8,0:0:0:0:
470,224,177467,2,0,P|464:172|460:134,1,75.9999979705811,0|0,1:0|1:0,0:0:0:0:
341,35,177867,2,0,P|345:72|349:110,1,75.9999979705811,10|2,0:0|0:0,0:0:0:0:
229,172,178267,6,0,P|150:187|88:150,1,151.999995941162,4|8,1:2|0:0,0:0:0:0:
8,310,178867,1,8,1:2:0:0:
32,292,178967,1,8,0:0:0:0:
61,283,179067,1,8,1:2:0:0:
91,282,179167,1,8,0:0:0:0:
120,291,179267,1,0,1:2:0:0:
146,308,179367,1,8,0:0:0:0:
170,326,179467,2,0,L|167:367,3,37.9999989852906,8|8|4|4,3:0|3:0|3:0|3:0,0:0:0:0:
222,310,179867,6,0,P|265:248|239:169,1,151.999995941162,6|8,1:2|0:0,0:0:0:0:
110,144,180467,1,2,1:2:0:0:
110,144,180567,1,8,0:0:0:0:
110,144,180667,2,0,P|115:96|118:64,1,75.9999979705811,0|0,1:0|1:0,0:0:0:0:
256,5,181067,2,0,P|252:42|248:80,1,75.9999979705811,8|2,0:0|0:0,0:0:0:0:
264,216,181467,6,0,P|349:230|404:188,1,151.999995941162,0|8,1:0|0:0,0:0:0:0:
473,340,182067,1,2,0:0:0:0:
473,340,182167,1,8,0:0:0:0:
473,340,182267,2,0,P|419:334|385:330,1,75.9999979705811,0|0,1:0|1:0,0:0:0:0:
261,359,182667,1,8,0:0:0:0:
201,246,182867,1,0,1:0:0:0:
201,246,182967,1,8,0:0:0:0:
201,246,183067,6,0,P|205:207|216:88,1,151.999995941162,0|8,1:0|0:0,0:0:0:0:
87,13,183667,1,2,0:0:0:0:
87,13,183767,1,8,0:0:0:0:
87,13,183867,2,0,P|99:87|32:160,1,151.999995941162,0|8,1:0|0:0,0:0:0:0:
41,275,184467,1,2,0:0:0:0:
157,252,184667,6,0,P|208:256|245:260,1,75.9999979705811,0|0,1:0|1:0,0:0:0:0:
391,184,185067,2,0,P|353:180|315:177,1,75.9999979705811,8|2,0:0|0:0,0:0:0:0:
268,151,185367,1,8,0:0:0:0:
239,126,185467,1,0,1:0:0:0:
228,90,185567,1,8,0:0:0:0:
237,54,185667,1,8,3:0:0:0:
380,13,185867,1,8,3:0:0:0:
461,147,186067,1,4,3:0:0:0:
461,147,186167,1,4,3:0:0:0:
461,147,186267,6,0,P|456:191|441:307,1,151.999995941162,14|10,0:0|0:0,0:0:0:0:
339,368,186867,1,0,1:0:0:0:
280,267,187067,2,0,P|239:260|193:260,1,75.9999979705811,14|0,0:0|1:0,0:0:0:0:
106,168,187467,1,10,0:0:0:0:
231,31,187667,1,8,0:0:0:0:
231,31,187767,1,8,0:0:0:0:
231,31,187867,6,0,P|221:94|204:189,1,151.999995941162,14|14,1:2|1:2,0:0:0:0:
205,180,188667,1,2,0:0:0:0:
146,258,188867,1,2,0:0:0:0:
242,275,189067,1,2,0:0:0:0:
256,192,189467,12,2,194267,0:0:0:0:
