osu file format v14

[General]
AudioFilename: audio.mp3
AudioLeadIn: 0
PreviewTime: 56467
Countdown: 0
SampleSet: Soft
StackLeniency: 0.2
Mode: 0
LetterboxInBreaks: 0
EpilepsyWarning: 1
WidescreenStoryboard: 1

[Editor]
DistanceSpacing: 0.7
BeatDivisor: 4
GridSize: 32
TimelineZoom: 1.6

[Metadata]
Title:Sentimental na Aiboshin
TitleUnicode:センチメンタルな愛慕心
Artist:Kano
ArtistUnicode:鹿乃
Creator:Petal
Version:Passion
Source:
Tags:Natsume Chiaki GUMI Japanese cover female namki garden utaite vocaloid matha affirmation neoskylove vick pop -_Matha_- なつめ千秋
BeatmapID:2293246
BeatmapSetID:1097489

[Difficulty]
HPDrainRate:5.8
CircleSize:4
OverallDifficulty:8.2
ApproachRate:9.2
SliderMultiplier:2
SliderTickRate:1

[Events]
//Background and Video events
0,0,"78724156_p0.jpg",0,0
//Break Periods
2,79267,91297
//Storyboard Layer 0 (Background)
//Storyboard Layer 1 (Fail)
//Storyboard Layer 2 (Pass)
//Storyboard Layer 3 (Foreground)
//Storyboard Layer 4 (Overlay)
//Storyboard Sound Samples

[TimingPoints]
2267,400,4,2,1,40,1,0
2267,-200,4,2,2,40,0,0
8667,-133.333333333333,4,2,1,55,0,0
15067,-105.263157894737,4,2,1,65,0,0
28867,-105.263157894737,4,2,1,45,0,0
29467,-117.64705882353,4,2,1,65,0,0
39067,-117.64705882353,4,2,1,25,0,0
39667,-117.64705882353,4,2,1,30,0,0
39867,-117.64705882353,4,2,1,35,0,0
40067,-117.64705882353,4,2,1,40,0,0
40267,-117.64705882353,4,2,1,45,0,0
40667,-117.64705882353,4,2,1,65,0,0
55067,-181.818181818183,4,2,1,65,0,0
55567,-181.818181818183,4,2,1,5,0,0
55667,-181.818181818183,4,2,1,55,0,0
56667,-105.263157894737,4,2,1,75,0,1
64667,-153.846153846154,4,2,1,75,0,1
65067,-105.263157894737,4,2,1,75,0,1
78267,-105.263157894737,4,2,1,30,0,0
78967,-105.263157894737,4,2,1,5,0,0
79067,-105.263157894737,4,2,1,75,0,0
91867,-117.64705882353,4,2,1,55,0,0
101467,-117.64705882353,4,2,1,65,0,0
106267,-117.64705882353,4,2,1,45,0,0
107467,-222.222222222224,4,2,1,65,0,0
107767,-222.222222222224,4,2,1,5,0,0
107867,-105.263157894737,4,2,1,75,0,1
115867,-153.846153846154,4,2,1,75,0,1
116267,-105.263157894737,4,2,1,75,0,1
129467,-105.263157894737,4,2,1,75,0,0
130067,-105.263157894737,4,2,1,55,0,0
130267,-86.9565217391306,4,2,1,65,0,0
130667,-133.333333333334,4,2,1,65,0,0
131067,-68.9655172413793,4,2,1,65,0,0
132267,-95.2380952380952,4,2,1,65,0,0
132667,-68.9655172413793,4,2,1,65,0,0
133467,-95.2380952380952,4,2,1,65,0,0
134267,-68.9655172413793,4,2,1,65,0,0
135267,-181.818181818182,4,2,1,65,0,0
135867,-68.9655172413794,4,2,1,65,0,0
137267,-117.647058823529,4,2,1,65,0,0
141467,-181.818181818181,4,2,1,65,0,0
146267,-181.818181818181,4,2,1,45,0,0
147867,-181.818181818181,4,2,1,35,0,0
151067,-181.818181818181,4,2,1,45,0,0
157467,-117.647058823529,4,2,1,55,0,0
165467,-117.647058823529,4,2,1,65,0,0
167467,-105.263157894737,4,2,1,75,0,1
188667,-285.714285714287,4,2,1,35,0,0
189467,-285.714285714287,4,2,1,20,0,0
194267,-285.714285714287,4,2,1,5,0,0

[Colours]
Combo1 : 71,184,97
Combo2 : 246,172,123
Combo3 : 248,131,114
Combo4 : 157,184,253

[HitObjects]
495,271,2267,6,0,P|486:314|423:342,1,100,6|2,0:0|0:0,0:0:0:0:
368,291,2867,1,2,0:0:0:0:
368,291,3067,2,0,P|376:247|439:219,1,100,2|0,0:0|0:0,0:0:0:0:
403,17,3867,6,0,P|425:20|455:23,2,50,2|2|2,0:0|0:0|0:0,0:0:0:0:
337,75,4467,2,0,P|312:77|288:81,1,50,2|0,0:0|0:0,0:0:0:0:
214,24,4867,2,0,P|189:20|164:18,1,50,2|0,0:0|0:0,0:0:0:0:
90,72,5267,1,2,0:0:0:0:
164,18,5467,6,0,L|172:118,1,100,6|2,0:0|0:0,0:0:0:0:
179,201,6067,1,2,0:0:0:0:
0,365,7067,6,0,P|55:356|78:319,1,100,2|2,0:0|0:0,0:0:0:0:
57,237,7667,1,2,0:0:0:0:
476,332,8667,6,0,L|386:340,1,75.0000028610231,2|0,1:2|0:0,0:0:0:0:
288,255,9067,2,0,L|378:263,1,75.0000028610231,2|0,1:2|0:0,0:0:0:0:
470,177,9467,2,0,L|380:185,1,75.0000028610231,2|0,1:2|0:0,0:0:0:0:
295,93,9867,2,0,L|385:101,1,75.0000028610231,2|2,1:2|0:0,0:0:0:0:
401,66,10167,1,2,0:0:0:0:
398,42,10267,5,0,1:0:0:0:
295,93,10467,1,2,0:0:0:0:
199,37,10667,1,2,1:2:0:0:
107,101,10867,2,0,P|95:143|101:177,1,75.0000028610231,2|0,0:0|1:0,0:0:0:0:
116,275,11267,2,0,L|20:263,1,75.0000028610231,2|0,0:0|1:0,0:0:0:0:
188,205,11667,1,2,0:0:0:0:
176,358,11867,6,0,L|272:346,1,75.0000028610231,2|0,1:2|0:0,0:0:0:0:
315,278,12267,1,0,1:0:0:0:
387,383,12467,2,0,P|403:344|397:300,1,75.0000028610231,2|0,0:0|1:0,0:0:0:0:
364,205,12867,1,2,0:0:0:0:
512,247,13067,2,0,L|392:227,1,112.500004291535,0|0,1:0|0:0,0:0:0:0:
364,205,13467,5,4,1:2:0:0:
500,108,13667,1,8,0:0:0:0:
502,125,13767,1,8,0:0:0:0:
505,143,13867,1,0,1:0:0:0:
364,205,14067,1,8,0:0:0:0:
366,186,14167,1,8,0:0:0:0:
369,167,14267,1,0,1:0:0:0:
281,12,14467,1,8,0:0:0:0:
284,31,14567,1,8,0:0:0:0:
287,51,14667,1,8,1:2:0:0:
264,89,14767,1,8,0:0:0:0:
226,111,14867,1,8,0:0:0:0:
181,112,14967,1,8,0:0:0:0:
143,90,15067,6,0,P|96:77|44:102,1,94.9999974632264,6|2,1:2|0:0,0:0:0:0:
58,243,15467,2,0,P|92:208|97:151,1,94.9999974632264,8|2,0:0|0:0,0:0:0:0:
54,92,15767,1,2,0:0:0:0:
46,82,15867,2,0,L|39:36,2,47.4999987316132,0|2|2,1:0|0:0|0:0,0:0:0:0:
188,207,16267,2,0,L|286:191,1,94.9999974632264,8|2,0:0|0:0,0:0:0:0:
360,213,16567,1,2,0:0:0:0:
373,210,16667,5,0,1:2:0:0:
303,275,16867,1,2,0:0:0:0:
341,128,17067,1,8,0:0:0:0:
453,236,17267,2,0,L|531:222,1,47.4999987316132,2|0,0:0|0:0,0:0:0:0:
341,128,17467,2,0,L|326:76,2,47.4999987316132,0|2|2,1:0|0:0|0:0,0:0:0:0:
393,314,17867,2,0,P|355:358|307:366,1,94.9999974632264,8|2,0:0|0:0,0:0:0:0:
246,370,18167,1,8,0:0:0:0:
236,377,18267,6,0,P|235:349|246:311,2,47.4999987316132,0|2|2,1:0|0:0|0:0,0:0:0:0:
158,173,18667,2,0,P|170:219|149:282,1,94.9999974632264,8|2,0:0|0:0,0:0:0:0:
91,305,18967,1,2,0:0:0:0:
78,308,19067,2,0,L|0:304,2,47.4999987316132,0|2|2,1:0|0:0|0:0,0:0:0:0:
158,173,19467,2,0,L|264:177,1,94.9999974632264,8|2,0:0|0:0,0:0:0:0:
326,211,19767,1,2,0:0:0:0:
338,209,19867,6,0,P|339:181|351:132,1,47.4999987316132,0|8,1:0|0:0,0:0:0:0:
397,95,20067,1,2,0:0:0:0:
465,331,20267,1,8,0:0:0:0:
494,201,20467,1,10,0:0:0:0:
492,221,20567,1,10,0:0:0:0:
490,241,20667,1,8,0:0:0:0:
456,238,20767,1,8,0:0:0:0:
425,248,20867,1,8,0:0:0:0:
398,267,20967,1,8,0:0:0:0:
379,294,21067,1,8,3:0:0:0:
360,321,21167,1,8,3:0:0:0:
333,340,21267,1,8,3:0:0:0:
302,350,21367,1,8,3:0:0:0:
268,348,21467,6,0,P|219:317|210:278,1,94.9999974632264,6|2,1:2|0:0,0:0:0:0:
318,178,21867,2,0,P|315:235|286:263,1,94.9999974632264,8|2,0:0|0:0,0:0:0:0:
209,283,22167,1,2,0:0:0:0:
198,290,22267,2,0,L|144:286,2,47.4999987316132,0|2|2,1:0|0:0|0:0,0:0:0:0:
318,178,22667,2,0,L|412:184,1,94.9999974632264,8|2,0:0|0:0,0:0:0:0:
481,151,22967,1,2,0:0:0:0:
494,152,23067,5,0,1:0:0:0:
435,265,23267,1,2,0:0:0:0:
338,93,23467,1,8,0:0:0:0:
293,262,23667,2,0,L|235:256,1,47.4999987316132,2|0,0:0|0:0,0:0:0:0:
178,133,23867,2,0,L|186:82,2,47.4999987316132,0|2|2,1:0|0:0|0:0,0:0:0:0:
122,190,24167,1,2,0:0:0:0:
117,202,24267,2,0,L|124:248,1,47.4999987316132,8|2,0:0|0:0,0:0:0:0:
193,362,24467,1,8,0:0:0:0:
227,359,24567,1,8,0:0:0:0:
261,356,24667,5,6,1:2:0:0:
324,177,24867,1,8,0:0:0:0:
291,179,24967,1,8,0:0:0:0:
263,196,25067,1,8,0:0:0:0:
246,225,25167,1,8,0:0:0:0:
245,257,25267,2,0,B|317:249|297:312|395:297,1,142.49999619484,6|0,1:2|0:0,0:0:0:0:
432,250,25667,1,8,3:0:0:0:
405,276,25767,1,8,3:0:0:0:
401,313,25867,1,4,3:0:0:0:
420,345,25967,1,8,0:0:0:0:
454,358,26067,1,8,0:0:0:0:
490,348,26167,1,8,0:0:0:0:
512,317,26267,5,6,1:2:0:0:
433,186,26467,1,8,3:0:0:0:
424,219,26567,1,8,3:0:0:0:
432,250,26667,2,0,P|462:247|504:245,1,47.4999987316132,4|8,3:0|3:0,0:0:0:0:
353,82,26867,6,0,B|301:78|301:78|265:103|265:103|199:96,1,142.49999619484,6|0,1:2|0:0,0:0:0:0:
184,32,27267,1,8,0:0:0:0:
144,57,27367,1,8,0:0:0:0:
131,101,27467,1,8,0:0:0:0:
149,144,27567,1,8,0:0:0:0:
160,152,27667,1,8,0:0:0:0:
168,163,27767,1,8,0:0:0:0:
173,176,27867,5,4,0:0:0:0:
423,354,28867,5,0,1:0:0:0:
294,306,29067,2,0,B|367:296|347:361|440:353,1,142.49999619484,8|0,0:0|0:0,0:0:0:0:
422,353,29467,6,0,L|412:253,1,85.0000016212464,6|2,0:0|0:0,0:0:0:0:
493,171,29867,1,8,0:0:0:0:
304,215,30067,1,2,0:0:0:0:
324,219,30167,1,8,0:0:0:0:
345,223,30267,1,0,1:0:0:0:
413,268,30467,1,0,1:0:0:0:
411,111,30667,2,0,L|318:125,1,85.0000016212464,8|2,0:0|0:0,0:0:0:0:
174,150,31067,5,0,1:0:0:0:
259,49,31267,1,2,0:0:0:0:
304,215,31467,1,8,0:0:0:0:
160,135,31667,1,2,0:0:0:0:
164,115,31767,1,8,0:0:0:0:
168,94,31867,1,0,1:0:0:0:
215,236,32067,1,0,1:0:0:0:
79,190,32267,1,8,0:0:0:0:
262,141,32467,1,2,0:0:0:0:
132,270,32667,6,0,L|148:377,1,85.0000016212464,0|2,1:0|0:0,0:0:0:0:
262,141,33067,2,0,L|249:56,1,85.0000016212464,8|2,0:0|0:0,0:0:0:0:
186,9,33367,1,8,0:0:0:0:
176,3,33467,2,0,P|154:11|127:15,2,42.5000008106232,0|2|0,1:0|0:0|1:0,0:0:0:0:
337,73,33867,2,0,P|378:58|444:74,1,85.0000016212464,8|2,0:0|0:0,0:0:0:0:
487,106,34167,1,8,0:0:0:0:
493,116,34267,6,0,L|483:214,1,85.0000016212464,0|2,1:0|0:0,0:0:0:0:
374,384,34667,2,0,P|356:340|374:301,1,85.0000016212464,8|2,0:0|0:0,0:0:0:0:
442,276,34967,1,8,0:0:0:0:
453,280,35067,1,0,1:0:0:0:
393,146,35267,1,0,1:0:0:0:
283,284,35467,1,8,0:0:0:0:
200,147,35667,1,2,0:0:0:0:
116,292,35867,6,0,B|26:277,1,85.0000016212464,0|2,1:0|0:0,0:0:0:0:
57,82,36267,2,0,P|99:95|115:159,1,85.0000016212464,8|2,0:0|0:0,0:0:0:0:
79,198,36567,1,8,0:0:0:0:
68,204,36667,2,0,L|14:194,2,42.5000008106232,0|2|0,1:0|0:0|1:0,0:0:0:0:
214,239,37067,1,8,0:0:0:0:
118,129,37267,1,2,0:0:0:0:
200,322,37467,6,0,P|263:315|296:237,1,127.50000243187,0|0,1:0|0:0,0:0:0:0:
277,186,37867,1,8,0:0:0:0:
421,261,38067,1,2,0:0:0:0:
399,255,38167,1,8,0:0:0:0:
378,249,38267,1,0,1:0:0:0:
297,266,38467,1,0,1:0:0:0:
358,67,38667,1,8,0:0:0:0:
360,88,38767,1,8,0:0:0:0:
362,110,38867,1,0,1:0:0:0:
354,116,39067,5,2,0:0:0:0:
338,108,39267,1,2,0:0:0:0:
314,124,39467,1,2,0:0:0:0:
271,100,39667,1,2,0:0:0:0:
230,134,39867,1,2,0:3:0:0:
166,93,40067,1,2,0:0:0:0:
103,146,40267,2,0,P|87:182|130:273,1,127.50000243187,2|0,0:3|0:3,0:3:0:0:
90,348,40667,6,0,L|192:332,1,85.0000016212464,6|2,1:2|0:0,0:0:0:0:
282,231,41067,1,8,0:0:0:0:
251,378,41267,1,2,0:0:0:0:
255,358,41367,1,8,0:0:0:0:
259,337,41467,1,0,1:0:0:0:
282,231,41667,1,0,1:0:0:0:
447,336,41867,1,8,0:0:0:0:
424,230,42067,1,2,0:0:0:0:
363,349,42267,6,0,L|465:333,1,85.0000016212464,0|2,1:0|0:0,0:0:0:0:
405,98,42667,2,0,P|374:130|374:182,1,85.0000016212464,8|2,0:0|0:0,0:0:0:0:
424,230,42967,1,8,0:0:0:0:
434,236,43067,2,0,L|503:223,2,42.5000008106232,0|2|0,1:0|0:0|1:0,0:0:0:0:
259,337,43467,2,0,L|157:321,1,85.0000016212464,8|2,0:0|0:0,0:0:0:0:
128,230,43867,5,0,1:0:0:0:
81,373,44067,1,2,0:0:0:0:
259,337,44267,1,8,0:0:0:0:
222,181,44467,1,2,0:0:0:0:
218,161,44567,1,8,0:0:0:0:
214,140,44667,1,0,1:0:0:0:
128,230,44867,1,0,1:0:0:0:
302,247,45067,1,8,0:0:0:0:
259,337,45267,1,2,0:0:0:0:
449,339,45467,6,0,P|457:311|465:288,1,42.5000008106232,0|0,1:0|0:0,0:0:0:0:
504,207,45667,2,0,L|405:227,1,85.0000016212464,2|8,0:0|0:0,0:0:0:0:
302,104,46067,1,2,0:0:0:0:
322,107,46167,1,8,0:0:0:0:
343,110,46267,1,0,1:0:0:0:
302,247,46467,1,0,1:0:0:0:
435,130,46667,1,8,0:0:0:0:
264,34,46867,1,8,0:0:0:0:
244,37,46967,1,8,0:0:0:0:
224,42,47067,6,0,P|203:84|214:131,1,85.0000016212464,0|2,1:0|0:0,0:0:0:0:
148,279,47467,2,0,P|169:237|160:193,1,85.0000016212464,8|2,0:0|0:0,0:0:0:0:
98,151,47767,1,8,0:0:0:0:
88,145,47867,2,0,L|32:150,2,42.5000008106232,0|2|0,1:0|0:0|1:0,0:0:0:0:
269,175,48267,1,8,0:0:0:0:
208,120,48467,1,2,0:0:0:0:
238,295,48667,6,0,B|300:280|292:347|395:320,1,127.50000243187,0|0,1:0|0:0,0:0:0:0:
421,199,49067,2,0,P|376:208|367:264,1,85.0000016212464,8|2,0:0|0:0,0:0:0:0:
436,287,49367,1,8,0:0:0:0:
446,294,49467,2,0,L|501:289,1,42.5000008106232,0|8,1:0|0:0,0:0:0:0:
485,84,49667,1,8,0:0:0:0:
440,79,49767,1,8,0:0:0:0:
401,100,49867,1,8,3:0:0:0:
375,117,49967,1,8,3:0:0:0:
348,121,50067,1,4,3:0:0:0:
326,114,50167,1,4,3:0:0:0:
313,102,50267,6,0,P|266:84|215:102,1,85.0000016212464,6|2,1:2|0:0,0:0:0:0:
24,134,50667,2,0,P|71:152|122:134,1,85.0000016212464,8|2,0:0|0:0,0:0:0:0:
149,75,50967,1,8,0:0:0:0:
149,62,51067,1,0,1:0:0:0:
266,172,51267,1,0,1:0:0:0:
103,145,51467,1,8,0:0:0:0:
183,301,51667,1,0,1:0:0:0:
186,281,51767,1,8,0:0:0:0:
189,260,51867,6,0,B|252:256|237:315|327:301,1,127.50000243187,0|0,1:0|0:0,0:0:0:0:
384,340,52267,2,0,P|392:295|362:238,1,85.0000016212464,8|2,0:0|0:0,0:0:0:0:
311,214,52567,1,8,0:0:0:0:
299,216,52667,1,0,1:0:0:0:
304,303,52867,1,0,1:0:0:0:
500,238,53067,1,8,0:0:0:0:
429,74,53267,1,8,0:0:0:0:
404,109,53367,1,8,0:0:0:0:
411,148,53467,5,6,1:2:0:0:
494,123,53667,1,0,1:0:0:0:
318,57,53867,5,8,0:0:0:0:
494,123,54067,1,0,1:0:0:0:
272,152,54267,5,14,0:0:0:0:
495,19,54467,1,0,1:0:0:0:
191,48,54667,5,8,0:0:0:0:
404,109,54867,1,0,1:0:0:0:
216,253,55067,6,0,L|53:241,1,137.500004196167,14|0,1:2|0:0,0:0:0:0:
60,241,55667,5,2,0:0:0:0:
103,353,55867,1,0,1:0:0:0:
170,145,56067,1,8,0:0:0:0:
138,107,56167,1,8,0:0:0:0:
91,96,56267,1,8,0:0:0:0:
46,115,56367,1,8,0:0:0:0:
22,157,56467,1,8,0:0:0:0:
27,205,56567,1,8,0:0:0:0:
60,241,56667,5,6,0:0:0:0:
170,145,56867,1,0,1:0:0:0:
205,348,57067,1,8,0:0:0:0:
260,277,57267,1,2,1:2:0:0:
224,263,57367,1,8,0:0:0:0:
186,264,57467,1,0,1:0:0:0:
152,281,57567,1,8,0:0:0:0:
127,311,57667,1,0,1:0:0:0:
297,364,57867,1,8,0:0:0:0:
425,269,58067,1,2,0:0:0:0:
430,237,58167,1,8,0:0:0:0:
434,198,58267,6,0,L|425:83,1,94.9999974632264,0|0,1:0|1:0,0:0:0:0:
262,71,58667,2,0,P|300:90|355:55,1,94.9999974632264,8|2,0:0|0:0,0:0:0:0:
361,52,58967,1,8,0:0:0:0:
380,31,59067,1,0,1:0:0:0:
407,22,59167,1,8,0:0:0:0:
435,25,59267,1,0,1:0:0:0:
341,192,59467,2,0,B|271:174|276:244|189:217,1,142.49999619484,8|0,0:0|0:0,0:0:0:0:
149,167,59867,5,0,1:0:0:0:
166,296,60067,1,0,1:0:0:0:
92,107,60267,2,0,P|129:83|191:96,1,94.9999974632264,8|2,0:0|0:0,0:0:0:0:
251,64,60567,1,8,0:0:0:0:
262,69,60667,2,0,P|283:78|311:76,2,47.4999987316132,0|8|0,1:0|0:0|1:0,0:0:0:0:
435,25,61067,2,0,L|446:131,1,94.9999974632264,8|2,0:0|0:0,0:0:0:0:
483,194,61367,1,8,0:0:0:0:
470,200,61467,5,0,1:0:0:0:
361,143,61667,1,0,1:0:0:0:
401,315,61867,1,8,0:0:0:0:
255,186,62067,1,2,0:0:0:0:
273,190,62167,1,8,0:0:0:0:
290,194,62267,1,0,1:0:0:0:
288,231,62367,1,8,0:0:0:0:
263,260,62467,1,0,1:0:0:0:
226,269,62567,1,8,0:0:0:0:
191,252,62667,1,8,0:0:0:0:
148,233,62767,1,8,0:0:0:0:
103,243,62867,1,8,0:0:0:0:
73,279,62967,1,8,0:0:0:0:
71,326,63067,5,6,1:2:0:0:
199,367,63267,1,0,1:0:0:0:
96,156,63467,1,8,0:0:0:0:
161,96,63667,1,2,1:2:0:0:
181,130,63767,1,8,0:0:0:0:
185,167,63867,1,0,1:0:0:0:
173,203,63967,1,8,0:0:0:0:
148,233,64067,1,0,1:0:0:0:
77,59,64267,2,0,P|109:18|170:14,1,94.9999974632264,8|2,0:0|0:0,0:0:0:0:
228,46,64567,1,8,0:0:0:0:
240,51,64667,6,0,L|328:41,1,64.9999970245363,0|0,1:0|1:0,0:0:0:0:
505,159,65067,2,0,L|390:173,1,94.9999974632264,8|2,0:0|0:0,0:0:0:0:
386,186,65367,1,8,0:0:0:0:
373,211,65467,1,0,1:0:0:0:
374,239,65567,1,8,0:0:0:0:
387,264,65667,1,0,1:0:0:0:
225,384,65867,2,0,P|244:332|201:246,1,142.49999619484,8|8,0:0|0:0,0:0:0:0:
131,227,66267,5,0,1:0:0:0:
147,326,66467,1,0,1:0:0:0:
44,95,66667,2,0,P|94:92|120:136,1,94.9999974632264,8|2,0:0|0:0,0:0:0:0:
54,189,66967,1,8,0:0:0:0:
47,199,67067,2,0,L|-8:196,2,47.4999987316132,0|2|0,1:0|0:0|1:0,0:0:0:0:
193,70,67467,2,0,L|305:75,1,94.9999974632264,8|8,0:0|0:0,0:0:0:0:
361,118,67767,1,8,0:0:0:0:
374,118,67867,5,0,1:0:0:0:
287,165,68067,1,0,1:0:0:0:
393,21,68267,1,8,0:0:0:0:
469,188,68467,1,8,0:0:0:0:
470,211,68567,1,8,0:0:0:0:
472,235,68667,1,8,1:2:0:0:
431,220,68767,1,8,0:0:0:0:
389,224,68867,1,0,1:0:0:0:
352,244,68967,1,8,0:0:0:0:
326,278,69067,1,8,0:0:0:0:
314,292,69167,1,8,3:0:0:0:
298,302,69267,1,4,3:0:0:0:
280,308,69367,1,4,3:0:0:0:
261,307,69467,5,6,1:2:0:0:
425,317,69667,1,0,1:0:0:0:
222,384,69867,1,8,0:0:0:0:
188,251,70067,1,2,1:2:0:0:
174,287,70167,1,8,0:0:0:0:
175,325,70267,1,0,1:0:0:0:
191,358,70367,1,8,0:0:0:0:
222,384,70467,1,0,1:0:0:0:
270,223,70667,1,8,0:0:0:0:
101,132,70867,1,2,0:0:0:0:
68,136,70967,1,8,0:0:0:0:
38,141,71067,6,0,L|28:244,1,94.9999974632264,0|0,1:0|1:0,0:0:0:0:
300,119,71467,2,0,P|266:81|205:85,1,94.9999974632264,8|2,0:0|0:0,0:0:0:0:
198,92,71767,1,8,0:0:0:0:
186,117,71867,1,0,1:0:0:0:
188,145,71967,1,8,0:0:0:0:
203,169,72067,1,0,1:0:0:0:
397,159,72267,2,0,L|412:47,1,94.9999974632264,8|2,0:0|0:0,0:0:0:0:
468,9,72567,1,8,0:0:0:0:
481,5,72667,5,0,1:0:0:0:
504,123,72867,1,0,1:0:0:0:
328,7,73067,2,0,P|277:5|244:38,1,94.9999974632264,8|2,0:0|0:0,0:0:0:0:
179,82,73367,1,8,0:0:0:0:
174,93,73467,2,0,L|110:83,2,47.4999987316132,0|8|0,1:0|0:0|1:0,0:0:0:0:
12,194,73867,2,0,L|116:179,1,94.9999974632264,8|2,0:0|0:0,0:0:0:0:
178,217,74167,1,8,0:0:0:0:
191,214,74267,5,0,1:0:0:0:
304,200,74467,1,0,1:0:0:0:
434,188,74667,2,0,L|423:282,1,94.9999974632264,8|2,0:0|0:0,0:0:0:0:
478,337,74967,1,8,0:0:0:0:
436,315,75067,1,0,1:0:0:0:
391,325,75167,1,8,0:0:0:0:
361,361,75267,1,8,1:2:0:0:
311,379,75367,1,8,0:0:0:0:
262,344,75467,2,0,L|193:352,1,47.4999987316132,8|2,0:0|0:0,0:0:0:0:
13,326,75667,1,8,0:0:0:0:
61,328,75767,1,8,0:0:0:0:
96,296,75867,5,12,1:2:0:0:
134,377,76067,1,0,1:0:0:0:
172,213,76267,5,10,0:0:0:0:
134,377,76467,1,0,1:0:0:0:
42,181,76667,5,10,0:0:0:0:
134,377,76867,1,0,1:0:0:0:
214,65,77067,5,10,0:0:0:0:
134,377,77267,1,0,1:0:0:0:
150,373,77367,1,8,0:0:0:0:
164,370,77467,5,14,0:0:0:0:
83,57,77667,1,0,1:0:0:0:
281,340,77867,5,14,0:0:0:0:
324,33,78067,1,0,1:0:0:0:
256,192,79067,5,6,0:0:0:0:
123,354,91867,5,4,1:2:0:0:
42,327,92067,1,2,0:0:0:0:
42,242,92267,1,0,1:0:0:0:
123,216,92467,1,2,0:0:0:0:
172,285,92667,5,0,1:0:0:0:
253,259,92867,1,2,0:0:0:0:
253,174,93067,1,0,1:0:0:0:
172,141,93267,1,2,0:0:0:0:
176,121,93367,1,2,0:0:0:0:
180,100,93467,5,0,1:0:0:0:
329,131,93667,2,0,L|315:37,1,85.0000016212464,2|0,0:0|1:0,0:0:0:0:
180,100,94067,2,0,L|194:6,1,85.0000016212464,2|0,0:0|1:0,0:0:0:0:
253,173,94467,1,2,0:0:0:0:
82,154,94667,2,0,L|69:69,1,85.0000016212464,8|2,0:0|0:0,0:0:0:0:
54,256,95067,5,4,1:2:0:0:
151,216,95267,1,2,0:0:0:0:
230,378,95467,1,0,1:0:0:0:
141,321,95667,1,2,0:0:0:0:
253,173,95867,1,0,1:0:0:0:
242,276,96067,1,2,0:0:0:0:
54,256,96267,1,0,1:0:0:0:
151,216,96467,1,2,0:0:0:0:
253,173,96667,5,0,1:0:0:0:
285,32,96867,2,0,P|329:25|383:53,1,85.0000016212464,2|0,0:0|1:0,0:0:0:0:
386,196,97267,2,0,P|357:161|355:100,1,85.0000016212464,2|0,0:0|1:0,0:0:0:0:
484,26,97667,2,0,P|468:67|416:100,1,85.0000016212464,2|0,0:0|1:0,0:0:0:0:
209,87,98067,1,8,0:0:0:0:
187,86,98167,1,8,0:0:0:0:
162,83,98267,6,0,L|63:74,1,85.0000016212464,0|2,1:0|0:0,0:0:0:0:
30,256,98667,2,0,P|67:238|87:187,1,85.0000016212464,0|2,1:0|0:0,0:0:0:0:
77,75,99067,1,0,1:0:0:0:
13,145,99267,1,2,0:0:0:0:
86,200,99467,1,0,1:0:0:0:
209,87,99667,1,2,0:0:0:0:
231,86,99767,1,2,0:0:0:0:
256,83,99867,6,0,L|355:74,1,85.0000016212464,0|2,1:0|0:0,0:0:0:0:
457,63,100267,1,0,1:0:0:0:
374,196,100467,1,2,0:0:0:0:
364,186,100567,1,8,0:0:0:0:
358,169,100667,1,0,1:0:0:0:
395,172,100767,1,8,0:0:0:0:
423,197,100867,1,8,3:0:0:0:
431,234,100967,1,8,3:0:0:0:
408,271,101067,1,4,3:0:0:0:
388,279,101167,1,4,3:0:0:0:
367,281,101267,1,4,3:0:0:0:
346,276,101367,1,4,3:0:0:0:
317,252,101467,6,0,P|266:235|196:292,1,127.50000243187,6|0,1:2|0:0,0:0:0:0:
166,340,101867,2,0,P|135:369|71:353,1,85.0000016212464,8|2,0:0|0:0,0:0:0:0:
36,314,102167,1,2,0:0:0:0:
39,301,102267,1,0,1:0:0:0:
63,193,102467,1,0,1:0:0:0:
93,76,102667,2,0,B|165:75|133:136|226:131,1,127.50000243187,8|0,0:0|0:0,0:0:0:0:
202,130,103067,6,0,L|211:44,1,85.0000016212464,0|2,1:2|0:0,0:0:0:0:
383,0,103467,2,0,L|390:84,1,85.0000016212464,8|2,0:0|0:0,0:0:0:0:
443,145,103767,1,8,0:0:0:0:
444,157,103867,1,0,1:0:0:0:
296,103,104067,1,0,1:0:0:0:
333,319,104267,1,8,0:0:0:0:
261,186,104467,1,8,0:0:0:0:
298,190,104567,1,8,0:0:0:0:
337,195,104667,5,4,1:2:0:0:
212,255,104867,1,0,1:0:0:0:
404,261,105067,5,8,0:0:0:0:
144,189,105267,1,0,1:0:0:0:
263,381,105467,5,12,0:0:0:0:
296,103,105667,1,0,1:0:0:0:
333,319,105867,5,12,0:0:0:0:
230,40,106067,1,0,1:0:0:0:
215,53,106167,1,8,0:0:0:0:
201,65,106267,5,2,0:0:0:0:
220,148,106467,1,2,0:0:0:0:
144,189,106667,1,2,0:0:0:0:
83,130,106867,1,2,0:0:0:0:
118,56,107067,1,0,0:0:0:0:
144,189,107267,1,0,0:0:0:0:
201,65,107467,2,0,P|242:64|270:78,1,67.4999979400635,0|0,1:0|0:0,0:0:0:0:
317,141,107867,5,6,0:0:0:0:
385,17,108067,1,0,1:0:0:0:
480,193,108267,1,8,0:0:0:0:
402,235,108467,1,2,1:2:0:0:
392,197,108567,1,8,0:0:0:0:
397,160,108667,1,0,1:0:0:0:
418,128,108767,1,8,0:0:0:0:
451,107,108867,1,0,1:0:0:0:
478,284,109067,1,8,0:0:0:0:
271,234,109267,1,2,0:0:0:0:
240,240,109367,1,8,0:0:0:0:
210,246,109467,6,0,P|189:293|216:351,1,94.9999974632264,0|2,1:0|0:0,0:0:0:0:
317,141,109867,2,0,L|215:160,1,94.9999974632264,8|2,0:0|0:0,0:0:0:0:
197,143,110167,1,8,0:0:0:0:
179,120,110267,1,0,1:0:0:0:
175,92,110367,1,8,0:0:0:0:
183,65,110467,1,0,1:0:0:0:
1,150,110667,2,0,P|58:161|86:251,1,142.49999619484,8|0,0:0|0:0,0:0:0:0:
54,305,111067,5,0,1:0:0:0:
210,246,111267,1,0,1:0:0:0:
140,384,111467,2,0,P|130:328|154:287,1,94.9999974632264,8|2,0:0|0:0,0:0:0:0:
210,246,111767,1,8,0:0:0:0:
218,237,111867,2,0,P|222:212|215:186,1,47.4999987316132,0|8,1:0|0:0,0:0:0:0:
179,120,112067,1,0,1:0:0:0:
221,340,112267,2,0,L|337:323,1,94.9999974632264,8|2,0:0|0:0,0:0:0:0:
376,276,112567,1,8,0:0:0:0:
388,273,112667,5,0,1:0:0:0:
382,380,112867,1,0,1:0:0:0:
444,212,113067,2,0,P|412:191|346:207,1,94.9999974632264,8|2,0:0|0:0,0:0:0:0:
279,207,113367,1,8,0:0:0:0:
267,203,113467,2,0,P|238:214|195:205,1,47.4999987316132,0|8,1:0|0:0,0:0:0:0:
150,180,113667,1,0,1:0:0:0:
176,0,113867,1,8,0:0:0:0:
209,21,113967,1,8,0:0:0:0:
230,53,114067,1,8,0:0:0:0:
235,90,114167,1,8,0:0:0:0:
225,128,114267,5,6,1:2:0:0:
144,90,114467,1,0,1:0:0:0:
177,294,114667,1,8,0:0:0:0:
92,258,114867,1,2,1:2:0:0:
114,225,114967,1,8,0:0:0:0:
145,205,115067,1,0,1:0:0:0:
184,201,115167,1,8,0:0:0:0:
221,213,115267,1,0,1:0:0:0:
105,344,115467,1,8,0:0:0:0:
33,162,115667,1,2,0:0:0:0:
39,132,115767,1,8,0:0:0:0:
47,98,115867,6,0,L|63:9,1,64.9999970245363,0|0,1:0|1:0,0:0:0:0:
289,85,116267,2,0,P|255:122|197:116,1,94.9999974632264,8|2,0:0|0:0,0:0:0:0:
134,152,116567,1,8,0:0:0:0:
127,142,116667,2,0,L|136:84,1,47.4999987316132,0|8,1:0|0:0,0:0:0:0:
146,18,116867,1,0,1:0:0:0:
196,214,117067,2,0,B|273:193|248:283|371:238,1,142.49999619484,8|8,0:0|0:0,0:0:0:0:
398,212,117467,5,0,1:0:0:0:
306,355,117667,1,0,1:0:0:0:
498,306,117867,2,0,L|489:194,1,94.9999974632264,8|2,0:0|0:0,0:0:0:0:
475,180,118167,1,8,0:0:0:0:
478,146,118267,1,0,1:0:0:0:
482,113,118367,1,8,0:0:0:0:
486,80,118467,1,0,1:0:0:0:
276,31,118667,2,0,P|316:80|377:73,1,94.9999974632264,8|2,0:0|0:0,0:0:0:0:
398,30,118967,1,8,0:0:0:0:
400,16,119067,5,0,1:0:0:0:
291,158,119267,1,0,1:0:0:0:
486,80,119467,1,8,0:0:0:0:
276,31,119667,1,8,0:0:0:0:
229,28,119767,1,8,0:0:0:0:
189,52,119867,1,0,1:0:0:0:
171,95,119967,1,8,0:0:0:0:
186,144,120067,1,8,1:3:0:0:
196,184,120167,1,8,1:3:0:0:
188,215,120267,1,4,1:3:0:0:
167,231,120367,1,4,1:3:0:0:
150,226,120467,1,4,3:0:0:0:
147,211,120567,1,4,3:0:0:0:
158,201,120667,5,6,1:2:0:0:
291,158,120867,1,0,1:0:0:0:
260,384,121067,1,8,0:0:0:0:
215,310,121267,1,2,1:2:0:0:
252,298,121367,1,8,0:0:0:0:
291,302,121467,1,0,1:0:0:0:
322,322,121567,1,8,0:0:0:0:
344,355,121667,1,0,1:0:0:0:
163,378,121867,1,8,0:0:0:0:
32,246,122067,1,2,0:0:0:0:
40,206,122167,1,8,0:0:0:0:
49,166,122267,5,0,1:0:0:0:
188,215,122467,1,0,1:0:0:0:
110,0,122667,2,0,L|122:96,1,94.9999974632264,8|2,0:0|0:0,0:0:0:0:
194,129,122967,1,8,0:0:0:0:
204,136,123067,2,0,L|263:125,1,47.4999987316132,0|8,1:0|0:0,0:0:0:0:
331,111,123267,1,0,1:0:0:0:
483,248,123467,2,0,P|442:215|343:244,1,142.49999619484,8|8,0:0|0:0,0:0:0:0:
306,294,123867,5,0,1:0:0:0:
331,111,124067,1,0,1:0:0:0:
306,294,124267,2,0,P|266:322|217:314,1,94.9999974632264,8|2,0:0|0:0,0:0:0:0:
148,341,124567,1,8,0:0:0:0:
141,352,124667,2,0,L|137:290,1,47.4999987316132,0|8,1:0|0:0,0:0:0:0:
131,224,124867,1,0,1:0:0:0:
0,138,125067,2,0,P|42:155|98:126,1,94.9999974632264,8|2,0:0|0:0,0:0:0:0:
137,76,125367,1,8,0:0:0:0:
140,62,125467,5,0,1:0:0:0:
222,202,125667,1,0,1:0:0:0:
376,59,125867,2,0,L|309:73,1,47.4999987316132,8|2,0:0|0:0,0:0:0:0:
263,20,126067,1,2,1:2:0:0:
248,49,126167,1,8,0:0:0:0:
246,82,126267,1,0,1:0:0:0:
257,113,126367,1,8,0:0:0:0:
280,138,126467,1,0,1:0:0:0:
308,175,126567,1,8,0:0:0:0:
305,221,126667,1,8,0:0:0:0:
237,384,126867,1,8,0:0:0:0:
209,347,126967,1,8,0:0:0:0:
212,301,127067,5,14,0:0:0:0:
289,323,127267,1,0,1:0:0:0:
152,241,127467,5,10,0:0:0:0:
305,221,127667,1,0,1:0:0:0:
118,326,127867,5,10,0:0:0:0:
385,358,128067,1,0,1:0:0:0:
205,98,128267,5,10,0:0:0:0:
209,347,128467,1,0,1:0:0:0:
216,360,128567,1,8,0:0:0:0:
224,374,128667,5,14,0:0:0:0:
321,84,128867,1,0,1:0:0:0:
385,358,129067,5,14,0:0:0:0:
253,22,129267,1,0,1:0:0:0:
48,334,130067,5,2,0:0:0:0:
59,337,130167,1,2,0:0:0:0:
80,357,130267,6,0,L|77:292,1,57.5000010967255,6|0,0:0|0:0,0:0:0:0:
160,296,130467,2,0,L|162:353,1,57.5000010967255,8|0,0:0|0:0,0:0:0:0:
117,218,130667,2,0,P|152:206|200:223,1,75.0000028610231,2|0,0:0|1:0,0:0:0:0:
423,271,131067,6,0,B|381:293|353:277|353:277|349:284|349:284|345:276|345:276|310:251|259:253|223:288|241:344|283:364|323:351,1,290.000008850098,8|2,0:0|0:0,0:0:0:0:
349,283,131667,1,8,0:0:0:0:
512,159,131867,6,0,P|509:123|488:94,1,72.5000022125245,6|0,0:0|0:0,0:0:0:0:
401,126,132067,2,0,P|403:161|424:190,1,72.5000022125245,8|0,0:0|0:0,0:0:0:0:
411,39,132267,2,0,B|325:26|345:115|244:80,1,157.499995193482,0|0,1:0|0:0,0:0:0:0:
127,98,132667,6,0,B|104:84|106:63|106:63|104:61|104:61|113:62|113:62|112:56|112:56|169:-6|259:41|231:139|194:168,1,290.000008850098,8|0,0:0|1:0,0:0:0:0:
201,160,133267,1,8,0:0:0:0:
0,271,133467,6,0,P|41:262|115:344,1,157.499995193482,4|0,1:2|0:0,0:0:0:0:
114,336,133867,1,2,0:0:0:0:
201,160,134067,1,0,1:0:0:0:
384,274,134267,6,0,B|400:262|424:263|453:289|443:339|403:353|403:353|402:358|402:358|400:356|400:356|352:362|327:332|327:332|299:300|217:314,1,290.000008850098,12|2,0:0|0:0,0:0:0:0:
402,358,134867,1,8,0:0:0:0:
470,85,135067,6,0,P|475:136|444:157,1,72.5000022125245,6|0,0:0|0:0,0:0:0:0:
389,182,135267,2,0,L|319:170,1,55.0000016784668,8|0,0:0|1:0,0:0:0:0:
334,172,135667,1,2,0:0:0:0:
91,7,135867,6,0,L|105:175,1,145.000004425049,6|8,0:0|0:0,0:0:0:0:
174,0,136267,2,0,L|186:144,1,145.000004425049,0|8,1:0|0:0,0:0:0:0:
152,220,136567,1,8,0:0:0:0:
154,235,136667,5,4,1:2:0:0:
212,315,136867,1,2,0:0:0:0:
186,144,137067,1,8,0:0:0:0:
248,218,137267,2,0,L|302:210,1,42.5000008106232,2|0,0:0|0:0,0:0:0:0:
314,208,137467,1,0,1:0:0:0:
397,264,137667,1,0,1:0:0:0:
418,39,137867,2,0,P|391:99|409:168,1,127.50000243187,8|0,0:0|0:0,0:0:0:0:
491,221,138267,6,0,P|501:256|483:311,1,85.0000016212464,0|2,1:0|0:0,0:0:0:0:
292,355,138667,1,8,0:0:0:0:
416,367,138867,2,0,L|352:362,1,42.5000008106232,2|0,0:0|0:0,0:0:0:0:
292,355,139067,1,0,1:0:0:0:
184,344,139267,1,0,1:0:0:0:
397,264,139467,1,8,0:0:0:0:
230,189,139667,1,8,0:0:0:0:
234,227,139767,1,8,0:0:0:0:
240,269,139867,5,14,0:0:0:0:
157,142,140067,1,0,1:0:0:0:
103,296,140267,5,10,0:0:0:0:
214,72,140467,1,0,1:0:0:0:
184,344,140667,5,10,0:0:0:0:
86,85,140867,1,0,1:0:0:0:
22,348,141067,5,10,0:0:0:0:
291,113,141267,1,4,3:0:0:0:
326,118,141367,1,8,3:0:0:0:
366,128,141467,86,0,B|376:91|386:28|276:-27|213:72|213:72|128:7|38:79|40:186|99:216|158:252|220:183|218:256|275:299|275:299|288:194|370:153,1,880.00002685547,6|2,0:0|0:0,0:0:0:0:
256,192,146267,5,2,0:0:0:0:
171,148,147067,1,2,0:0:0:0:
82,354,147867,5,2,0:0:0:0:
60,48,149467,5,2,0:0:0:0:
160,4,150267,1,2,0:0:0:0:
428,100,151067,5,2,0:0:0:0:
386,199,151867,1,2,0:0:0:0:
489,374,152667,5,2,0:0:0:0:
405,345,153067,1,2,0:0:0:0:
330,381,153467,1,2,0:0:0:0:
250,349,153867,1,2,0:0:0:0:
170,382,154267,6,0,P|203:339|126:277,1,165.000005035401,2|2,0:0|0:0,0:0:0:0:
75,320,155067,2,0,L|96:200,1,110.000003356934,2|2,0:0|0:0,0:0:0:0:
93,211,155867,5,2,0:0:0:0:
1,181,156267,1,2,0:0:0:0:
1,85,156667,1,2,0:0:0:0:
93,55,157067,1,2,0:0:0:0:
149,133,157467,6,0,L|249:117,1,85.0000016212464,0|2,1:0|0:0,0:0:0:0:
153,218,157867,2,0,L|236:204,1,85.0000016212464,0|2,1:0|0:0,0:0:0:0:
400,80,158267,2,0,L|300:64,1,85.0000016212464,0|2,1:0|0:0,0:0:0:0:
396,165,158667,2,0,L|312:151,1,85.0000016212464,0|2,1:0|0:0,0:0:0:0:
454,229,159067,6,0,P|479:196|470:136,1,85.0000016212464,0|2,1:0|0:0,0:0:0:0:
376,244,159467,2,0,P|392:282|448:304,1,85.0000016212464,0|2,1:0|0:0,0:0:0:0:
454,229,159867,2,0,P|412:223|365:261,1,85.0000016212464,0|2,1:0|0:0,0:0:0:0:
306,314,160267,2,0,P|269:334|228:329,1,85.0000016212464,0|2,1:0|0:0,0:0:0:0:
176,269,160567,1,2,0:0:0:0:
169,257,160667,6,0,P|205:236|246:241,1,85.0000016212464,0|2,1:0|0:0,0:0:0:0:
282,152,161067,2,0,P|245:131|229:92,1,85.0000016212464,0|2,1:0|0:0,0:0:0:0:
133,110,161467,2,0,P|132:151|107:185,1,85.0000016212464,0|2,1:0|0:0,0:0:0:0:
169,257,161867,1,0,1:0:0:0:
246,241,162067,1,2,0:0:0:0:
282,152,162267,6,0,L|379:163,1,85.0000016212464,2|2,1:2|0:0,0:0:0:0:
415,93,162567,1,2,0:0:0:0:
407,83,162667,2,0,L|322:73,1,85.0000016212464,0|2,1:0|0:0,0:0:0:0:
416,243,163067,2,0,P|447:215|454:164,1,85.0000016212464,0|2,1:0|0:0,0:0:0:0:
328,244,163467,2,0,P|336:284|377:316,1,85.0000016212464,0|2,1:0|0:0,0:0:0:0:
294,362,163767,1,2,0:0:0:0:
286,370,163867,6,0,L|191:362,1,85.0000016212464,0|2,1:0|0:0,0:0:0:0:
45,314,164267,2,0,L|140:306,1,85.0000016212464,0|2,1:0|0:0,0:0:0:0:
328,244,164667,2,0,L|243:236,1,85.0000016212464,0|2,1:0|0:0,0:0:0:0:
60,122,165067,2,0,L|144:114,1,85.0000016212464,0|2,1:0|0:0,0:0:0:0:
295,16,165467,5,6,0:0:0:0:
295,16,165867,1,6,0:0:0:0:
295,16,166267,1,8,0:0:0:0:
338,0,166367,1,8,3:0:0:0:
382,13,166467,1,4,3:0:0:0:
410,50,166567,1,4,3:0:0:0:
412,96,166667,1,4,3:2:0:0:
104,343,167467,5,6,0:0:0:0:
175,132,167667,1,2,0:0:0:0:
323,276,167867,1,0,1:0:0:0:
284,286,167967,1,8,0:0:0:0:
240,298,168067,1,0,1:0:0:0:
63,253,168267,1,8,0:0:0:0:
175,132,168467,1,2,0:0:0:0:
214,142,168567,1,8,0:0:0:0:
258,154,168667,5,0,1:0:0:0:
157,249,168867,1,0,1:0:0:0:
323,0,169067,2,0,L|336:107,1,94.9999974632264,8|2,0:0|0:0,0:0:0:0:
338,108,169367,1,8,0:0:0:0:
403,154,169467,2,0,P|425:141|467:138,2,47.4999987316132,0|8|0,1:0|0:0|1:0,0:0:0:0:
249,270,169867,2,0,L|130:243,1,94.9999974632264,8|2,0:0|0:0,0:0:0:0:
143,245,170167,1,8,0:0:0:0:
80,293,170267,5,0,1:0:0:0:
219,166,170467,1,0,1:0:0:0:
278,371,170667,1,8,0:0:0:0:
458,204,170867,1,2,1:2:0:0:
411,197,170967,1,8,0:0:0:0:
369,217,171067,1,0,1:0:0:0:
347,259,171167,1,8,0:0:0:0:
353,305,171267,1,0,1:0:0:0:
511,269,171467,1,8,0:0:0:0:
442,45,171667,1,2,0:0:0:0:
395,55,171767,1,8,0:0:0:0:
352,67,171867,5,0,1:0:0:0:
279,198,172067,1,0,1:0:0:0:
207,9,172267,1,8,0:0:0:0:
69,167,172467,1,2,1:2:0:0:
87,210,172567,1,8,0:0:0:0:
105,253,172667,1,0,1:0:0:0:
140,221,172767,1,8,0:0:0:0:
175,189,172867,1,0,1:0:0:0:
13,262,173067,1,8,0:0:0:0:
200,371,173267,1,8,0:0:0:0:
245,362,173367,1,8,0:0:0:0:
290,353,173467,5,6,1:2:0:0:
233,280,173667,1,0,1:0:0:0:
432,222,173867,1,8,0:0:0:0:
505,88,174067,1,2,1:2:0:0:
459,99,174167,1,8,0:0:0:0:
426,132,174267,1,0,1:0:0:0:
416,178,174367,1,8,0:0:0:0:
432,222,174467,1,0,1:0:0:0:
507,353,174667,2,0,P|480:344|449:338,1,47.4999987316132,8|0,0:0|0:0,0:0:0:0:
312,261,174867,1,8,0:0:0:0:
272,270,174967,1,8,0:0:0:0:
233,280,175067,5,0,1:0:0:0:
178,380,175267,1,0,1:0:0:0:
327,152,175467,2,0,L|207:134,1,94.9999974632264,8|2,0:0|0:0,0:0:0:0:
167,96,175767,1,8,0:0:0:0:
125,104,175867,1,0,1:0:0:0:
83,113,175967,1,8,0:0:0:0:
41,121,176067,1,0,1:0:0:0:
81,340,176267,2,0,P|114:294|99:241,1,94.9999974632264,8|2,0:0|0:0,0:0:0:0:
99,248,176567,1,8,0:0:0:0:
27,275,176667,5,0,1:0:0:0:
173,212,176867,1,0,1:0:0:0:
322,348,177067,2,0,P|378:353|411:303,1,94.9999974632264,8|2,0:0|0:0,0:0:0:0:
407,315,177367,1,8,0:0:0:0:
464,261,177467,2,0,L|457:198,1,47.4999987316132,0|8,1:0|0:0,0:0:0:0:
412,150,177667,1,0,1:0:0:0:
511,11,177867,1,10,0:0:0:0:
313,91,178067,1,2,0:0:0:0:
269,85,178167,1,8,0:0:0:0:
228,81,178267,5,4,1:2:0:0:
408,23,178467,1,0,1:0:0:0:
319,235,178667,1,8,0:0:0:0:
139,60,178867,1,8,0:0:0:0:
141,79,178967,1,8,0:0:0:0:
144,96,179067,1,4,1:2:0:0:
94,81,179167,1,8,0:0:0:0:
45,96,179267,1,8,1:2:0:0:
11,135,179367,1,8,0:0:0:0:
4,186,179467,1,10,0:0:0:0:
25,233,179567,1,8,0:0:0:0:
69,261,179667,1,8,0:0:0:0:
121,261,179767,1,8,0:0:0:0:
164,232,179867,6,0,L|226:238,1,47.4999987316132,6|0,1:2|0:0,0:0:0:0:
319,235,180067,2,0,L|366:239,1,47.4999987316132,0|0,1:0|0:0,0:0:0:0:
485,360,180267,1,8,0:0:0:0:
464,130,180467,1,2,1:2:0:0:
417,126,180567,1,8,0:0:0:0:
377,150,180667,1,0,1:0:0:0:
357,193,180767,1,8,0:0:0:0:
366,239,180867,1,0,1:0:0:0:
509,61,181067,1,8,0:0:0:0:
264,12,181267,1,2,0:0:0:0:
213,22,181367,1,8,0:0:0:0:
164,34,181467,5,0,1:0:0:0:
345,51,181667,1,0,1:0:0:0:
12,19,181867,2,0,L|27:137,1,94.9999974632264,8|2,0:0|0:0,0:0:0:0:
33,123,182167,1,8,0:0:0:0:
9,198,182267,2,0,L|18:263,1,47.4999987316132,0|8,1:0|0:0,0:0:0:0:
64,373,182467,1,0,1:0:0:0:
312,260,182667,2,0,B|241:243|248:323|160:297,1,142.49999619484,8|8,0:0|0:0,0:0:0:0:
130,244,183067,5,0,1:0:0:0:
311,353,183267,1,0,1:0:0:0:
460,192,183467,2,0,P|469:131|441:82,1,94.9999974632264,8|2,0:0|0:0,0:0:0:0:
448,90,183767,1,8,0:0:0:0:
378,55,183867,2,0,L|318:66,2,47.4999987316132,0|8|0,1:0|0:0|1:0,0:0:0:0:
208,166,184267,2,0,L|94:144,1,94.9999974632264,8|2,0:0|0:0,0:0:0:0:
101,144,184567,1,8,0:0:0:0:
36,193,184667,5,0,1:0:0:0:
208,166,184867,1,0,1:0:0:0:
382,228,185067,2,0,P|400:258|385:331,1,94.9999974632264,8|2,0:0|0:0,0:0:0:0:
388,329,185367,1,8,0:0:0:0:
324,372,185467,2,0,L|271:364,1,47.4999987316132,0|8,1:0|0:0,0:0:0:0:
120,337,185667,1,8,3:0:0:0:
150,303,185767,1,8,3:0:0:0:
147,259,185867,1,8,3:0:0:0:
124,238,185967,1,4,3:0:0:0:
119,212,186067,1,4,3:0:0:0:
128,192,186167,1,4,3:0:0:0:
138,183,186267,5,14,0:0:0:0:
12,358,186467,1,0,1:0:0:0:
262,279,186667,5,10,0:0:0:0:
24,123,186867,1,0,1:0:0:0:
120,337,187067,5,14,0:0:0:0:
214,56,187267,1,0,1:0:0:0:
409,365,187467,5,10,0:0:0:0:
291,0,187667,1,8,0:0:0:0:
282,2,187767,1,8,0:0:0:0:
273,4,187867,5,14,1:2:0:0:
11,237,188067,1,2,1:2:0:0:
498,255,188267,5,14,1:2:0:0:
79,48,188467,1,2,1:2:0:0:
253,372,188667,6,0,L|256:328,2,34.9999989318848,2|2|2,0:0|0:0|0:0,0:0:0:0:
256,192,189467,12,2,190667,0:0:0:0:
256,192,190767,12,2,194267,0:0:0:0:
