osu file format v14

[General]
AudioFilename: audio.mp3
AudioLeadIn: 0
PreviewTime: 56467
Countdown: 0
SampleSet: Soft
StackLeniency: 0.7
Mode: 0
LetterboxInBreaks: 0
EpilepsyWarning: 1
WidescreenStoryboard: 1

[Editor]
DistanceSpacing: 1
BeatDivisor: 4
GridSize: 32
TimelineZoom: 1.6

[Metadata]
Title:Sentimental na Aiboshin
TitleUnicode:センチメンタルな愛慕心
Artist:Kano
ArtistUnicode:鹿乃
Creator:Petal
Version:Normal
Source:
Tags:Natsume Chiaki GUMI Japanese cover female namki garden utaite vocaloid matha affirmation neoskylove vick pop -_Matha_- なつめ千秋
BeatmapID:2293346
BeatmapSetID:1097489

[Difficulty]
HPDrainRate:4
CircleSize:3.8
OverallDifficulty:5
ApproachRate:5.5
SliderMultiplier:1
SliderTickRate:1

[Events]
//Background and Video events
0,0,"78724156_p0.jpg",0,0
//Break Periods
2,78467,90742
2,144867,156342
//Storyboard Layer 0 (Background)
//Storyboard Layer 1 (Fail)
//Storyboard Layer 2 (Pass)
//Storyboard Layer 3 (Foreground)
//Storyboard Layer 4 (Overlay)
//Storyboard Sound Samples

[TimingPoints]
2267,400,4,2,1,40,1,0
2267,-100,4,2,1,40,0,0
8667,-100,4,2,1,55,0,0
15067,-100,4,2,1,65,0,0
28867,-100,4,2,1,45,0,0
29467,-100,4,2,1,65,0,0
39067,-100,4,2,1,25,0,0
39667,-100,4,2,1,30,0,0
39867,-100,4,2,1,35,0,0
40067,-100,4,2,1,40,0,0
40267,-100,4,2,1,45,0,0
40567,-100,4,2,1,5,0,0
40667,-100,4,2,1,65,0,0
55067,-100,4,2,1,65,0,0
55667,-100,4,2,1,65,0,0
56667,-100,4,2,1,75,0,1
78267,-100,4,2,1,45,0,0
79067,-100,4,2,1,65,0,0
107867,-100,4,2,1,75,0,1
129467,-100,4,2,1,65,0,0
141467,-100,4,2,1,65,0,0
141567,-100,4,2,1,5,0,0
144667,-100,4,2,1,50,0,0
157467,-100,4,2,1,50,0,0
166267,-100,4,2,1,60,0,0
167467,-100,4,2,1,75,0,1
188667,-100,4,2,1,40,0,0

[Colours]
Combo1 : 157,184,253
Combo2 : 163,225,151
Combo3 : 241,118,248
Combo4 : 248,131,114

[HitObjects]
47,87,8667,6,0,P|88:58|149:72,1,100,2|2,1:2|1:2,0:0:0:0:
172,96,9267,1,0,0:0:0:0:
172,96,9467,2,0,P|220:100|260:72,1,100,2|2,1:2|1:2,0:0:0:0:
359,85,10267,2,0,P|382:66|419:57,2,50,0|2|2,1:0|0:0|1:2,0:0:0:0:
341,131,10867,2,0,L|352:252,1,100,2|2,0:0|0:0,0:0:0:0:
392,328,11667,1,2,0:0:0:0:
392,328,11867,6,0,P|346:339|294:303,1,100,2|0,1:2|1:0,0:0:0:0:
236,236,12667,2,0,P|193:211|145:222,1,100,0|0,1:0|1:0,0:0:0:0:
57,269,13467,1,4,1:2:0:0:
57,269,13667,2,0,L|52:206,1,50,8|0,0:0|1:0,0:0:0:0:
25,176,14067,2,0,L|30:113,1,50,8|0,0:0|1:0,0:0:0:0:
63,90,14467,2,0,L|70:26,2,50,8|8|8,0:0|1:2|0:0,0:0:0:0:
102,120,15067,6,0,P|153:130|195:94,1,100,6|8,1:2|0:0,0:0:0:0:
215,62,15667,1,2,0:0:0:0:
215,62,15867,2,0,P|255:34|302:45,1,100,0|8,1:0|0:0,0:0:0:0:
391,90,16667,2,0,P|423:77|452:74,2,50,0|2|8,1:2|0:0|0:0,0:0:0:0:
363,131,17267,2,0,L|374:244,1,100,2|2,0:0|0:0,0:0:0:0:
295,293,18067,1,2,0:0:0:0:
295,293,18267,6,0,L|281:189,1,100,0|8,1:0|0:0,0:0:0:0:
217,116,19067,2,0,P|156:112|114:152,1,100,0|8,1:0|0:0,0:0:0:0:
99,175,19667,1,2,0:0:0:0:
99,175,19867,2,0,L|85:274,1,100,0|8,1:0|0:0,0:0:0:0:
83,374,20667,2,0,P|60:366|23:361,2,50,8|8|8,0:0|0:0|3:0,0:0:0:0:
171,326,21467,6,0,P|229:313|264:279,1,100,6|8,1:2|0:0,0:0:0:0:
278,240,22067,1,2,0:0:0:0:
278,240,22267,2,0,L|268:125,1,100,0|8,1:0|0:0,0:0:0:0:
277,40,23067,2,0,P|247:37|219:49,2,50,0|2|8,1:0|0:0|0:0,0:0:0:0:
322,61,23667,2,0,L|441:44,1,100,2|2,0:0|0:0,0:0:0:0:
497,111,24467,1,8,0:0:0:0:
497,111,24667,6,0,P|511:167|481:213,1,100,6|8,1:2|0:0,0:0:0:0:
450,229,25267,2,0,B|376:213|382:278|307:258,1,150,6|4,1:2|3:0,0:0:0:0:
226,315,26267,2,0,L|235:389,2,50,6|8|4,1:2|3:0|3:0,0:0:0:0:
194,275,26867,2,0,L|206:148,1,100,6|8,1:2|0:0,0:0:0:0:
228,132,27467,1,8,0:0:0:0:
172,49,27867,5,4,0:0:0:0:
419,13,28867,1,0,1:0:0:0:
419,13,29067,1,8,0:0:0:0:
483,89,29467,2,0,P|494:130|470:187,1,100,6|8,0:0|0:0,0:0:0:0:
427,201,30067,2,0,L|317:192,1,100,2|0,0:0|1:0,0:0:0:0:
278,188,30667,1,8,0:0:0:0:
188,233,31067,6,0,L|196:310,2,50,0|2|8,1:0|0:0|0:0,0:0:0:0:
158,197,31667,1,2,0:0:0:0:
158,197,31867,2,0,L|174:87,1,100,0|8,1:0|0:0,0:0:0:0:
153,0,32667,1,0,1:0:0:0:
153,0,32867,2,0,L|78:10,1,50,2|8,0:0|0:0,0:0:0:0:
57,25,33267,2,0,L|39:142,1,100,2|0,0:0|1:0,0:0:0:0:
33,173,33867,1,8,0:0:0:0:
90,255,34267,6,0,P|138:277|198:254,1,100,0|8,1:0|0:0,0:0:0:0:
242,186,35067,2,0,L|237:115,2,50,0|0|8,1:0|1:0|0:0,0:0:0:0:
332,229,35867,2,0,L|320:343,1,100,0|8,1:0|0:0,0:0:0:0:
230,369,36667,2,0,P|198:371|173:378,2,50,0|0|8,1:0|1:0|0:0,0:0:0:0:
321,328,37467,6,0,L|435:340,1,100,0|8,1:0|0:0,0:0:0:0:
458,305,38067,1,2,0:0:0:0:
458,305,38267,2,0,L|464:243,1,50,0|0,1:0|1:0,0:0:0:0:
490,213,38667,2,0,L|496:151,2,50,8|0|2,0:0|1:0|0:0,0:0:0:0:
112,81,40667,6,0,P|104:110|156:174,1,100,6|8,1:2|0:0,0:0:0:0:
234,191,41467,2,0,L|297:181,2,50,0|0|8,1:0|1:0|0:0,0:0:0:0:
205,232,42067,1,2,0:0:0:0:
205,232,42267,2,0,L|195:338,1,100,0|8,1:0|0:0,0:0:0:0:
295,328,43067,2,0,L|300:259,2,50,0|0|8,1:0|1:0|0:0,0:0:0:0:
338,353,43667,1,2,0:0:0:0:
338,353,43867,6,0,P|380:333|440:343,1,100,0|8,1:0|0:0,0:0:0:0:
499,265,44667,2,0,L|504:200,1,50,0|0,1:0|1:0,0:0:0:0:
506,165,45067,1,8,0:0:0:0:
447,83,45467,1,0,1:0:0:0:
447,83,45667,2,0,L|369:93,1,50,2|8,0:0|0:0,0:0:0:0:
355,116,46067,2,0,L|227:101,1,100,2|0,0:0|1:0,0:0:0:0:
214,75,46667,1,8,0:0:0:0:
143,145,47067,6,0,P|134:193|155:238,1,100,0|8,1:0|0:0,0:0:0:0:
232,302,47867,2,0,L|301:294,1,50,0|0,1:0|1:0,0:0:0:0:
322,267,48267,2,0,L|389:259,1,50,8|2,0:0|0:0,0:0:0:0:
415,284,48667,2,0,L|427:157,1,100,0|8,1:0|0:0,0:0:0:0:
463,92,49467,2,0,P|492:99|525:99,2,50,0|8|8,1:0|0:0|3:0,0:0:0:0:
419,67,50067,1,4,3:0:0:0:
419,67,50267,6,0,L|300:76,1,100,6|8,1:2|0:0,0:0:0:0:
222,50,51067,2,0,P|211:78|211:102,1,50,0|0,1:0|1:0,0:0:0:0:
190,143,51467,2,0,P|204:169|222:184,1,50,8|0,0:0|1:0,0:0:0:0:
266,198,51867,1,0,1:0:0:0:
365,189,52267,1,8,0:0:0:0:
463,172,52667,2,0,L|456:288,1,100,0|8,1:0|0:0,0:0:0:0:
410,360,53467,6,0,P|373:353|344:349,1,50,6|0,1:2|1:0,0:0:0:0:
317,325,53867,2,0,P|292:328|267:333,1,50,8|0,0:0|1:0,0:0:0:0:
223,357,54267,2,0,L|231:248,1,100,14|8,0:0|0:0,0:0:0:0:
156,189,55067,5,14,1:2:0:0:
469,139,56667,6,0,L|477:89,2,50,6|0|8,0:0|1:0|0:0,0:0:0:0:
445,184,57267,1,2,1:2:0:0:
445,184,57467,2,0,P|383:212|338:183,1,100,0|8,1:0|0:0,0:0:0:0:
283,131,58267,2,0,L|291:73,1,50,0|0,1:0|1:0,0:0:0:0:
261,40,58667,2,0,P|208:18|163:43,1,100,8|0,0:0|1:0,0:0:0:0:
149,80,59267,1,0,1:0:0:0:
149,80,59467,1,8,0:0:0:0:
193,169,59867,6,0,L|182:290,1,100,0|8,1:0|0:0,0:0:0:0:
160,312,60467,1,2,0:0:0:0:
160,312,60667,2,0,P|216:345|261:327,1,100,0|8,1:0|0:0,0:0:0:0:
346,337,61467,2,0,L|335:256,1,50,0|0,1:0|1:0,0:0:0:0:
313,244,61867,2,0,L|324:163,1,50,8|2,0:0|0:0,0:0:0:0:
357,162,62267,1,0,1:0:0:0:
429,92,62667,1,8,0:0:0:0:
351,28,63067,6,0,P|337:53|334:74,2,50,6|0|8,1:2|1:0|0:0,0:0:0:0:
306,19,63667,1,2,1:2:0:0:
306,19,63867,2,0,L|206:11,1,100,0|8,1:0|0:0,0:0:0:0:
146,91,64667,2,0,L|268:102,1,100,0|8,1:0|0:0,0:0:0:0:
267,197,65467,2,0,L|321:203,2,50,0|0|8,1:0|1:0|0:0,0:0:0:0:
171,227,66267,6,0,P|148:270|166:341,1,100,0|8,1:0|0:0,0:0:0:0:
186,363,66867,1,2,0:0:0:0:
186,363,67067,2,0,L|292:353,1,100,0|8,1:0|0:0,0:0:0:0:
342,269,67867,2,0,L|331:201,1,50,0|0,1:0|1:0,0:0:0:0:
349,171,68267,2,0,L|341:121,1,50,8|8,0:0|0:0,0:0:0:0:
300,92,68667,2,0,L|193:105,1,100,8|8,1:2|0:0,0:0:0:0:
123,167,69467,6,0,P|97:118|107:60,1,100,6|8,1:2|0:0,0:0:0:0:
121,31,70067,1,2,1:2:0:0:
121,31,70267,2,0,L|237:18,1,100,0|8,1:0|0:0,0:0:0:0:
294,86,71067,2,0,P|320:77|341:72,2,50,0|0|8,1:0|1:0|0:0,0:0:0:0:
252,176,71867,2,0,L|264:295,1,100,0|8,1:0|0:0,0:0:0:0:
354,313,72667,6,0,L|426:299,1,50,0|0,1:0|1:0,0:0:0:0:
449,322,73067,1,8,0:0:0:0:
449,322,73267,2,0,L|456:193,1,100,2|0,0:0|1:0,0:0:0:0:
428,178,73867,1,8,0:0:0:0:
365,99,74267,2,0,L|373:16,2,75,2|2|2,1:2|0:0|0:0,0:0:0:0:
327,132,75067,2,0,P|276:150|228:127,1,100,0|8,1:0|0:0,0:0:0:0:
162,65,75867,6,0,L|103:73,1,50,12|0,1:2|1:0,0:0:0:0:
74,104,76267,2,0,L|24:110,1,50,10|0,0:0|1:0,0:0:0:0:
6,157,76667,2,0,L|24:284,1,100,10|10,0:0|0:0,0:0:0:0:
55,290,77267,1,0,1:0:0:0:
55,290,77467,1,14,0:0:0:0:
140,237,77867,1,14,0:0:0:0:
212,306,78267,1,2,0:0:0:0:
410,76,91867,6,0,L|339:88,1,50,4|2,1:2|0:0,0:0:0:0:
325,119,92267,2,0,L|275:127,1,50,0|2,1:0|0:0,0:0:0:0:
231,104,92667,2,0,L|240:28,2,50,0|2|0,1:0|0:0|1:0,0:0:0:0:
158,173,93467,2,0,L|170:281,1,100,0|0,1:0|1:0,0:0:0:0:
177,321,94067,1,2,0:0:0:0:
177,321,94267,2,0,P|229:336|269:306,1,100,0|8,1:0|0:0,0:0:0:0:
364,303,95067,6,0,L|373:371,2,50,4|2|0,1:2|0:0|1:0,0:0:0:0:
382,256,95667,1,2,0:0:0:0:
382,256,95867,2,0,L|371:190,1,50,0|2,1:0|0:0,0:0:0:0:
365,157,96267,1,0,1:0:0:0:
407,68,96667,1,0,1:0:0:0:
407,68,96867,2,0,L|291:62,1,100,2|2,0:0|0:0,0:0:0:0:
215,102,97667,2,0,L|92:93,1,100,2|8,0:0|0:0,0:0:0:0:
65,93,98267,6,0,P|39:145|60:194,1,100,0|0,1:0|1:0,0:0:0:0:
97,270,99067,2,0,L|47:275,2,50,0|2|0,1:0|0:0|1:0,0:0:0:0:
140,294,99667,1,2,0:0:0:0:
140,294,99867,2,0,L|240:285,1,100,0|0,1:0|1:0,0:0:0:0:
338,302,100667,2,0,P|331:333|328:364,2,50,0|8|4,1:0|3:0|3:0,0:0:0:0:
382,279,101267,1,4,3:0:0:0:
382,279,101467,6,0,L|374:159,1,100,6|8,1:2|0:0,0:0:0:0:
408,84,102267,2,0,P|383:93|354:97,1,50,0|0,1:0|1:0,0:0:0:0:
314,74,102667,1,8,0:0:0:0:
224,28,103067,2,0,P|165:13|123:33,1,100,0|8,1:2|0:0,0:0:0:0:
59,98,103867,1,0,1:0:0:0:
117,178,104267,1,8,0:0:0:0:
34,234,104667,6,0,L|42:312,1,50,4|0,1:2|1:0,0:0:0:0:
73,320,105067,2,0,L|151:312,1,50,8|0,0:0|1:0,0:0:0:0:
168,334,105467,2,0,L|288:319,1,100,12|12,0:0|0:0,0:0:0:0:
339,251,106267,1,2,0:0:0:0:
95,75,107467,5,0,1:0:0:0:
128,169,107867,6,0,P|100:175|78:172,2,50,6|0|8,0:0|1:0|0:0,0:0:0:0:
172,145,108467,1,2,1:2:0:0:
172,145,108667,2,0,P|221:128|281:147,1,100,0|8,1:0|0:0,0:0:0:0:
353,188,109467,2,0,L|449:176,1,50,0|2,1:0|0:0,0:0:0:0:
447,159,109867,2,0,L|459:48,1,100,8|0,0:0|1:0,0:0:0:0:
371,10,110667,1,8,0:0:0:0:
287,65,111067,6,0,P|230:87|167:54,1,100,0|8,1:0|0:0,0:0:0:0:
151,59,111667,1,2,0:0:0:0:
151,59,111867,2,0,L|161:173,1,100,0|8,1:0|0:0,0:0:0:0:
95,235,112667,2,0,L|18:226,2,50,0|0|8,1:0|1:0|0:0,0:0:0:0:
136,266,113267,1,2,0:0:0:0:
136,266,113467,2,0,L|208:253,1,50,0|0,1:0|1:0,0:0:0:0:
234,246,113867,1,8,0:0:0:0:
322,293,114267,6,0,L|325:243,2,50,6|0|8,1:2|1:0|0:0,0:0:0:0:
301,340,114867,1,2,1:2:0:0:
301,340,115067,2,0,L|430:325,1,100,0|8,1:0|0:0,0:0:0:0:
437,294,115667,1,2,0:0:0:0:
437,294,115867,2,0,L|446:219,1,50,0|0,1:0|1:0,0:0:0:0:
452,195,116267,1,8,0:0:0:0:
468,93,116667,2,0,P|408:77|355:105,1,100,0|8,1:0|0:0,0:0:0:0:
292,146,117467,6,0,P|244:158|197:141,1,100,0|8,1:0|0:0,0:0:0:0:
161,106,118067,1,2,0:0:0:0:
161,106,118267,2,0,P|114:89|66:101,1,100,0|8,1:0|0:0,0:0:0:0:
19,190,119067,2,0,L|31:287,1,50,0|0,1:0|1:0,0:0:0:0:
58,276,119467,2,0,L|64:325,1,50,8|8,0:0|0:0,0:0:0:0:
105,353,119867,2,0,L|224:339,1,100,0|4,1:0|1:3,0:0:0:0:
300,367,120667,6,0,P|306:310|276:267,1,100,6|8,1:2|0:0,0:0:0:0:
242,248,121267,1,2,1:2:0:0:
242,248,121467,2,0,L|251:170,2,50,0|0|8,1:0|1:0|0:0,0:0:0:0:
162,186,122267,2,0,L|172:98,1,50,0|0,1:0|1:0,0:0:0:0:
187,90,122667,2,0,P|239:76|286:94,1,100,8|0,0:0|1:0,0:0:0:0:
365,144,123467,2,0,L|426:134,1,50,8|0,0:0|0:0,0:0:0:0:
459,157,123867,6,0,L|470:220,1,50,0|0,1:0|1:0,0:0:0:0:
476,255,124267,1,8,0:0:0:0:
476,255,124467,2,0,P|436:304|371:295,1,100,2|0,0:0|1:0,0:0:0:0:
355,291,125067,1,8,0:0:0:0:
270,344,125467,2,0,L|176:360,2,75,2|2|2,1:2|0:0|1:2,0:0:0:0:
253,296,126267,2,0,L|266:176,1,100,0|8,1:0|0:0,0:0:0:0:
275,97,127067,6,0,P|236:101|199:123,1,50,14|0,0:0|1:0,0:0:0:0:
176,96,127467,2,0,P|148:124|134:164,1,50,10|0,0:0|1:0,0:0:0:0:
101,160,127867,2,0,L|111:274,1,100,10|10,0:0|0:0,0:0:0:0:
97,311,128467,1,0,1:0:0:0:
97,311,128667,1,14,0:0:0:0:
187,352,129067,1,14,0:0:0:0:
257,280,129467,1,2,0:0:0:0:
445,360,130267,5,6,0:0:0:0:
445,360,130467,2,0,L|455:241,1,100,8|0,0:0|1:0,0:0:0:0:
455,210,131067,2,0,L|320:197,1,100,8|2,0:0|0:0,0:0:0:0:
320,173,131667,1,8,0:0:0:0:
320,173,131867,2,0,L|239:164,2,50,6|8|0,0:0|0:0|1:0,0:0:0:0:
308,272,132667,2,0,P|277:309|191:308,1,100,8|0,0:0|1:0,0:0:0:0:
186,302,133267,1,8,0:0:0:0:
186,302,133467,6,0,L|60:318,1,100,4|2,1:2|0:0,0:0:0:0:
19,240,134267,2,0,L|3:114,1,100,12|2,0:0|0:0,0:0:0:0:
14,94,134867,1,8,0:0:0:0:
14,94,135067,2,0,L|2:23,2,50,6|8|0,0:0|0:0|1:0,0:0:0:0:
94,153,135867,2,0,L|154:142,1,50,6|8,0:0|0:0,0:0:0:0:
191,155,136267,2,0,L|240:146,1,50,0|8,1:0|0:0,0:0:0:0:
273,108,136667,6,0,L|386:128,1,100,4|8,1:2|0:0,0:0:0:0:
411,163,137267,1,2,0:0:0:0:
411,163,137467,2,0,L|475:174,2,50,0|0|8,1:0|1:0|0:0,0:0:0:0:
381,258,138267,2,0,P|354:313|307:327,1,100,0|8,1:0|0:0,0:0:0:0:
278,350,138867,1,2,0:0:0:0:
278,350,139067,2,0,L|207:343,2,50,0|0|8,1:0|1:0|0:0,0:0:0:0:
248,254,139867,6,0,L|239:188,1,50,14|0,0:0|1:0,0:0:0:0:
260,157,140267,2,0,L|253:107,1,50,10|0,0:0|1:0,0:0:0:0:
222,67,140667,2,0,P|274:76|315:29,1,100,10|10,0:0|0:0,0:0:0:0:
333,4,141267,1,4,3:0:0:0:
333,4,141467,1,6,0:0:0:0:
256,192,141667,12,2,144667,0:0:0:0:
72,60,157467,6,0,L|83:177,1,100,0|0,1:0|1:0,0:0:0:0:
61,257,158267,2,0,P|110:258|150:230,1,100,0|0,1:0|1:0,0:0:0:0:
204,146,159067,1,0,1:0:0:0:
282,207,159467,1,0,1:0:0:0:
349,133,159867,2,0,L|355:76,1,50,0|2,1:0|0:0,0:0:0:0:
370,36,160267,2,0,P|441:38|461:75,1,100,0|0,1:0|1:0,0:0:0:0:
503,144,161067,1,0,1:0:0:0:
423,204,161467,2,0,L|436:328,1,100,0|0,1:0|1:0,0:0:0:0:
338,335,162267,6,0,B|319:302|319:302|329:253,2,75,2|2|2,1:2|0:0|0:0,0:0:0:0:
302,370,163067,2,0,L|195:356,1,100,0|0,1:0|1:0,0:0:0:0:
102,355,163867,1,0,1:0:0:0:
78,257,164267,1,0,1:0:0:0:
158,197,164667,2,0,P|189:144|168:96,1,100,0|0,1:0|1:0,0:0:0:0:
149,72,165267,1,2,0:0:0:0:
149,72,165467,5,6,0:0:0:0:
238,26,165867,1,6,0:0:0:0:
330,65,166267,2,0,L|343:180,1,100,8|4,0:0|3:2,0:0:0:0:
478,320,167467,6,0,L|418:309,1,50,6|2,0:0|0:0,0:0:0:0:
381,293,167867,2,0,P|319:306|271:339,1,100,0|8,1:0|0:0,0:0:0:0:
245,351,168467,1,2,0:0:0:0:
245,351,168667,2,0,L|158:326,1,50,0|0,1:0|1:0,0:0:0:0:
152,314,169067,1,8,0:0:0:0:
105,225,169467,2,0,P|79:234|39:244,2,50,0|0|8,1:0|1:0|0:0,0:0:0:0:
148,198,170067,1,2,0:0:0:0:
148,198,170267,6,0,L|162:77,1,100,0|8,1:0|0:0,0:0:0:0:
193,61,170867,1,2,1:2:0:0:
193,61,171067,2,0,P|251:47|300:78,1,100,0|8,1:0|0:0,0:0:0:0:
324,155,171867,2,0,P|370:171|416:156,1,100,0|8,1:0|0:0,0:0:0:0:
448,118,172467,1,2,1:2:0:0:
448,118,172667,1,0,1:0:0:0:
491,208,173067,2,0,L|484:265,1,50,8|8,0:0|0:0,0:0:0:0:
487,307,173467,6,0,L|421:313,1,50,6|0,1:2|1:0,0:0:0:0:
402,347,173867,2,0,L|352:351,1,50,8|2,0:0|1:2,0:0:0:0:
306,331,174267,1,0,1:0:0:0:
214,371,174667,2,0,P|207:336|211:305,1,50,8|8,0:0|0:0,0:0:0:0:
231,278,175067,1,0,1:0:0:0:
179,192,175467,1,8,0:0:0:0:
236,110,175867,2,0,L|301:118,2,50,0|0|8,1:0|1:0|0:0,0:0:0:0:
160,44,176667,6,0,L|44:68,1,100,0|8,1:0|0:0,0:0:0:0:
28,101,177267,1,2,0:0:0:0:
28,101,177467,2,0,P|14:159|47:207,1,100,0|10,1:0|0:0,0:0:0:0:
116,245,178267,1,4,1:2:0:0:
116,245,178467,2,0,L|202:227,1,50,0|8,1:0|0:0,0:0:0:0:
213,247,178867,2,0,L|271:232,1,50,8|4,0:0|1:2,0:0:0:0:
310,241,179267,2,0,P|322:171|276:122,1,100,8|8,1:2|0:0,0:0:0:0:
269,118,179867,6,0,L|275:61,1,50,6|0,1:2|1:0,0:0:0:0:
277,18,180267,2,0,P|215:8|158:55,1,100,8|0,0:0|1:0,0:0:0:0:
92,65,181067,2,0,L|98:130,1,50,8|2,0:0|0:0,0:0:0:0:
80,162,181467,2,0,L|15:171,2,50,0|0|8,1:0|1:0|0:0,0:0:0:0:
119,192,182067,1,2,0:0:0:0:
119,192,182267,2,0,L|237:179,1,100,0|8,1:0|0:0,0:0:0:0:
301,125,183067,6,0,P|331:133|392:135,1,50,0|0,1:0|1:0,0:0:0:0:
393,111,183467,1,8,0:0:0:0:
393,111,183667,2,0,L|404:219,1,100,2|0,0:0|1:0,0:0:0:0:
375,252,184267,1,8,0:0:0:0:
416,342,184667,2,0,L|490:333,2,75,2|2|2,1:2|0:0|0:0,0:0:0:0:
376,373,185467,2,0,L|265:357,1,100,0|8,1:0|3:0,0:0:0:0:
198,296,186267,5,14,0:0:0:0:
104,331,186667,2,0,P|98:294|101:261,1,50,10|0,0:0|1:0,0:0:0:0:
123,237,187067,2,0,P|129:200|126:167,1,50,14|0,0:0|1:0,0:0:0:0:
92,152,187467,2,0,L|81:69,1,50,10|8,0:0|0:0,0:0:0:0:
113,60,187867,1,14,1:2:0:0:
204,100,188267,1,14,1:2:0:0:
289,47,188667,1,2,0:0:0:0:
