osu file format v14

[General]
AudioFilename: audio.mp3
AudioLeadIn: 0
PreviewTime: 56467
Countdown: 0
SampleSet: Soft
StackLeniency: 0.7
Mode: 0
LetterboxInBreaks: 0
EpilepsyWarning: 1
WidescreenStoryboard: 1

[Editor]
Bookmarks: 6850,90050,106050,128450,142850,155650,165250,187650
DistanceSpacing: 0.7
BeatDivisor: 4
GridSize: 8
TimelineZoom: 1.4

[Metadata]
Title:Sentimental na Aiboshin
TitleUnicode:センチメンタルな愛慕心
Artist:Kano
ArtistUnicode:鹿乃
Creator:Petal
Version:Namki's Insane
Source:
Tags:Natsume Chiaki GUMI Japanese cover female namki garden utaite vocaloid matha affirmation neoskylove vick pop -_Matha_- なつめ千秋
BeatmapID:2293249
BeatmapSetID:1097489

[Difficulty]
HPDrainRate:5
CircleSize:4.3
OverallDifficulty:7.7
ApproachRate:9
SliderMultiplier:2.05
SliderTickRate:1

[Events]
//Background and Video events
0,0,"78724156_p0.jpg",0,0
//Break Periods
2,79067,89667
2,130467,143067
//Storyboard Layer 0 (Background)
//Storyboard Layer 1 (Fail)
//Storyboard Layer 2 (Pass)
//Storyboard Layer 3 (Foreground)
//Storyboard Layer 4 (Overlay)
//Storyboard Sound Samples

[TimingPoints]
2267,400,4,2,1,40,1,0
8667,-111.111111111111,4,2,1,55,0,0
15067,-90.9090909090908,4,2,1,65,0,0
27867,-125,4,2,1,65,0,0
28867,-125,4,2,1,45,0,0
29467,-111.111111111111,4,2,1,65,0,0
39067,-111.111111111111,4,2,1,25,0,0
39667,-111.111111111111,4,2,1,30,0,0
39867,-111.111111111111,4,2,1,35,0,0
40067,-111.111111111111,4,2,1,40,0,0
40267,-111.111111111111,4,2,1,45,0,0
40667,-111.111111111111,4,2,1,65,0,0
55067,-200,4,2,1,65,0,0
55667,-200,4,2,1,55,0,0
55867,-133.333333333333,4,2,1,55,0,0
56667,-83.3333333333333,4,2,1,75,0,0
78267,-142.857142857143,4,2,1,30,0,0
78967,-142.857142857143,4,2,1,5,0,0
79067,-142.857142857143,4,2,1,75,0,0
91867,-111.111111111111,4,2,1,55,0,0
101467,-111.111111111111,4,2,1,65,0,0
106267,-142.857142857143,4,2,1,45,0,0
107067,-200,4,2,1,35,0,0
107467,-200,4,2,1,65,0,0
107767,-200,4,2,1,5,0,0
107867,-83.3333333333333,4,2,1,75,0,0
130067,-83.3333333333333,4,2,1,55,0,0
130267,-83.3333333333333,4,2,1,65,0,0
143667,-83.3333333333333,4,2,1,35,0,0
144667,-166.666666666667,4,2,1,35,0,0
146267,-166.666666666667,4,2,1,35,0,0
147867,-166.666666666667,4,2,1,35,0,0
151067,-166.666666666667,4,2,1,45,0,0
157467,-125,4,2,1,55,0,0
165467,-125,4,2,1,65,0,0
167067,-200,4,2,1,65,0,0
167467,-83.3333333333333,4,2,1,75,0,0
188667,-83.3333333333333,4,2,1,35,0,0
189067,-250,4,2,1,35,0,0
189367,-250,4,2,1,5,0,0
189467,-250,4,2,1,20,0,0
194267,-250,4,2,1,5,0,0

[Colours]
Combo1 : 157,184,253
Combo2 : 163,225,151
Combo3 : 241,118,248
Combo4 : 248,131,114

[HitObjects]
125,195,8667,6,0,B|224:179|196:263|308:245,1,184.499994369507,2|2,1:2|1:2,0:0:0:0:
206,315,9267,1,0,0:0:0:0:
373,219,9467,2,0,P|347:180|378:113,2,92.2499971847535,2|0|2,1:2|0:0|1:2,0:0:0:0:
418,166,10067,5,2,0:0:0:0:
431,166,10167,1,2,0:0:0:0:
444,166,10267,1,0,1:0:0:0:
274,181,10467,1,2,0:0:0:0:
463,168,10667,5,2,1:2:0:0:
260,181,10867,1,2,0:0:0:0:
260,181,11267,1,2,0:0:0:0:
260,181,11667,1,2,0:0:0:0:
335,272,11867,6,0,P|337:229|347:167,1,92.2499971847535,2|0,1:2|0:0,0:0:0:0:
269,328,12267,2,0,P|228:341|170:366,1,92.2499971847535,0|2,1:0|0:0,0:0:0:0:
347,269,12667,6,0,P|353:222|370:155,1,92.2499971847535,0|2,1:0|0:0,0:0:0:0:
271,346,13067,2,0,P|224:356|159:379,1,92.2499971847535,0|0,1:0|0:0,0:0:0:0:
212,239,13467,5,4,1:2:0:0:
110,349,13667,1,8,0:0:0:0:
103,336,13767,1,8,0:0:0:0:
103,322,13867,1,0,1:0:0:0:
205,212,14067,1,8,0:0:0:0:
212,225,14167,1,8,0:0:0:0:
212,239,14267,1,0,1:0:0:0:
97,236,14467,5,8,0:0:0:0:
240,131,14667,1,8,1:2:0:0:
275,152,14767,1,8,0:0:0:0:
315,161,14867,1,8,0:0:0:0:
356,158,14967,1,8,0:0:0:0:
396,137,15067,6,0,B|378:221|378:221|400:271|400:271|378:369,1,225.500006881714,6|8,1:2|0:0,0:0:0:0:
462,217,15667,1,2,0:0:0:0:
315,273,15867,2,0,L|186:259,2,112.750003440857,0|2|8,1:0|0:0|0:0,0:0:0:0:
245,344,16467,1,2,0:0:0:0:
260,164,16667,5,0,1:2:0:0:
245,357,16867,1,2,0:0:0:0:
260,152,17067,5,8,0:0:0:0:
237,357,17267,2,0,B|218:263|218:263|189:237|189:237|173:130,1,225.500006881714,2|2,0:0|0:0,0:0:0:0:
23,136,17867,1,8,0:0:0:0:
78,293,18067,1,0,1:0:0:0:
78,293,18167,1,0,1:0:0:0:
78,293,18267,6,0,P|139:290|195:289,1,112.750003440857,0|2,1:0|0:0,0:0:0:0:
294,139,18667,2,0,P|275:197|259:250,1,112.750003440857,8|2,0:0|0:0,0:0:0:0:
77,307,19067,6,0,P|144:309|205:313,1,112.750003440857,0|2,1:0|0:0,0:0:0:0:
312,148,19467,2,0,P|286:210|263:267,1,112.750003440857,8|2,0:0|0:0,0:0:0:0:
202,169,19867,5,0,1:0:0:0:
303,338,20067,2,0,B|341:310|341:310|433:333,2,112.750003440857,2|8|10,0:0|0:0|0:0,0:0:0:0:
202,169,20667,5,8,0:0:0:0:
169,179,20767,1,8,0:0:0:0:
136,180,20867,1,8,0:0:0:0:
103,173,20967,1,8,0:0:0:0:
83,130,21067,5,8,3:0:0:0:
123,111,21167,1,8,3:0:0:0:
168,110,21267,1,8,3:0:0:0:
209,128,21367,1,8,3:0:0:0:
254,94,21467,6,0,B|233:181|233:181|257:228|257:228|240:320,1,225.500006881714,6|8,1:2|0:0,0:0:0:0:
169,233,22067,1,2,0:0:0:0:
318,173,22267,2,0,L|444:197,2,112.750003440857,0|2|8,1:0|0:0|0:0,0:0:0:0:
358,262,22867,1,2,0:0:0:0:
391,72,23067,5,0,1:0:0:0:
354,272,23267,1,2,0:0:0:0:
396,61,23467,5,8,0:0:0:0:
349,289,23667,2,0,P|300:317|155:245,1,225.500006881714,2|2,0:0|0:0,0:0:0:0:
24,129,24267,5,8,0:0:0:0:
57,132,24367,1,8,0:0:0:0:
91,135,24467,1,8,0:0:0:0:
124,139,24567,1,8,0:0:0:0:
158,142,24667,1,6,1:2:0:0:
218,53,24867,5,8,0:0:0:0:
229,65,24967,1,8,0:0:0:0:
245,70,25067,1,8,0:0:0:0:
317,23,25267,6,0,B|343:64|343:64|325:144,1,112.750003440857,6|0,1:2|0:0,0:0:0:0:
417,249,25667,5,8,3:0:0:0:
400,245,25767,1,8,3:0:0:0:
366,222,25867,5,4,3:0:0:0:
326,224,25967,1,8,0:0:0:0:
287,226,26067,1,8,0:0:0:0:
247,228,26167,1,8,0:0:0:0:
208,230,26267,1,6,1:2:0:0:
159,306,26467,5,8,3:0:0:0:
143,312,26567,1,8,3:0:0:0:
126,311,26667,1,4,3:0:0:0:
17,231,26867,6,0,B|50:202|50:202|139:225,1,112.750003440857,6|0,1:2|0:0,0:0:0:0:
253,187,27267,5,8,0:0:0:0:
256,170,27367,1,8,0:0:0:0:
258,153,27467,1,8,0:0:0:0:
153,97,27667,5,8,0:0:0:0:
151,114,27767,1,8,0:0:0:0:
148,130,27867,2,0,L|43:122,1,82,4|0,0:0|0:0,0:0:0:0:
258,153,28267,2,0,L|266:234,1,82,2|0,0:0|0:0,0:0:0:0:
251,72,28667,1,2,0:0:0:0:
373,181,28867,6,0,L|327:175,1,41,0|0,1:0|0:0,0:0:0:0:
251,72,29067,2,0,L|336:83,1,82,8|0,0:0|0:0,0:0:0:0:
470,263,29467,6,0,P|430:303|275:302,1,184.499994369507,6|8,0:0|0:0,0:0:0:0:
141,231,30067,1,2,0:0:0:0:
216,188,30267,2,0,L|226:297,1,92.2499971847535,0|0,1:0|1:0,0:0:0:0:
308,222,30667,1,8,0:0:0:0:
133,224,30867,1,2,0:0:0:0:
274,119,31067,6,0,P|320:112|384:135,1,92.2499971847535,0|2,1:0|0:0,0:0:0:0:
156,118,31467,2,0,P|110:111|46:134,1,92.2499971847535,8|2,0:0|0:0,0:0:0:0:
273,104,31767,5,8,0:0:0:0:
273,104,31867,2,0,P|309:74|376:62,1,92.2499971847535,0|0,1:0|1:0,0:0:0:0:
163,104,32267,2,0,P|126:74|59:62,1,92.2499971847535,8|2,0:0|0:0,0:0:0:0:
223,257,32667,5,0,1:0:0:0:
267,191,32867,2,0,B|302:223|302:223|304:290,1,92.2499971847535,2|8,0:0|0:0,0:0:0:0:
145,252,33267,2,0,B|155:205|155:205|212:170,1,92.2499971847535,2|0,0:0|1:0,0:0:0:0:
260,333,33667,2,0,B|214:347|214:347|155:315,1,92.2499971847535,0|8,1:0|0:0,0:0:0:0:
275,185,34067,5,2,0:0:0:0:
275,185,34167,1,8,0:0:0:0:
275,185,34267,2,0,L|374:194,2,92.2499971847535,0|2|8,1:0|0:0|0:0,0:0:0:0:
450,193,34867,1,2,0:0:0:0:
447,174,34967,1,8,0:0:0:0:
444,155,35067,1,0,1:0:0:0:
401,268,35267,1,0,1:0:0:0:
441,135,35467,1,8,0:0:0:0:
510,260,35667,1,2,0:0:0:0:
437,117,35867,6,0,L|338:126,1,92.2499971847535,0|2,1:0|0:0,0:0:0:0:
183,176,36267,2,0,L|282:185,1,92.2499971847535,8|2,0:0|0:0,0:0:0:0:
274,184,36567,1,8,0:0:0:0:
274,184,36667,1,0,1:0:0:0:
199,102,36867,1,0,1:0:0:0:
215,265,37067,1,8,0:0:0:0:
363,190,37267,1,2,0:0:0:0:
120,104,37467,6,0,P|102:153|130:216,1,92.2499971847535,0|0,1:0|0:0,0:0:0:0:
363,190,37867,2,0,P|370:145|353:103,1,92.2499971847535,8|2,0:0|0:0,0:0:0:0:
353,103,38167,1,8,0:0:0:0:
353,103,38267,1,0,1:0:0:0:
472,161,38467,1,0,1:0:0:0:
340,274,38667,1,8,0:0:0:0:
321,272,38767,1,8,0:0:0:0:
302,271,38867,1,0,1:0:0:0:
302,271,39867,6,0,B|235:277|235:277|201:255|201:255|118:264,1,184.499994369507,2|2,0:3|0:3,0:0:0:0:
430,138,40667,6,0,P|450:89|443:45,1,92.2499971847535,6|2,1:2|0:0,0:0:0:0:
282,117,41067,2,0,P|278:71|297:30,1,92.2499971847535,8|2,0:0|0:0,0:0:0:0:
429,156,41367,5,8,0:0:0:0:
429,156,41467,2,0,P|470:123|486:81,1,92.2499971847535,0|0,1:0|1:0,0:0:0:0:
282,136,41867,2,0,P|256:98|251:52,1,92.2499971847535,8|2,0:0|0:0,0:0:0:0:
322,294,42267,5,0,1:0:0:0:
425,281,42467,2,0,L|322:274,1,92.2499971847535,2|8,0:0|0:0,0:0:0:0:
177,354,42867,2,0,L|280:347,1,92.2499971847535,2|0,0:0|1:0,0:0:0:0:
263,236,43267,1,0,1:0:0:0:
151,285,43467,1,8,0:0:0:0:
281,358,43667,1,2,0:0:0:0:
83,320,43867,6,0,P|80:256|113:217,1,92.2499971847535,0|2,1:0|0:0,0:0:0:0:
209,121,44267,2,0,L|192:217,1,92.2499971847535,8|2,0:0|0:0,0:0:0:0:
84,333,44567,5,8,0:0:0:0:
84,333,44667,2,0,P|49:279|58:228,1,92.2499971847535,0|0,1:0|1:0,0:0:0:0:
209,111,45067,2,0,L|242:202,1,92.2499971847535,8|2,0:0|0:0,0:0:0:0:
418,251,45467,5,0,1:0:0:0:
367,312,45667,2,0,P|417:333|458:323,1,92.2499971847535,2|8,0:0|0:0,0:0:0:0:
392,177,46067,2,0,P|348:209|336:250,1,92.2499971847535,2|0,0:0|1:0,0:0:0:0:
497,266,46467,2,0,P|490:212|461:181,1,92.2499971847535,0|8,1:0|0:0,0:0:0:0:
300,317,46867,5,8,0:0:0:0:
300,317,46967,1,8,0:0:0:0:
300,317,47067,2,0,B|302:251|302:251|275:215|275:215|276:134,1,184.499994369507,0|8,1:0|0:0,0:0:0:0:
216,274,47667,1,2,0:0:0:0:
216,274,47767,1,8,0:0:0:0:
216,274,47867,1,0,1:0:0:0:
383,196,48067,1,0,1:0:0:0:
173,163,48267,1,8,0:0:0:0:
400,198,48467,1,2,0:0:0:0:
122,233,48667,6,0,L|23:224,1,92.2499971847535,0|0,1:0|0:0,0:0:0:0:
253,111,49067,2,0,L|344:119,1,92.2499971847535,8|2,0:0|0:0,0:0:0:0:
344,119,49367,1,8,0:0:0:0:
344,119,49467,1,0,1:0:0:0:
204,57,49667,5,8,0:0:0:0:
182,89,49767,1,8,0:0:0:0:
181,128,49867,1,8,3:0:0:0:
196,164,49967,5,8,3:0:0:0:
218,196,50067,1,4,3:0:0:0:
219,235,50167,1,4,3:0:0:0:
196,275,50267,6,0,P|268:264|301:285,1,92.2499971847535,6|2,1:2|0:0,0:0:0:0:
376,206,50667,2,0,P|421:262|419:301,1,92.2499971847535,8|2,0:0|0:0,0:0:0:0:
422,279,50967,1,8,0:0:0:0:
422,279,51067,1,0,1:0:0:0:
448,150,51267,1,0,1:0:0:0:
342,321,51467,1,8,0:0:0:0:
329,99,51667,1,0,1:0:0:0:
338,337,51867,6,0,L|228:335,1,92.2499971847535,0|0,1:0|0:0,0:0:0:0:
96,271,52267,2,0,L|117:378,1,92.2499971847535,8|2,0:0|0:0,0:0:0:0:
225,242,52667,1,0,1:0:0:0:
31,191,52867,1,0,1:0:0:0:
129,365,53067,1,8,0:0:0:0:
187,163,53267,5,8,0:0:0:0:
187,163,53367,1,8,0:0:0:0:
187,163,53467,2,0,P|132:147|91:164,1,92.2499971847535,6|0,1:2|1:0,0:0:0:0:
158,68,53867,5,8,0:0:0:0:
280,142,54067,2,0,P|266:86|231:59,1,92.2499971847535,0|14,1:0|0:0,0:0:0:0:
350,80,54467,5,0,1:0:0:0:
338,223,54667,2,0,P|379:183|385:139,1,92.2499971847535,8|0,0:0|1:0,0:0:0:0:
338,223,55067,6,0,L|222:212,1,102.5,14|0,1:2|0:0,0:0:0:0:
237,214,55867,6,0,L|235:262,1,38.4375014662743,0|0,1:0|0:0,0:0:0:0:
64,218,56067,1,8,0:0:0:0:
71,180,56167,1,8,0:0:0:0:
55,144,56267,5,8,0:0:0:0:
91,156,56367,1,8,0:0:0:0:
129,156,56467,1,8,0:0:0:0:
165,143,56567,1,8,0:0:0:0:
205,114,56667,5,6,0:0:0:0:
137,236,56867,1,0,1:0:0:0:
176,33,57067,2,0,P|237:33|290:106,1,122.999996246338,8|2,0:0|1:2,0:0:0:0:
333,96,57367,1,8,0:0:0:0:
333,96,57467,2,0,P|310:114|298:147,1,61.499998123169,0|8,1:0|0:0,0:0:0:0:
226,193,57667,2,0,P|231:221|252:248,1,61.499998123169,0|0,1:0|0:0,0:0:0:0:
334,290,57867,2,0,P|395:264|462:283,1,122.999996246338,8|2,0:0|0:0,0:0:0:0:
356,192,58267,5,0,1:0:0:0:
392,374,58467,1,0,1:0:0:0:
512,239,58667,1,8,0:0:0:0:
276,336,58867,5,2,0:0:0:0:
276,336,58967,1,8,0:0:0:0:
276,336,59067,2,0,P|279:263|277:206,1,122.999996246338,0|0,1:0|1:0,0:0:0:0:
162,140,59467,1,8,0:0:0:0:
205,281,59667,1,0,0:0:0:0:
332,119,59867,5,0,1:0:0:0:
117,212,60067,1,0,1:0:0:0:
315,44,60267,2,0,P|392:72|412:116,1,122.999996246338,8|2,0:0|0:0,0:0:0:0:
448,124,60567,1,8,0:0:0:0:
448,124,60667,2,0,P|395:187|400:235,1,122.999996246338,0|0,1:0|1:0,0:0:0:0:
488,263,61067,1,8,0:0:0:0:
309,222,61267,1,2,0:0:0:0:
309,222,61367,1,8,0:0:0:0:
309,222,61467,5,0,1:0:0:0:
255,353,61667,1,0,1:0:0:0:
192,186,61867,1,8,0:0:0:0:
260,365,62067,2,0,L|180:360,1,61.499998123169,2|8,0:0|0:0,0:0:0:0:
122,148,62267,2,0,P|172:112|240:126,1,122.999996246338,0|0,1:0|1:0,0:0:0:0:
254,116,62567,1,8,0:0:0:0:
274,146,62667,5,8,0:0:0:0:
320,159,62767,1,8,0:0:0:0:
369,153,62867,1,8,0:0:0:0:
410,128,62967,1,8,0:0:0:0:
452,138,63067,5,6,1:2:0:0:
325,70,63267,1,0,1:0:0:0:
353,262,63467,2,0,L|492:252,1,122.999996246338,8|2,0:0|1:2,0:0:0:0:
475,253,63767,1,8,0:0:0:0:
475,253,63867,1,0,1:0:0:0:
398,348,64067,1,0,1:0:0:0:
206,257,64267,2,0,P|229:185|280:157,1,122.999996246338,8|2,0:0|0:0,0:0:0:0:
132,164,64667,5,0,1:0:0:0:
307,240,64867,1,0,1:0:0:0:
151,80,65067,2,0,P|91:88|50:133,1,122.999996246338,8|2,0:0|0:0,0:0:0:0:
7,158,65367,1,8,0:0:0:0:
7,158,65467,2,0,P|20:201|3:243,1,61.499998123169,0|8,1:0|0:0,0:0:0:0:
87,269,65667,2,0,P|56:302|11:309,1,61.499998123169,0|0,1:0|0:0,0:0:0:0:
179,344,65867,2,0,L|184:215,1,122.999996246338,8|0,0:0|0:0,0:0:0:0:
304,115,66267,6,0,P|261:158|116:125,1,184.499994369507,0|0,1:0|0:0,0:0:0:0:
133,135,66667,1,8,0:0:0:0:
252,46,66867,1,2,0:0:0:0:
310,239,67067,1,0,1:0:0:0:
310,239,67167,1,8,0:0:0:0:
310,239,67267,1,0,1:0:0:0:
243,32,67467,1,8,0:0:0:0:
373,135,67667,2,0,L|451:125,1,61.499998123169,2|8,0:0|0:0,0:0:0:0:
325,321,67867,6,0,P|260:303|235:247,2,122.999996246338,0|0|8,1:0|1:0|0:0,0:0:0:0:
111,244,68467,5,8,0:0:0:0:
113,219,68567,1,8,0:0:0:0:
136,184,68667,5,8,1:2:0:0:
94,191,68767,1,8,0:0:0:0:
52,180,68867,1,0,1:0:0:0:
20,152,68967,1,8,0:0:0:0:
26,100,69067,5,8,0:0:0:0:
81,75,69167,1,8,3:0:0:0:
138,92,69267,1,4,3:0:0:0:
171,143,69367,1,4,3:0:0:0:
218,132,69467,5,6,1:2:0:0:
89,135,69667,1,0,1:0:0:0:
272,82,69867,2,0,L|279:220,1,122.999996246338,8|2,0:0|1:2,0:0:0:0:
278,204,70167,1,8,0:0:0:0:
278,204,70267,1,0,1:0:0:0:
355,94,70467,1,0,1:0:0:0:
170,173,70667,1,8,0:0:0:0:
368,282,70867,1,2,0:0:0:0:
177,152,71067,6,0,P|138:106|78:101,1,122.999996246338,0|0,1:0|1:0,0:0:0:0:
102,174,71467,1,8,0:0:0:0:
225,313,71667,1,2,0:0:0:0:
225,313,71767,1,8,0:0:0:0:
225,313,71867,2,0,P|264:267|324:262,1,122.999996246338,0|0,1:0|1:0,0:0:0:0:
299,336,72267,1,8,0:0:0:0:
400,249,72467,2,0,L|395:320,1,61.499998123169,2|8,0:0|0:0,0:0:0:0:
346,188,72667,5,0,1:0:0:0:
485,288,72867,1,0,1:0:0:0:
380,115,73067,2,0,P|301:122|269:168,1,122.999996246338,8|2,0:0|0:0,0:0:0:0:
243,162,73367,1,8,0:0:0:0:
243,162,73467,2,0,P|248:191|240:225,1,61.499998123169,0|8,1:0|0:0,0:0:0:0:
236,299,73667,2,0,P|213:317|179:327,1,61.499998123169,0|0,1:0|0:0,0:0:0:0:
64,198,73867,2,0,P|136:212|176:263,1,122.999996246338,8|2,0:0|0:0,0:0:0:0:
311,75,74267,6,0,P|242:61|188:79,2,122.999996246338,0|0|8,1:0|1:0|0:0,0:0:0:0:
447,249,74867,5,2,0:0:0:0:
440,225,74967,1,8,0:0:0:0:
464,190,75067,5,0,1:0:0:0:
463,232,75167,1,8,0:0:0:0:
440,268,75267,1,8,1:2:0:0:
402,286,75367,1,8,0:0:0:0:
361,267,75467,5,8,0:0:0:0:
311,231,75567,1,8,0:0:0:0:
251,219,75667,1,8,0:0:0:0:
191,232,75767,1,8,0:0:0:0:
150,274,75867,5,12,1:2:0:0:
319,333,76067,1,0,1:0:0:0:
293,159,76267,1,10,0:0:0:0:
315,346,76467,2,0,L|188:336,1,122.999996246338,0|10,1:0|0:0,0:0:0:0:
136,152,76867,1,0,1:0:0:0:
171,323,77067,1,10,0:0:0:0:
64,169,77267,2,0,P|63:141|82:102,1,61.499998123169,0|8,1:0|0:0,0:0:0:0:
228,45,77467,6,0,L|228:178,1,122.999996246338,14|0,0:0|1:0,0:0:0:0:
252,271,77867,2,0,P|195:293|115:270,1,122.999996246338,14|0,0:0|1:0,0:0:0:0:
228,168,78267,6,0,B|343:152|325:248|440:236,1,215.249993431091,2|0,0:0|0:0,0:0:0:0:
256,192,90267,12,8,91467,0:0:0:0:
149,127,91867,6,0,P|111:110|51:118,1,92.2499971847535,4|2,1:2|0:0,0:0:0:0:
262,180,92267,2,0,P|299:163|360:171,1,92.2499971847535,0|2,1:0|0:0,0:0:0:0:
222,95,92667,6,0,P|197:62|141:38,1,92.2499971847535,0|2,1:0|0:0,0:0:0:0:
316,237,93067,2,0,P|356:241|405:278,1,92.2499971847535,0|2,1:0|0:0,0:0:0:0:
441,260,93367,5,2,0:0:0:0:
441,260,93467,1,0,1:0:0:0:
312,329,93667,2,0,L|316:218,1,92.2499971847535,2|0,0:0|1:0,0:0:0:0:
362,95,94067,2,0,P|310:154|206:134,1,184.499994369507,2|2,0:0|0:0,0:0:0:0:
271,65,94667,1,8,0:0:0:0:
246,203,94867,1,2,0:0:0:0:
87,147,95067,6,0,L|106:38,1,92.2499971847535,4|2,1:2|0:0,0:0:0:0:
246,203,95467,2,0,P|197:228|143:217,1,92.2499971847535,0|2,1:0|0:0,0:0:0:0:
82,163,95867,6,0,L|43:59,1,92.2499971847535,0|2,1:0|0:0,0:0:0:0:
260,209,96267,2,0,P|230:255|177:272,1,92.2499971847535,0|2,1:0|0:0,0:0:0:0:
321,278,96667,5,0,1:0:0:0:
324,166,96867,2,0,L|440:174,1,92.2499971847535,2|0,0:0|1:0,0:0:0:0:
495,126,97267,2,0,L|430:222,1,92.2499971847535,2|0,0:0|1:0,0:0:0:0:
448,284,97667,2,0,L|396:179,1,92.2499971847535,2|0,0:0|1:0,0:0:0:0:
445,61,98067,5,8,0:0:0:0:
445,61,98167,1,8,0:0:0:0:
445,61,98267,2,0,P|401:86|332:85,1,92.2499971847535,0|2,1:0|0:0,0:0:0:0:
273,135,98667,2,0,P|229:110|160:111,1,92.2499971847535,0|2,1:0|0:0,0:0:0:0:
286,44,99067,1,0,1:0:0:0:
199,199,99267,1,2,0:0:0:0:
154,16,99467,1,0,1:0:0:0:
191,215,99667,5,2,0:0:0:0:
191,215,99767,1,2,0:0:0:0:
191,215,99867,2,0,L|189:340,2,92.2499971847535,0|2|0,1:0|0:0|1:0,0:0:0:0:
291,320,100467,5,2,0:0:0:0:
312,307,100567,1,8,0:0:0:0:
351,344,100667,5,0,1:0:0:0:
347,307,100767,1,8,0:0:0:0:
344,270,100867,1,8,3:0:0:0:
340,233,100967,1,8,3:0:0:0:
354,204,101067,5,4,3:0:0:0:
377,189,101167,1,4,3:0:0:0:
404,184,101267,1,4,3:0:0:0:
431,189,101367,1,4,3:0:0:0:
462,210,101467,6,0,P|415:179|448:67,1,184.499994369507,6|8,1:2|0:0,0:0:0:0:
325,154,102067,1,2,0:0:0:0:
325,154,102167,1,2,0:0:0:0:
325,154,102267,2,0,P|281:173|209:153,1,92.2499971847535,0|0,1:0|1:0,0:0:0:0:
137,117,102667,2,0,P|128:161|156:231,1,92.2499971847535,8|0,0:0|0:0,0:0:0:0:
240,321,103067,6,0,P|178:281|73:298,1,184.499994369507,0|8,1:2|0:0,0:0:0:0:
272,239,103667,1,2,0:0:0:0:
306,364,103867,2,0,P|371:319|404:319,1,92.2499971847535,0|0,1:0|1:0,0:0:0:0:
272,239,104267,1,8,0:0:0:0:
469,302,104467,5,8,0:0:0:0:
469,302,104567,1,8,0:0:0:0:
469,302,104667,2,0,P|438:268|426:224,1,92.2499971847535,4|0,1:2|1:0,0:0:0:0:
348,258,105067,5,8,0:0:0:0:
257,258,105267,2,0,P|270:214|303:181,1,92.2499971847535,0|12,1:0|0:0,0:0:0:0:
208,156,105667,5,0,1:0:0:0:
162,77,105867,2,0,P|206:67|251:78,1,92.2499971847535,12|0,0:0|1:0,0:0:0:0:
274,64,106167,5,8,0:0:0:0:
274,64,106267,2,0,P|308:63|352:51,1,71.7499978103638,2|2,0:0|0:0,0:0:0:0:
400,116,106667,2,0,P|384:143|374:182,1,71.7499978103638,2|2,0:0|0:0,0:0:0:0:
374,182,107067,6,0,L|446:177,1,51.25,2|0,0:0|0:0,0:0:0:0:
472,242,107467,2,0,L|440:306,1,51.25,0|0,1:0|0:0,0:0:0:0:
305,302,107867,5,6,0:0:0:0:
453,308,108067,1,0,1:0:0:0:
213,304,108267,2,0,P|236:239|315:223,1,122.999996246338,8|2,0:0|1:2,0:0:0:0:
296,187,108567,1,8,0:0:0:0:
296,187,108667,2,0,P|322:207|362:215,1,61.499998123169,0|8,1:0|0:0,0:0:0:0:
410,150,108867,2,0,P|440:137|467:106,1,61.499998123169,0|0,1:0|0:0,0:0:0:0:
249,116,109067,2,0,L|88:102,1,122.999996246338,8|2,0:0|0:0,0:0:0:0:
180,197,109467,5,0,1:0:0:0:
70,52,109667,1,2,0:0:0:0:
244,43,109867,1,8,0:0:0:0:
46,151,110067,1,2,0:0:0:0:
46,151,110167,1,8,0:0:0:0:
46,151,110267,2,0,P|56:209|59:303,1,122.999996246338,0|0,1:0|1:0,0:0:0:0:
193,366,110667,1,8,0:0:0:0:
146,199,110867,1,2,0:0:0:0:
269,330,111067,6,0,P|340:353|383:322,1,122.999996246338,0|0,1:0|1:0,0:0:0:0:
294,221,111467,1,8,0:0:0:0:
464,172,111667,1,2,0:0:0:0:
464,172,111767,1,8,0:0:0:0:
464,172,111867,1,0,1:0:0:0:
308,229,112067,1,0,1:0:0:0:
202,120,112267,2,0,P|147:133|78:126,1,122.999996246338,8|2,0:0|0:0,0:0:0:0:
39,113,112567,5,8,0:0:0:0:
39,113,112667,2,0,P|58:164|56:209,1,61.499998123169,0|0,1:0|0:0,0:0:0:0:
110,254,112867,2,0,P|75:295|35:316,1,61.499998123169,0|0,1:0|0:0,0:0:0:0:
289,354,113067,2,0,L|297:228,1,122.999996246338,8|2,0:0|0:0,0:0:0:0:
296,231,113367,1,8,0:0:0:0:
296,231,113467,1,0,1:0:0:0:
203,319,113667,1,0,1:0:0:0:
384,267,113867,1,8,0:0:0:0:
400,226,113967,1,8,0:0:0:0:
401,182,114067,1,8,0:0:0:0:
387,141,114167,1,8,0:0:0:0:
360,107,114267,5,6,1:2:0:0:
481,204,114467,1,0,1:0:0:0:
360,107,114667,2,0,L|194:111,1,122.999996246338,8|2,0:0|1:2,0:0:0:0:
237,109,114967,1,8,0:0:0:0:
237,109,115067,1,0,1:0:0:0:
309,27,115267,1,0,1:0:0:0:
280,227,115467,1,8,0:0:0:0:
168,49,115667,1,2,0:0:0:0:
280,227,115867,6,0,P|226:279|127:238,1,184.499994369507,0|0,1:0|0:0,0:0:0:0:
72,202,116267,2,0,P|97:133|93:67,1,122.999996246338,8|2,0:0|0:0,0:0:0:0:
67,60,116567,1,8,0:0:0:0:
67,60,116667,2,0,P|39:62|-4:71,1,61.499998123169,0|8,1:0|0:0,0:0:0:0:
169,115,116867,2,0,P|199:109|229:106,1,61.499998123169,0|0,1:0|0:0,0:0:0:0:
354,30,117067,2,0,P|343:96|340:167,1,122.999996246338,8|0,0:0|0:0,0:0:0:0:
455,268,117467,5,0,1:0:0:0:
421,113,117667,1,0,1:0:0:0:
297,236,117867,2,0,P|249:197|180:200,1,122.999996246338,8|2,0:0|0:0,0:0:0:0:
149,197,118167,1,8,0:0:0:0:
149,197,118267,2,0,P|164:222|164:263,1,61.499998123169,0|8,1:0|0:0,0:0:0:0:
219,316,118467,2,0,P|204:342|169:361,1,61.499998123169,0|0,1:0|0:0,0:0:0:0:
14,279,118667,2,0,L|30:150,1,122.999996246338,8|2,0:0|0:0,0:0:0:0:
29,156,118967,1,8,0:0:0:0:
29,156,119067,5,0,1:0:0:0:
246,98,119267,1,0,1:0:0:0:
14,77,119467,2,0,P|74:39|129:53,1,122.999996246338,8|8,0:0|0:0,0:0:0:0:
138,61,119767,1,8,0:0:0:0:
174,51,119867,5,0,1:0:0:0:
165,86,119967,1,8,0:0:0:0:
163,123,120067,1,8,1:3:0:0:
169,159,120167,1,8,1:3:0:0:
154,214,120267,5,4,1:3:0:0:
197,191,120367,1,4,1:3:0:0:
245,182,120467,1,4,3:0:0:0:
294,190,120567,1,4,3:0:0:0:
333,219,120667,6,0,P|310:281|348:340,1,122.999996246338,6|0,1:2|1:0,0:0:0:0:
416,243,121067,1,8,0:0:0:0:
181,307,121267,1,2,1:2:0:0:
198,302,121367,1,8,0:0:0:0:
216,298,121467,1,0,1:0:0:0:
417,261,121667,1,0,1:0:0:0:
226,279,121867,1,8,0:0:0:0:
376,158,122067,5,2,0:0:0:0:
376,158,122167,1,8,0:0:0:0:
376,158,122267,2,0,P|317:128|252:146,1,122.999996246338,0|0,1:0|1:0,0:0:0:0:
323,326,122667,2,0,P|358:276|416:260,1,122.999996246338,8|2,0:0|0:0,0:0:0:0:
443,284,122967,1,8,0:0:0:0:
443,284,123067,2,0,P|458:258|463:222,1,61.499998123169,0|8,1:0|0:0,0:0:0:0:
508,147,123267,2,0,P|493:120|464:98,1,61.499998123169,0|0,1:0|0:0,0:0:0:0:
257,15,123467,2,0,L|264:148,1,122.999996246338,8|0,0:0|0:0,0:0:0:0:
108,220,123867,5,0,1:0:0:0:
276,147,124067,1,0,1:0:0:0:
43,175,124267,2,0,P|36:250|72:292,1,122.999996246338,8|2,0:0|0:0,0:0:0:0:
62,285,124567,1,8,0:0:0:0:
62,285,124667,1,0,1:0:0:0:
180,207,124867,1,0,1:0:0:0:
139,348,125067,2,0,L|266:359,1,122.999996246338,8|2,0:0|0:0,0:0:0:0:
352,213,125467,5,0,1:0:0:0:
211,279,125667,1,0,1:0:0:0:
350,370,125867,1,8,0:0:0:0:
396,168,126067,5,2,1:2:0:0:
399,156,126167,1,8,0:0:0:0:
386,125,126267,5,0,1:0:0:0:
350,133,126367,1,8,0:0:0:0:
313,130,126467,1,0,1:0:0:0:
280,116,126567,1,8,0:0:0:0:
227,84,126667,5,8,0:0:0:0:
174,54,126767,1,8,0:0:0:0:
113,58,126867,1,8,0:0:0:0:
66,96,126967,1,8,0:0:0:0:
25,153,127067,6,0,L|173:150,1,122.999996246338,14|0,0:0|1:0,0:0:0:0:
291,238,127467,1,10,0:0:0:0:
69,226,127667,1,0,1:0:0:0:
295,314,127867,2,0,P|354:282|366:222,1,122.999996246338,10|0,0:0|1:0,0:0:0:0:
198,274,128267,1,10,0:0:0:0:
284,115,128467,5,0,1:0:0:0:
284,115,128567,1,8,0:0:0:0:
284,115,128667,2,0,L|291:246,1,122.999996246338,14|0,0:0|1:0,0:0:0:0:
387,10,129067,2,0,L|380:141,1,122.999996246338,14|0,0:0|1:0,0:0:0:0:
434,268,129467,5,2,0:0:0:0:
454,184,129667,1,2,0:0:0:0:
434,268,129867,1,2,0:0:0:0:
372,142,130067,5,2,0:0:0:0:
359,142,130167,1,2,0:0:0:0:
346,144,130267,1,6,0:0:0:0:
189,242,143667,5,2,0:0:0:0:
288,249,143867,1,2,0:0:0:0:
189,242,144067,1,2,0:0:0:0:
298,335,144267,5,2,0:0:0:0:
284,230,144467,1,2,0:0:0:0:
298,335,144667,6,0,P|343:347|363:341,1,61.499998123169,2|2,0:0|0:0,0:0:0:0:
431,282,145067,1,2,0:0:0:0:
300,220,145267,2,0,P|311:248|335:267,1,61.499998123169,2|2,0:0|0:0,0:0:0:0:
431,282,145667,1,0,0:0:0:0:
370,198,145867,6,0,L|370:125,1,61.499998123169,2|2,0:0|0:0,0:0:0:0:
344,38,146267,1,2,0:0:0:0:
351,134,146467,1,2,0:0:0:0:
359,26,146667,2,0,B|296:11|299:56|222:32,1,122.999996246338,2|2,0:0|0:0,0:0:0:0:
155,11,147267,5,2,0:0:0:0:
221,55,147467,1,2,0:0:0:0:
215,134,147667,1,2,0:0:0:0:
158,190,147867,1,2,0:0:0:0:
158,190,148467,5,2,0:0:0:0:
125,263,148667,2,0,P|164:228|246:239,2,122.999996246338,2|0|2,0:0|0:0|0:0,0:0:0:0:
379,341,150067,5,2,0:0:0:0:
359,263,150267,1,2,0:0:0:0:
389,345,150467,1,2,0:0:0:0:
302,323,150667,5,2,0:0:0:0:
438,274,150867,1,2,0:0:0:0:
321,183,151067,6,0,P|288:181|255:189,1,61.499998123169,2|0,0:0|0:0,0:0:0:0:
294,102,151467,1,2,0:0:0:0:
417,156,151667,2,0,P|395:131|366:113,1,61.499998123169,2|2,0:0|0:0,0:0:0:0:
294,102,152067,1,0,0:0:0:0:
433,165,152267,6,0,L|429:240,1,61.499998123169,2|2,0:0|0:0,0:0:0:0:
441,315,152667,2,0,P|411:334|348:317,1,92.2499971847535,2|0,0:0|0:0,0:0:0:0:
346,315,153067,1,2,0:0:0:0:
346,315,153467,2,0,L|231:321,1,92.2499971847535,2|0,0:0|0:0,0:0:0:0:
239,323,153867,1,2,0:0:0:0:
239,323,154267,6,0,P|209:274|279:173,1,184.499994369507,2|2,0:0|0:0,0:0:0:0:
351,131,155067,2,0,L|340:270,2,122.999996246338,2|2|2,0:0|0:0|0:0,0:0:0:0:
454,137,156267,1,2,0:0:0:0:
300,66,156467,5,2,0:0:0:0:
380,43,156667,1,2,0:0:0:0:
452,150,156867,5,2,0:0:0:0:
394,40,157067,1,2,0:0:0:0:
491,79,157267,1,2,0:0:0:0:
366,224,157467,6,0,L|356:140,1,82,0|2,1:0|0:0,0:0:0:0:
251,213,157867,2,0,L|260:294,1,82,0|2,1:0|0:0,0:0:0:0:
260,294,158167,1,2,0:0:0:0:
260,294,158267,2,0,P|204:309|122:235,1,164,0|0,1:0|1:0,0:0:0:0:
121,365,158867,1,2,0:0:0:0:
28,281,159067,6,0,P|83:255|109:151,1,164,0|0,1:0|1:0,0:0:0:0:
36,80,159667,1,2,0:0:0:0:
172,31,159867,2,0,L|163:115,1,82,0|2,1:0|0:0,0:0:0:0:
234,233,160267,2,0,L|242:151,1,82,0|2,1:0|0:0,0:0:0:0:
315,80,160567,5,2,0:0:0:0:
315,80,160667,2,0,P|353:65|394:82,1,82,0|2,1:0|0:0,0:0:0:0:
384,200,161067,2,0,P|346:213|308:198,1,82,0|2,1:0|0:0,0:0:0:0:
456,127,161467,2,0,L|469:305,1,164,0|0,1:0|1:0,0:0:0:0:
319,320,162067,1,2,0:0:0:0:
393,362,162267,6,0,P|401:315|386:270,1,82,2|2,1:2|0:0,0:0:0:0:
246,280,162667,2,0,P|237:319|245:359,1,82,0|2,1:0|0:0,0:0:0:0:
180,217,163067,2,0,L|95:211,1,82,0|2,1:0|0:0,0:0:0:0:
258,143,163467,2,0,L|339:148,1,82,0|2,1:0|0:0,0:0:0:0:
209,62,163767,5,2,0:0:0:0:
209,62,163867,2,0,P|171:40|132:39,1,82,0|2,1:0|0:0,0:0:0:0:
145,120,164267,1,0,1:0:0:0:
258,143,164467,2,0,P|296:121|335:120,1,82,2|0,0:0|1:0,0:0:0:0:
321,207,164867,1,2,0:0:0:0:
164,218,165067,2,0,P|126:196|87:195,1,82,0|2,1:0|0:0,0:0:0:0:
306,335,165467,6,0,L|373:318,1,41,6|0,0:0|0:0,0:0:0:0:
145,298,165867,2,0,L|105:308,1,41,6|0,0:0|0:0,0:0:0:0:
222,280,166067,5,2,0:0:0:0:
235,126,166267,1,8,0:0:0:0:
273,112,166367,1,8,3:0:0:0:
313,117,166467,1,4,3:0:0:0:
347,140,166567,1,4,3:0:0:0:
367,175,166667,6,0,L|310:170,1,41,4|0,3:2|0:0,0:0:0:0:
248,209,166867,2,0,L|191:204,1,41,2|0,0:0|0:0,0:0:0:0:
188,207,167067,6,0,P|173:239|191:292,1,76.875,2|0,0:0|0:0,0:0:0:0:
348,299,167467,6,0,L|356:160,1,122.999996246338,6|2,0:0|0:0,0:0:0:0:
366,152,167767,1,2,0:0:0:0:
366,152,167867,2,0,P|348:129|315:117,1,61.499998123169,0|8,1:0|0:0,0:0:0:0:
278,47,168067,2,0,P|250:52|223:73,1,61.499998123169,0|0,1:0|0:0,0:0:0:0:
127,155,168267,1,8,0:0:0:0:
249,149,168467,1,2,0:0:0:0:
89,69,168667,5,0,1:0:0:0:
209,234,168867,1,0,1:0:0:0:
0,175,169067,2,0,L|131:165,1,122.999996246338,8|2,0:0|0:0,0:0:0:0:
122,165,169367,1,8,0:0:0:0:
122,165,169467,1,0,1:0:0:0:
276,336,169667,1,0,1:0:0:0:
276,336,169767,1,2,0:0:0:0:
276,336,169867,2,0,P|279:263|277:206,1,122.999996246338,8|2,0:0|0:0,0:0:0:0:
162,140,170267,5,0,1:0:0:0:
205,281,170467,1,0,1:0:0:0:
262,126,170667,2,0,P|339:154|359:198,1,122.999996246338,8|2,0:0|1:2,0:0:0:0:
395,206,170967,1,8,0:0:0:0:
395,206,171067,2,0,P|342:269|347:317,1,122.999996246338,0|0,1:0|1:0,0:0:0:0:
476,295,171467,1,8,0:0:0:0:
455,107,171667,5,2,0:0:0:0:
455,107,171767,1,8,0:0:0:0:
455,107,171867,2,0,L|304:108,1,122.999996246338,0|0,1:0|1:0,0:0:0:0:
75,225,172267,2,0,L|226:226,1,122.999996246338,8|2,0:0|1:2,0:0:0:0:
217,243,172567,1,8,0:0:0:0:
217,243,172667,2,0,P|235:220|276:213,1,61.499998123169,0|8,1:0|0:0,0:0:0:0:
334,277,172867,2,0,P|362:281|389:313,1,61.499998123169,0|0,1:0|0:0,0:0:0:0:
512,203,173067,2,0,L|378:195,1,122.999996246338,8|8,0:0|0:0,0:0:0:0:
226,101,173467,5,6,1:2:0:0:
334,277,173667,1,0,1:0:0:0:
210,226,173867,1,8,0:0:0:0:
328,136,174067,1,2,1:2:0:0:
328,136,174167,1,8,0:0:0:0:
328,136,174267,2,0,P|335:71|328:1,1,122.999996246338,0|0,1:0|1:0,0:0:0:0:
210,226,174667,1,8,0:0:0:0:
401,166,174867,1,8,0:0:0:0:
132,63,175067,6,0,L|266:75,1,122.999996246338,0|0,1:0|1:0,0:0:0:0:
363,230,175467,2,0,L|229:242,1,122.999996246338,8|2,0:0|0:0,0:0:0:0:
225,220,175767,1,8,0:0:0:0:
225,220,175867,2,0,P|203:259|162:277,1,61.499998123169,0|8,1:0|0:0,0:0:0:0:
203,355,176067,2,0,P|157:356|120:329,1,61.499998123169,0|0,1:0|0:0,0:0:0:0:
79,272,176267,2,0,L|84:143,1,122.999996246338,8|2,0:0|0:0,0:0:0:0:
201,54,176667,5,0,1:0:0:0:
32,63,176867,1,0,1:0:0:0:
284,80,177067,2,0,P|244:131|145:125,1,122.999996246338,8|2,0:0|0:0,0:0:0:0:
168,155,177367,1,8,0:0:0:0:
147,185,177467,1,0,1:0:0:0:
141,221,177567,1,8,0:0:0:0:
151,256,177667,1,0,1:0:0:0:
354,221,177867,2,0,L|227:212,1,122.999996246338,10|2,0:0|0:0,0:0:0:0:
287,297,178267,5,4,1:2:0:0:
374,136,178467,2,0,P|398:120|452:126,1,61.499998123169,0|0,1:0|0:0,0:0:0:0:
485,165,178667,1,8,0:0:0:0:
264,90,178867,5,8,0:0:0:0:
266,78,178967,1,8,0:0:0:0:
269,66,179067,2,0,L|203:67,1,61.499998123169,4|0,1:2|0:0,0:0:0:0:
78,151,179267,1,8,1:2:0:0:
78,163,179367,1,8,0:0:0:0:
75,175,179467,5,10,0:0:0:0:
123,211,179567,1,8,0:0:0:0:
183,208,179667,1,8,0:0:0:0:
227,167,179767,1,8,0:0:0:0:
282,157,179867,5,6,1:2:0:0:
150,322,180067,1,0,1:0:0:0:
150,132,180267,2,0,L|160:0,1,122.999996246338,8|2,0:0|1:2,0:0:0:0:
227,167,180567,1,8,0:0:0:0:
227,167,180667,2,0,L|236:289,1,122.999996246338,0|0,1:0|1:0,0:0:0:0:
374,336,181067,1,8,0:0:0:0:
304,212,181267,1,2,0:0:0:0:
465,300,181467,5,0,1:0:0:0:
235,302,181667,1,0,1:0:0:0:
375,169,181867,2,0,P|308:131|248:148,1,122.999996246338,8|2,0:0|0:0,0:0:0:0:
234,117,182167,1,8,0:0:0:0:
234,117,182267,2,0,P|234:153|215:181,1,61.499998123169,0|8,1:0|0:0,0:0:0:0:
138,163,182467,2,0,P|106:181|73:178,1,61.499998123169,0|0,1:0|0:0,0:0:0:0:
1,289,182667,2,0,L|128:294,1,122.999996246338,8|2,0:0|0:0,0:0:0:0:
265,357,183067,5,0,1:0:0:0:
140,281,183267,1,0,1:0:0:0:
322,191,183467,2,0,P|348:240|321:324,1,122.999996246338,8|2,0:0|0:0,0:0:0:0:
336,304,183767,1,8,0:0:0:0:
336,304,183867,1,0,1:0:0:0:
417,201,184067,1,0,1:0:0:0:
205,165,184267,1,8,0:0:0:0:
377,101,184467,5,2,0:0:0:0:
377,101,184567,1,8,0:0:0:0:
377,101,184667,2,0,L|252:103,1,122.999996246338,0|0,1:0|1:0,0:0:0:0:
144,18,185067,1,8,0:0:0:0:
70,211,185267,1,2,0:0:0:0:
115,210,185367,1,8,0:0:0:0:
157,191,185467,1,0,1:0:0:0:
186,155,185567,1,8,0:0:0:0:
198,110,185667,5,8,3:0:0:0:
198,148,185767,1,8,3:0:0:0:
199,185,185867,1,8,3:0:0:0:
199,222,185967,1,4,3:0:0:0:
200,259,186067,1,4,3:0:0:0:
201,296,186167,1,4,3:0:0:0:
201,338,186267,5,14,0:0:0:0:
115,301,186467,1,0,1:0:0:0:
289,301,186667,1,10,0:0:0:0:
85,218,186867,1,0,1:0:0:0:
85,218,186967,1,8,0:0:0:0:
85,218,187067,2,0,L|104:93,1,122.999996246338,14|0,0:0|1:0,0:0:0:0:
113,12,187467,1,10,0:0:0:0:
203,250,187667,5,8,0:0:0:0:
203,250,187767,1,8,0:0:0:0:
203,250,187867,2,0,L|184:125,1,122.999996246338,14|2,1:2|1:2,0:0:0:0:
279,240,188267,2,0,L|260:115,1,122.999996246338,14|2,1:2|1:2,0:0:0:0:
401,145,188667,5,2,0:0:0:0:
422,228,188867,1,2,0:0:0:0:
338,247,189067,2,0,P|307:249|274:237,1,61.5,2|0,0:0|0:0,0:0:0:0:
256,192,189467,12,2,194267,0:0:0:0:
