osu file format v14

[General]
AudioFilename: audio.mp3
AudioLeadIn: 0
PreviewTime: 56467
Countdown: 0
SampleSet: Soft
StackLeniency: 0.7
Mode: 0
LetterboxInBreaks: 0
EpilepsyWarning: 1
WidescreenStoryboard: 1

[Editor]
DistanceSpacing: 1.4
BeatDivisor: 4
GridSize: 32
TimelineZoom: 1.6

[Metadata]
Title:Sentimental na Aiboshin
TitleUnicode:センチメンタルな愛慕心
Artist:Kano
ArtistUnicode:鹿乃
Creator:Petal
Version:Garden's Hard
Source:
Tags:Natsume Chiaki GUMI Japanese cover female namki garden utaite vocaloid matha affirmation neoskylove vick pop -_Matha_- なつめ千秋
BeatmapID:2293252
BeatmapSetID:1097489

[Difficulty]
HPDrainRate:5
CircleSize:4
OverallDifficulty:6
ApproachRate:7.5
SliderMultiplier:1.3
SliderTickRate:1

[Events]
//Background and Video events
0,0,"78724156_p0.jpg",0,0
//Break Periods
2,79067,91042
2,144867,156642
//Storyboard Layer 0 (Background)
//Storyboard Layer 1 (Fail)
//Storyboard Layer 2 (Pass)
//Storyboard Layer 3 (Foreground)
//Storyboard Layer 4 (Overlay)
//Storyboard Sound Samples

[TimingPoints]
2267,400,4,2,1,40,1,0
2267,-100,4,2,1,40,0,0
8667,-100,4,2,1,55,0,0
15067,-100,4,2,1,65,0,0
28867,-100,4,2,1,45,0,0
29467,-100,4,2,1,65,0,0
39067,-100,4,2,1,25,0,0
39667,-100,4,2,1,30,0,0
39867,-100,4,2,1,35,0,0
40067,-100,4,2,1,40,0,0
40267,-100,4,2,1,45,0,0
40567,-100,4,2,1,5,0,0
40667,-100,4,2,1,65,0,0
55067,-133.333333333333,4,2,1,65,0,0
55667,-100,4,2,1,65,0,0
56667,-90.9090909090909,4,2,1,75,0,1
78267,-100,4,2,1,45,0,0
79067,-100,4,2,1,65,0,0
107867,-90.9090909090909,4,2,1,75,0,1
129467,-100,4,2,1,65,0,0
141467,-153.846153846154,4,2,1,65,0,0
141567,-153.846153846154,4,2,1,5,0,0
144667,-153.846153846154,4,2,1,50,0,0
157467,-100,4,2,1,50,0,0
166267,-133.333333333333,4,2,1,60,0,0
167467,-90.9090909090909,4,2,1,75,0,1
188667,-100,4,2,1,40,0,0

[Colours]
Combo1 : 157,184,253
Combo2 : 163,225,151
Combo3 : 241,118,248
Combo4 : 248,131,114

[HitObjects]
430,380,8667,6,0,L|418:303,1,65,2|0,1:2|0:0,0:0:0:0:
335,316,9067,2,0,L|322:228,1,65,2|0,1:2|0:0,0:0:0:0:
405,223,9467,2,0,P|436:155|407:107,1,130,2|2,1:2|1:2,0:0:0:0:
429,33,10067,1,2,0:0:0:0:
429,33,10167,1,2,0:0:0:0:
429,33,10267,6,0,L|520:44,2,65,0|2|2,1:0|0:0|1:2,0:0:0:0:
386,106,10867,2,0,L|298:94,1,65,2|0,0:0|1:0,0:0:0:0:
265,34,11267,2,0,P|206:29|152:87,1,130,2|2,0:0|0:0,0:0:0:0:
145,98,11767,1,0,0:0:0:0:
145,98,11867,6,0,L|156:180,1,65,2|0,1:2|0:0,0:0:0:0:
80,205,12267,2,0,L|91:287,1,65,0|2,1:0|0:0,0:0:0:0:
162,310,12667,2,0,P|202:303|224:278,1,65,0|2,1:0|0:0,0:0:0:0:
255,210,13067,2,0,P|295:217|317:242,1,65,0|0,1:0|0:0,0:0:0:0:
341,312,13467,6,0,L|425:294,1,65,4|8,1:2|0:0,0:0:0:0:
434,296,13767,1,8,0:0:0:0:
434,296,13867,1,0,1:0:0:0:
461,216,14067,2,0,L|506:207,2,32.5,8|8|0,0:0|0:0|1:0,0:0:0:0:
396,166,14467,1,8,0:0:0:0:
396,166,14567,1,8,0:0:0:0:
396,166,14667,2,0,L|405:116,3,32.5,8|8|8|8,1:2|0:0|0:0|0:0,0:0:0:0:
423,110,15067,6,0,P|390:64|294:71,1,130,6|8,1:2|0:0,0:0:0:0:
237,57,15667,1,2,0:0:0:0:
237,57,15767,1,2,0:0:0:0:
237,57,15867,2,0,L|259:194,1,130,0|8,1:0|0:0,0:0:0:0:
210,262,16467,1,2,0:0:0:0:
298,285,16667,6,0,L|380:311,2,65,0|2|8,1:2|0:0|0:0,0:0:0:0:
210,262,17267,2,0,P|171:306|80:301,1,130,2|2,0:0|0:0,0:0:0:0:
22,269,17867,1,8,0:0:0:0:
88,207,18067,1,2,0:0:0:0:
88,207,18167,1,8,0:0:0:0:
88,207,18267,6,0,P|89:128|29:86,1,130,0|8,1:0|0:0,0:0:0:0:
213,4,19067,2,0,P|212:83|272:125,1,130,0|8,1:0|0:0,0:0:0:0:
336,113,19667,2,0,L|322:198,1,65,2|0,0:0|1:0,0:0:0:0:
393,237,20067,5,2,0:0:0:0:
466,184,20267,2,0,L|476:119,1,65,8|10,0:0|0:0,0:0:0:0:
468,86,20567,1,10,0:0:0:0:
468,86,20667,2,0,L|423:79,3,32.5,8|8|8|8,0:0|0:0|0:0|0:0,0:0:0:0:
408,53,21067,2,0,L|350:44,3,32.5,8|8|8|8,3:0|3:0|3:0|3:0,0:0:0:0:
351,26,21467,6,0,P|318:68|227:67,1,130,6|8,1:2|0:0,0:0:0:0:
195,154,22067,1,2,0:0:0:0:
195,154,22167,1,2,0:0:0:0:
195,154,22267,2,0,P|162:112|71:113,1,130,0|8,1:0|0:0,0:0:0:0:
22,166,22867,1,2,0:0:0:0:
70,242,23067,6,0,L|56:323,2,65,0|2|8,1:0|0:0|0:0,0:0:0:0:
160,242,23667,2,0,P|226:246|278:182,1,130,2|2,0:0|0:0,0:0:0:0:
288,116,24267,2,0,L|377:129,1,65,8|8,0:0|0:0,0:0:0:0:
384,133,24567,1,8,0:0:0:0:
384,133,24667,5,6,1:2:0:0:
454,190,24867,2,0,L|445:236,3,32.5,8|8|8|8,0:0|0:0|0:0|0:0,0:0:0:0:
471,246,25267,2,0,P|402:247|351:308,1,130,6|8,1:2|3:0,0:0:0:0:
351,322,25767,1,8,3:0:0:0:
351,322,25867,2,0,L|297:318,3,32.5,4|8|8|8,3:0|0:0|0:0|0:0,0:0:0:0:
290,341,26267,6,0,L|207:334,1,65,6|8,1:2|3:0,0:0:0:0:
145,379,26667,1,4,3:0:0:0:
72,323,26867,2,0,P|42:274|71:197,1,130,6|8,1:2|0:0,0:0:0:0:
94,193,27367,1,8,0:0:0:0:
94,193,27467,2,0,L|147:198,2,32.5,8|8|8,0:0|0:0|0:0,0:0:0:0:
29,128,27867,5,4,0:0:0:0:
163,277,28867,1,0,1:0:0:0:
229,214,29067,2,0,L|304:224,1,65,8|0,0:0|0:0,0:0:0:0:
376,180,29467,5,6,0:0:0:0:
376,180,29667,2,0,L|362:96,1,65,2|8,0:0|0:0,0:0:0:0:
397,31,30067,2,0,P|350:72|286:71,1,130,2|0,0:0|1:0,0:0:0:0:
215,14,30667,1,8,0:0:0:0:
132,52,30867,6,0,L|121:140,1,65,2|0,0:0|1:0,0:0:0:0:
44,156,31267,1,2,0:0:0:0:
44,156,31467,2,0,L|51:220,1,65,8|2,0:0|0:0,0:0:0:0:
115,285,31867,2,0,P|164:274|184:251,1,65,0|0,1:0|1:0,0:0:0:0:
223,187,32267,2,0,P|272:198|292:221,1,65,8|2,0:0|0:0,0:0:0:0:
332,282,32667,5,0,1:0:0:0:
409,234,32867,2,0,L|393:96,2,130,2|2|0,0:0|0:0|1:0,0:0:0:0:
332,282,33867,2,0,L|341:354,1,65,8|2,0:0|0:0,0:0:0:0:
314,370,34167,1,8,0:0:0:0:
314,370,34267,6,0,P|264:330|181:344,1,130,0|8,1:0|0:0,0:0:0:0:
111,352,34867,2,0,L|106:384,2,32.5,2|8|0,0:0|0:0|1:0,0:0:0:0:
44,289,35267,2,0,L|67:155,1,130,0|2,1:0|0:0,0:0:0:0:
45,72,35867,6,0,P|89:121|168:122,1,130,0|8,1:0|0:0,0:0:0:0:
236,89,36467,1,2,0:0:0:0:
236,89,36567,1,8,0:0:0:0:
236,89,36667,2,0,L|250:167,1,65,0|0,1:0|1:0,0:0:0:0:
336,172,37067,2,0,L|322:250,1,65,8|2,0:0|0:0,0:0:0:0:
288,319,37467,6,0,P|335:277|405:289,1,130,0|8,1:0|0:0,0:0:0:0:
478,237,38067,1,2,0:0:0:0:
478,237,38167,1,8,0:0:0:0:
478,237,38267,2,0,L|492:159,1,65,0|0,1:0|1:0,0:0:0:0:
453,89,38667,2,0,L|495:78,2,32.5,8|8|0,0:0|0:0|1:0,0:0:0:0:
368,55,39067,5,2,0:0:0:0:
478,237,39667,1,2,0:0:0:0:
478,237,39867,2,0,L|492:323,1,65,2|2,0:3|0:0,0:0:0:0:
416,357,40267,2,0,P|373:323|315:335,1,97.5,2|0,0:3|0:3,0:0:0:0:
310,341,40667,6,0,L|228:329,1,65,6|2,1:2|0:0,0:0:0:0:
160,362,41067,2,0,P|91:370|39:322,1,130,8|0,0:0|1:0,0:0:0:0:
7,252,41667,1,0,1:0:0:0:
95,229,41867,2,0,L|106:150,1,65,8|2,0:0|0:0,0:0:0:0:
88,79,42267,5,0,1:0:0:0:
88,79,42467,2,0,L|6:99,1,65,2|8,0:0|0:0,0:0:0:0:
176,111,42867,2,0,L|314:79,1,130,2|0,0:0|1:0,0:0:0:0:
362,12,43467,1,8,0:0:0:0:
445,48,43667,6,0,L|434:134,1,65,2|0,0:0|1:0,0:0:0:0:
361,161,44067,1,2,0:0:0:0:
361,161,44267,2,0,L|372:247,1,65,8|2,0:0|0:0,0:0:0:0:
345,313,44667,2,0,P|315:333|280:331,1,65,0|0,1:0|1:0,0:0:0:0:
243,252,45067,2,0,P|213:232|178:234,1,65,8|2,0:0|0:0,0:0:0:0:
110,284,45467,5,0,1:0:0:0:
47,217,45667,2,0,L|60:72,2,130,2|2|0,0:0|0:0|1:0,0:0:0:0:
110,284,46667,1,8,0:0:0:0:
184,231,46867,1,8,0:0:0:0:
184,231,46967,1,8,0:0:0:0:
184,231,47067,6,0,P|267:225|308:278,1,130,0|8,1:0|0:0,0:0:0:0:
350,328,47667,2,0,L|312:343,2,32.5,2|8|0,0:0|0:0|1:0,0:0:0:0:
402,254,48067,1,0,1:0:0:0:
402,254,48267,2,0,L|386:170,1,65,8|2,0:0|0:0,0:0:0:0:
470,148,48667,6,0,P|502:86|469:25,1,130,0|8,1:0|0:0,0:0:0:0:
392,9,49267,1,2,0:0:0:0:
392,9,49367,1,8,0:0:0:0:
392,9,49467,1,0,1:0:0:0:
328,73,49667,1,8,0:0:0:0:
328,73,49767,1,8,0:0:0:0:
328,73,49867,2,0,L|278:65,3,32.5,8|8|4|4,3:0|3:0|3:0|3:0,0:0:0:0:
270,94,50267,6,0,P|214:103|153:45,1,130,6|8,1:2|0:0,0:0:0:0:
75,75,50867,1,2,0:0:0:0:
75,75,50967,1,8,0:0:0:0:
75,75,51067,2,0,L|60:161,1,65,0|0,1:0|1:0,0:0:0:0:
146,177,51467,2,0,L|131:263,1,65,8|0,0:0|1:0,0:0:0:0:
96,323,51867,6,0,P|163:280|232:291,1,130,0|8,1:0|0:0,0:0:0:0:
261,207,52467,1,2,0:0:0:0:
340,250,52667,2,0,L|424:260,2,65,0|0|8,1:0|1:0|0:0,0:0:0:0:
268,214,53267,1,8,0:0:0:0:
268,214,53367,1,8,0:0:0:0:
268,214,53467,6,0,P|237:170|260:92,1,130,6|8,1:2|0:0,0:0:0:0:
324,43,54067,2,0,L|347:116,1,65,0|14,1:0|0:0,0:0:0:0:
406,0,54467,1,0,1:0:0:0:
406,0,54667,2,0,L|430:80,1,65,8|0,0:0|1:0,0:0:0:0:
509,172,55067,6,0,B|490:160|480:142|480:142|423:140|386:193,1,146.250005578995,14|2,1:2|0:0,0:0:0:0:
351,269,55867,1,0,1:0:0:0:
274,241,56067,1,8,0:0:0:0:
274,241,56167,1,8,0:0:0:0:
274,241,56267,2,0,L|219:251,3,32.5,8|8|8|8,0:0|0:0|0:0|0:0,0:0:0:0:
213,262,56667,5,6,0:0:0:0:
143,190,56867,1,0,1:0:0:0:
59,244,57067,2,0,L|46:329,1,71.5000021820069,8|2,0:0|1:2,0:0:0:0:
143,190,57467,2,0,P|144:109|80:70,1,143.000004364014,0|8,1:0|0:0,0:0:0:0:
167,0,58067,1,2,0:0:0:0:
167,0,58167,1,8,0:0:0:0:
167,0,58267,6,0,L|257:11,1,71.5000021820069,0|0,1:0|1:0,0:0:0:0:
293,92,58667,2,0,P|362:95|410:45,1,143.000004364014,8|0,0:0|1:0,0:0:0:0:
497,94,59267,1,0,1:0:0:0:
430,168,59467,2,0,L|419:261,1,71.5000021820069,8|0,0:0|0:0,0:0:0:0:
460,331,59867,6,0,P|408:283|339:286,1,143.000004364014,0|8,1:0|0:0,0:0:0:0:
258,341,60467,1,2,0:0:0:0:
258,341,60567,1,8,0:0:0:0:
258,341,60667,2,0,L|251:390,2,35.7500010910034,0|8|0,1:0|0:0|1:0,0:0:0:0:
172,287,61067,2,0,P|137:240|170:152,1,143.000004364014,8|0,0:0|1:0,0:0:0:0:
235,100,61667,5,0,1:0:0:0:
318,155,61867,2,0,L|406:136,1,71.5000021820069,8|2,0:0|0:0,0:0:0:0:
423,130,62167,1,8,0:0:0:0:
423,130,62267,2,0,L|437:80,3,35.7500010910034,0|8|0|8,1:0|0:0|1:0|0:0,0:0:0:0:
414,65,62667,2,0,L|428:15,3,35.7500010910034,8|8|8|8,0:0|0:0|0:0|0:0,0:0:0:0:
398,6,63067,5,6,1:2:0:0:
313,59,63267,1,0,1:0:0:0:
226,8,63467,2,0,L|132:30,1,71.5000021820069,8|2,0:0|1:2,0:0:0:0:
59,49,63867,2,0,P|142:71|165:143,1,143.000004364014,0|8,1:0|0:0,0:0:0:0:
94,189,64467,1,2,0:0:0:0:
94,189,64567,1,8,0:0:0:0:
94,189,64667,6,0,L|77:282,1,71.5000021820069,0|0,1:0|1:0,0:0:0:0:
167,311,65067,2,0,L|182:220,1,71.5000021820069,8|2,0:0|0:0,0:0:0:0:
206,217,65367,1,8,0:0:0:0:
206,217,65467,2,0,L|257:206,2,35.7500010910034,0|8|0,1:0|0:0|1:0,0:0:0:0:
257,119,65867,2,0,L|350:102,1,71.5000021820069,8|2,0:0|0:0,0:0:0:0:
416,152,66267,6,0,P|365:93|388:24,1,143.000004364014,0|8,1:0|0:0,0:0:0:0:
479,7,66867,1,2,0:0:0:0:
479,7,66967,1,8,0:0:0:0:
479,7,67067,2,0,L|462:97,1,71.5000021820069,0|0,1:0|1:0,0:0:0:0:
511,167,67467,2,0,L|494:257,1,71.5000021820069,8|8,0:0|0:0,0:0:0:0:
474,264,67767,1,8,0:0:0:0:
474,264,67867,5,0,1:0:0:0:
387,214,68067,1,0,1:0:0:0:
314,283,68267,2,0,L|297:373,1,71.5000021820069,8|8,0:0|0:0,0:0:0:0:
267,374,68567,1,8,0:0:0:0:
267,374,68667,2,0,L|217:383,3,35.7500010910034,8|8|0|8,1:2|0:0|1:0|0:0,0:0:0:0:
202,357,69067,2,0,L|152:366,3,35.7500010910034,8|8|4|4,0:0|3:0|3:0|3:0,0:0:0:0:
139,341,69467,6,0,P|56:339|24:270,1,143.000004364014,6|8,1:2|0:0,0:0:0:0:
27,201,70067,1,2,1:2:0:0:
27,201,70167,1,8,0:0:0:0:
27,201,70267,2,0,L|74:210,2,35.7500010910034,0|8|0,1:0|0:0|1:0,0:0:0:0:
123,145,70667,2,0,L|112:52,1,71.5000021820069,8|2,0:0|0:0,0:0:0:0:
193,11,71067,6,0,P|275:16|310:86,1,143.000004364014,0|8,1:0|0:0,0:0:0:0:
409,101,71667,1,2,0:0:0:0:
409,101,71767,1,8,0:0:0:0:
409,101,71867,2,0,P|327:106|292:176,1,143.000004364014,0|8,1:0|0:0,0:0:0:0:
346,237,72467,1,2,0:0:0:0:
253,275,72667,6,0,L|239:362,1,71.5000021820069,0|0,1:0|1:0,0:0:0:0:
145,384,73067,1,8,0:0:0:0:
67,337,73267,1,2,0:0:0:0:
67,337,73367,1,8,0:0:0:0:
67,337,73467,2,0,L|13:345,2,35.7500010910034,0|8|0,1:0|0:0|1:0,0:0:0:0:
152,284,73867,2,0,L|164:200,1,71.5000021820069,8|2,0:0|0:0,0:0:0:0:
91,148,74267,5,0,1:0:0:0:
91,148,74467,2,0,P|49:155|19:198,2,71.5000021820069,2|8|2,1:2|0:0|0:0,0:0:0:0:
162,213,75067,2,0,P|204:206|234:163,1,71.5000021820069,0|8,1:0|1:2,0:0:0:0:
246,160,75367,1,8,0:0:0:0:
246,160,75467,1,8,0:0:0:0:
352,177,75667,1,8,0:0:0:0:
352,177,75767,1,8,0:0:0:0:
352,177,75867,6,0,L|340:100,1,71.5000021820069,12|0,1:2|1:0,0:0:0:0:
427,54,76267,1,10,0:0:0:0:
343,0,76467,2,0,B|262:-12|288:57|185:31,1,143.000004364014,2|0,1:2|1:0,0:0:0:0:
116,0,77067,1,10,0:0:0:0:
52,78,77267,1,0,1:0:0:0:
52,78,77367,1,8,0:0:0:0:
52,78,77467,6,0,L|40:166,1,71.5000021820069,14|0,0:0|1:0,0:0:0:0:
130,241,77867,2,0,L|140:171,1,71.5000021820069,14|0,0:0|1:0,0:0:0:0:
29,256,78267,1,2,0:0:0:0:
44,353,91867,6,0,L|53:281,1,65,4|2,1:2|0:0,0:0:0:0:
142,274,92267,2,0,L|151:202,1,65,0|2,1:0|0:0,0:0:0:0:
83,146,92667,2,0,P|49:149|20:174,2,65,0|2|0,1:0|0:0|1:0,0:0:0:0:
159,93,93267,1,2,0:0:0:0:
159,93,93367,1,2,0:0:0:0:
159,93,93467,5,0,1:0:0:0:
244,125,93667,2,0,L|234:212,1,65,2|0,0:0|1:0,0:0:0:0:
304,249,94067,2,0,P|379:251|419:203,1,130,2|2,0:0|0:0,0:0:0:0:
469,142,94667,2,0,L|400:125,1,65,8|2,0:0|0:0,0:0:0:0:
326,82,95067,6,0,L|315:-4,1,65,4|2,1:2|0:0,0:0:0:0:
226,6,95467,2,0,L|234:70,1,65,0|2,1:0|0:0,0:0:0:0:
166,130,95867,2,0,P|128:127|104:104,2,65,0|2|0,1:0|0:0|1:0,0:0:0:0:
248,168,96467,2,0,L|257:239,1,65,2|0,0:0|1:0,0:0:0:0:
219,315,96867,6,0,P|281:275|339:286,2,130,2|2|2,0:0|0:0|0:0,0:0:0:0:
155,381,97867,1,0,1:0:0:0:
86,337,98067,1,8,0:0:0:0:
86,337,98167,1,8,0:0:0:0:
86,337,98267,6,0,L|104:193,1,130,0|0,1:0|1:0,0:0:0:0:
149,130,98867,1,2,0:0:0:0:
80,70,99067,2,0,L|9:85,1,65,0|2,1:0|0:0,0:0:0:0:
149,130,99467,2,0,L|212:116,1,65,0|2,1:0|0:0,0:0:0:0:
249,135,99767,1,2,0:0:0:0:
249,135,99867,6,0,P|291:181|370:165,1,130,0|0,1:0|1:0,0:0:0:0:
433,128,100467,1,2,0:0:0:0:
433,128,100567,1,8,0:0:0:0:
433,128,100667,2,0,L|448:187,3,32.5,0|8|8|8,1:0|0:0|3:0|3:0,0:0:0:0:
475,172,101067,2,0,L|490:231,3,32.5,4|4|4|4,3:0|3:0|3:0|3:0,0:0:0:0:
509,228,101467,6,0,P|446:240|362:262,1,130,6|8,1:2|0:0,0:0:0:0:
302,288,102067,1,2,0:0:0:0:
302,288,102167,1,2,0:0:0:0:
302,288,102267,2,0,P|295:250|282:205,1,65,0|0,1:0|1:0,0:0:0:0:
357,165,102667,2,0,P|400:109|363:36,2,130,8|0|8,0:0|1:2|0:0,0:0:0:0:
270,136,103667,5,2,0:0:0:0:
206,200,103867,2,0,L|124:195,1,65,0|0,1:0|1:0,0:0:0:0:
70,253,104267,1,8,0:0:0:0:
7,202,104467,1,8,0:0:0:0:
7,202,104567,1,8,0:0:0:0:
7,202,104667,6,0,P|7:136|58:96,1,130,4|8,1:2|0:0,0:0:0:0:
124,40,105267,2,0,L|147:120,1,65,0|12,1:0|0:0,0:0:0:0:
223,142,105667,1,0,1:0:0:0:
291,81,105867,2,0,L|355:89,1,65,12|0,0:0|1:0,0:0:0:0:
389,97,106167,1,8,0:0:0:0:
389,97,106267,5,2,0:0:0:0:
70,253,107467,1,0,1:0:0:0:
70,253,107867,6,0,L|154:240,1,71.5000021820069,6|0,0:0|1:0,0:0:0:0:
231,285,108267,1,8,0:0:0:0:
311,224,108467,1,2,1:2:0:0:
311,224,108567,1,8,0:0:0:0:
311,224,108667,2,0,P|315:156|232:109,1,143.000004364014,0|8,1:0|0:0,0:0:0:0:
166,79,109267,1,2,0:0:0:0:
229,1,109467,6,0,L|313:20,1,71.5000021820069,0|2,1:0|0:0,0:0:0:0:
166,79,109867,2,0,L|26:108,1,143.000004364014,8|0,0:0|1:0,0:0:0:0:
0,205,110467,1,0,1:0:0:0:
96,229,110667,2,0,L|114:325,1,71.5000021820069,8|0,0:0|0:0,0:0:0:0:
200,350,111067,6,0,P|264:351|309:286,1,143.000004364014,0|8,1:0|0:0,0:0:0:0:
302,200,111667,1,2,0:0:0:0:
302,200,111767,1,8,0:0:0:0:
302,200,111867,2,0,L|246:212,2,35.7500010910034,0|8|0,1:0|0:0|1:0,0:0:0:0:
392,243,112267,2,0,L|479:225,1,71.5000021820069,8|2,0:0|0:0,0:0:0:0:
512,140,112667,5,0,1:0:0:0:
418,105,112867,2,0,L|430:12,1,71.5000021820069,0|8,1:0|0:0,0:0:0:0:
338,12,113267,1,2,0:0:0:0:
338,12,113367,1,8,0:0:0:0:
338,12,113467,2,0,P|292:16|263:46,1,71.5000021820069,0|0,1:0|1:0,0:0:0:0:
237,124,113867,2,0,L|188:108,3,35.7500010910034,8|8|8|8,0:0|0:0|0:0|0:0,0:0:0:0:
173,123,114267,5,6,1:2:0:0:
96,58,114467,1,0,1:0:0:0:
31,134,114667,2,0,L|18:237,1,71.5000021820069,8|2,0:0|1:2,0:0:0:0:
92,277,115067,2,0,P|150:231|234:251,1,143.000004364014,0|8,1:0|0:0,0:0:0:0:
307,297,115667,1,2,0:0:0:0:
307,297,115767,1,8,0:0:0:0:
307,297,115867,6,0,L|382:277,1,71.5000021820069,0|0,1:0|1:0,0:0:0:0:
435,197,116267,2,0,L|365:180,1,71.5000021820069,8|2,0:0|0:0,0:0:0:0:
340,159,116567,1,8,0:0:0:0:
340,159,116667,2,0,L|329:117,2,35.7500010910034,0|8|0,1:0|0:0|1:0,0:0:0:0:
416,84,117067,2,0,L|393:1,1,71.5000021820069,8|0,0:0|0:0,0:0:0:0:
296,10,117467,6,0,P|235:30|214:109,1,143.000004364014,0|8,1:0|0:0,0:0:0:0:
237,206,118067,1,2,0:0:0:0:
237,206,118167,1,8,0:0:0:0:
237,206,118267,2,0,L|143:190,1,71.5000021820069,0|0,1:0|1:0,0:0:0:0:
77,241,118667,2,0,L|57:172,1,71.5000021820069,8|2,0:0|0:0,0:0:0:0:
53,145,118967,1,8,0:0:0:0:
53,145,119067,5,0,1:0:0:0:
130,82,119267,2,0,L|210:95,1,71.5000021820069,0|8,1:0|0:0,0:0:0:0:
302,135,119667,1,8,0:0:0:0:
302,135,119767,1,8,0:0:0:0:
302,135,119867,2,0,L|311:88,3,35.7500010910034,0|8|8|8,1:0|0:0|1:3|1:3,0:0:0:0:
342,85,120267,2,0,L|353:29,3,35.7500010910034,4|4|4|4,1:3|1:3|3:0|3:0,0:0:0:0:
381,33,120667,6,0,P|450:26|499:89,1,143.000004364014,6|8,1:2|0:0,0:0:0:0:
483,182,121267,1,2,1:2:0:0:
483,182,121367,1,8,0:0:0:0:
483,182,121467,2,0,L|385:198,1,71.5000021820069,0|0,1:0|1:0,0:0:0:0:
314,169,121867,1,8,0:0:0:0:
255,251,122067,1,2,0:0:0:0:
255,251,122167,1,8,0:0:0:0:
255,251,122267,6,0,P|167:254|129:211,1,143.000004364014,0|8,1:0|0:0,0:0:0:0:
122,126,122867,1,2,0:0:0:0:
122,126,122967,1,8,0:0:0:0:
122,126,123067,2,0,L|137:46,1,71.5000021820069,0|0,1:0|1:0,0:0:0:0:
53,0,123467,1,8,0:0:0:0:
11,94,123667,1,0,1:0:0:0:
11,94,123767,1,8,0:0:0:0:
11,94,123867,6,0,L|-4:189,1,71.5000021820069,0|0,1:0|1:0,0:0:0:0:
87,213,124267,1,8,0:0:0:0:
153,137,124467,2,0,P|226:101|291:129,1,143.000004364014,2|0,0:0|1:0,0:0:0:0:
346,195,125067,1,8,0:0:0:0:
272,261,125267,1,2,0:0:0:0:
272,261,125367,1,8,0:0:0:0:
272,261,125467,6,0,L|262:353,1,71.5000021820069,0|0,1:0|1:0,0:0:0:0:
171,370,125867,1,8,0:0:0:0:
109,304,126067,1,2,1:2:0:0:
109,304,126167,1,8,0:0:0:0:
109,304,126267,2,0,L|60:297,3,35.7500010910034,0|8|0|8,1:0|0:0|1:0|0:0,0:0:0:0:
40,285,126667,2,0,P|23:261|29:204,1,71.5000021820069,8|8,0:0|0:0,0:0:0:0:
50,197,126967,1,8,0:0:0:0:
50,197,127067,6,0,L|41:124,1,71.5000021820069,14|0,0:0|1:0,0:0:0:0:
119,6,127467,2,0,L|129:77,1,71.5000021820069,10|0,0:0|1:0,0:0:0:0:
233,173,127867,2,0,L|225:103,1,71.5000021820069,10|0,0:0|1:0,0:0:0:0:
311,51,128267,1,10,0:0:0:0:
395,121,128467,1,0,1:0:0:0:
395,121,128567,1,8,0:0:0:0:
395,121,128667,6,0,L|486:129,1,71.5000021820069,14|0,0:0|1:0,0:0:0:0:
512,229,129067,2,0,L|441:224,1,71.5000021820069,14|0,0:0|1:0,0:0:0:0:
360,286,129467,1,2,0:0:0:0:
104,219,130067,5,2,0:0:0:0:
104,219,130167,1,2,0:0:0:0:
104,219,130267,2,0,P|172:156|282:175,1,195,6|0,0:0|1:0,0:0:0:0:
350,203,131067,2,0,B|303:154|303:154|340:23,1,195,8|8,0:0|0:0,0:0:0:0:
250,4,131867,5,6,0:0:0:0:
177,59,132067,2,0,B|106:64|130:12|28:32,1,130,8|0,0:0|0:0,0:0:0:0:
2,103,132667,2,0,P|18:168|27:236,1,130,8|0,0:0|1:0,0:0:0:0:
124,251,133267,1,8,0:0:0:0:
124,251,133367,1,8,0:0:0:0:
124,251,133467,6,0,P|156:282|143:353,2,97.5,4|2|0,1:2|0:0|1:0,0:0:0:0:
189,187,134267,2,0,P|219:147|208:95,2,97.5,12|2|8,0:0|0:0|0:0,0:0:0:0:
249,254,135067,6,0,B|355:275|330:186|444:210,1,195,6|2,0:0|0:0,0:0:0:0:
506,157,135867,2,0,L|495:88,1,65,6|8,0:0|0:0,0:0:0:0:
450,13,136267,1,0,1:0:0:0:
388,80,136467,1,8,0:0:0:0:
388,80,136567,1,8,0:0:0:0:
388,80,136667,6,0,L|248:61,1,130,4|8,1:2|0:0,0:0:0:0:
224,148,137267,1,2,0:0:0:0:
223,147,137467,2,0,L|79:127,1,130,0|8,1:0|0:0,0:0:0:0:
10,106,138067,1,2,0:0:0:0:
10,106,138267,6,0,P|60:155|48:236,1,130,0|8,1:0|0:0,0:0:0:0:
11,287,138867,1,2,0:0:0:0:
86,338,139067,2,0,L|175:321,1,65,0|0,1:0|1:0,0:0:0:0:
225,376,139467,1,8,0:0:0:0:
306,330,139667,1,8,0:0:0:0:
306,330,139767,1,8,0:0:0:0:
306,330,139867,6,0,L|452:301,1,130,14|10,0:0|0:0,0:0:0:0:
464,218,140467,1,0,1:0:0:0:
378,187,140667,2,0,L|250:212,1,130,10|10,0:0|0:0,0:0:0:0:
220,302,141267,1,4,3:0:0:0:
220,302,141367,1,8,3:0:0:0:
220,302,141467,5,6,0:0:0:0:
256,192,141567,12,2,144667,0:0:0:0:
274,347,157467,6,0,L|206:340,1,65,0|2,1:0|0:0,0:0:0:0:
163,261,157867,2,0,L|95:254,1,65,0|2,1:0|0:0,0:0:0:0:
39,184,158267,2,0,P|66:127|143:118,1,130,0|0,1:0|1:0,0:0:0:0:
206,66,158867,1,2,0:0:0:0:
206,66,159067,6,0,L|231:199,1,130,0|0,1:0|1:0,0:0:0:0:
311,244,159667,1,2,0:0:0:0:
311,244,159867,2,0,P|391:241|425:198,1,130,0|0,1:0|1:0,0:0:0:0:
469,132,160467,1,2,0:0:0:0:
469,132,160567,1,2,0:0:0:0:
469,132,160667,6,0,L|393:121,1,65,0|2,1:0|0:0,0:0:0:0:
364,41,161067,1,0,1:0:0:0:
281,79,161267,2,0,L|129:60,1,130,2|2,0:0|0:0,0:0:0:0:
62,48,161867,2,0,L|77:138,1,65,0|2,1:0|0:0,0:0:0:0:
115,190,162267,6,0,P|62:154|0:165,2,130,2|0|0,1:2|1:0|1:0,0:0:0:0:
182,252,163267,1,2,0:0:0:0:
103,298,163467,2,0,L|95:380,1,65,0|2,1:0|0:0,0:0:0:0:
130,381,163767,1,2,0:0:0:0:
130,381,163867,6,0,L|276:363,1,130,0|0,1:0|1:0,0:0:0:0:
286,278,164467,2,0,P|257:241|272:160,1,130,2|2,0:0|0:0,0:0:0:0:
354,132,165067,2,0,L|358:67,1,65,0|2,1:0|0:0,0:0:0:0:
276,27,165467,5,6,0:0:0:0:
122,124,165867,2,0,L|46:114,1,65,6|0,0:0|0:0,0:0:0:0:
6,198,166267,5,8,0:0:0:0:
22,200,166367,1,8,3:0:0:0:
38,202,166467,1,4,3:0:0:0:
55,204,166567,1,4,3:0:0:0:
71,206,166667,2,0,B|47:235|47:235|70:304,1,97.50000371933,4|2,3:2|0:0,0:0:0:0:
66,292,167467,6,0,P|144:285|202:349,1,143.000004364014,6|0,0:0|1:0,0:0:0:0:
207,360,167967,1,8,0:0:0:0:
207,360,168067,1,0,1:0:0:0:
293,310,168267,2,0,P|306:269|284:220,1,71.5000021820069,8|2,0:0|0:0,0:0:0:0:
282,216,168567,1,8,0:0:0:0:
282,216,168667,6,0,P|309:186|351:186,1,71.5000021820069,0|0,1:0|1:0,0:0:0:0:
433,213,169067,2,0,P|384:174|399:75,1,143.000004364014,8|0,0:0|1:0,0:0:0:0:
449,23,169667,1,0,1:0:0:0:
351,0,169867,2,0,P|311:17|293:49,1,71.5000021820069,8|2,0:0|0:0,0:0:0:0:
285,139,170267,6,0,B|214:137|240:89|143:95,1,143.000004364014,0|8,1:0|0:0,0:0:0:0:
77,157,170867,1,2,1:2:0:0:
77,157,170967,1,8,0:0:0:0:
77,157,171067,2,0,L|31:151,2,35.7500010910034,0|8|0,1:0|0:0|1:0,0:0:0:0:
169,197,171467,2,0,P|187:235|181:269,1,71.5000021820069,8|2,0:0|0:0,0:0:0:0:
109,331,171867,5,0,1:0:0:0:
199,372,172067,2,0,P|242:361|269:325,1,71.5000021820069,2|8,1:2|0:0,0:0:0:0:
314,261,172467,1,2,1:2:0:0:
314,261,172567,1,8,0:0:0:0:
314,261,172667,2,0,P|357:272|384:308,1,71.5000021820069,0|0,1:0|1:0,0:0:0:0:
421,379,173067,2,0,P|464:368|491:332,1,71.5000021820069,8|8,0:0|0:0,0:0:0:0:
499,320,173367,1,8,0:0:0:0:
499,320,173467,6,0,P|473:286|476:243,1,71.5000021820069,6|0,1:2|1:0,0:0:0:0:
509,165,173867,1,8,0:0:0:0:
423,134,174067,1,2,1:2:0:0:
423,134,174167,1,8,0:0:0:0:
423,134,174267,2,0,B|344:124|371:191|269:174,1,143.000004364014,0|8,1:0|0:0,0:0:0:0:
214,130,174867,1,8,0:0:0:0:
214,130,174967,1,8,0:0:0:0:
214,130,175067,6,0,P|231:91|225:55,1,71.5000021820069,0|0,1:0|1:0,0:0:0:0:
129,45,175467,2,0,P|112:84|118:120,1,71.5000021820069,8|2,0:0|0:0,0:0:0:0:
129,150,175767,1,8,0:0:0:0:
129,150,175867,2,0,P|87:185|47:183,1,71.5000021820069,0|0,1:0|1:0,0:0:0:0:
0,256,176267,2,0,P|33:266|56:293,1,71.5000021820069,8|2,0:0|0:0,0:0:0:0:
69,332,176567,1,8,0:0:0:0:
69,332,176667,6,0,P|120:290|212:297,1,143.000004364014,0|8,1:0|0:0,0:0:0:0:
275,348,177267,1,2,0:0:0:0:
275,348,177367,1,8,0:0:0:0:
275,348,177467,2,0,L|270:386,2,35.7500010910034,0|8|0,1:0|0:0|1:0,0:0:0:0:
354,286,177867,2,0,P|375:248|364:204,1,71.5000021820069,10|2,0:0|0:0,0:0:0:0:
354,197,178167,1,8,0:0:0:0:
354,197,178267,5,4,1:2:0:0:
443,152,178467,2,0,P|426:120|396:103,1,71.5000021820069,0|8,1:0|0:0,0:0:0:0:
302,109,178867,1,8,0:0:0:0:
302,109,178967,1,8,0:0:0:0:
302,109,179067,1,4,1:2:0:0:
261,28,179267,1,8,1:2:0:0:
261,28,179367,1,8,0:0:0:0:
261,28,179467,2,0,L|215:35,3,35.7500010910034,10|8|8|8,0:0|0:0|0:0|0:0,0:0:0:0:
203,62,179867,6,0,P|150:14|60:49,1,143.000004364014,6|8,1:2|0:0,0:0:0:0:
0,0,180467,1,2,1:2:0:0:
0,0,180567,1,8,0:0:0:0:
0,0,180667,2,0,P|52:34|42:130,1,143.000004364014,0|8,1:0|0:0,0:0:0:0:
9,197,181267,1,2,0:0:0:0:
90,255,181467,6,0,B|168:270|145:201|238:221,1,143.000004364014,0|8,1:0|0:0,0:0:0:0:
318,270,182067,1,2,0:0:0:0:
318,270,182167,1,8,0:0:0:0:
318,270,182267,2,0,P|274:216|301:127,1,143.000004364014,0|8,1:0|0:0,0:0:0:0:
344,67,182867,1,2,0:0:0:0:
432,114,183067,6,0,P|475:167|466:236,1,143.000004364014,0|8,1:0|0:0,0:0:0:0:
406,318,183667,1,2,0:0:0:0:
406,318,183767,1,8,0:0:0:0:
406,318,183867,2,0,L|399:362,2,35.7500010910034,0|8|0,1:0|0:0|1:0,0:0:0:0:
318,270,184267,2,0,P|289:291|234:288,1,71.5000021820069,8|2,0:0|0:0,0:0:0:0:
225,285,184567,1,8,0:0:0:0:
225,285,184667,5,0,1:0:0:0:
263,192,184867,1,2,1:2:0:0:
193,120,185067,2,0,P|165:102|111:107,1,71.5000021820069,8|2,0:0|0:0,0:0:0:0:
97,115,185367,1,8,0:0:0:0:
97,115,185467,2,0,L|78:69,2,35.7500010910034,0|8|8,1:0|0:0|3:0,0:0:0:0:
139,206,185867,1,8,3:0:0:0:
65,272,186067,1,4,3:0:0:0:
65,272,186167,1,4,3:0:0:0:
65,272,186267,6,0,P|42:328|55:353,1,71.5000021820069,14|0,0:0|1:0,0:0:0:0:
138,371,186667,2,0,P|174:350|231:352,1,71.5000021820069,10|0,0:0|1:0,0:0:0:0:
268,270,187067,2,0,P|304:291|361:289,1,71.5000021820069,14|0,0:0|1:0,0:0:0:0:
427,259,187467,1,10,0:0:0:0:
366,192,187667,1,8,0:0:0:0:
366,192,187767,1,8,0:0:0:0:
366,192,187867,6,0,P|351:164|353:113,1,71.5000021820069,14|2,1:2|1:2,0:0:0:0:
429,27,188267,2,0,P|442:58|442:94,1,71.5000021820069,14|2,1:2|1:2,0:0:0:0:
334,22,188667,1,2,0:0:0:0:
