osu file format v14

[General]
AudioFilename: audio.mp3
AudioLeadIn: 0
PreviewTime: -1
Countdown: 0
SampleSet: Soft
StackLeniency: 0.7
Mode: 0
LetterboxInBreaks: 0
WidescreenStoryboard: 0

[Editor]
DistanceSpacing: 0.8
BeatDivisor: 4
GridSize: 32
TimelineZoom: 1

[Metadata]
Title:Sanctuary
TitleUnicode:サンクチュアリ
Artist:Kano
ArtistUnicode:鹿乃
Creator:rohasshiki
Version:Insane
Source:
Tags:utaite utattemita nico nico douga
BeatmapID:1410172
BeatmapSetID:666290

[Difficulty]
HPDrainRate:6
CircleSize:4
OverallDifficulty:7.5
ApproachRate:9
SliderMultiplier:1.2
SliderTickRate:1

[Events]
//Background and Video events
0,0,"Kano_Official_Site_BG.png",0,0
//Break Periods
2,148039,152602
//Storyboard Layer 0 (Background)
//Storyboard Layer 1 (Fail)
//Storyboard Layer 2 (Pass)
//Storyboard Layer 3 (Foreground)
//Storyboard Sound Samples

[TimingPoints]
7057,335.195530726257,4,1,0,100,1,0
8062,-100,4,2,0,30,0,0
45269,-200,4,2,0,30,0,0
45939,-83.3333333333333,4,2,0,30,0,1
62029,-83.3333333333333,4,2,0,30,0,0
83146,-100,4,2,0,30,0,0
112811,-83.3333333333333,4,2,0,30,0,0
120017,-200,4,2,0,30,0,0
121023,-76.9230769230769,4,2,0,30,0,1
137029,-76.9230769230769,4,2,0,30,0,0
147839,-133.333333333333,4,2,0,30,0,0
158565,-100,4,2,0,30,0,0

[HitObjects]
91,108,8064,6,0,L|66:40,1,60
105,138,8397,2,0,P|167:201|254:204,1,180
327,123,9068,2,0,P|359:172|359:231,1,120
276,331,9570,2,0,B|271:264|271:264|284:306|333:351|408:350|443:288|454:254,1,300
433,88,10744,6,0,L|411:20,1,60
443,122,11079,2,0,P|413:205|336:247,1,180
215,246,11749,2,0,P|228:307|275:353,1,120
377,338,12252,2,0,B|415:289|415:289|330:308|279:282|262:208|321:174|346:165|368:200|369:222,1,300
92,286,13425,6,0,L|69:354,1,60
102,247,13760,2,0,P|151:172|231:132,1,180
338,147,14431,2,0,P|324:190|293:222,2,90
403,76,15101,2,0,P|357:55|291:67,1,120
231,132,15604,6,0,L|208:197,1,60
110,255,16107,1,0,0:0:0:0:
233,307,16442,2,0,P|277:296|340:227,1,120
371,143,16945,2,0,P|336:90|207:56,1,180
129,85,17615,2,0,B|57:122|21:201|74:271|135:260|192:220|195:179|145:161|116:171,1,300
211,53,18788,6,0,P|249:43|290:42,1,60
355,69,19124,2,0,B|378:68|378:68|357:114|377:186,1,120
424,238,19626,1,0,0:0:0:0:
424,238,19794,2,0,B|428:276|447:310|447:310|422:313|405:299,1,120
311,239,20297,2,0,P|288:198|161:193,1,180
72,120,21135,2,0,P|46:97|90:111,1,120
65,208,21638,5,0,0:0:0:0:
65,208,21805,2,0,B|67:244|67:244|89:212|146:220,1,120
244,230,22308,1,0,0:0:0:0:
244,230,22475,2,0,B|286:211|299:172|299:172|311:223,1,120
310,308,22978,2,0,P|347:301|402:175,1,180
375,31,23816,1,0,0:0:0:0:
220,50,24151,6,0,L|162:103,1,60
97,164,24487,2,0,P|76:197|116:267,1,120
237,300,24989,1,0,0:0:0:0:
237,300,25157,2,0,B|270:311|305:283,1,60
386,209,25492,1,0,0:0:0:0:
351,78,25660,2,0,B|376:52|376:52|311:26|230:42|226:83,1,180
214,174,26330,5,0,0:0:0:0:
214,174,26498,1,0,0:0:0:0:
393,314,26833,1,0,0:0:0:0:
155,361,27168,6,0,P|100:321|39:319,1,120
114,243,27671,2,0,P|88:206|87:126,1,120
144,56,28174,2,0,P|170:93|171:173,1,120
114,243,28844,1,0,0:0:0:0:
184,312,29179,1,0,0:0:0:0:
264,239,29515,1,0,0:0:0:0:
264,239,29682,1,0,0:0:0:0:
264,239,29850,6,0,P|303:203|373:179,1,120
465,218,30353,2,0,P|426:254|356:278,1,120
264,239,30855,1,0,0:0:0:0:
162,192,31023,2,0,B|273:86|136:65|190:12|302:-47|346:123|228:50,1,300
111,40,32196,6,0,L|85:103,1,60
53,181,32531,2,0,P|41:233|65:309,1,120
141,356,33034,2,0,P|149:297|135:240,1,120
53,181,33537,1,0,0:0:0:0:
53,181,33705,2,0,P|97:145|221:169,1,180
272,275,34543,1,0,0:0:0:0:
477,282,34878,6,0,P|482:237|476:195,1,60
474,136,35213,2,0,P|430:104|411:35,1,120
316,27,35716,2,0,P|284:71|215:90,1,120,0|0,0:3|0:3,0:3:0:0:
123,118,36219,1,0,0:0:0:0:
123,118,36386,2,0,P|126:177|100:230,1,120
22,303,36889,1,0,0:0:0:0:
22,303,37057,2,0,P|55:331|151:326,1,120
235,301,37559,1,0,0:0:0:0:
235,301,37727,2,0,B|277:286|350:358|350:358|409:349|470:302|494:221|470:165|397:133|316:147|284:181|342:249|360:271|384:263,1,540
359,132,39570,5,0,0:0:0:0:
256,72,39906,1,0,0:0:0:0:
152,132,40241,1,0,0:0:0:0:
152,252,40576,5,0,0:0:0:0:
152,132,40911,1,0,0:0:0:0:
256,72,41246,1,0,0:0:0:0:
359,132,41582,1,0,0:0:0:0:
359,252,41917,1,0,0:0:0:0:
255,312,42252,1,0,0:0:0:0:
256,192,42587,5,0,0:0:0:0:
148,133,42922,2,0,P|133:192|153:259,1,120
256,192,43341,12,0,44933,0:0:0:0:
349,98,45269,6,0,B|348:64|348:64|372:92|415:107,1,105
437,125,45939,6,0,P|450:169|427:281,1,143.999995605469
75,259,46610,2,0,P|62:215|85:103,1,143.999995605469
167,49,47112,1,0,0:0:0:0:
284,52,47280,2,0,L|335:102,1,71.9999978027344
440,131,47615,2,0,B|417:212|323:212,1,143.999995605469
457,325,48286,1,0,0:0:0:0:
298,323,48621,6,0,P|242:297|196:204,1,143.999995605469
214,61,49291,2,0,P|270:87|316:180,1,143.999995605469,0|0,3:0|3:0,3:0:0:0:
301,244,49794,1,0,0:0:0:0:
228,299,49962,2,0,L|289:349,1,71.9999978027344
199,275,50297,2,0,P|161:242|69:197,1,143.999995605469
140,57,50967,1,0,0:0:0:0:
328,66,51302,6,0,L|401:98,1,71.9999978027344
446,182,51638,2,0,L|381:229,1,71.9999978027344
269,218,51973,2,0,L|261:146,1,71.9999978027344
241,26,52308,1,0,0:0:0:0:
241,26,52475,2,0,P|167:65|151:199,1,215.999993408203
271,358,53313,2,0,P|345:319|364:224,1,143.999995605469
342,35,53984,6,0,P|425:53|467:118,1,143.999995605469
477,184,54487,2,0,L|482:256,1,71.9999978027344
490,352,54822,1,0,0:0:0:0:
490,352,54989,2,0,P|416:324|392:237,1,143.999995605469
362,115,55660,1,0,0:0:0:0:
284,279,55995,5,0,0:0:0:0:
284,104,56163,1,0,0:0:0:0:
181,246,56330,1,0,0:0:0:0:
347,192,56498,1,0,0:0:0:0:
181,138,56665,6,0,P|87:131|39:187,1,143.999995605469
330,246,57336,2,0,P|425:253|473:197,1,143.999995605469
441,121,57839,1,0,0:0:0:0:
304,110,58006,2,0,L|359:165,1,71.9999978027344
329,259,58341,2,0,P|242:203|167:208,1,143.999995605469
48,223,59012,1,0,0:0:0:0:
106,61,59347,6,0,P|185:35|266:28,1,143.999995605469
426,56,60017,2,0,L|389:128,1,71.9999978027344
343,209,60353,1,0,0:0:0:0:
343,209,60520,2,0,P|382:216|324:224,1,215.999993408203
393,120,61358,1,0,0:0:0:0:
183,69,61693,5,0,0:0:0:0:
44,235,62029,2,0,P|73:296|158:351,1,143.999995605469
347,330,62699,1,0,0:0:0:0:
490,168,63034,1,0,0:0:0:0:
274,174,63369,2,0,P|236:148|200:56,1,143.999995605469
416,61,64040,1,0,0:0:0:0:
401,276,64375,1,0,0:0:0:0:
189,321,64710,2,0,P|126:287|34:280,1,143.999995605469
213,129,65381,2,0,P|276:163|368:170,1,143.999995605469
418,266,66051,5,0,0:0:0:0:
384,281,66386,1,0,0:0:0:0:
354,300,66721,1,0,0:0:0:0:
325,324,67057,1,0,0:0:0:0:
262,236,67224,1,0,0:0:0:0:
347,162,67392,6,0,P|336:118|270:42,1,143.999995605469
165,221,68062,2,0,P|176:266|242:342,1,143.999995605469
398,195,68732,1,0,0:0:0:0:
189,137,69068,1,0,0:0:0:0:
403,111,69403,1,0,0:0:0:0:
193,60,69738,1,0,0:0:0:0:
270,261,70073,2,0,P|310:323|392:346,1,143.999995605469
436,139,70744,1,0,0:0:0:0:
436,139,70911,2,0,P|396:77|314:54,1,143.999995605469
237,62,71414,5,0,0:0:0:0:
201,78,71749,1,0,0:0:0:0:
182,113,72084,1,0,0:0:0:0:
269,298,72252,1,0,0:0:0:0:
307,98,72420,1,0,0:0:0:0:
158,237,72587,1,0,0:0:0:0:
361,212,72755,5,0,0:0:0:0:
395,205,73090,1,0,0:0:0:0:
423,189,73425,1,0,0:0:0:0:
448,161,73760,1,0,0:0:0:0:
461,124,74096,5,0,0:0:0:0:
308,20,74263,1,0,0:0:0:0:
360,244,74431,1,0,0:0:0:0:
421,52,74598,1,0,0:0:0:0:
241,153,74766,1,0,0:0:0:0:
86,62,75101,6,0,L|65:141,1,71.9999978027344
60,215,75436,1,0,0:0:0:0:
71,249,75772,1,0,0:0:0:0:
96,280,76107,1,0,0:0:0:0:
125,301,76442,1,0,0:0:0:0:
163,309,76777,5,0,0:0:0:0:
416,256,76945,1,0,0:0:0:0:
185,177,77112,1,0,0:0:0:0:
305,365,77280,1,0,0:0:0:0:
338,138,77448,1,0,0:0:0:0:
275,250,77783,5,0,0:0:0:0:
58,204,78118,2,0,B|28:113|99:35|182:69,1,215.999993408203
265,136,78788,2,0,P|277:102|277:67,2,71.9999978027344
145,156,79291,2,0,P|182:228|251:258,1,143.999995605469
335,236,79794,1,0,0:0:0:0:
438,106,80129,1,0,0:0:0:0:
257,130,80464,1,0,0:0:0:0:
109,206,80800,6,0,P|137:262|228:318,1,143.999995605469
403,178,81470,2,0,P|375:122|284:65,1,143.999995605469
201,309,82140,1,0,0:0:0:0:
403,178,82475,1,0,0:0:0:0:
207,98,82811,1,0,0:0:0:0:
345,257,83146,6,0,L|310:318,1,60
223,342,83481,2,0,P|175:343|79:322,1,120
44,221,83984,1,0,0:0:0:0:
44,221,84151,2,0,P|92:220|128:228,1,60
236,251,84487,1,0,0:0:0:0:
236,251,84654,2,0,B|272:243|305:260|305:260|258:180|223:164,1,180
144,104,85325,5,0,0:0:0:0:
144,104,85492,2,0,P|186:87|219:85,1,60
295,153,85827,2,0,P|253:170|220:177,1,60
153,201,86163,6,0,B|145:244|161:271,1,60
247,320,86498,2,0,B|255:277|240:253,1,60
235,159,86833,2,0,P|283:152|314:155,1,60
370,224,87168,1,0,0:0:0:0:
370,224,87336,2,0,P|389:265|420:287,1,60
472,193,87671,2,0,B|431:131|431:71|431:71|420:120|403:134|403:136,1,180
243,41,88509,6,0,L|175:50,1,60
76,64,88844,2,0,P|59:118|82:200,1,120
164,251,89347,1,0,0:0:0:0:
164,251,89515,2,0,P|181:197|159:114,1,120
127,46,90017,2,0,P|192:35|274:132,1,180
269,219,90688,5,0,0:0:0:0:
194,294,90855,1,0,0:0:0:0:
443,294,91191,1,0,0:0:0:0:
423,60,91526,2,0,P|375:68|332:149,1,120
238,125,92029,2,0,P|224:71|105:19,1,180
127,125,92699,2,0,P|144:182|253:235,1,180
376,163,93537,1,0,0:0:0:0:
83,330,93872,6,0,L|169:350,1,60
259,351,94207,2,0,P|327:338|387:294,1,120
443,193,94710,1,0,0:0:0:0:
443,193,94878,2,0,P|375:206|320:251,1,120
227,270,95381,2,0,P|181:268|150:253,1,60
68,220,95716,5,0,0:0:0:0:
165,175,95883,1,0,0:0:0:0:
79,108,96051,1,0,0:0:0:0:
177,62,96219,2,0,P|226:54|263:59,1,60
344,61,96554,1,0,0:0:0:0:
427,128,96721,1,0,0:0:0:0:
324,161,96889,6,0,P|329:214|341:243,1,60
429,264,97224,1,0,0:0:0:0:
429,264,97392,2,0,P|427:223|414:192,1,60
363,113,97727,1,0,0:0:0:0:
257,91,97894,2,0,L|262:177,1,60
250,259,98230,1,0,0:0:0:0:
250,259,98397,2,0,B|241:381|115:365,1,180
144,261,99235,6,0,L|161:187,1,60
190,105,99570,2,0,P|240:87|331:79,1,120
434,161,100073,1,0,0:0:0:0:
433,161,100241,2,0,P|365:183|303:183,1,120
260,97,100744,2,0,P|214:167|248:266,1,180
302,315,101414,1,0,0:0:0:0:
388,274,101582,1,0,0:0:0:0:
294,188,101917,1,0,0:0:0:0:
445,133,102252,6,0,P|412:80|397:69,1,60
232,41,102587,1,0,0:0:0:0:
232,41,102755,2,0,P|265:94|280:110,1,60
359,190,103090,1,0,0:0:0:0:
359,190,103258,2,0,P|311:218|225:205,1,120
98,141,103928,5,0,0:0:0:0:
121,282,104263,1,0,0:0:0:0:
259,319,104598,1,0,0:0:0:0:
259,319,104766,1,0,0:0:0:0:
259,319,104934,6,0,P|316:321|340:330,1,60
454,354,105269,1,0,0:0:0:0:
454,354,105436,2,0,P|474:315|483:277,1,60
409,215,105772,2,0,P|389:176|383:139,1,60
352,57,106107,2,0,P|251:44|153:67,1,180
59,167,106945,1,0,0:0:0:0:
126,295,107280,5,0,0:0:0:0:
126,295,107448,1,0,0:0:0:0:
126,295,107615,2,0,P|163:258|174:229,1,60
197,131,107950,1,0,0:0:0:0:
197,131,108118,2,0,P|237:107|335:104,1,120
394,144,108621,1,0,0:0:0:0:
402,237,108788,2,0,B|407:226|398:292|365:355|289:384|253:321|218:270|289:210|322:250,1,300
171,324,109962,5,0,0:0:0:0:
64,217,110297,2,0,P|44:178|46:84,1,120
160,14,110800,2,0,P|185:80|179:142,1,120
64,217,111302,1,0,0:0:0:0:
64,217,111470,2,0,P|99:267|178:297,1,120
245,245,111973,1,0,0:0:0:0:
326,171,112140,2,0,P|357:220|338:300,1,120
241,344,112643,1,0,0:0:0:0:
108,332,112811,6,0,B|151:280|30:203|30:203|49:93|72:1|179:-2|310:51|281:187|220:192|191:199|170:203|137:142,1,647.99998022461
331,80,114654,5,0,0:0:0:0:
341,89,114989,1,0,0:0:0:0:
351,98,115325,1,0,0:0:0:0:
361,107,115660,5,0,0:0:0:0:
388,262,115995,1,0,0:0:0:0:
267,364,116330,1,0,0:0:0:0:
118,310,116666,1,0,0:0:0:0:
90,154,117001,1,0,0:0:0:0:
212,52,117336,1,0,0:0:0:0:
366,88,117671,1,0,0:0:0:0:
437,238,118006,6,0,L|367:272,1,71.9999978027344
289,297,118341,2,0,B|128:254|226:200|290:199|290:199|235:166|181:111|265:158|220:70|93:55|11:119|73:253|171:165,1,575.999982421876
275,92,120353,6,0,P|292:90|259:68,1,105
243,109,121023,6,0,P|226:143|109:214,1,155.999992858887
269,274,121693,2,0,P|285:241|403:169,1,155.999992858887
512,157,122196,1,0,0:0:0:0:
468,274,122364,2,0,L|380:238,1,77.9999964294435
277,187,122699,2,0,P|241:155|270:43,1,155.999992858887
460,37,123369,1,0,0:0:0:0:
252,56,123705,6,0,P|185:76|155:97,1,77.9999964294435
176,263,124040,2,0,P|243:243|273:222,1,77.9999964294435
320,91,124375,2,0,P|258:57|222:51,1,77.9999964294435
176,263,124710,1,0,0:0:0:0:
176,263,124878,6,0,B|219:294|282:318|360:303|360:303|319:238,1,233.999989288331
132,95,125716,1,0,0:0:0:0:
389,89,126051,2,0,L|459:133,1,77.9999964294435
490,226,126386,6,0,P|473:272|434:292,1,77.9999964294435
336,298,126721,1,0,0:0:0:0:
355,188,126889,1,0,0:0:0:0:
238,236,127057,1,0,0:0:0:0:
251,126,127224,2,0,P|240:83|215:53,1,77.9999964294435
108,10,127559,2,0,P|85:49|82:239,1,233.999989288331
381,318,128397,2,0,P|419:257|412:152,1,155.999992858887
212,42,129068,6,0,L|188:122,1,77.9999964294435
140,252,129403,1,0,0:0:0:0:
315,176,129570,1,0,0:0:0:0:
267,318,129738,2,0,L|342:354,1,77.9999964294435
448,292,130073,1,0,0:0:0:0:
476,174,130241,1,0,0:0:0:0:
446,59,130408,5,0,0:0:0:0:
424,66,130744,1,0,0:0:0:0:
409,75,131079,1,0,0:0:0:0:
164,144,131246,1,0,0:0:0:0:
420,158,131414,1,0,0:0:0:0:
173,227,131582,1,0,0:0:0:0:
447,234,131749,6,0,P|426:278|311:338,1,155.999992858887
65,150,132420,2,0,P|86:106|201:46,1,155.999992858887
316,86,132922,1,0,0:0:0:0:
268,206,133090,2,0,L|199:172,1,77.9999964294435
252,309,133425,2,0,P|337:290|378:207,1,155.999992858887
406,84,134096,1,0,0:0:0:0:
191,202,134431,6,0,P|138:189|101:196,1,77.9999964294435
321,202,134766,2,0,P|374:189|411:196,1,77.9999964294435
254,349,135101,2,0,L|255:266,1,77.9999964294435
256,114,135436,1,0,0:0:0:0:
256,114,135604,2,0,B|240:47|240:47|232:131|174:226,1,233.999989288331
87,317,136442,1,0,0:0:0:0:
253,341,136777,1,0,0:0:0:0:
371,266,137112,6,0,L|477:299,1,77.9999964294435
386,181,137448,2,0,L|478:183,1,77.9999964294435
383,92,137783,1,0,0:0:0:0:
254,189,138118,1,0,0:0:0:0:
141,266,138453,6,0,L|35:299,1,77.9999964294435
126,181,138789,2,0,L|34:183,1,77.9999964294435
129,92,139124,1,0,0:0:0:0:
254,189,139459,1,0,0:0:0:0:
430,89,139794,6,0,P|450:138|442:246,1,155.999992858887
82,295,140464,2,0,P|62:246|70:138,1,155.999992858887
246,42,141135,2,0,P|266:91|258:198,1,155.999992858887
204,281,141805,1,0,0:0:0:0:
112,137,142140,1,0,0:0:0:0:
43,192,142308,1,0,0:0:0:0:
26,276,142475,6,0,P|65:321|168:359,1,155.999992858887
355,332,143146,2,0,P|333:289|293:248,1,77.9999964294435
185,198,143481,1,0,0:0:0:0:
315,121,143816,6,0,P|383:125|400:132,1,77.9999964294435
456,203,144151,2,0,L|516:274,1,77.9999964294435
410,289,144487,2,0,L|339:349,1,77.9999964294435
308,246,144822,2,0,L|248:175,1,77.9999964294435
362,164,145157,2,0,L|433:104,1,77.9999964294435
323,66,145492,6,0,L|263:-5,1,77.9999964294435
220,86,145827,2,0,L|149:146,1,77.9999964294435
257,186,146163,2,0,L|308:246,1,77.9999964294435
372,152,146498,1,0,0:0:0:0:
441,262,146833,6,0,P|407:341|343:372,1,155.999992858887
236,349,147336,1,0,0:0:0:0:
335,268,147503,1,0,0:0:0:0:
161,216,147671,1,0,0:0:0:0:
255,189,147839,5,0,0:0:0:0:
256,189,153202,5,0,0:0:0:0:
461,245,153537,2,0,L|412:255,1,45.0000017166138
373,259,153872,1,0,0:0:0:0:
230,269,154207,1,0,0:0:0:0:
174,192,154375,1,0,0:0:0:0:
230,114,154542,1,0,0:0:0:0:
322,144,154710,1,0,0:0:0:0:
322,240,154878,1,0,0:0:0:0:
255,191,155213,2,0,L|254:208,14,11.2500004291535
255,191,155883,5,0,0:0:0:0:
432,93,156218,2,0,L|382:96,1,45.0000017166138
336,97,156554,1,0,0:0:0:0:
193,127,156889,1,0,0:0:0:0:
175,231,157056,1,0,0:0:0:0:
268,280,157224,1,0,0:0:0:0:
343,207,157392,1,0,0:0:0:0:
297,113,157559,1,0,0:0:0:0:
253,192,157894,1,0,0:0:0:0:
66,329,158565,5,0,0:0:0:0:
69,216,158900,1,0,0:0:0:0:
69,216,159068,1,0,0:0:0:0:
69,216,159235,2,0,P|69:178|97:97,1,120
225,61,159738,1,0,0:0:0:0:
225,61,159906,2,0,P|225:99|197:180,1,120
144,268,160408,2,0,P|212:288|269:258,1,120
329,205,160911,1,0,0:0:0:0:
449,107,161246,5,0,0:0:0:0:
372,49,161582,1,0,0:0:0:0:
276,38,161917,1,0,0:0:0:0:
181,54,162252,1,0,0:0:0:0:
105,113,162587,1,0,0:0:0:0:
105,113,162755,1,0,0:0:0:0:
105,113,162922,1,0,0:0:0:0:
61,199,163258,6,0,L|81:210,14,15
80,311,163928,6,0,P|123:328|144:329,1,60
240,321,164263,1,0,0:0:0:0:
240,321,164431,2,0,P|230:275|215:242,1,60
185,163,164766,1,0,0:0:0:0:
185,163,164934,2,0,P|226:147|258:144,1,60
360,141,165269,6,0,P|355:104|341:77,1,60
223,33,165604,1,0,0:0:0:0:
223,33,165772,2,0,P|180:51|150:72,1,60
62,123,166107,1,0,0:0:0:0:
62,123,166274,2,0,P|78:158|104:181,1,60
180,247,166610,6,0,P|220:239|262:222,1,60
360,173,166945,1,0,0:0:0:0:
360,173,167112,2,0,P|377:205|365:297,1,120
261,327,167615,1,0,0:0:0:0:
261,327,167783,1,0,0:0:0:0:
261,327,167950,2,0,B|236:281|163:281|163:281|169:232|144:198,1,180
146,176,168621,6,0,L|139:151,14,15
