osu file format v14

[General]
AudioFilename: audio.mp3
AudioLeadIn: 0
PreviewTime: 88230
Countdown: 0
SampleSet: Soft
StackLeniency: 0.7
Mode: 3
LetterboxInBreaks: 0
SpecialStyle: 0
WidescreenStoryboard: 0
SamplesMatchPlaybackRate: 1

[Editor]
DistanceSpacing: 0.8
BeatDivisor: 4
GridSize: 8
TimelineZoom: 1.1

[Metadata]
Title:Sakura no zenya
TitleUnicode:Sakura no zenya
Artist:Kano
ArtistUnicode:Kano
Creator:asrh123
Version:Sakura
Source:
Tags:すきなの
BeatmapID:1306183
BeatmapSetID:619691

[Difficulty]
HPDrainRate:6
CircleSize:4
OverallDifficulty:7
ApproachRate:5
SliderMultiplier:1.4
SliderTickRate:1

[Events]
//Background and Video events
0,0,"BG.png",0,0
//Break Periods
//Storyboard Layer 0 (Background)
//Storyboard Layer 1 (Fail)
//Storyboard Layer 2 (Pass)
//Storyboard Layer 3 (Foreground)
//Storyboard Sound Samples

[TimingPoints]
0,337.078651685393,4,2,0,25,1,0
88314,-100,4,2,0,25,0,1
115365,-100,4,2,0,25,0,0
166516,-100,4,2,0,25,0,1
193491,-100,4,2,0,25,0,0
259546,-100,4,2,0,25,0,1
293679,-100,4,2,0,25,0,0

[HitObjects]
448,192,674,128,0,1011:0:0:0:0:
64,192,1011,1,0,0:0:0:0:
448,192,1348,128,0,1685:0:0:0:0:
64,192,1685,1,0,0:0:0:0:
448,192,2022,128,0,2359:0:0:0:0:
320,192,2359,128,0,2696:0:0:0:0:
64,192,2359,1,0,0:0:0:0:
192,192,2696,128,0,3370:0:0:0:0:
64,192,3370,128,0,3707:0:0:0:0:
448,192,3707,1,0,0:0:0:0:
64,192,4044,128,0,4382:0:0:0:0:
448,192,4382,1,0,0:0:0:0:
64,192,4719,128,0,5056:0:0:0:0:
448,192,5056,1,0,0:0:0:0:
320,192,5393,1,0,0:0:0:0:
192,192,5561,1,0,0:0:0:0:
64,192,5730,1,0,0:0:0:0:
320,192,6067,128,0,6404:0:0:0:0:
192,192,6404,1,0,0:0:0:0:
320,192,6741,128,0,7078:0:0:0:0:
192,192,7078,1,0,0:0:0:0:
320,192,7415,128,0,7752:0:0:0:0:
448,192,7752,128,0,8089:0:0:0:0:
64,192,8089,128,0,8764:0:0:0:0:
192,192,8764,128,0,9101:0:0:0:0:
320,192,9101,1,0,0:0:0:0:
192,192,9438,128,0,9775:0:0:0:0:
320,192,9775,1,0,0:0:0:0:
192,192,10112,128,0,10449:0:0:0:0:
320,192,10449,1,0,0:0:0:0:
448,192,10786,1,0,0:0:0:0:
320,192,10955,1,0,0:0:0:0:
192,192,11123,1,0,0:0:0:0:
64,192,11292,1,0,0:0:0:0:
448,192,11460,128,0,11797:0:0:0:0:
192,192,11797,1,0,0:0:0:0:
448,192,12134,128,0,12471:0:0:0:0:
192,192,12471,1,0,0:0:0:0:
448,192,12808,128,0,13146:0:0:0:0:
320,192,13146,128,0,13483:0:0:0:0:
192,192,13483,128,0,14157:0:0:0:0:
64,192,14157,128,0,14494:0:0:0:0:
320,192,14494,1,0,0:0:0:0:
64,192,14831,128,0,15168:0:0:0:0:
320,192,15168,1,0,0:0:0:0:
64,192,15505,128,0,15842:0:0:0:0:
320,192,15842,1,0,0:0:0:0:
64,192,16179,1,0,0:0:0:0:
192,192,16348,1,0,0:0:0:0:
320,192,16516,1,0,0:0:0:0:
448,192,16685,1,0,0:0:0:0:
320,192,16853,128,0,17191:0:0:0:0:
64,192,17191,1,0,0:0:0:0:
320,192,17528,128,0,17865:0:0:0:0:
64,192,17865,1,0,0:0:0:0:
320,192,18202,128,0,18539:0:0:0:0:
64,192,18539,128,0,18876:0:0:0:0:
448,192,18876,1,0,0:0:0:0:
192,192,19213,1,0,0:0:0:0:
320,192,19382,1,0,0:0:0:0:
192,192,19550,128,0,19887:0:0:0:0:
320,192,19887,1,0,0:0:0:0:
192,192,20224,128,0,20561:0:0:0:0:
320,192,20561,1,0,0:0:0:0:
448,192,20898,1,0,0:0:0:0:
64,192,21404,1,0,0:0:0:0:
64,192,21573,1,0,0:0:0:0:
448,192,22247,128,0,22584:0:0:0:0:
320,192,22584,1,0,0:0:0:0:
192,192,22752,1,0,0:0:0:0:
64,192,22921,128,0,23258:0:0:0:0:
192,192,23258,1,0,0:0:0:0:
320,192,23426,1,0,0:0:0:0:
448,192,23595,128,0,23932:0:0:0:0:
320,192,23932,1,0,0:0:0:0:
192,192,24101,1,0,0:0:0:0:
64,192,24269,128,0,24606:0:0:0:0:
448,192,24775,1,0,0:0:0:0:
192,192,24943,1,0,0:0:0:0:
320,192,25280,1,0,0:0:0:0:
64,192,25617,1,0,0:0:0:0:
192,192,25955,1,0,0:0:0:0:
320,192,26292,1,0,0:0:0:0:
448,192,26629,1,0,0:0:0:0:
448,192,26966,1,0,0:0:0:0:
448,192,27471,1,0,0:0:0:0:
64,192,27640,1,0,0:0:0:0:
320,192,27977,1,0,0:0:0:0:
64,192,28314,1,0,0:0:0:0:
448,192,28651,1,0,0:0:0:0:
320,192,28988,1,0,0:0:0:0:
192,192,29325,1,0,0:0:0:0:
64,192,29662,1,0,0:0:0:0:
320,192,29999,1,0,0:0:0:0:
448,192,30337,128,0,30674:0:0:0:0:
320,192,30674,128,0,31011:0:0:0:0:
64,192,31011,128,0,31348:0:0:0:0:
192,192,31348,128,0,31685:0:0:0:0:
320,192,31685,128,0,32022:0:0:0:0:
64,192,32022,1,0,0:0:0:0:
448,192,32191,1,0,0:0:0:0:
192,192,32359,128,0,33707:0:0:0:0:
448,192,33707,1,0,0:0:0:0:
448,192,33876,1,0,0:0:0:0:
64,192,34044,1,0,0:0:0:0:
64,192,34213,1,0,0:0:0:0:
320,192,34382,1,0,0:0:0:0:
448,192,34550,1,0,0:0:0:0:
192,192,34719,1,0,0:0:0:0:
64,192,34887,1,0,0:0:0:0:
320,192,35056,1,0,0:0:0:0:
192,192,35224,1,0,0:0:0:0:
448,192,35393,1,0,0:0:0:0:
320,192,35561,1,0,0:0:0:0:
64,192,35730,1,0,0:0:0:0:
448,192,35898,1,0,0:0:0:0:
192,192,36067,1,0,0:0:0:0:
320,192,36235,1,0,0:0:0:0:
64,192,36404,1,0,0:0:0:0:
192,192,36573,1,0,0:0:0:0:
320,192,36741,1,0,0:0:0:0:
448,192,36910,1,0,0:0:0:0:
192,192,37078,1,0,0:0:0:0:
192,192,37247,1,0,0:0:0:0:
320,192,37415,1,0,0:0:0:0:
320,192,37584,1,0,0:0:0:0:
64,192,37752,1,0,0:0:0:0:
448,192,37921,1,0,0:0:0:0:
192,192,38089,1,0,0:0:0:0:
320,192,38258,1,0,0:0:0:0:
448,192,38426,1,0,0:0:0:0:
192,192,38595,1,0,0:0:0:0:
320,192,38764,1,0,0:0:0:0:
64,192,38932,1,0,0:0:0:0:
192,192,39101,1,0,0:0:0:0:
320,192,39269,1,0,0:0:0:0:
64,192,39438,1,0,0:0:0:0:
192,192,39606,1,0,0:0:0:0:
448,192,39775,1,0,0:0:0:0:
192,192,39943,1,0,0:0:0:0:
448,192,40112,1,0,0:0:0:0:
192,192,40280,1,0,0:0:0:0:
320,192,40449,1,0,0:0:0:0:
64,192,40617,1,0,0:0:0:0:
320,192,40786,1,0,0:0:0:0:
64,192,40955,1,0,0:0:0:0:
448,192,41123,1,0,0:0:0:0:
320,192,41292,1,0,0:0:0:0:
192,192,41460,1,0,0:0:0:0:
64,192,41629,1,0,0:0:0:0:
448,192,41797,1,0,0:0:0:0:
320,192,41966,1,0,0:0:0:0:
192,192,42134,1,0,0:0:0:0:
64,192,42303,1,0,0:0:0:0:
448,192,42471,1,0,0:0:0:0:
448,192,42640,1,0,0:0:0:0:
192,192,42808,1,0,0:0:0:0:
192,192,42977,1,0,0:0:0:0:
320,192,43146,1,0,0:0:0:0:
320,192,43314,1,0,0:0:0:0:
64,192,43483,1,0,0:0:0:0:
64,192,43651,1,0,0:0:0:0:
192,192,43820,1,0,0:0:0:0:
192,192,43988,1,0,0:0:0:0:
320,192,44157,1,0,0:0:0:0:
320,192,44325,1,0,0:0:0:0:
448,192,44494,1,0,0:0:0:0:
448,192,44831,1,0,0:0:0:0:
320,192,44915,1,0,0:0:0:0:
192,192,44999,1,0,0:0:0:0:
64,192,45084,1,0,0:0:0:0:
448,192,45168,128,0,45505:0:0:0:0:
192,192,45505,1,0,0:0:0:0:
320,192,45674,1,0,0:0:0:0:
64,192,45842,128,0,46179:0:0:0:0:
320,192,46179,1,0,0:0:0:0:
192,192,46348,1,0,0:0:0:0:
448,192,46516,128,0,46853:0:0:0:0:
320,192,46853,128,0,47191:0:0:0:0:
192,192,47191,128,0,47528:0:0:0:0:
320,192,47865,128,0,48202:0:0:0:0:
64,192,48202,1,0,0:0:0:0:
448,192,48202,1,0,0:0:0:0:
192,192,48539,128,0,48876:0:0:0:0:
64,192,48876,1,0,0:0:0:0:
448,192,48876,1,0,0:0:0:0:
320,192,49213,128,0,50224:0:0:0:0:
64,192,49719,1,0,0:0:0:0:
448,192,49887,1,0,0:0:0:0:
64,192,50561,128,0,50898:0:0:0:0:
192,192,50898,1,0,0:0:0:0:
320,192,51067,1,0,0:0:0:0:
64,192,51235,128,0,51573:0:0:0:0:
192,192,51573,1,0,0:0:0:0:
320,192,51741,1,0,0:0:0:0:
448,192,51910,128,0,52247:0:0:0:0:
320,192,52247,128,0,52584:0:0:0:0:
192,192,52584,128,0,52921:0:0:0:0:
320,192,53089,1,0,0:0:0:0:
448,192,53089,1,0,0:0:0:0:
64,192,53258,1,0,0:0:0:0:
192,192,53595,1,0,0:0:0:0:
320,192,53932,1,0,0:0:0:0:
448,192,53932,1,0,0:0:0:0:
64,192,54269,1,0,0:0:0:0:
320,192,54606,128,0,55112:0:0:0:0:
448,192,54606,128,0,55112:0:0:0:0:
192,192,55112,1,0,0:0:0:0:
64,192,55280,1,0,0:0:0:0:
192,192,55617,1,0,0:0:0:0:
448,192,55955,1,0,0:0:0:0:
320,192,56292,1,0,0:0:0:0:
64,192,56629,1,0,0:0:0:0:
192,192,56797,1,0,0:0:0:0:
448,192,56966,1,0,0:0:0:0:
320,192,57050,1,0,0:0:0:0:
192,192,57134,1,0,0:0:0:0:
64,192,57303,1,0,0:0:0:0:
448,192,57640,1,0,0:0:0:0:
320,192,57640,1,0,0:0:0:0:
64,192,57977,1,0,0:0:0:0:
192,192,58146,1,0,0:0:0:0:
448,192,58314,1,0,0:0:0:0:
320,192,58398,1,0,0:0:0:0:
192,192,58483,1,0,0:0:0:0:
64,192,58651,1,0,0:0:0:0:
64,192,58820,1,0,0:0:0:0:
448,192,58988,1,0,0:0:0:0:
192,192,58988,1,0,0:0:0:0:
320,192,59325,1,0,0:0:0:0:
64,192,59494,1,0,0:0:0:0:
448,192,59662,1,0,0:0:0:0:
320,192,59747,1,0,0:0:0:0:
192,192,59831,1,0,0:0:0:0:
64,192,59999,1,0,0:0:0:0:
448,192,60337,1,0,0:0:0:0:
64,192,60337,1,0,0:0:0:0:
192,192,60674,1,0,0:0:0:0:
320,192,60842,1,0,0:0:0:0:
64,192,61011,1,0,0:0:0:0:
192,192,61095,1,0,0:0:0:0:
320,192,61179,1,0,0:0:0:0:
64,192,61348,1,0,0:0:0:0:
448,192,61516,1,0,0:0:0:0:
320,192,61685,1,0,0:0:0:0:
192,192,61853,1,0,0:0:0:0:
64,192,62022,1,0,0:0:0:0:
192,192,62191,1,0,0:0:0:0:
320,192,62359,1,0,0:0:0:0:
448,192,62528,1,0,0:0:0:0:
320,192,62696,1,0,0:0:0:0:
192,192,62865,1,0,0:0:0:0:
64,192,63033,1,0,0:0:0:0:
192,192,63202,1,0,0:0:0:0:
320,192,63370,1,0,0:0:0:0:
448,192,63539,1,0,0:0:0:0:
64,192,63707,1,0,0:0:0:0:
448,192,63792,1,0,0:0:0:0:
64,192,63876,1,0,0:0:0:0:
448,192,64044,128,0,64382:0:0:0:0:
64,192,64382,128,0,64719:0:0:0:0:
192,192,64719,128,0,65056:0:0:0:0:
320,192,65056,128,0,65393:0:0:0:0:
448,192,65393,128,0,65898:0:0:0:0:
320,192,65898,128,0,66067:0:0:0:0:
192,192,66067,5,0,0:0:0:0:
448,192,66235,1,0,0:0:0:0:
64,192,66404,1,0,0:0:0:0:
448,192,66488,1,0,0:0:0:0:
64,192,66573,1,0,0:0:0:0:
448,192,66657,1,0,0:0:0:0:
64,192,66741,1,0,0:0:0:0:
448,192,67078,1,0,0:0:0:0:
320,192,67078,1,0,0:0:0:0:
192,192,67078,1,0,0:0:0:0:
64,192,67415,1,0,0:0:0:0:
192,192,67752,1,0,0:0:0:0:
320,192,67752,1,0,0:0:0:0:
448,192,68089,1,0,0:0:0:0:
320,192,68426,1,0,0:0:0:0:
64,192,68426,1,0,0:0:0:0:
192,192,68764,1,0,0:0:0:0:
64,192,69101,1,0,0:0:0:0:
192,192,69101,1,0,0:0:0:0:
320,192,69101,1,0,0:0:0:0:
192,192,69269,1,0,0:0:0:0:
448,192,69438,128,0,69775:0:0:0:0:
320,192,69775,1,0,0:0:0:0:
64,192,69943,128,0,70280:0:0:0:0:
192,192,70280,1,0,0:0:0:0:
448,192,70449,128,0,72134:0:0:0:0:
64,192,71292,1,0,0:0:0:0:
192,192,71376,1,0,0:0:0:0:
320,192,71460,1,0,0:0:0:0:
192,192,71629,1,0,0:0:0:0:
320,192,71797,1,0,0:0:0:0:
192,192,71966,1,0,0:0:0:0:
64,192,72134,1,0,0:0:0:0:
320,192,72471,1,0,0:0:0:0:
448,192,72471,1,0,0:0:0:0:
64,192,72471,1,0,0:0:0:0:
192,192,72808,128,0,73146:0:0:0:0:
448,192,73146,1,0,0:0:0:0:
320,192,73483,1,0,0:0:0:0:
64,192,73483,1,0,0:0:0:0:
448,192,73820,1,0,0:0:0:0:
320,192,73820,1,0,0:0:0:0:
192,192,73820,1,0,0:0:0:0:
64,192,74157,1,0,0:0:0:0:
192,192,74157,1,0,0:0:0:0:
448,192,74494,1,0,0:0:0:0:
192,192,74494,1,0,0:0:0:0:
64,192,74831,1,0,0:0:0:0:
192,192,74999,1,0,0:0:0:0:
320,192,75168,1,0,0:0:0:0:
448,192,75337,1,0,0:0:0:0:
320,192,75505,1,0,0:0:0:0:
64,192,75674,1,0,0:0:0:0:
192,192,75842,1,0,0:0:0:0:
320,192,76011,1,0,0:0:0:0:
448,192,76179,1,0,0:0:0:0:
320,192,76348,1,0,0:0:0:0:
192,192,76516,1,0,0:0:0:0:
64,192,76685,1,0,0:0:0:0:
448,192,76853,1,0,0:0:0:0:
320,192,77022,1,0,0:0:0:0:
64,192,77191,1,0,0:0:0:0:
192,192,77275,1,0,0:0:0:0:
320,192,77359,1,0,0:0:0:0:
448,192,77443,1,0,0:0:0:0:
64,192,77528,1,0,0:0:0:0:
192,192,77528,1,0,0:0:0:0:
320,192,77865,1,0,0:0:0:0:
448,192,77865,1,0,0:0:0:0:
64,192,77865,1,0,0:0:0:0:
192,192,78202,1,0,0:0:0:0:
320,192,78202,1,0,0:0:0:0:
448,192,78539,1,0,0:0:0:0:
64,192,78876,1,0,0:0:0:0:
192,192,78876,1,0,0:0:0:0:
192,192,79213,1,0,0:0:0:0:
320,192,79213,1,0,0:0:0:0:
448,192,79213,1,0,0:0:0:0:
64,192,79550,1,0,0:0:0:0:
448,192,79550,1,0,0:0:0:0:
192,192,79887,1,0,0:0:0:0:
320,192,80056,1,0,0:0:0:0:
448,192,80224,1,0,0:0:0:0:
64,192,80224,1,0,0:0:0:0:
320,192,80561,1,0,0:0:0:0:
64,192,80730,1,0,0:0:0:0:
192,192,80730,1,0,0:0:0:0:
192,192,81067,1,0,0:0:0:0:
448,192,81235,128,0,82247:0:0:0:0:
64,192,82078,1,0,0:0:0:0:
192,192,82162,1,0,0:0:0:0:
320,192,82247,1,0,0:0:0:0:
64,192,82247,1,0,0:0:0:0:
192,192,82415,1,0,0:0:0:0:
64,192,82584,1,0,0:0:0:0:
320,192,82584,1,0,0:0:0:0:
448,192,82584,1,0,0:0:0:0:
448,192,82921,1,0,0:0:0:0:
192,192,82921,1,0,0:0:0:0:
320,192,83089,1,0,0:0:0:0:
192,192,83258,1,0,0:0:0:0:
64,192,83426,1,0,0:0:0:0:
320,192,83426,1,0,0:0:0:0:
192,192,83595,1,0,0:0:0:0:
320,192,83764,1,0,0:0:0:0:
448,192,83932,1,0,0:0:0:0:
192,192,83932,1,0,0:0:0:0:
320,192,84101,1,0,0:0:0:0:
192,192,84269,1,0,0:0:0:0:
64,192,84438,1,0,0:0:0:0:
320,192,84438,1,0,0:0:0:0:
192,192,84606,1,0,0:0:0:0:
320,192,84775,1,0,0:0:0:0:
448,192,84943,1,0,0:0:0:0:
192,192,84943,1,0,0:0:0:0:
320,192,85112,1,0,0:0:0:0:
64,192,85280,1,0,0:0:0:0:
448,192,85280,1,0,0:0:0:0:
192,192,85449,1,0,0:0:0:0:
448,192,85617,1,0,0:0:0:0:
320,192,85702,1,0,0:0:0:0:
192,192,85786,1,0,0:0:0:0:
64,192,85870,1,0,0:0:0:0:
448,192,85955,1,0,0:0:0:0:
320,192,86039,1,0,0:0:0:0:
192,192,86123,1,0,0:0:0:0:
64,192,86207,1,0,0:0:0:0:
448,192,86292,1,0,0:0:0:0:
320,192,86376,1,0,0:0:0:0:
192,192,86460,1,0,0:0:0:0:
64,192,86544,1,0,0:0:0:0:
448,192,86629,1,0,0:0:0:0:
320,192,86713,1,0,0:0:0:0:
192,192,86797,1,0,0:0:0:0:
64,192,86882,1,0,0:0:0:0:
448,192,86966,1,0,0:0:0:0:
64,192,87134,1,0,0:0:0:0:
448,192,87303,1,0,0:0:0:0:
64,192,87387,1,0,0:0:0:0:
448,192,87471,1,0,0:0:0:0:
192,192,87808,1,0,0:0:0:0:
64,192,87977,1,0,0:0:0:0:
192,192,87977,1,0,0:0:0:0:
320,192,87977,1,0,0:0:0:0:
448,192,87977,1,0,0:0:0:0:
64,192,88314,1,0,0:0:0:0:
192,192,88314,1,0,0:0:0:0:
320,192,88314,1,0,0:0:0:0:
192,192,88483,1,0,0:0:0:0:
448,192,88651,1,0,0:0:0:0:
64,192,88651,1,0,0:0:0:0:
320,192,88820,1,0,0:0:0:0:
192,192,88988,1,0,0:0:0:0:
64,192,89157,1,0,0:0:0:0:
64,192,89325,1,0,0:0:0:0:
320,192,89325,1,0,0:0:0:0:
448,192,89325,1,0,0:0:0:0:
192,192,89494,1,0,0:0:0:0:
448,192,89662,1,0,0:0:0:0:
320,192,89662,1,0,0:0:0:0:
64,192,89831,1,0,0:0:0:0:
192,192,89831,1,0,0:0:0:0:
320,192,89999,1,0,0:0:0:0:
448,192,89999,1,0,0:0:0:0:
64,192,90168,1,0,0:0:0:0:
64,192,90337,1,0,0:0:0:0:
192,192,90337,1,0,0:0:0:0:
320,192,90505,1,0,0:0:0:0:
64,192,90505,1,0,0:0:0:0:
64,192,90674,1,0,0:0:0:0:
448,192,90674,1,0,0:0:0:0:
64,192,90842,1,0,0:0:0:0:
320,192,90842,1,0,0:0:0:0:
64,192,91011,1,0,0:0:0:0:
192,192,91011,1,0,0:0:0:0:
64,192,91179,1,0,0:0:0:0:
320,192,91348,1,0,0:0:0:0:
448,192,91348,1,0,0:0:0:0:
192,192,91516,1,0,0:0:0:0:
64,192,91685,1,0,0:0:0:0:
192,192,91853,1,0,0:0:0:0:
320,192,92022,1,0,0:0:0:0:
448,192,92191,1,0,0:0:0:0:
64,192,92359,1,0,0:0:0:0:
192,192,92359,1,0,0:0:0:0:
320,192,92359,1,0,0:0:0:0:
320,192,92528,1,0,0:0:0:0:
448,192,92696,1,0,0:0:0:0:
64,192,92865,1,0,0:0:0:0:
320,192,93033,1,0,0:0:0:0:
448,192,93033,1,0,0:0:0:0:
64,192,93202,1,0,0:0:0:0:
192,192,93202,1,0,0:0:0:0:
64,192,93370,1,0,0:0:0:0:
192,192,93370,1,0,0:0:0:0:
320,192,93539,1,0,0:0:0:0:
448,192,93539,1,0,0:0:0:0:
64,192,93539,128,0,94044:0:0:0:0:
448,192,94044,1,0,0:0:0:0:
320,192,94213,1,0,0:0:0:0:
64,192,94382,1,0,0:0:0:0:
192,192,94382,1,0,0:0:0:0:
320,192,94719,1,0,0:0:0:0:
448,192,94719,1,0,0:0:0:0:
192,192,94719,1,0,0:0:0:0:
64,192,94887,128,0,95393:0:0:0:0:
448,192,95393,128,0,95730:0:0:0:0:
320,192,95393,1,0,0:0:0:0:
192,192,95730,1,0,0:0:0:0:
320,192,95730,128,0,96067:0:0:0:0:
64,192,96067,1,0,0:0:0:0:
192,192,96067,1,0,0:0:0:0:
448,192,96404,1,0,0:0:0:0:
320,192,96404,1,0,0:0:0:0:
192,192,96404,1,0,0:0:0:0:
64,192,96573,1,0,0:0:0:0:
320,192,96573,1,0,0:0:0:0:
64,192,96741,1,0,0:0:0:0:
320,192,96741,1,0,0:0:0:0:
448,192,96741,1,0,0:0:0:0:
192,192,96910,1,0,0:0:0:0:
320,192,96910,1,0,0:0:0:0:
320,192,97078,1,0,0:0:0:0:
192,192,97078,1,0,0:0:0:0:
64,192,97078,1,0,0:0:0:0:
320,192,97247,1,0,0:0:0:0:
448,192,97247,1,0,0:0:0:0:
64,192,97415,1,0,0:0:0:0:
192,192,97415,1,0,0:0:0:0:
448,192,97415,1,0,0:0:0:0:
192,192,97584,1,0,0:0:0:0:
448,192,97584,1,0,0:0:0:0:
448,192,98089,1,0,0:0:0:0:
192,192,98258,1,0,0:0:0:0:
64,192,98426,1,0,0:0:0:0:
192,192,98511,1,0,0:0:0:0:
320,192,98595,1,0,0:0:0:0:
448,192,98679,1,0,0:0:0:0:
64,192,98764,1,0,0:0:0:0:
192,192,98848,1,0,0:0:0:0:
320,192,98932,1,0,0:0:0:0:
448,192,99016,1,0,0:0:0:0:
64,192,99101,1,0,0:0:0:0:
320,192,99101,1,0,0:0:0:0:
192,192,99269,1,0,0:0:0:0:
448,192,99438,1,0,0:0:0:0:
320,192,99606,1,0,0:0:0:0:
192,192,99775,1,0,0:0:0:0:
448,192,99943,1,0,0:0:0:0:
64,192,100112,1,0,0:0:0:0:
320,192,100112,1,0,0:0:0:0:
448,192,100280,1,0,0:0:0:0:
64,192,100449,1,0,0:0:0:0:
448,192,100617,1,0,0:0:0:0:
64,192,100786,1,0,0:0:0:0:
448,192,100955,1,0,0:0:0:0:
64,192,101123,1,0,0:0:0:0:
448,192,101123,1,0,0:0:0:0:
192,192,101292,1,0,0:0:0:0:
448,192,101460,1,0,0:0:0:0:
320,192,101629,1,0,0:0:0:0:
192,192,101797,1,0,0:0:0:0:
448,192,101966,1,0,0:0:0:0:
192,192,102134,1,0,0:0:0:0:
64,192,102134,1,0,0:0:0:0:
320,192,102303,1,0,0:0:0:0:
64,192,102471,1,0,0:0:0:0:
320,192,102640,1,0,0:0:0:0:
192,192,102808,1,0,0:0:0:0:
448,192,102808,1,0,0:0:0:0:
320,192,102977,1,0,0:0:0:0:
64,192,103146,1,0,0:0:0:0:
192,192,103146,1,0,0:0:0:0:
320,192,103314,1,0,0:0:0:0:
192,192,103483,1,0,0:0:0:0:
64,192,103651,128,0,103820:0:0:0:0:
448,192,103820,128,0,103988:0:0:0:0:
192,192,103820,1,0,0:0:0:0:
320,192,103988,128,0,104157:0:0:0:0:
192,192,103988,1,0,0:0:0:0:
64,192,104157,1,0,0:0:0:0:
448,192,104325,1,0,0:0:0:0:
192,192,104325,1,0,0:0:0:0:
448,192,104831,1,0,0:0:0:0:
320,192,104831,1,0,0:0:0:0:
192,192,104831,1,0,0:0:0:0:
448,192,105168,1,0,0:0:0:0:
64,192,105168,1,0,0:0:0:0:
192,192,105168,1,0,0:0:0:0:
64,192,105505,1,0,0:0:0:0:
320,192,105674,1,0,0:0:0:0:
448,192,106179,1,0,0:0:0:0:
64,192,106516,128,0,106853:0:0:0:0:
320,192,106516,1,0,0:0:0:0:
192,192,106853,1,0,0:0:0:0:
448,192,106853,1,0,0:0:0:0:
64,192,107191,1,0,0:0:0:0:
192,192,107191,1,0,0:0:0:0:
320,192,107191,1,0,0:0:0:0:
192,192,107359,1,0,0:0:0:0:
448,192,107359,1,0,0:0:0:0:
64,192,107528,1,0,0:0:0:0:
320,192,107528,1,0,0:0:0:0:
448,192,107528,1,0,0:0:0:0:
320,192,107696,1,0,0:0:0:0:
64,192,107696,1,0,0:0:0:0:
192,192,107865,1,0,0:0:0:0:
320,192,107865,1,0,0:0:0:0:
448,192,107865,1,0,0:0:0:0:
192,192,108033,1,0,0:0:0:0:
64,192,108033,1,0,0:0:0:0:
64,192,108202,1,0,0:0:0:0:
192,192,108202,1,0,0:0:0:0:
448,192,108202,1,0,0:0:0:0:
448,192,108370,1,0,0:0:0:0:
64,192,108370,1,0,0:0:0:0:
64,192,108707,1,0,0:0:0:0:
448,192,108876,1,0,0:0:0:0:
64,192,109044,1,0,0:0:0:0:
448,192,109213,1,0,0:0:0:0:
320,192,109297,1,0,0:0:0:0:
192,192,109382,1,0,0:0:0:0:
64,192,109466,1,0,0:0:0:0:
448,192,109550,1,0,0:0:0:0:
320,192,109634,1,0,0:0:0:0:
192,192,109719,1,0,0:0:0:0:
64,192,109803,1,0,0:0:0:0:
448,192,109887,128,0,110224:0:0:0:0:
192,192,109887,1,0,0:0:0:0:
192,192,110056,1,0,0:0:0:0:
64,192,110224,128,0,110561:0:0:0:0:
320,192,110224,1,0,0:0:0:0:
320,192,110393,1,0,0:0:0:0:
448,192,110561,128,0,110898:0:0:0:0:
192,192,110561,1,0,0:0:0:0:
192,192,110730,1,0,0:0:0:0:
64,192,110898,128,0,111235:0:0:0:0:
320,192,110898,1,0,0:0:0:0:
320,192,111067,1,0,0:0:0:0:
320,192,111235,1,0,0:0:0:0:
448,192,111235,1,0,0:0:0:0:
320,192,111404,1,0,0:0:0:0:
448,192,111404,1,0,0:0:0:0:
192,192,111741,1,0,0:0:0:0:
320,192,111825,1,0,0:0:0:0:
448,192,111910,1,0,0:0:0:0:
64,192,111910,1,0,0:0:0:0:
448,192,112078,1,0,0:0:0:0:
64,192,112078,1,0,0:0:0:0:
448,192,112584,1,0,0:0:0:0:
64,192,112584,128,0,115280:0:0:0:0:
192,192,112752,1,0,0:0:0:0:
448,192,112921,1,0,0:0:0:0:
320,192,113089,1,0,0:0:0:0:
448,192,113258,1,0,0:0:0:0:
192,192,113426,1,0,0:0:0:0:
448,192,113595,1,0,0:0:0:0:
320,192,113764,1,0,0:0:0:0:
448,192,113932,1,0,0:0:0:0:
192,192,114101,1,0,0:0:0:0:
448,192,114269,1,0,0:0:0:0:
320,192,114438,1,0,0:0:0:0:
448,192,114606,1,0,0:0:0:0:
192,192,114775,1,0,0:0:0:0:
448,192,114943,1,0,0:0:0:0:
320,192,115112,1,0,0:0:0:0:
448,192,115280,1,0,0:0:0:0:
320,192,115449,1,0,0:0:0:0:
448,192,115617,1,0,0:0:0:0:
192,192,115786,1,0,0:0:0:0:
320,192,115955,1,0,0:0:0:0:
448,192,116123,1,0,0:0:0:0:
192,192,116292,1,0,0:0:0:0:
448,192,116460,1,0,0:0:0:0:
64,192,116629,1,0,0:0:0:0:
192,192,116797,1,0,0:0:0:0:
320,192,116966,1,0,0:0:0:0:
448,192,117134,1,0,0:0:0:0:
320,192,117303,1,0,0:0:0:0:
192,192,117303,1,0,0:0:0:0:
64,192,117303,1,0,0:0:0:0:
448,192,117471,1,0,0:0:0:0:
320,192,117640,1,0,0:0:0:0:
192,192,117808,1,0,0:0:0:0:
64,192,117977,1,0,0:0:0:0:
320,192,117977,1,0,0:0:0:0:
320,192,118146,1,0,0:0:0:0:
320,192,118314,1,0,0:0:0:0:
320,192,118483,1,0,0:0:0:0:
64,192,118651,1,0,0:0:0:0:
192,192,118651,1,0,0:0:0:0:
64,192,118820,1,0,0:0:0:0:
64,192,118988,1,0,0:0:0:0:
64,192,119157,1,0,0:0:0:0:
448,192,119325,1,0,0:0:0:0:
64,192,119325,1,0,0:0:0:0:
448,192,119494,1,0,0:0:0:0:
448,192,119662,1,0,0:0:0:0:
448,192,119831,1,0,0:0:0:0:
448,192,119999,1,0,0:0:0:0:
192,192,119999,1,0,0:0:0:0:
192,192,120168,1,0,0:0:0:0:
192,192,120337,1,0,0:0:0:0:
192,192,120505,1,0,0:0:0:0:
192,192,120674,1,0,0:0:0:0:
448,192,120674,1,0,0:0:0:0:
320,192,120842,1,0,0:0:0:0:
64,192,121011,1,0,0:0:0:0:
192,192,121011,1,0,0:0:0:0:
320,192,121179,1,0,0:0:0:0:
192,192,121348,1,0,0:0:0:0:
448,192,121348,1,0,0:0:0:0:
320,192,121516,1,0,0:0:0:0:
64,192,121685,1,0,0:0:0:0:
448,192,121685,1,0,0:0:0:0:
192,192,121853,1,0,0:0:0:0:
320,192,122022,1,0,0:0:0:0:
448,192,122022,1,0,0:0:0:0:
192,192,122191,1,0,0:0:0:0:
320,192,122359,1,0,0:0:0:0:
64,192,122359,1,0,0:0:0:0:
192,192,122528,1,0,0:0:0:0:
64,192,122696,1,0,0:0:0:0:
320,192,122696,1,0,0:0:0:0:
192,192,122865,1,0,0:0:0:0:
448,192,123033,1,0,0:0:0:0:
320,192,123117,1,0,0:0:0:0:
192,192,123202,1,0,0:0:0:0:
64,192,123286,1,0,0:0:0:0:
320,192,123370,1,0,0:0:0:0:
448,192,123370,1,0,0:0:0:0:
64,192,123707,1,0,0:0:0:0:
320,192,123707,1,0,0:0:0:0:
192,192,123876,1,0,0:0:0:0:
320,192,124044,1,0,0:0:0:0:
448,192,124044,1,0,0:0:0:0:
320,192,124382,1,0,0:0:0:0:
64,192,124382,1,0,0:0:0:0:
448,192,124550,1,0,0:0:0:0:
64,192,124719,1,0,0:0:0:0:
192,192,124719,1,0,0:0:0:0:
448,192,125056,1,0,0:0:0:0:
64,192,125056,1,0,0:0:0:0:
320,192,125224,1,0,0:0:0:0:
192,192,125393,1,0,0:0:0:0:
448,192,125393,1,0,0:0:0:0:
320,192,125730,1,0,0:0:0:0:
64,192,125730,1,0,0:0:0:0:
448,192,126067,128,0,126404:0:0:0:0:
192,192,126067,1,0,0:0:0:0:
64,192,126404,128,0,126741:0:0:0:0:
320,192,126404,1,0,0:0:0:0:
448,192,126741,128,0,127078:0:0:0:0:
192,192,126741,1,0,0:0:0:0:
320,192,127078,1,0,0:0:0:0:
64,192,127078,1,0,0:0:0:0:
192,192,127247,1,0,0:0:0:0:
320,192,127415,128,0,127752:0:0:0:0:
64,192,127752,1,0,0:0:0:0:
448,192,127921,1,0,0:0:0:0:
320,192,128089,1,0,0:0:0:0:
192,192,128258,1,0,0:0:0:0:
64,192,128426,1,0,0:0:0:0:
192,192,128511,1,0,0:0:0:0:
320,192,128595,1,0,0:0:0:0:
448,192,128679,1,0,0:0:0:0:
64,192,128764,1,0,0:0:0:0:
320,192,128764,1,0,0:0:0:0:
192,192,129101,1,0,0:0:0:0:
320,192,129101,1,0,0:0:0:0:
448,192,129269,1,0,0:0:0:0:
192,192,129438,1,0,0:0:0:0:
64,192,129438,1,0,0:0:0:0:
320,192,129775,1,0,0:0:0:0:
448,192,129775,1,0,0:0:0:0:
192,192,129943,1,0,0:0:0:0:
448,192,130112,128,0,130449:0:0:0:0:
64,192,130112,128,0,131123:0:0:0:0:
320,192,130449,128,0,130786:0:0:0:0:
192,192,130786,128,0,131123:0:0:0:0:
448,192,131123,1,0,0:0:0:0:
320,192,131292,1,0,0:0:0:0:
64,192,131460,1,0,0:0:0:0:
192,192,131460,1,0,0:0:0:0:
448,192,131460,1,0,0:0:0:0:
448,192,131797,1,0,0:0:0:0:
320,192,131797,1,0,0:0:0:0:
320,192,131966,1,0,0:0:0:0:
64,192,132134,1,0,0:0:0:0:
448,192,132134,1,0,0:0:0:0:
64,192,132471,1,0,0:0:0:0:
320,192,132471,1,0,0:0:0:0:
192,192,132640,1,0,0:0:0:0:
64,192,132808,1,0,0:0:0:0:
448,192,132808,1,0,0:0:0:0:
448,192,133146,1,0,0:0:0:0:
320,192,133146,1,0,0:0:0:0:
192,192,133314,1,0,0:0:0:0:
64,192,133483,1,0,0:0:0:0:
192,192,133567,1,0,0:0:0:0:
320,192,133651,1,0,0:0:0:0:
448,192,133735,1,0,0:0:0:0:
64,192,133820,1,0,0:0:0:0:
192,192,133904,1,0,0:0:0:0:
320,192,133988,1,0,0:0:0:0:
448,192,134073,1,0,0:0:0:0:
64,192,134157,1,0,0:0:0:0:
192,192,134157,1,0,0:0:0:0:
320,192,134325,1,0,0:0:0:0:
448,192,134494,1,0,0:0:0:0:
64,192,134494,1,0,0:0:0:0:
320,192,134831,1,0,0:0:0:0:
192,192,134831,1,0,0:0:0:0:
448,192,134999,1,0,0:0:0:0:
64,192,135168,1,0,0:0:0:0:
192,192,135252,1,0,0:0:0:0:
448,192,135337,1,0,0:0:0:0:
64,192,135505,1,0,0:0:0:0:
192,192,135505,1,0,0:0:0:0:
320,192,135505,1,0,0:0:0:0:
192,192,135842,1,0,0:0:0:0:
64,192,136179,1,0,0:0:0:0:
192,192,136179,1,0,0:0:0:0:
448,192,136179,1,0,0:0:0:0:
320,192,136348,1,0,0:0:0:0:
448,192,136516,1,0,0:0:0:0:
320,192,136601,1,0,0:0:0:0:
64,192,136685,1,0,0:0:0:0:
192,192,136853,1,0,0:0:0:0:
320,192,136853,1,0,0:0:0:0:
448,192,136853,1,0,0:0:0:0:
320,192,137191,1,0,0:0:0:0:
64,192,137528,1,0,0:0:0:0:
320,192,137528,1,0,0:0:0:0:
448,192,137528,1,0,0:0:0:0:
192,192,137696,1,0,0:0:0:0:
64,192,137865,1,0,0:0:0:0:
192,192,137949,1,0,0:0:0:0:
448,192,138033,1,0,0:0:0:0:
320,192,138202,1,0,0:0:0:0:
192,192,138202,1,0,0:0:0:0:
64,192,138539,1,0,0:0:0:0:
448,192,138539,1,0,0:0:0:0:
320,192,138707,1,0,0:0:0:0:
192,192,138876,1,0,0:0:0:0:
64,192,139044,1,0,0:0:0:0:
320,192,139213,1,0,0:0:0:0:
192,192,139297,1,0,0:0:0:0:
320,192,139382,1,0,0:0:0:0:
192,192,139466,1,0,0:0:0:0:
320,192,139550,128,0,142078:0:0:0:0:
64,192,139719,1,0,0:0:0:0:
192,192,139887,1,0,0:0:0:0:
448,192,140056,1,0,0:0:0:0:
192,192,140224,1,0,0:0:0:0:
64,192,140393,1,0,0:0:0:0:
192,192,140561,1,0,0:0:0:0:
448,192,140730,1,0,0:0:0:0:
192,192,140898,1,0,0:0:0:0:
64,192,141067,1,0,0:0:0:0:
448,192,141235,1,0,0:0:0:0:
192,192,141404,1,0,0:0:0:0:
64,192,141573,1,0,0:0:0:0:
192,192,141741,1,0,0:0:0:0:
448,192,141910,1,0,0:0:0:0:
192,192,141994,1,0,0:0:0:0:
64,192,142078,1,0,0:0:0:0:
192,192,142247,128,0,142584:0:0:0:0:
448,192,142247,128,0,142584:0:0:0:0:
64,192,142247,1,0,0:0:0:0:
320,192,142584,1,0,0:0:0:0:
64,192,142921,128,0,143258:0:0:0:0:
320,192,142921,128,0,143258:0:0:0:0:
448,192,142921,1,0,0:0:0:0:
192,192,143258,1,0,0:0:0:0:
192,192,143595,1,0,0:0:0:0:
448,192,143595,1,0,0:0:0:0:
64,192,143595,1,0,0:0:0:0:
320,192,143764,1,0,0:0:0:0:
192,192,143932,1,0,0:0:0:0:
64,192,144101,1,0,0:0:0:0:
448,192,144269,1,0,0:0:0:0:
320,192,144438,1,0,0:0:0:0:
64,192,144606,1,0,0:0:0:0:
192,192,144691,1,0,0:0:0:0:
448,192,144775,1,0,0:0:0:0:
320,192,144859,1,0,0:0:0:0:
192,192,144943,1,0,0:0:0:0:
64,192,144943,1,0,0:0:0:0:
448,192,145280,128,0,145617:0:0:0:0:
192,192,145280,1,0,0:0:0:0:
320,192,145617,128,0,145955:0:0:0:0:
64,192,145617,1,0,0:0:0:0:
192,192,145955,128,0,146292:0:0:0:0:
448,192,145955,1,0,0:0:0:0:
64,192,146292,128,0,146629:0:0:0:0:
320,192,146292,1,0,0:0:0:0:
320,192,146629,128,0,146966:0:0:0:0:
448,192,146629,1,0,0:0:0:0:
192,192,146966,128,0,147303:0:0:0:0:
64,192,146966,1,0,0:0:0:0:
448,192,147303,128,0,147640:0:0:0:0:
320,192,147303,1,0,0:0:0:0:
64,192,147640,128,0,147977:0:0:0:0:
192,192,147977,1,0,0:0:0:0:
320,192,148146,128,0,148651:0:0:0:0:
448,192,148651,128,0,149662:0:0:0:0:
64,192,148651,1,0,0:0:0:0:
320,192,149494,1,0,0:0:0:0:
192,192,149578,1,0,0:0:0:0:
320,192,149662,1,0,0:0:0:0:
64,192,149662,1,0,0:0:0:0:
192,192,149831,1,0,0:0:0:0:
64,192,149999,1,0,0:0:0:0:
320,192,150168,1,0,0:0:0:0:
192,192,150337,1,0,0:0:0:0:
64,192,150337,1,0,0:0:0:0:
448,192,150337,1,0,0:0:0:0:
64,192,150674,128,0,151011:0:0:0:0:
320,192,150674,1,0,0:0:0:0:
448,192,151011,128,0,151348:0:0:0:0:
192,192,151011,1,0,0:0:0:0:
320,192,151348,128,0,151685:0:0:0:0:
64,192,151348,1,0,0:0:0:0:
64,192,151685,128,0,152022:0:0:0:0:
192,192,151685,1,0,0:0:0:0:
192,192,152022,128,0,152359:0:0:0:0:
448,192,152022,1,0,0:0:0:0:
320,192,152359,128,0,152696:0:0:0:0:
64,192,152359,1,0,0:0:0:0:
448,192,152696,128,0,153033:0:0:0:0:
64,192,153033,1,0,0:0:0:0:
192,192,153033,1,0,0:0:0:0:
320,192,153202,1,0,0:0:0:0:
448,192,153370,1,0,0:0:0:0:
320,192,153539,1,0,0:0:0:0:
64,192,153707,1,0,0:0:0:0:
192,192,153707,1,0,0:0:0:0:
320,192,153876,1,0,0:0:0:0:
448,192,154044,1,0,0:0:0:0:
320,192,154213,1,0,0:0:0:0:
64,192,154382,1,0,0:0:0:0:
192,192,154382,1,0,0:0:0:0:
192,192,154550,1,0,0:0:0:0:
320,192,154719,1,0,0:0:0:0:
448,192,154719,1,0,0:0:0:0:
320,192,154887,1,0,0:0:0:0:
64,192,155056,1,0,0:0:0:0:
192,192,155056,1,0,0:0:0:0:
320,192,155224,1,0,0:0:0:0:
448,192,155393,1,0,0:0:0:0:
320,192,155477,1,0,0:0:0:0:
192,192,155561,1,0,0:0:0:0:
64,192,155646,1,0,0:0:0:0:
448,192,155730,1,0,0:0:0:0:
192,192,155730,1,0,0:0:0:0:
320,192,155730,1,0,0:0:0:0:
320,192,156067,128,0,156404:0:0:0:0:
64,192,156067,128,0,157078:0:0:0:0:
448,192,156404,128,0,156741:0:0:0:0:
192,192,156741,128,0,157078:0:0:0:0:
448,192,157078,1,0,0:0:0:0:
320,192,157078,1,0,0:0:0:0:
192,192,157415,1,0,0:0:0:0:
320,192,157415,1,0,0:0:0:0:
448,192,157415,1,0,0:0:0:0:
64,192,157752,1,0,0:0:0:0:
192,192,157752,1,0,0:0:0:0:
192,192,158089,1,0,0:0:0:0:
448,192,158089,1,0,0:0:0:0:
64,192,158258,1,0,0:0:0:0:
320,192,158426,1,0,0:0:0:0:
448,192,158426,1,0,0:0:0:0:
192,192,158764,1,0,0:0:0:0:
320,192,158932,128,0,159269:0:0:0:0:
192,192,159269,128,0,159438:0:0:0:0:
64,192,159438,128,0,160449:0:0:0:0:
192,192,160280,1,0,0:0:0:0:
320,192,160365,1,0,0:0:0:0:
448,192,160449,1,0,0:0:0:0:
192,192,160449,1,0,0:0:0:0:
320,192,160617,1,0,0:0:0:0:
64,192,160786,1,0,0:0:0:0:
448,192,160786,1,0,0:0:0:0:
320,192,160955,1,0,0:0:0:0:
64,192,161123,1,0,0:0:0:0:
320,192,161123,1,0,0:0:0:0:
448,192,161292,1,0,0:0:0:0:
448,192,161460,1,0,0:0:0:0:
64,192,161629,1,0,0:0:0:0:
192,192,161629,1,0,0:0:0:0:
64,192,161797,1,0,0:0:0:0:
64,192,161966,1,0,0:0:0:0:
448,192,162134,1,0,0:0:0:0:
320,192,162134,1,0,0:0:0:0:
192,192,162134,1,0,0:0:0:0:
64,192,162303,1,0,0:0:0:0:
320,192,162471,1,0,0:0:0:0:
64,192,162471,1,0,0:0:0:0:
320,192,162640,1,0,0:0:0:0:
320,192,162808,1,0,0:0:0:0:
320,192,162977,1,0,0:0:0:0:
320,192,163146,1,0,0:0:0:0:
64,192,163146,1,0,0:0:0:0:
448,192,163146,1,0,0:0:0:0:
192,192,163314,1,0,0:0:0:0:
448,192,163483,1,0,0:0:0:0:
192,192,163483,1,0,0:0:0:0:
192,192,163651,1,0,0:0:0:0:
64,192,163820,1,0,0:0:0:0:
192,192,163904,1,0,0:0:0:0:
320,192,163988,1,0,0:0:0:0:
448,192,164073,1,0,0:0:0:0:
64,192,164157,1,0,0:0:0:0:
192,192,164241,1,0,0:0:0:0:
320,192,164325,1,0,0:0:0:0:
448,192,164410,1,0,0:0:0:0:
64,192,164494,1,0,0:0:0:0:
192,192,164578,1,0,0:0:0:0:
320,192,164662,1,0,0:0:0:0:
448,192,164747,1,0,0:0:0:0:
64,192,164831,1,0,0:0:0:0:
192,192,164915,1,0,0:0:0:0:
320,192,164999,1,0,0:0:0:0:
448,192,165084,1,0,0:0:0:0:
64,192,165168,1,0,0:0:0:0:
448,192,165337,1,0,0:0:0:0:
64,192,165505,1,0,0:0:0:0:
448,192,165589,1,0,0:0:0:0:
64,192,165674,1,0,0:0:0:0:
320,192,166011,1,0,0:0:0:0:
64,192,166179,128,0,166264:0:0:0:0:
192,192,166179,128,0,166264:0:0:0:0:
320,192,166179,128,0,166264:0:0:0:0:
448,192,166179,128,0,166264:0:0:0:0:
64,192,166516,1,0,0:0:0:0:
192,192,166516,1,0,0:0:0:0:
448,192,166516,1,0,0:0:0:0:
320,192,166685,1,0,0:0:0:0:
448,192,166853,1,0,0:0:0:0:
192,192,166853,1,0,0:0:0:0:
64,192,167022,1,0,0:0:0:0:
448,192,167191,1,0,0:0:0:0:
320,192,167359,1,0,0:0:0:0:
64,192,167528,1,0,0:0:0:0:
192,192,167528,1,0,0:0:0:0:
448,192,167528,1,0,0:0:0:0:
64,192,167696,1,0,0:0:0:0:
448,192,167865,1,0,0:0:0:0:
320,192,167865,1,0,0:0:0:0:
64,192,168033,1,0,0:0:0:0:
192,192,168033,1,0,0:0:0:0:
320,192,168202,1,0,0:0:0:0:
448,192,168202,1,0,0:0:0:0:
448,192,168370,1,0,0:0:0:0:
320,192,168539,1,0,0:0:0:0:
448,192,168539,1,0,0:0:0:0:
448,192,168707,1,0,0:0:0:0:
192,192,168707,1,0,0:0:0:0:
64,192,168876,1,0,0:0:0:0:
448,192,168876,1,0,0:0:0:0:
192,192,169044,1,0,0:0:0:0:
448,192,169044,1,0,0:0:0:0:
320,192,169213,1,0,0:0:0:0:
448,192,169213,1,0,0:0:0:0:
448,192,169382,1,0,0:0:0:0:
64,192,169550,1,0,0:0:0:0:
192,192,169550,1,0,0:0:0:0:
320,192,169719,1,0,0:0:0:0:
448,192,169887,1,0,0:0:0:0:
192,192,170056,1,0,0:0:0:0:
64,192,170224,1,0,0:0:0:0:
320,192,170393,1,0,0:0:0:0:
64,192,170561,1,0,0:0:0:0:
192,192,170561,1,0,0:0:0:0:
448,192,170561,1,0,0:0:0:0:
64,192,170730,1,0,0:0:0:0:
448,192,170898,1,0,0:0:0:0:
64,192,171067,1,0,0:0:0:0:
320,192,171235,1,0,0:0:0:0:
448,192,171235,1,0,0:0:0:0:
64,192,171404,1,0,0:0:0:0:
192,192,171404,1,0,0:0:0:0:
320,192,171573,1,0,0:0:0:0:
448,192,171573,1,0,0:0:0:0:
192,192,171741,1,0,0:0:0:0:
64,192,171741,1,0,0:0:0:0:
320,192,171741,128,0,172247:0:0:0:0:
64,192,172247,1,0,0:0:0:0:
192,192,172415,1,0,0:0:0:0:
64,192,172584,1,0,0:0:0:0:
448,192,172584,1,0,0:0:0:0:
320,192,172921,1,0,0:0:0:0:
448,192,172921,1,0,0:0:0:0:
192,192,172921,1,0,0:0:0:0:
320,192,173089,128,0,173595:0:0:0:0:
64,192,173595,128,0,173932:0:0:0:0:
192,192,173595,1,0,0:0:0:0:
192,192,173932,1,0,0:0:0:0:
448,192,173932,128,0,174269:0:0:0:0:
64,192,174269,1,0,0:0:0:0:
320,192,174269,1,0,0:0:0:0:
64,192,174606,1,0,0:0:0:0:
320,192,174606,1,0,0:0:0:0:
192,192,174606,1,0,0:0:0:0:
192,192,174775,1,0,0:0:0:0:
448,192,174775,1,0,0:0:0:0:
64,192,174943,1,0,0:0:0:0:
192,192,174943,1,0,0:0:0:0:
448,192,174943,1,0,0:0:0:0:
448,192,175112,1,0,0:0:0:0:
320,192,175112,1,0,0:0:0:0:
320,192,175280,1,0,0:0:0:0:
192,192,175280,1,0,0:0:0:0:
64,192,175280,1,0,0:0:0:0:
64,192,175449,1,0,0:0:0:0:
448,192,175449,1,0,0:0:0:0:
64,192,175617,1,0,0:0:0:0:
320,192,175617,1,0,0:0:0:0:
448,192,175617,1,0,0:0:0:0:
192,192,175786,1,0,0:0:0:0:
448,192,175786,1,0,0:0:0:0:
64,192,176292,1,0,0:0:0:0:
320,192,176460,1,0,0:0:0:0:
448,192,176629,1,0,0:0:0:0:
320,192,176713,1,0,0:0:0:0:
192,192,176797,1,0,0:0:0:0:
64,192,176882,1,0,0:0:0:0:
448,192,176966,1,0,0:0:0:0:
320,192,177050,1,0,0:0:0:0:
192,192,177134,1,0,0:0:0:0:
64,192,177219,1,0,0:0:0:0:
192,192,177303,1,0,0:0:0:0:
448,192,177303,1,0,0:0:0:0:
320,192,177471,1,0,0:0:0:0:
448,192,177640,1,0,0:0:0:0:
320,192,177808,1,0,0:0:0:0:
192,192,177977,1,0,0:0:0:0:
448,192,178146,1,0,0:0:0:0:
192,192,178314,1,0,0:0:0:0:
320,192,178314,1,0,0:0:0:0:
448,192,178483,1,0,0:0:0:0:
320,192,178651,1,0,0:0:0:0:
192,192,178820,1,0,0:0:0:0:
64,192,178988,1,0,0:0:0:0:
192,192,179157,1,0,0:0:0:0:
320,192,179325,1,0,0:0:0:0:
448,192,179325,1,0,0:0:0:0:
192,192,179494,1,0,0:0:0:0:
448,192,179662,1,0,0:0:0:0:
320,192,179831,1,0,0:0:0:0:
64,192,179999,1,0,0:0:0:0:
192,192,180168,1,0,0:0:0:0:
448,192,180337,1,0,0:0:0:0:
64,192,180337,1,0,0:0:0:0:
192,192,180505,1,0,0:0:0:0:
64,192,180674,1,0,0:0:0:0:
320,192,180842,1,0,0:0:0:0:
64,192,181011,1,0,0:0:0:0:
192,192,181011,1,0,0:0:0:0:
448,192,181179,1,0,0:0:0:0:
64,192,181348,1,0,0:0:0:0:
320,192,181348,1,0,0:0:0:0:
448,192,181516,1,0,0:0:0:0:
192,192,181685,1,0,0:0:0:0:
320,192,181853,128,0,182022:0:0:0:0:
64,192,182022,128,0,182191:0:0:0:0:
192,192,182022,1,0,0:0:0:0:
448,192,182191,128,0,182359:0:0:0:0:
320,192,182191,1,0,0:0:0:0:
192,192,182359,1,0,0:0:0:0:
448,192,182528,1,0,0:0:0:0:
64,192,182528,1,0,0:0:0:0:
448,192,183033,1,0,0:0:0:0:
320,192,183033,1,0,0:0:0:0:
64,192,183033,1,0,0:0:0:0:
448,192,183370,1,0,0:0:0:0:
192,192,183370,1,0,0:0:0:0:
320,192,183370,1,0,0:0:0:0:
64,192,183707,1,0,0:0:0:0:
320,192,183876,1,0,0:0:0:0:
448,192,184382,1,0,0:0:0:0:
192,192,184719,128,0,185056:0:0:0:0:
320,192,184719,1,0,0:0:0:0:
448,192,185056,1,0,0:0:0:0:
64,192,185056,1,0,0:0:0:0:
64,192,185393,1,0,0:0:0:0:
192,192,185393,1,0,0:0:0:0:
448,192,185393,1,0,0:0:0:0:
192,192,185561,1,0,0:0:0:0:
448,192,185561,1,0,0:0:0:0:
64,192,185730,1,0,0:0:0:0:
192,192,185730,1,0,0:0:0:0:
320,192,185730,1,0,0:0:0:0:
448,192,185898,1,0,0:0:0:0:
64,192,185898,1,0,0:0:0:0:
64,192,186067,1,0,0:0:0:0:
320,192,186067,1,0,0:0:0:0:
448,192,186067,1,0,0:0:0:0:
448,192,186235,1,0,0:0:0:0:
64,192,186235,1,0,0:0:0:0:
192,192,186404,1,0,0:0:0:0:
320,192,186404,1,0,0:0:0:0:
448,192,186404,1,0,0:0:0:0:
320,192,186573,1,0,0:0:0:0:
64,192,186573,1,0,0:0:0:0:
64,192,186910,1,0,0:0:0:0:
448,192,187078,1,0,0:0:0:0:
64,192,187247,1,0,0:0:0:0:
64,192,187415,1,0,0:0:0:0:
192,192,187499,1,0,0:0:0:0:
320,192,187584,1,0,0:0:0:0:
448,192,187668,1,0,0:0:0:0:
64,192,187752,1,0,0:0:0:0:
192,192,187837,1,0,0:0:0:0:
320,192,187921,1,0,0:0:0:0:
448,192,188005,1,0,0:0:0:0:
64,192,188089,128,0,188426:0:0:0:0:
320,192,188089,1,0,0:0:0:0:
320,192,188258,1,0,0:0:0:0:
448,192,188426,128,0,188764:0:0:0:0:
192,192,188426,1,0,0:0:0:0:
192,192,188595,1,0,0:0:0:0:
64,192,188764,128,0,189101:0:0:0:0:
320,192,188764,1,0,0:0:0:0:
320,192,188932,1,0,0:0:0:0:
448,192,189101,128,0,189438:0:0:0:0:
192,192,189101,1,0,0:0:0:0:
192,192,189269,1,0,0:0:0:0:
320,192,189438,128,0,189775:0:0:0:0:
64,192,189438,1,0,0:0:0:0:
192,192,189775,128,0,190112:0:0:0:0:
64,192,189775,1,0,0:0:0:0:
448,192,190112,128,0,190449:0:0:0:0:
320,192,190112,1,0,0:0:0:0:
64,192,190449,128,0,190786:0:0:0:0:
320,192,190449,1,0,0:0:0:0:
448,192,190786,1,0,0:0:0:0:
192,192,190786,128,0,192808:0:0:0:0:
448,192,192640,1,0,0:0:0:0:
320,192,192724,1,0,0:0:0:0:
64,192,192808,1,0,0:0:0:0:
448,192,192808,1,0,0:0:0:0:
448,192,193061,1,0,0:0:0:0:
320,192,193061,1,0,0:0:0:0:
192,192,193230,1,0,0:0:0:0:
320,192,193483,1,0,0:0:0:0:
64,192,193483,128,0,194494:0:0:0:0:
192,192,193651,1,0,0:0:0:0:
448,192,193820,1,0,0:0:0:0:
320,192,193988,1,0,0:0:0:0:
192,192,194157,1,0,0:0:0:0:
320,192,194325,1,0,0:0:0:0:
448,192,194494,128,0,195505:0:0:0:0:
192,192,194662,1,0,0:0:0:0:
64,192,194831,1,0,0:0:0:0:
192,192,194999,1,0,0:0:0:0:
64,192,195168,1,0,0:0:0:0:
320,192,195337,1,0,0:0:0:0:
192,192,195421,1,0,0:0:0:0:
64,192,195505,128,0,196179:0:0:0:0:
192,192,195674,1,0,0:0:0:0:
448,192,195842,1,0,0:0:0:0:
320,192,196011,1,0,0:0:0:0:
192,192,196179,128,0,197191:0:0:0:0:
448,192,196179,1,0,0:0:0:0:
320,192,196348,1,0,0:0:0:0:
64,192,196516,1,0,0:0:0:0:
320,192,196685,1,0,0:0:0:0:
448,192,196853,1,0,0:0:0:0:
64,192,197022,1,0,0:0:0:0:
448,192,197191,1,0,0:0:0:0:
320,192,197191,128,0,198202:0:0:0:0:
64,192,197359,1,0,0:0:0:0:
192,192,197528,1,0,0:0:0:0:
64,192,197696,1,0,0:0:0:0:
192,192,197865,1,0,0:0:0:0:
448,192,198033,1,0,0:0:0:0:
64,192,198202,128,0,198876:0:0:0:0:
448,192,198370,1,0,0:0:0:0:
192,192,198539,1,0,0:0:0:0:
448,192,198707,1,0,0:0:0:0:
448,192,198876,128,0,199550:0:0:0:0:
192,192,198876,1,0,0:0:0:0:
320,192,199044,1,0,0:0:0:0:
192,192,199213,1,0,0:0:0:0:
64,192,199382,1,0,0:0:0:0:
192,192,199550,128,0,200224:0:0:0:0:
320,192,199550,1,0,0:0:0:0:
64,192,199719,1,0,0:0:0:0:
448,192,199887,1,0,0:0:0:0:
64,192,200056,1,0,0:0:0:0:
320,192,200224,128,0,201573:0:0:0:0:
64,192,200393,1,0,0:0:0:0:
192,192,200561,1,0,0:0:0:0:
64,192,200730,1,0,0:0:0:0:
448,192,200898,1,0,0:0:0:0:
192,192,201067,1,0,0:0:0:0:
64,192,201235,1,0,0:0:0:0:
448,192,201404,1,0,0:0:0:0:
64,192,201573,128,0,202921:0:0:0:0:
192,192,201573,1,0,0:0:0:0:
192,192,201741,1,0,0:0:0:0:
448,192,201910,1,0,0:0:0:0:
448,192,202078,1,0,0:0:0:0:
320,192,202247,1,0,0:0:0:0:
320,192,202415,1,0,0:0:0:0:
192,192,202584,1,0,0:0:0:0:
192,192,202752,1,0,0:0:0:0:
448,192,202921,1,0,0:0:0:0:
320,192,202921,1,0,0:0:0:0:
192,192,203089,1,0,0:0:0:0:
320,192,203258,1,0,0:0:0:0:
448,192,203258,1,0,0:0:0:0:
64,192,203426,128,0,203595:0:0:0:0:
320,192,203426,1,0,0:0:0:0:
192,192,203595,128,0,203764:0:0:0:0:
448,192,203595,1,0,0:0:0:0:
320,192,203764,128,0,203932:0:0:0:0:
448,192,203932,128,0,204101:0:0:0:0:
64,192,203932,1,0,0:0:0:0:
192,192,204101,1,0,0:0:0:0:
320,192,204269,1,0,0:0:0:0:
448,192,204438,1,0,0:0:0:0:
320,192,204606,1,0,0:0:0:0:
192,192,204775,1,0,0:0:0:0:
64,192,204943,1,0,0:0:0:0:
192,192,205112,1,0,0:0:0:0:
320,192,205280,1,0,0:0:0:0:
448,192,205280,1,0,0:0:0:0:
192,192,205449,1,0,0:0:0:0:
64,192,205617,1,0,0:0:0:0:
448,192,205786,1,0,0:0:0:0:
192,192,205955,1,0,0:0:0:0:
448,192,206123,1,0,0:0:0:0:
320,192,206207,1,0,0:0:0:0:
64,192,206292,1,0,0:0:0:0:
192,192,206292,1,0,0:0:0:0:
448,192,206292,1,0,0:0:0:0:
320,192,206460,1,0,0:0:0:0:
64,192,206629,1,0,0:0:0:0:
448,192,206629,1,0,0:0:0:0:
192,192,206797,1,0,0:0:0:0:
448,192,206966,1,0,0:0:0:0:
320,192,206966,1,0,0:0:0:0:
64,192,207134,1,0,0:0:0:0:
448,192,207303,1,0,0:0:0:0:
192,192,207471,1,0,0:0:0:0:
64,192,207640,1,0,0:0:0:0:
192,192,207808,1,0,0:0:0:0:
64,192,207977,1,0,0:0:0:0:
320,192,207977,1,0,0:0:0:0:
192,192,208146,1,0,0:0:0:0:
448,192,208314,1,0,0:0:0:0:
320,192,208483,1,0,0:0:0:0:
192,192,208651,1,0,0:0:0:0:
64,192,208820,1,0,0:0:0:0:
192,192,208988,1,0,0:0:0:0:
320,192,208988,1,0,0:0:0:0:
448,192,208988,1,0,0:0:0:0:
64,192,209157,1,0,0:0:0:0:
64,192,209325,1,0,0:0:0:0:
64,192,209494,1,0,0:0:0:0:
64,192,209662,1,0,0:0:0:0:
320,192,209662,1,0,0:0:0:0:
448,192,209831,1,0,0:0:0:0:
320,192,209999,1,0,0:0:0:0:
192,192,210168,1,0,0:0:0:0:
64,192,210337,1,0,0:0:0:0:
192,192,210505,1,0,0:0:0:0:
320,192,210674,1,0,0:0:0:0:
64,192,210674,1,0,0:0:0:0:
448,192,210842,1,0,0:0:0:0:
320,192,211011,1,0,0:0:0:0:
64,192,211179,1,0,0:0:0:0:
192,192,211348,1,0,0:0:0:0:
448,192,211348,1,0,0:0:0:0:
320,192,211516,1,0,0:0:0:0:
64,192,211685,1,0,0:0:0:0:
192,192,211685,1,0,0:0:0:0:
448,192,211853,1,0,0:0:0:0:
192,192,212022,1,0,0:0:0:0:
320,192,212022,1,0,0:0:0:0:
64,192,212191,1,0,0:0:0:0:
448,192,212359,1,0,0:0:0:0:
320,192,212359,1,0,0:0:0:0:
64,192,212528,1,0,0:0:0:0:
192,192,212528,1,0,0:0:0:0:
320,192,212528,1,0,0:0:0:0:
64,192,212696,1,0,0:0:0:0:
320,192,212696,1,0,0:0:0:0:
320,192,212865,1,0,0:0:0:0:
448,192,212865,1,0,0:0:0:0:
64,192,212865,1,0,0:0:0:0:
320,192,213033,1,0,0:0:0:0:
448,192,213033,1,0,0:0:0:0:
320,192,213202,1,0,0:0:0:0:
448,192,213202,1,0,0:0:0:0:
192,192,213370,1,0,0:0:0:0:
448,192,213370,1,0,0:0:0:0:
64,192,213370,1,0,0:0:0:0:
320,192,213539,1,0,0:0:0:0:
64,192,213707,1,0,0:0:0:0:
192,192,213792,1,0,0:0:0:0:
320,192,213876,1,0,0:0:0:0:
448,192,213960,1,0,0:0:0:0:
64,192,214044,1,0,0:0:0:0:
192,192,214129,1,0,0:0:0:0:
320,192,214213,1,0,0:0:0:0:
448,192,214297,1,0,0:0:0:0:
192,192,214382,1,0,0:0:0:0:
320,192,214466,1,0,0:0:0:0:
192,192,214550,1,0,0:0:0:0:
320,192,214634,1,0,0:0:0:0:
64,192,214719,1,0,0:0:0:0:
448,192,214803,1,0,0:0:0:0:
64,192,214887,1,0,0:0:0:0:
448,192,214971,1,0,0:0:0:0:
320,192,215056,128,0,215393:0:0:0:0:
64,192,215056,128,0,215730:0:0:0:0:
448,192,215393,1,0,0:0:0:0:
192,192,215730,128,0,216067:0:0:0:0:
448,192,215730,128,0,216404:0:0:0:0:
64,192,216067,1,0,0:0:0:0:
320,192,216404,128,0,217078:0:0:0:0:
64,192,216404,128,0,216741:0:0:0:0:
192,192,216741,1,0,0:0:0:0:
192,192,217078,128,0,217752:0:0:0:0:
448,192,217078,128,0,217415:0:0:0:0:
320,192,217415,1,0,0:0:0:0:
64,192,217752,128,0,218426:0:0:0:0:
320,192,218089,1,0,0:0:0:0:
448,192,218089,1,0,0:0:0:0:
192,192,218426,1,0,0:0:0:0:
320,192,218426,128,0,219101:0:0:0:0:
192,192,218764,1,0,0:0:0:0:
448,192,218764,1,0,0:0:0:0:
192,192,219101,128,0,219775:0:0:0:0:
64,192,219101,1,0,0:0:0:0:
448,192,219438,1,0,0:0:0:0:
64,192,219438,1,0,0:0:0:0:
320,192,219775,1,0,0:0:0:0:
448,192,219775,128,0,220449:0:0:0:0:
64,192,220112,1,0,0:0:0:0:
192,192,220112,1,0,0:0:0:0:
320,192,220449,1,0,0:0:0:0:
192,192,220449,1,0,0:0:0:0:
64,192,220786,1,0,0:0:0:0:
320,192,220786,1,0,0:0:0:0:
448,192,220786,1,0,0:0:0:0:
448,192,221123,1,0,0:0:0:0:
64,192,221123,1,0,0:0:0:0:
192,192,221123,1,0,0:0:0:0:
64,192,221460,1,0,0:0:0:0:
192,192,221460,1,0,0:0:0:0:
320,192,221460,1,0,0:0:0:0:
448,192,221797,1,0,0:0:0:0:
192,192,221797,1,0,0:0:0:0:
64,192,221797,1,0,0:0:0:0:
448,192,222134,1,0,0:0:0:0:
320,192,222134,1,0,0:0:0:0:
192,192,222134,1,0,0:0:0:0:
64,192,222471,1,0,0:0:0:0:
320,192,222471,1,0,0:0:0:0:
448,192,222471,1,0,0:0:0:0:
64,192,222808,1,0,0:0:0:0:
192,192,222808,1,0,0:0:0:0:
448,192,222808,1,0,0:0:0:0:
64,192,223146,1,0,0:0:0:0:
192,192,223146,1,0,0:0:0:0:
320,192,223146,1,0,0:0:0:0:
448,192,223314,1,0,0:0:0:0:
448,192,223483,1,0,0:0:0:0:
64,192,223651,1,0,0:0:0:0:
448,192,223651,1,0,0:0:0:0:
64,192,223820,1,0,0:0:0:0:
64,192,223988,1,0,0:0:0:0:
64,192,224157,1,0,0:0:0:0:
448,192,224157,1,0,0:0:0:0:
320,192,224325,1,0,0:0:0:0:
64,192,224494,1,0,0:0:0:0:
192,192,224494,1,0,0:0:0:0:
320,192,224662,1,0,0:0:0:0:
192,192,224831,1,0,0:0:0:0:
448,192,224831,1,0,0:0:0:0:
64,192,224999,1,0,0:0:0:0:
448,192,225168,1,0,0:0:0:0:
192,192,225337,1,0,0:0:0:0:
64,192,225421,1,0,0:0:0:0:
320,192,225589,1,0,0:0:0:0:
448,192,225674,1,0,0:0:0:0:
192,192,225842,128,0,226179:0:0:0:0:
64,192,225842,128,0,228539:0:0:0:0:
320,192,226179,128,0,226516:0:0:0:0:
448,192,226516,128,0,226853:0:0:0:0:
320,192,226853,128,0,227191:0:0:0:0:
192,192,227191,128,0,227528:0:0:0:0:
320,192,227528,128,0,227865:0:0:0:0:
448,192,227865,128,0,228202:0:0:0:0:
320,192,228202,128,0,228539:0:0:0:0:
448,192,228539,128,0,228876:0:0:0:0:
192,192,228539,128,0,231235:0:0:0:0:
320,192,228876,128,0,229213:0:0:0:0:
64,192,229213,128,0,229550:0:0:0:0:
320,192,229550,128,0,229887:0:0:0:0:
448,192,229887,128,0,230224:0:0:0:0:
320,192,230224,128,0,230561:0:0:0:0:
64,192,230561,128,0,230898:0:0:0:0:
320,192,230898,128,0,231235:0:0:0:0:
448,192,231235,128,0,233932:0:0:0:0:
64,192,231235,128,0,231573:0:0:0:0:
192,192,231573,128,0,231910:0:0:0:0:
320,192,231910,128,0,232247:0:0:0:0:
192,192,232247,128,0,232584:0:0:0:0:
64,192,232584,128,0,232921:0:0:0:0:
192,192,232921,128,0,233258:0:0:0:0:
320,192,233258,128,0,233595:0:0:0:0:
192,192,233595,128,0,233932:0:0:0:0:
64,192,233932,1,0,0:0:0:0:
192,192,234269,1,0,0:0:0:0:
320,192,234438,1,0,0:0:0:0:
448,192,234438,1,0,0:0:0:0:
64,192,234438,1,0,0:0:0:0:
192,192,234775,1,0,0:0:0:0:
64,192,234943,1,0,0:0:0:0:
320,192,234943,1,0,0:0:0:0:
448,192,234943,1,0,0:0:0:0:
448,192,235280,1,0,0:0:0:0:
192,192,235449,1,0,0:0:0:0:
64,192,235533,1,0,0:0:0:0:
448,192,235617,1,0,0:0:0:0:
192,192,235786,1,0,0:0:0:0:
64,192,235870,1,0,0:0:0:0:
448,192,235955,1,0,0:0:0:0:
192,192,236123,1,0,0:0:0:0:
64,192,236207,1,0,0:0:0:0:
448,192,236292,1,0,0:0:0:0:
192,192,236460,1,0,0:0:0:0:
64,192,236544,1,0,0:0:0:0:
448,192,236629,128,0,236966:0:0:0:0:
64,192,236966,1,0,0:0:0:0:
192,192,236966,1,0,0:0:0:0:
320,192,236966,1,0,0:0:0:0:
320,192,237303,128,0,237640:0:0:0:0:
64,192,237640,1,0,0:0:0:0:
192,192,237640,1,0,0:0:0:0:
448,192,237640,1,0,0:0:0:0:
192,192,237977,128,0,238314:0:0:0:0:
64,192,238314,1,0,0:0:0:0:
320,192,238314,1,0,0:0:0:0:
448,192,238314,1,0,0:0:0:0:
64,192,238651,128,0,238988:0:0:0:0:
192,192,238988,1,0,0:0:0:0:
320,192,238988,1,0,0:0:0:0:
448,192,238988,1,0,0:0:0:0:
448,192,239325,128,0,239662:0:0:0:0:
64,192,239662,1,0,0:0:0:0:
192,192,239662,1,0,0:0:0:0:
320,192,239662,1,0,0:0:0:0:
64,192,239999,128,0,240337:0:0:0:0:
192,192,240337,1,0,0:0:0:0:
320,192,240337,1,0,0:0:0:0:
448,192,240337,1,0,0:0:0:0:
320,192,240674,128,0,241011:0:0:0:0:
64,192,241011,1,0,0:0:0:0:
192,192,241011,1,0,0:0:0:0:
448,192,241011,1,0,0:0:0:0:
192,192,241348,128,0,241685:0:0:0:0:
64,192,241685,1,0,0:0:0:0:
320,192,241685,1,0,0:0:0:0:
448,192,241685,1,0,0:0:0:0:
320,192,242022,128,0,242359:0:0:0:0:
64,192,242359,1,0,0:0:0:0:
192,192,242359,1,0,0:0:0:0:
448,192,242359,1,0,0:0:0:0:
448,192,242696,128,0,243033:0:0:0:0:
320,192,243033,1,0,0:0:0:0:
192,192,243033,1,0,0:0:0:0:
64,192,243033,1,0,0:0:0:0:
320,192,243370,128,0,243707:0:0:0:0:
64,192,243707,1,0,0:0:0:0:
192,192,243707,1,0,0:0:0:0:
448,192,243707,1,0,0:0:0:0:
192,192,244044,128,0,244382:0:0:0:0:
64,192,244382,1,0,0:0:0:0:
320,192,244382,1,0,0:0:0:0:
448,192,244382,1,0,0:0:0:0:
64,192,244719,1,0,0:0:0:0:
320,192,244719,1,0,0:0:0:0:
448,192,244719,1,0,0:0:0:0:
192,192,244887,1,0,0:0:0:0:
320,192,245056,1,0,0:0:0:0:
448,192,245224,1,0,0:0:0:0:
192,192,245224,1,0,0:0:0:0:
64,192,245224,1,0,0:0:0:0:
320,192,245393,1,0,0:0:0:0:
192,192,245561,1,0,0:0:0:0:
64,192,245730,1,0,0:0:0:0:
320,192,245730,1,0,0:0:0:0:
448,192,245730,1,0,0:0:0:0:
192,192,245898,1,0,0:0:0:0:
320,192,246067,1,0,0:0:0:0:
448,192,246067,1,0,0:0:0:0:
320,192,246235,1,0,0:0:0:0:
448,192,246235,1,0,0:0:0:0:
320,192,246404,1,0,0:0:0:0:
448,192,246404,1,0,0:0:0:0:
320,192,246573,1,0,0:0:0:0:
448,192,246573,1,0,0:0:0:0:
64,192,246741,1,0,0:0:0:0:
192,192,246741,1,0,0:0:0:0:
64,192,246910,1,0,0:0:0:0:
192,192,246910,1,0,0:0:0:0:
64,192,247078,1,0,0:0:0:0:
192,192,247078,1,0,0:0:0:0:
64,192,247247,1,0,0:0:0:0:
192,192,247247,1,0,0:0:0:0:
448,192,247415,128,0,247584:0:0:0:0:
64,192,247752,128,0,247921:0:0:0:0:
320,192,248089,128,0,248258:0:0:0:0:
64,192,248426,128,0,248595:0:0:0:0:
320,192,248764,128,0,248932:0:0:0:0:
192,192,249101,128,0,249269:0:0:0:0:
448,192,249438,128,0,249606:0:0:0:0:
320,192,249775,128,0,249943:0:0:0:0:
64,192,250112,128,0,250280:0:0:0:0:
448,192,250449,128,0,250617:0:0:0:0:
192,192,250786,128,0,250955:0:0:0:0:
64,192,251123,128,0,251292:0:0:0:0:
448,192,251460,128,0,251629:0:0:0:0:
192,192,251797,128,0,251966:0:0:0:0:
320,192,252134,128,0,252303:0:0:0:0:
64,192,252471,128,0,252640:0:0:0:0:
448,192,252808,128,0,256179:0:0:0:0:
320,192,253988,1,0,0:0:0:0:
192,192,254073,1,0,0:0:0:0:
64,192,254157,128,0,256179:0:0:0:0:
64,192,257022,1,0,0:0:0:0:
192,192,257022,1,0,0:0:0:0:
320,192,258033,1,0,0:0:0:0:
192,192,258117,1,0,0:0:0:0:
64,192,258202,1,0,0:0:0:0:
448,192,258202,1,0,0:0:0:0:
320,192,258370,1,0,0:0:0:0:
64,192,258539,1,0,0:0:0:0:
448,192,258707,1,0,0:0:0:0:
320,192,258707,1,0,0:0:0:0:
192,192,258707,1,0,0:0:0:0:
320,192,258876,1,0,0:0:0:0:
192,192,259044,1,0,0:0:0:0:
64,192,259213,1,0,0:0:0:0:
320,192,259213,1,0,0:0:0:0:
448,192,259213,1,0,0:0:0:0:
192,192,259382,1,0,0:0:0:0:
64,192,259550,128,0,259719:0:0:0:0:
320,192,259550,1,0,0:0:0:0:
192,192,259719,128,0,259887:0:0:0:0:
448,192,259719,1,0,0:0:0:0:
320,192,259887,128,0,260056:0:0:0:0:
64,192,260056,1,0,0:0:0:0:
448,192,260056,128,0,260224:0:0:0:0:
192,192,260224,1,0,0:0:0:0:
320,192,260393,1,0,0:0:0:0:
448,192,260561,1,0,0:0:0:0:
64,192,260730,1,0,0:0:0:0:
192,192,260730,1,0,0:0:0:0:
320,192,260898,1,0,0:0:0:0:
448,192,260898,1,0,0:0:0:0:
64,192,261067,1,0,0:0:0:0:
192,192,261067,1,0,0:0:0:0:
320,192,261235,1,0,0:0:0:0:
448,192,261235,1,0,0:0:0:0:
64,192,261404,1,0,0:0:0:0:
192,192,261404,1,0,0:0:0:0:
448,192,261573,1,0,0:0:0:0:
192,192,261741,1,0,0:0:0:0:
64,192,261910,1,0,0:0:0:0:
320,192,261910,1,0,0:0:0:0:
448,192,261910,1,0,0:0:0:0:
64,192,262078,1,0,0:0:0:0:
448,192,262078,1,0,0:0:0:0:
448,192,262247,1,0,0:0:0:0:
320,192,262247,1,0,0:0:0:0:
192,192,262415,1,0,0:0:0:0:
448,192,262415,1,0,0:0:0:0:
64,192,262584,1,0,0:0:0:0:
192,192,262584,1,0,0:0:0:0:
64,192,262752,1,0,0:0:0:0:
448,192,262752,1,0,0:0:0:0:
64,192,262921,1,0,0:0:0:0:
320,192,262921,1,0,0:0:0:0:
192,192,263089,1,0,0:0:0:0:
320,192,263089,1,0,0:0:0:0:
64,192,263258,1,0,0:0:0:0:
448,192,263258,1,0,0:0:0:0:
320,192,263426,1,0,0:0:0:0:
64,192,263426,1,0,0:0:0:0:
192,192,263595,1,0,0:0:0:0:
448,192,263595,1,0,0:0:0:0:
448,192,263764,1,0,0:0:0:0:
320,192,263764,1,0,0:0:0:0:
64,192,263932,1,0,0:0:0:0:
320,192,263932,1,0,0:0:0:0:
64,192,264101,1,0,0:0:0:0:
192,192,264101,1,0,0:0:0:0:
448,192,264269,1,0,0:0:0:0:
192,192,264269,1,0,0:0:0:0:
64,192,264438,1,0,0:0:0:0:
192,192,264438,1,0,0:0:0:0:
192,192,264606,1,0,0:0:0:0:
320,192,264606,1,0,0:0:0:0:
64,192,264775,1,0,0:0:0:0:
192,192,264775,1,0,0:0:0:0:
448,192,264775,1,0,0:0:0:0:
192,192,265112,1,0,0:0:0:0:
64,192,265280,1,0,0:0:0:0:
320,192,265280,1,0,0:0:0:0:
448,192,265280,1,0,0:0:0:0:
192,192,265449,1,0,0:0:0:0:
64,192,265617,1,0,0:0:0:0:
192,192,265617,1,0,0:0:0:0:
320,192,265617,1,0,0:0:0:0:
448,192,265786,1,0,0:0:0:0:
448,192,265955,1,0,0:0:0:0:
320,192,265955,1,0,0:0:0:0:
192,192,265955,1,0,0:0:0:0:
320,192,266123,1,0,0:0:0:0:
192,192,266123,1,0,0:0:0:0:
448,192,266123,1,0,0:0:0:0:
64,192,266460,1,0,0:0:0:0:
192,192,266460,1,0,0:0:0:0:
320,192,266460,1,0,0:0:0:0:
64,192,266629,1,0,0:0:0:0:
192,192,266629,1,0,0:0:0:0:
320,192,266629,1,0,0:0:0:0:
320,192,266797,1,0,0:0:0:0:
64,192,266966,1,0,0:0:0:0:
448,192,266966,1,0,0:0:0:0:
192,192,267134,1,0,0:0:0:0:
320,192,267303,1,0,0:0:0:0:
448,192,267303,1,0,0:0:0:0:
192,192,267471,1,0,0:0:0:0:
64,192,267640,1,0,0:0:0:0:
192,192,267640,1,0,0:0:0:0:
320,192,267640,1,0,0:0:0:0:
64,192,267808,1,0,0:0:0:0:
448,192,267808,1,0,0:0:0:0:
64,192,267977,1,0,0:0:0:0:
320,192,267977,1,0,0:0:0:0:
448,192,267977,1,0,0:0:0:0:
192,192,268146,1,0,0:0:0:0:
448,192,268146,1,0,0:0:0:0:
64,192,268314,1,0,0:0:0:0:
192,192,268314,1,0,0:0:0:0:
320,192,268314,1,0,0:0:0:0:
448,192,268483,1,0,0:0:0:0:
64,192,268483,1,0,0:0:0:0:
448,192,268651,1,0,0:0:0:0:
320,192,268651,1,0,0:0:0:0:
64,192,268651,1,0,0:0:0:0:
448,192,268820,1,0,0:0:0:0:
320,192,268820,1,0,0:0:0:0:
192,192,268820,1,0,0:0:0:0:
64,192,268988,1,0,0:0:0:0:
448,192,269157,1,0,0:0:0:0:
64,192,269325,1,0,0:0:0:0:
64,192,269662,1,0,0:0:0:0:
192,192,269747,1,0,0:0:0:0:
320,192,269831,1,0,0:0:0:0:
448,192,269915,1,0,0:0:0:0:
64,192,269999,1,0,0:0:0:0:
192,192,270084,1,0,0:0:0:0:
320,192,270168,1,0,0:0:0:0:
448,192,270252,1,0,0:0:0:0:
64,192,270337,1,0,0:0:0:0:
192,192,270337,1,0,0:0:0:0:
320,192,270505,1,0,0:0:0:0:
448,192,270674,1,0,0:0:0:0:
64,192,270842,1,0,0:0:0:0:
192,192,271011,1,0,0:0:0:0:
320,192,271179,1,0,0:0:0:0:
64,192,271348,1,0,0:0:0:0:
192,192,271348,1,0,0:0:0:0:
448,192,271348,1,0,0:0:0:0:
192,192,271516,1,0,0:0:0:0:
320,192,271685,1,0,0:0:0:0:
192,192,271853,1,0,0:0:0:0:
448,192,272022,1,0,0:0:0:0:
320,192,272022,1,0,0:0:0:0:
64,192,272022,1,0,0:0:0:0:
192,192,272191,1,0,0:0:0:0:
448,192,272359,1,0,0:0:0:0:
320,192,272528,1,0,0:0:0:0:
448,192,272696,1,0,0:0:0:0:
64,192,272696,1,0,0:0:0:0:
192,192,272696,1,0,0:0:0:0:
320,192,272865,1,0,0:0:0:0:
192,192,273033,1,0,0:0:0:0:
320,192,273202,1,0,0:0:0:0:
64,192,273370,1,0,0:0:0:0:
192,192,273370,1,0,0:0:0:0:
448,192,273370,1,0,0:0:0:0:
320,192,273539,1,0,0:0:0:0:
192,192,273707,1,0,0:0:0:0:
64,192,273876,1,0,0:0:0:0:
320,192,274044,1,0,0:0:0:0:
448,192,274044,1,0,0:0:0:0:
192,192,274044,1,0,0:0:0:0:
320,192,274213,1,0,0:0:0:0:
192,192,274382,1,0,0:0:0:0:
448,192,274550,1,0,0:0:0:0:
320,192,274719,1,0,0:0:0:0:
192,192,274719,1,0,0:0:0:0:
64,192,274719,1,0,0:0:0:0:
64,192,274887,1,0,0:0:0:0:
192,192,275056,1,0,0:0:0:0:
448,192,275224,1,0,0:0:0:0:
320,192,275224,1,0,0:0:0:0:
64,192,275224,1,0,0:0:0:0:
320,192,275393,1,0,0:0:0:0:
448,192,275393,1,0,0:0:0:0:
64,192,275561,1,0,0:0:0:0:
320,192,275561,1,0,0:0:0:0:
192,192,275561,1,0,0:0:0:0:
192,192,275730,1,0,0:0:0:0:
448,192,275730,1,0,0:0:0:0:
64,192,275898,1,0,0:0:0:0:
448,192,276067,1,0,0:0:0:0:
64,192,276067,1,0,0:0:0:0:
64,192,276235,1,0,0:0:0:0:
448,192,276404,1,0,0:0:0:0:
320,192,276573,1,0,0:0:0:0:
448,192,276741,1,0,0:0:0:0:
64,192,276741,1,0,0:0:0:0:
320,192,276910,1,0,0:0:0:0:
192,192,277078,1,0,0:0:0:0:
320,192,277247,1,0,0:0:0:0:
448,192,277415,1,0,0:0:0:0:
64,192,277415,1,0,0:0:0:0:
320,192,277584,1,0,0:0:0:0:
192,192,277752,1,0,0:0:0:0:
64,192,277921,1,0,0:0:0:0:
320,192,278089,1,0,0:0:0:0:
448,192,278089,1,0,0:0:0:0:
64,192,278258,1,0,0:0:0:0:
448,192,278342,1,0,0:0:0:0:
64,192,278426,1,0,0:0:0:0:
192,192,278426,1,0,0:0:0:0:
320,192,278595,1,0,0:0:0:0:
448,192,278595,1,0,0:0:0:0:
64,192,278764,1,0,0:0:0:0:
192,192,278764,1,0,0:0:0:0:
320,192,278932,1,0,0:0:0:0:
448,192,278932,1,0,0:0:0:0:
192,192,279101,1,0,0:0:0:0:
64,192,279101,1,0,0:0:0:0:
320,192,279269,1,0,0:0:0:0:
448,192,279269,1,0,0:0:0:0:
64,192,279438,1,0,0:0:0:0:
192,192,279438,1,0,0:0:0:0:
320,192,279606,1,0,0:0:0:0:
448,192,279606,1,0,0:0:0:0:
64,192,279943,1,0,0:0:0:0:
448,192,280112,1,0,0:0:0:0:
320,192,280196,1,0,0:0:0:0:
192,192,280280,1,0,0:0:0:0:
64,192,280365,1,0,0:0:0:0:
448,192,280449,1,0,0:0:0:0:
320,192,280533,1,0,0:0:0:0:
192,192,280617,1,0,0:0:0:0:
64,192,280702,1,0,0:0:0:0:
448,192,280786,1,0,0:0:0:0:
320,192,280870,1,0,0:0:0:0:
192,192,280955,1,0,0:0:0:0:
64,192,281039,1,0,0:0:0:0:
448,192,281123,1,0,0:0:0:0:
192,192,281123,1,0,0:0:0:0:
320,192,281292,1,0,0:0:0:0:
64,192,281460,1,0,0:0:0:0:
192,192,281460,1,0,0:0:0:0:
320,192,281460,1,0,0:0:0:0:
448,192,281629,1,0,0:0:0:0:
192,192,281797,1,0,0:0:0:0:
320,192,281966,1,0,0:0:0:0:
64,192,282134,1,0,0:0:0:0:
192,192,282134,1,0,0:0:0:0:
448,192,282134,1,0,0:0:0:0:
320,192,282303,1,0,0:0:0:0:
448,192,282471,1,0,0:0:0:0:
64,192,282640,1,0,0:0:0:0:
320,192,282808,1,0,0:0:0:0:
448,192,282808,1,0,0:0:0:0:
192,192,282977,1,0,0:0:0:0:
64,192,283146,1,0,0:0:0:0:
448,192,283146,1,0,0:0:0:0:
192,192,283314,1,0,0:0:0:0:
320,192,283314,1,0,0:0:0:0:
64,192,283483,1,0,0:0:0:0:
448,192,283483,1,0,0:0:0:0:
192,192,283651,1,0,0:0:0:0:
320,192,283651,1,0,0:0:0:0:
64,192,283820,1,0,0:0:0:0:
448,192,283820,1,0,0:0:0:0:
192,192,283988,1,0,0:0:0:0:
320,192,283988,1,0,0:0:0:0:
64,192,284157,1,0,0:0:0:0:
448,192,284325,1,0,0:0:0:0:
64,192,284494,1,0,0:0:0:0:
192,192,284662,1,0,0:0:0:0:
320,192,284831,1,0,0:0:0:0:
448,192,284999,1,0,0:0:0:0:
64,192,285168,128,0,286432:0:0:0:0:
192,192,285505,128,0,286432:0:0:0:0:
320,192,285842,128,0,286432:0:0:0:0:
448,192,286179,128,0,286432:0:0:0:0:
64,192,286516,1,0,0:0:0:0:
192,192,286516,1,0,0:0:0:0:
320,192,286516,1,0,0:0:0:0:
448,192,286516,1,0,0:0:0:0:
320,192,286685,1,0,0:0:0:0:
64,192,286853,1,0,0:0:0:0:
192,192,287022,1,0,0:0:0:0:
320,192,287191,1,0,0:0:0:0:
448,192,287191,1,0,0:0:0:0:
64,192,287359,1,0,0:0:0:0:
192,192,287528,1,0,0:0:0:0:
320,192,287696,1,0,0:0:0:0:
64,192,287865,1,0,0:0:0:0:
192,192,287865,1,0,0:0:0:0:
448,192,288033,1,0,0:0:0:0:
320,192,288202,1,0,0:0:0:0:
192,192,288370,1,0,0:0:0:0:
448,192,288539,1,0,0:0:0:0:
64,192,288539,1,0,0:0:0:0:
320,192,288707,1,0,0:0:0:0:
192,192,288876,1,0,0:0:0:0:
64,192,289044,1,0,0:0:0:0:
320,192,289213,1,0,0:0:0:0:
448,192,289213,1,0,0:0:0:0:
320,192,289382,1,0,0:0:0:0:
192,192,289382,1,0,0:0:0:0:
64,192,289550,1,0,0:0:0:0:
192,192,289550,1,0,0:0:0:0:
192,192,289719,1,0,0:0:0:0:
320,192,289719,1,0,0:0:0:0:
320,192,289887,1,0,0:0:0:0:
448,192,289887,1,0,0:0:0:0:
320,192,290056,1,0,0:0:0:0:
192,192,290056,1,0,0:0:0:0:
64,192,290224,1,0,0:0:0:0:
192,192,290224,1,0,0:0:0:0:
448,192,290393,128,0,290898:0:0:0:0:
320,192,290983,1,0,0:0:0:0:
64,192,291151,1,0,0:0:0:0:
448,192,291235,1,0,0:0:0:0:
320,192,291320,1,0,0:0:0:0:
192,192,291404,1,0,0:0:0:0:
64,192,291488,1,0,0:0:0:0:
448,192,291573,1,0,0:0:0:0:
320,192,291657,1,0,0:0:0:0:
192,192,291741,1,0,0:0:0:0:
64,192,291825,1,0,0:0:0:0:
448,192,291910,1,0,0:0:0:0:
320,192,291910,1,0,0:0:0:0:
448,192,292078,1,0,0:0:0:0:
64,192,292078,1,0,0:0:0:0:
64,192,292247,1,0,0:0:0:0:
192,192,292247,1,0,0:0:0:0:
64,192,292415,1,0,0:0:0:0:
448,192,292415,1,0,0:0:0:0:
320,192,292584,1,0,0:0:0:0:
448,192,292584,1,0,0:0:0:0:
448,192,292752,1,0,0:0:0:0:
64,192,292752,1,0,0:0:0:0:
192,192,292921,1,0,0:0:0:0:
64,192,292921,1,0,0:0:0:0:
64,192,293089,1,0,0:0:0:0:
448,192,293089,1,0,0:0:0:0:
320,192,293258,1,0,0:0:0:0:
448,192,293258,1,0,0:0:0:0:
64,192,293595,1,0,0:0:0:0:
192,192,293595,1,0,0:0:0:0:
320,192,293595,1,0,0:0:0:0:
448,192,293932,1,0,0:0:0:0:
320,192,294016,1,0,0:0:0:0:
64,192,294101,1,0,0:0:0:0:
192,192,294185,1,0,0:0:0:0:
320,192,294269,1,0,0:0:0:0:
448,192,294353,1,0,0:0:0:0:
64,192,294438,1,0,0:0:0:0:
192,192,294522,1,0,0:0:0:0:
320,192,294606,1,0,0:0:0:0:
448,192,294691,1,0,0:0:0:0:
64,192,294775,1,0,0:0:0:0:
320,192,294859,1,0,0:0:0:0:
192,192,294943,1,0,0:0:0:0:
448,192,295028,1,0,0:0:0:0:
192,192,295112,1,0,0:0:0:0:
64,192,295196,1,0,0:0:0:0:
320,192,295280,1,0,0:0:0:0:
448,192,295365,1,0,0:0:0:0:
192,192,295449,1,0,0:0:0:0:
64,192,295533,1,0,0:0:0:0:
448,192,295617,1,0,0:0:0:0:
320,192,295702,1,0,0:0:0:0:
192,192,295786,1,0,0:0:0:0:
64,192,295870,1,0,0:0:0:0:
448,192,295955,1,0,0:0:0:0:
320,192,296039,1,0,0:0:0:0:
192,192,296123,1,0,0:0:0:0:
64,192,296207,1,0,0:0:0:0:
192,192,296292,1,0,0:0:0:0:
320,192,296376,1,0,0:0:0:0:
448,192,296460,1,0,0:0:0:0:
320,192,296544,1,0,0:0:0:0:
64,192,296629,1,0,0:0:0:0:
192,192,296713,1,0,0:0:0:0:
448,192,296797,1,0,0:0:0:0:
320,192,296882,1,0,0:0:0:0:
64,192,296966,1,0,0:0:0:0:
192,192,297050,1,0,0:0:0:0:
448,192,297134,1,0,0:0:0:0:
320,192,297219,1,0,0:0:0:0:
64,192,297303,1,0,0:0:0:0:
192,192,297303,1,0,0:0:0:0:
448,192,297471,1,0,0:0:0:0:
64,192,297640,1,0,0:0:0:0:
320,192,297640,1,0,0:0:0:0:
192,192,297808,1,0,0:0:0:0:
320,192,297977,1,0,0:0:0:0:
192,192,297977,1,0,0:0:0:0:
320,192,298146,1,0,0:0:0:0:
448,192,298314,1,0,0:0:0:0:
64,192,298314,1,0,0:0:0:0:
320,192,298483,1,0,0:0:0:0:
448,192,298651,1,0,0:0:0:0:
320,192,298735,1,0,0:0:0:0:
64,192,298820,1,0,0:0:0:0:
192,192,298904,1,0,0:0:0:0:
320,192,298988,1,0,0:0:0:0:
64,192,299073,1,0,0:0:0:0:
448,192,299157,1,0,0:0:0:0:
320,192,299241,1,0,0:0:0:0:
192,192,299325,1,0,0:0:0:0:
64,192,299410,1,0,0:0:0:0:
192,192,299494,1,0,0:0:0:0:
320,192,299578,1,0,0:0:0:0:
448,192,299662,1,0,0:0:0:0:
320,192,299747,1,0,0:0:0:0:
192,192,299831,1,0,0:0:0:0:
64,192,299915,1,0,0:0:0:0:
192,192,299999,1,0,0:0:0:0:
320,192,300084,1,0,0:0:0:0:
448,192,300168,1,0,0:0:0:0:
320,192,300252,1,0,0:0:0:0:
192,192,300337,1,0,0:0:0:0:
64,192,300421,1,0,0:0:0:0:
192,192,300505,1,0,0:0:0:0:
320,192,300589,1,0,0:0:0:0:
448,192,300674,1,0,0:0:0:0:
64,192,300758,1,0,0:0:0:0:
192,192,300842,1,0,0:0:0:0:
320,192,300926,1,0,0:0:0:0:
448,192,301011,1,0,0:0:0:0:
64,192,301095,1,0,0:0:0:0:
192,192,301179,1,0,0:0:0:0:
320,192,301264,1,0,0:0:0:0:
448,192,301348,1,0,0:0:0:0:
320,192,301432,1,0,0:0:0:0:
192,192,301516,1,0,0:0:0:0:
448,192,301601,1,0,0:0:0:0:
64,192,301685,1,0,0:0:0:0:
320,192,301769,1,0,0:0:0:0:
192,192,301853,1,0,0:0:0:0:
448,192,301938,1,0,0:0:0:0:
64,192,302022,1,0,0:0:0:0:
320,192,302106,1,0,0:0:0:0:
192,192,302191,1,0,0:0:0:0:
64,192,302275,1,0,0:0:0:0:
448,192,302359,1,0,0:0:0:0:
192,192,302443,1,0,0:0:0:0:
320,192,302528,1,0,0:0:0:0:
448,192,302612,1,0,0:0:0:0:
64,192,302696,1,0,0:0:0:0:
192,192,302696,1,0,0:0:0:0:
192,192,302865,1,0,0:0:0:0:
320,192,302865,1,0,0:0:0:0:
448,192,302865,1,0,0:0:0:0:
64,192,303033,1,0,0:0:0:0:
192,192,303033,1,0,0:0:0:0:
64,192,303202,1,0,0:0:0:0:
320,192,303202,1,0,0:0:0:0:
448,192,303202,1,0,0:0:0:0:
192,192,303370,1,0,0:0:0:0:
448,192,303370,1,0,0:0:0:0:
64,192,303539,1,0,0:0:0:0:
192,192,303539,1,0,0:0:0:0:
320,192,303539,1,0,0:0:0:0:
64,192,303707,1,0,0:0:0:0:
320,192,303707,1,0,0:0:0:0:
64,192,303876,1,0,0:0:0:0:
320,192,303876,1,0,0:0:0:0:
448,192,303876,1,0,0:0:0:0:
320,192,304044,1,0,0:0:0:0:
64,192,304213,1,0,0:0:0:0:
192,192,304382,1,0,0:0:0:0:
320,192,304466,1,0,0:0:0:0:
64,192,304550,1,0,0:0:0:0:
192,192,304634,1,0,0:0:0:0:
320,192,304719,1,0,0:0:0:0:
448,192,304803,1,0,0:0:0:0:
64,192,304887,1,0,0:0:0:0:
192,192,304971,1,0,0:0:0:0:
320,192,305056,1,0,0:0:0:0:
448,192,305140,1,0,0:0:0:0:
64,192,305224,1,0,0:0:0:0:
192,192,305308,1,0,0:0:0:0:
64,192,305393,1,0,0:0:0:0:
448,192,305477,1,0,0:0:0:0:
320,192,305561,1,0,0:0:0:0:
192,192,305646,1,0,0:0:0:0:
64,192,305730,1,0,0:0:0:0:
320,192,305814,1,0,0:0:0:0:
448,192,305898,1,0,0:0:0:0:
320,192,305983,1,0,0:0:0:0:
192,192,306067,1,0,0:0:0:0:
64,192,306151,1,0,0:0:0:0:
192,192,306235,1,0,0:0:0:0:
448,192,306320,1,0,0:0:0:0:
64,192,306404,1,0,0:0:0:0:
320,192,306488,1,0,0:0:0:0:
192,192,306573,1,0,0:0:0:0:
448,192,306657,1,0,0:0:0:0:
64,192,306741,1,0,0:0:0:0:
320,192,306825,1,0,0:0:0:0:
448,192,306910,1,0,0:0:0:0:
192,192,306994,1,0,0:0:0:0:
320,192,307078,1,0,0:0:0:0:
64,192,307162,1,0,0:0:0:0:
320,192,307247,1,0,0:0:0:0:
192,192,307331,1,0,0:0:0:0:
64,192,307415,1,0,0:0:0:0:
448,192,307499,1,0,0:0:0:0:
320,192,307584,1,0,0:0:0:0:
192,192,307668,1,0,0:0:0:0:
64,192,307752,1,0,0:0:0:0:
192,192,307837,1,0,0:0:0:0:
448,192,307921,1,0,0:0:0:0:
320,192,308005,1,0,0:0:0:0:
192,192,308089,1,0,0:0:0:0:
64,192,308174,1,0,0:0:0:0:
192,192,308258,1,0,0:0:0:0:
320,192,308342,1,0,0:0:0:0:
448,192,308426,1,0,0:0:0:0:
320,192,308511,1,0,0:0:0:0:
192,192,308595,1,0,0:0:0:0:
64,192,308679,1,0,0:0:0:0:
192,192,308764,1,0,0:0:0:0:
64,192,308848,1,0,0:0:0:0:
448,192,308932,1,0,0:0:0:0:
320,192,309016,1,0,0:0:0:0:
448,192,309101,1,0,0:0:0:0:
64,192,309185,1,0,0:0:0:0:
192,192,309269,1,0,0:0:0:0:
448,192,309353,1,0,0:0:0:0:
64,192,309438,1,0,0:0:0:0:
320,192,309606,1,0,0:0:0:0:
192,192,309775,1,0,0:0:0:0:
448,192,309775,1,0,0:0:0:0:
320,192,309943,1,0,0:0:0:0:
192,192,310112,1,0,0:0:0:0:
448,192,310280,1,0,0:0:0:0:
64,192,310449,1,0,0:0:0:0:
320,192,310449,1,0,0:0:0:0:
448,192,310617,1,0,0:0:0:0:
192,192,310786,1,0,0:0:0:0:
64,192,310870,1,0,0:0:0:0:
448,192,310955,1,0,0:0:0:0:
320,192,311039,1,0,0:0:0:0:
192,192,311123,1,0,0:0:0:0:
64,192,311207,1,0,0:0:0:0:
448,192,311292,1,0,0:0:0:0:
320,192,311376,1,0,0:0:0:0:
192,192,311460,1,0,0:0:0:0:
64,192,311544,1,0,0:0:0:0:
448,192,311629,1,0,0:0:0:0:
320,192,311713,1,0,0:0:0:0:
192,192,311797,1,0,0:0:0:0:
64,192,311882,1,0,0:0:0:0:
448,192,311966,1,0,0:0:0:0:
64,192,312050,1,0,0:0:0:0:
192,192,312134,1,0,0:0:0:0:
320,192,312219,1,0,0:0:0:0:
448,192,312303,1,0,0:0:0:0:
64,192,312387,1,0,0:0:0:0:
192,192,312471,1,0,0:0:0:0:
320,192,312556,1,0,0:0:0:0:
448,192,312640,1,0,0:0:0:0:
64,192,312724,1,0,0:0:0:0:
192,192,312808,1,0,0:0:0:0:
320,192,312893,1,0,0:0:0:0:
448,192,312977,1,0,0:0:0:0:
64,192,313061,1,0,0:0:0:0:
192,192,313146,1,0,0:0:0:0:
320,192,313230,1,0,0:0:0:0:
448,192,313314,1,0,0:0:0:0:
64,192,313483,1,0,0:0:0:0:
192,192,313483,1,0,0:0:0:0:
320,192,313483,1,0,0:0:0:0:
448,192,313651,1,0,0:0:0:0:
192,192,313651,1,0,0:0:0:0:
448,192,313820,1,0,0:0:0:0:
192,192,313820,1,0,0:0:0:0:
64,192,313820,1,0,0:0:0:0:
320,192,313988,1,0,0:0:0:0:
64,192,313988,1,0,0:0:0:0:
64,192,314157,1,0,0:0:0:0:
448,192,314157,1,0,0:0:0:0:
192,192,314157,1,0,0:0:0:0:
320,192,314325,1,0,0:0:0:0:
448,192,314325,1,0,0:0:0:0:
64,192,314494,1,0,0:0:0:0:
320,192,314494,1,0,0:0:0:0:
448,192,314494,1,0,0:0:0:0:
64,192,314662,1,0,0:0:0:0:
192,192,314662,1,0,0:0:0:0:
320,192,314831,1,0,0:0:0:0:
448,192,314831,1,0,0:0:0:0:
320,192,314915,1,0,0:0:0:0:
448,192,314915,1,0,0:0:0:0:
320,192,314999,1,0,0:0:0:0:
448,192,314999,1,0,0:0:0:0:
64,192,315168,1,0,0:0:0:0:
192,192,315168,1,0,0:0:0:0:
64,192,315252,1,0,0:0:0:0:
192,192,315252,1,0,0:0:0:0:
64,192,315337,1,0,0:0:0:0:
192,192,315337,1,0,0:0:0:0:
320,192,315505,1,0,0:0:0:0:
448,192,315505,1,0,0:0:0:0:
64,192,315589,1,0,0:0:0:0:
192,192,315589,1,0,0:0:0:0:
320,192,315674,1,0,0:0:0:0:
448,192,315674,1,0,0:0:0:0:
64,192,315758,1,0,0:0:0:0:
192,192,315758,1,0,0:0:0:0:
320,192,315842,1,0,0:0:0:0:
448,192,315842,1,0,0:0:0:0:
64,192,315926,1,0,0:0:0:0:
192,192,315926,1,0,0:0:0:0:
320,192,316011,128,0,322837:0:0:0:0:
448,192,316011,128,0,322837:0:0:0:0:
192,192,320898,128,0,322837:0:0:0:0:
64,192,322247,128,0,322837:0:0:0:0:
320,192,322921,1,0,0:0:0:0:
448,192,322921,1,0,0:0:0:0:
192,192,322921,1,0,0:0:0:0:
64,192,322921,1,0,0:0:0:0:
320,192,323258,1,0,0:0:0:0:
448,192,323258,1,0,0:0:0:0:
64,192,323595,1,0,0:0:0:0:
192,192,323595,1,0,0:0:0:0:
320,192,323595,1,0,0:0:0:0:
448,192,323595,1,0,0:0:0:0:
64,192,323932,1,0,0:0:0:0:
192,192,323932,1,0,0:0:0:0:
448,192,324269,1,0,0:0:0:0:
320,192,324269,1,0,0:0:0:0:
320,192,324606,1,0,0:0:0:0:
192,192,324606,1,0,0:0:0:0:
64,192,324943,128,0,325617:0:0:0:0:
192,192,324943,128,0,325617:0:0:0:0:
320,192,325617,1,0,0:0:0:0:
448,192,325617,1,0,0:0:0:0:
64,192,325955,1,0,0:0:0:0:
448,192,325955,1,0,0:0:0:0:
64,192,326292,1,0,0:0:0:0:
192,192,326292,1,0,0:0:0:0:
320,192,326292,1,0,0:0:0:0:
448,192,326292,1,0,0:0:0:0:
64,192,326629,1,0,0:0:0:0:
448,192,326629,1,0,0:0:0:0:
64,192,326966,1,0,0:0:0:0:
192,192,326966,1,0,0:0:0:0:
320,192,326966,1,0,0:0:0:0:
448,192,326966,1,0,0:0:0:0:
64,192,327303,1,0,0:0:0:0:
448,192,327303,1,0,0:0:0:0:
64,192,327640,1,0,0:0:0:0:
448,192,327640,1,0,0:0:0:0:
192,192,327808,1,0,0:0:0:0:
320,192,327808,1,0,0:0:0:0:
64,192,327977,1,0,0:0:0:0:
448,192,327977,1,0,0:0:0:0:
64,192,328314,1,0,0:0:0:0:
192,192,328314,1,0,0:0:0:0:
320,192,328314,1,0,0:0:0:0:
448,192,328314,1,0,0:0:0:0:
64,192,328651,1,0,0:0:0:0:
320,192,328651,1,0,0:0:0:0:
64,192,328988,1,0,0:0:0:0:
192,192,328988,1,0,0:0:0:0:
320,192,328988,1,0,0:0:0:0:
448,192,328988,1,0,0:0:0:0:
192,192,329325,1,0,0:0:0:0:
448,192,329325,1,0,0:0:0:0:
64,192,329662,1,0,0:0:0:0:
320,192,329662,1,0,0:0:0:0:
448,192,329662,1,0,0:0:0:0:
320,192,329999,1,0,0:0:0:0:
192,192,329999,1,0,0:0:0:0:
320,192,330337,128,0,331011:0:0:0:0:
448,192,330337,128,0,331011:0:0:0:0:
192,192,331011,1,0,0:0:0:0:
64,192,331011,1,0,0:0:0:0:
192,192,331348,1,0,0:0:0:0:
320,192,331348,1,0,0:0:0:0:
64,192,331685,1,0,0:0:0:0:
192,192,331685,1,0,0:0:0:0:
320,192,331685,1,0,0:0:0:0:
448,192,331685,1,0,0:0:0:0:
192,192,332022,1,0,0:0:0:0:
320,192,332022,1,0,0:0:0:0:
64,192,332359,1,0,0:0:0:0:
192,192,332359,1,0,0:0:0:0:
320,192,332359,1,0,0:0:0:0:
448,192,332359,1,0,0:0:0:0:
192,192,332696,1,0,0:0:0:0:
320,192,332696,1,0,0:0:0:0:
64,192,333033,1,0,0:0:0:0:
192,192,333202,1,0,0:0:0:0:
320,192,333370,1,0,0:0:0:0:
448,192,333539,1,0,0:0:0:0:
64,192,333707,1,0,0:0:0:0:
192,192,333707,1,0,0:0:0:0:
320,192,333707,1,0,0:0:0:0:
320,192,334044,1,0,0:0:0:0:
64,192,334382,1,0,0:0:0:0:
192,192,334382,1,0,0:0:0:0:
448,192,334382,1,0,0:0:0:0:
320,192,334719,1,0,0:0:0:0:
448,192,335056,1,0,0:0:0:0:
320,192,335056,1,0,0:0:0:0:
64,192,335056,1,0,0:0:0:0:
192,192,335393,1,0,0:0:0:0:
320,192,335730,1,0,0:0:0:0:
192,192,336404,1,0,0:0:0:0:
320,192,336404,1,0,0:0:0:0:
448,192,336404,1,0,0:0:0:0:
192,192,336741,1,0,0:0:0:0:
64,192,337078,1,0,0:0:0:0:
320,192,337078,1,0,0:0:0:0:
448,192,337078,1,0,0:0:0:0:
192,192,337415,1,0,0:0:0:0:
64,192,337752,1,0,0:0:0:0:
192,192,337752,1,0,0:0:0:0:
448,192,337752,1,0,0:0:0:0:
320,192,338089,1,0,0:0:0:0:
448,192,338426,1,0,0:0:0:0:
320,192,338595,1,0,0:0:0:0:
192,192,338764,1,0,0:0:0:0:
64,192,338932,1,0,0:0:0:0:
192,192,339101,1,0,0:0:0:0:
320,192,339101,1,0,0:0:0:0:
448,192,339101,1,0,0:0:0:0:
320,192,339438,1,0,0:0:0:0:
64,192,339775,1,0,0:0:0:0:
192,192,339775,1,0,0:0:0:0:
320,192,339775,1,0,0:0:0:0:
64,192,340112,1,0,0:0:0:0:
64,192,340449,1,0,0:0:0:0:
320,192,340449,1,0,0:0:0:0:
448,192,340449,1,0,0:0:0:0:
192,192,340786,1,0,0:0:0:0:
192,192,341123,1,0,0:0:0:0:
320,192,341123,1,0,0:0:0:0:
448,192,341123,1,0,0:0:0:0:
192,192,341460,1,0,0:0:0:0:
64,192,341629,1,0,0:0:0:0:
448,192,341797,1,0,0:0:0:0:
320,192,341797,1,0,0:0:0:0:
192,192,342134,1,0,0:0:0:0:
64,192,342471,1,0,0:0:0:0:
192,192,342471,1,0,0:0:0:0:
320,192,342471,1,0,0:0:0:0:
320,192,342808,1,0,0:0:0:0:
448,192,342808,1,0,0:0:0:0:
64,192,343146,128,0,343820:0:0:0:0:
320,192,343651,1,0,0:0:0:0:
448,192,343820,128,0,343988:0:0:0:0:
320,192,344494,128,0,344831:0:0:0:0:
192,192,344831,128,0,344999:0:0:0:0:
64,192,344999,128,0,345168:0:0:0:0:
448,192,345168,128,0,345505:0:0:0:0:
320,192,345505,128,0,345842:0:0:0:0:
192,192,345842,128,0,346179:0:0:0:0:
64,192,346179,128,0,346516:0:0:0:0:
448,192,346516,128,0,347022:0:0:0:0:
320,192,347022,1,0,0:0:0:0:
64,192,347191,128,0,347528:0:0:0:0:
192,192,347528,1,0,0:0:0:0:
448,192,347528,1,0,0:0:0:0:
448,192,347865,128,0,348202:0:0:0:0:
320,192,348202,1,0,0:0:0:0:
64,192,348202,1,0,0:0:0:0:
192,192,348539,128,0,349044:0:0:0:0:
64,192,349044,1,0,0:0:0:0:
448,192,349213,1,0,0:0:0:0:
320,192,349382,1,0,0:0:0:0:
192,192,349550,1,0,0:0:0:0:
64,192,349719,1,0,0:0:0:0:
320,192,349887,1,0,0:0:0:0:
448,192,349887,1,0,0:0:0:0:
192,192,349887,1,0,0:0:0:0:
320,192,350224,1,0,0:0:0:0:
64,192,350561,1,0,0:0:0:0:
192,192,350561,1,0,0:0:0:0:
320,192,350561,1,0,0:0:0:0:
448,192,350814,1,0,0:0:0:0:
64,192,351235,1,0,0:0:0:0:
320,192,351235,1,0,0:0:0:0:
448,192,351235,1,0,0:0:0:0:
64,192,351573,1,0,0:0:0:0:
192,192,351573,1,0,0:0:0:0:
448,192,351573,1,0,0:0:0:0:
64,192,351910,1,0,0:0:0:0:
192,192,351910,1,0,0:0:0:0:
320,192,351910,1,0,0:0:0:0:
448,192,352247,1,0,0:0:0:0:
320,192,352247,1,0,0:0:0:0:
192,192,352247,1,0,0:0:0:0:
192,192,352584,128,0,352921:0:0:0:0:
64,192,352584,1,0,0:0:0:0:
320,192,352584,1,0,0:0:0:0:
448,192,352584,1,0,0:0:0:0:
64,192,353258,1,0,0:0:0:0:
320,192,353258,1,0,0:0:0:0:
448,192,353258,128,0,353595:0:0:0:0:
192,192,353258,1,0,0:0:0:0:
64,192,353932,128,0,354269:0:0:0:0:
192,192,353932,1,0,0:0:0:0:
320,192,353932,1,0,0:0:0:0:
448,192,353932,1,0,0:0:0:0:
64,192,354606,1,0,0:0:0:0:
192,192,354606,1,0,0:0:0:0:
448,192,354606,1,0,0:0:0:0:
320,192,354606,128,0,356629:0:0:0:0:
