osu file format v14

[General]
AudioFilename: audio.mp3
AudioLeadIn: 0
PreviewTime: 88244
Countdown: 0
SampleSet: Soft
StackLeniency: 0.4
Mode: 0
LetterboxInBreaks: 0
WidescreenStoryboard: 1

[Editor]
Bookmarks: 34396,66756,88329,112514,144958,166531,193497,215070,247430,270351,294621,322935
DistanceSpacing: 1.1
BeatDivisor: 4
GridSize: 4
TimelineZoom: 0.9000001

[Metadata]
Title:Sakura no Zenya
TitleUnicode:サクラノ前夜
Artist:Kano
ArtistUnicode:鹿乃
Creator:yf_bmp
Version:Zenya
Source:
Tags:HOEHOEP Fycho すきなの。 ほえほえP NetEase Cloud Music
BeatmapID:1036049
BeatmapSetID:455780

[Difficulty]
HPDrainRate:6
CircleSize:4.3
OverallDifficulty:8
ApproachRate:9.2
SliderMultiplier:1.8
SliderTickRate:1

[Events]
//Background and Video events
0,0,"BG.jpg",0,0
//Break Periods
2,115493,120948
2,247628,257296
//Storyboard Layer 0 (Background)
//Storyboard Layer 1 (Fail)
//Storyboard Layer 2 (Pass)
//Storyboard Layer 3 (Foreground)
//Storyboard Sound Samples

[TimingPoints]
688,674.157303370787,4,2,2,60,1,0
33553,-100,4,2,1,5,0,0
33637,337.078651685393,4,2,1,50,1,0
33721,337.078651685393,4,2,1,70,1,0
34395,337.078651685393,4,2,1,70,1,0
34900,-166.666666666667,4,2,1,70,0,0
42484,-133.333333333333,4,2,1,70,0,0
43496,-76.9230769230769,4,2,1,70,0,0
43833,-100,4,2,1,80,0,0
44844,-100,4,2,1,30,0,0
45181,-125,4,2,1,50,0,0
55968,-111.111111111111,4,2,1,50,0,0
66754,-100,4,2,1,70,0,0
77541,-133.333333333333,4,2,1,70,0,0
82597,-100,4,2,1,70,0,0
85546,-100,4,2,1,25,0,0
86305,-100,4,2,1,40,0,0
86642,-100,4,2,1,50,0,0
86979,-100,4,2,1,70,0,0
87990,-83.3333333333333,4,2,1,50,0,0
88327,-100,4,2,1,75,0,1
111248,-100,4,2,1,70,0,0
121698,-83.3333333333333,4,2,1,70,0,0
122035,-100,4,2,1,70,0,0
123383,-125,4,2,1,70,0,0
144956,-100,4,2,1,70,0,0
160799,-83.3333333333333,4,2,1,70,0,0
161136,-100,4,2,1,70,0,0
163748,-100,4,2,1,25,0,0
164507,-100,4,2,1,40,0,0
164844,-100,4,2,1,50,0,0
165181,-100,4,2,1,70,0,0
166192,-83.3333333333333,4,2,1,70,0,0
166529,-100,4,2,1,75,0,1
171754,-133.333333333333,4,2,1,75,0,1
175799,-76.9230769230769,4,2,1,75,0,1
176305,-100,4,2,1,75,0,1
182541,-133.333333333333,4,2,1,75,0,1
186586,-76.9230769230769,4,2,1,75,0,1
187091,-100,4,2,1,75,0,1
189114,-100,4,2,1,85,0,1
189451,-66.6666666666667,4,2,1,70,0,0
193496,-100,4,2,1,70,0,0
203608,-100,4,2,1,40,0,0
203945,-100,4,2,1,60,0,0
204282,-100,4,2,1,70,0,0
213720,-100,4,2,1,40,0,0
214057,-100,4,2,1,60,0,0
214394,-100,4,2,1,70,0,0
215069,-166.666666666667,4,2,1,70,0,0
223159,-125,4,2,1,70,0,0
225181,-125,4,2,1,40,0,0
225518,-125,4,2,1,60,0,0
225855,-166.666666666667,4,2,1,70,0,0
233945,-125,4,2,1,70,0,0
235630,-125,4,2,1,40,0,0
235968,-125,4,2,1,60,0,0
236305,-125,4,2,1,70,0,0
244732,-100,4,2,1,70,0,0
246080,-100,4,2,1,50,0,0
246754,-100,4,2,1,70,0,0
247428,-100,4,2,2,70,0,0
258046,-100,4,2,1,70,0,0
259226,-83.3333333333333,4,2,1,70,0,0
259563,-83.3333333333333,4,2,1,75,0,1
269675,-83.3333333333333,4,2,1,50,0,1
270350,-100,4,2,1,75,0,1
275574,-133.333333333333,4,2,1,75,0,1
276080,-100,4,2,1,75,0,1
276923,-133.333333333333,4,2,1,75,0,1
277428,-100,4,2,1,75,0,1
279619,-76.9230769230769,4,2,1,75,0,1
280125,-100,4,2,1,75,0,1
280799,-66.6666666666667,4,2,1,75,0,1
281136,-100,4,2,1,75,0,1
290406,-76.9230769230769,4,2,1,75,0,1
290911,-100,4,2,1,75,0,1
294619,-100,4,2,1,70,0,0
304563,-100,4,2,1,40,0,0
304816,-100,4,2,1,60,0,0
305069,-100,4,2,1,70,0,0
314844,-100,4,2,1,50,0,0
315518,-100,4,2,1,60,0,0
315855,-100,4,2,1,70,0,0
322597,-100,4,2,2,20,0,0
322935,674.157303370787,4,2,2,60,1,0
354788,-100,4,2,2,10,0,0

[Colours]
Combo1 : 202,136,193
Combo2 : 199,171,105
Combo3 : 219,80,64
Combo4 : 115,143,191

[HitObjects]
48,168,688,5,0,0:0:0:0:
66,79,1025,1,0,0:0:0:0:
156,70,1362,1,0,0:0:0:0:
192,152,1699,1,0,0:0:0:0:
124,212,2036,2,0,P|115:255|132:296,1,90
216,332,2710,2,0,L|376:324,1,135
458,227,3384,5,0,0:0:0:0:
440,316,3721,1,0,0:0:0:0:
350,325,4058,1,0,0:0:0:0:
314,243,4395,1,0,0:0:0:0:
382,183,4732,2,0,P|391:140|374:99,1,90
300,152,5406,2,0,L|255:154,2,45
168,184,6081,5,0,0:0:0:0:
184,96,6418,1,0,0:0:0:0:
20,24,6755,5,0,0:0:0:0:
4,112,7092,1,0,0:0:0:0:
104,260,7429,2,0,L|69:176,1,90
168,184,8103,2,0,P|249:197|308:135,1,135
364,32,8777,5,0,0:0:0:0:
288,80,9114,1,0,0:0:0:0:
292,256,9452,5,0,0:0:0:0:
368,208,9789,1,0,0:0:0:0:
288,80,10126,6,0,L|290:186,1,90
289,169,10800,5,0,0:0:0:0:
368,292,10968,1,0,0:0:0:0:
248,352,11137,1,0,0:0:0:0:
248,352,11474,6,0,P|257:303|272:255,1,90,2|0,0:0|0:0,0:0:0:0:
203,202,12148,2,0,P|240:234|274:270,1,90,2|0,0:0|0:0,0:0:0:0:
168,296,12654,1,0,0:0:0:0:
168,296,12822,2,0,L|76:304,1,90,2|0,0:0|0:0,0:0:0:0:
120,124,13496,1,2,0:0:0:0:
120,124,14171,6,0,P|110:172|96:220,1,90,2|0,0:0|0:0,0:0:0:0:
165,274,14845,2,0,P|127:241|94:205,1,90,2|0,0:0|0:0,0:0:0:0:
13,237,15519,2,0,P|60:220|108:210,1,90,2|0,0:0|0:0,0:0:0:0:
200,180,16025,1,0,0:0:0:0:
200,180,16193,2,0,L|244:182,2,45,2|0|0,0:0|0:0|0:0,0:0:0:0:
400,120,16867,6,0,P|412:76|416:20,1,90,2|0,0:0|0:0,0:0:0:0:
400,120,17541,2,0,P|432:152|478:183,1,90,2|0,0:0|0:0,0:0:0:0:
444,276,18047,1,0,0:0:0:0:
444,276,18216,2,0,L|436:372,1,90,2|0,0:0|0:0,0:0:0:0:
232,328,18890,2,0,P|172:321|128:336,1,90,2|0,0:0|0:0,0:0:0:0:
84,380,19395,1,0,0:0:0:0:
8,372,19564,6,0,L|12:276,1,90,2|0,0:0|0:0,0:0:0:0:
96,100,20238,2,0,L|92:4,1,90,2|0,0:0|0:0,0:0:0:0:
56,212,20912,2,0,P|112:220|164:192,1,90,2|0,0:0|0:0,0:0:0:0:
164,216,21586,5,2,0:0:0:0:
36,224,21755,1,2,0:0:0:0:
96,100,21923,1,0,0:0:0:0:
96,100,22261,6,0,L|112:44,1,45,2|0,0:0|0:0,0:0:0:0:
4,8,22598,2,0,L|20:64,1,45
192,100,22935,2,0,L|248:96,1,45,2|0,0:0|0:0,0:0:0:0:
44,176,23272,2,0,L|-8:168,1,45
168,256,23609,2,0,L|68:264,1,90,2|0,0:0|0:0,0:0:0:0:
464,96,24283,1,2,0:0:0:0:
464,96,24789,1,2,0:0:0:0:
416,284,24957,6,0,L|400:340,1,45,2|0,0:0|0:0,0:0:0:0:
508,376,25294,2,0,L|492:320,1,45
320,284,25631,2,0,L|264:288,1,45,2|0,0:0|0:0,0:0:0:0:
468,208,25968,2,0,L|520:216,1,45
256,192,26305,2,0,L|156:196,1,90,2|0,0:0|0:0,0:0:0:0:
166,195,26980,1,2,0:0:0:0:
131,324,27148,2,0,P|135:302|136:279,1,45
96,100,27485,1,2,0:0:0:0:
40,248,27654,6,0,P|40:270|44:292,1,45,2|0,0:0|0:0,0:0:0:0:
96,100,27991,2,0,P|76:89|55:81,1,45
256,192,28328,2,0,L|345:183,1,90,2|0,0:0|0:0,0:0:0:0:
345,183,28834,1,0,0:0:0:0:
236,280,29002,2,0,P|212:274|188:248,1,45,2|0,0:0|0:0,0:0:0:0:
296,100,29339,2,0,P|312:82|347:74,1,45
420,236,29676,2,0,P|426:258|416:293,1,45,2|0,0:0|0:0,0:0:0:0:
256,192,30013,2,0,P|238:175|230:140,1,45
336,56,30350,6,0,B|422:24|418:88|510:54,2,180,2|2|2,0:0|0:0|0:0,0:0:0:0:
336,56,32036,1,0,0:0:0:0:
336,56,32204,1,0,0:0:0:0:
372,147,32373,6,0,B|324:172|276:132|276:132|276:60|196:36|144:100|184:156,1,315,2|0,0:0|0:0,0:0:0:0:
236,224,33637,6,0,L|276:220,2,22.5,0|0|8,3:0|3:0|0:0,0:0:0:0:
184,156,33889,1,0,3:0:0:0:
372,147,34058,2,0,L|468:156,1,90,8|2,0:0|3:2,0:0:0:0:
496,224,34282,1,2,0:0:0:0:
492,240,34338,1,2,0:0:0:0:
488,256,34395,5,4,3:1:0:0:
488,256,34732,1,0,0:0:0:0:
393,294,34900,2,0,P|346:246|347:196,1,107.999996704102,2|0,0:0|0:0,0:0:0:0:
412,124,35406,1,0,0:0:0:0:
412,124,35574,6,0,L|293:122,1,107.999996704102,2|0,0:0|0:0,0:0:0:0:
161,173,36080,1,0,0:0:0:0:
222,101,36248,2,0,P|236:16|228:8,1,107.999996704102,2|0,0:0|0:0,0:0:0:0:
228,8,36754,1,0,0:0:0:0:
125,86,36923,1,8,0:0:0:0:
228,8,37091,6,0,L|351:29,1,107.999996704102,2|0,3:2|0:0,0:0:0:0:
311,118,37597,2,0,P|294:161|289:229,1,107.999996704102,2|0,0:0|0:0,0:0:0:0:
212,283,38102,1,0,0:0:0:0:
289,354,38271,6,0,P|328:331|410:327,1,107.999996704102,2|0,0:0|0:0,0:0:0:0:
389,323,38777,1,0,0:0:0:0:
212,283,38945,1,2,0:0:0:0:
373,209,39114,2,0,P|387:180|386:135,1,53.9999983520508,2|8,0:0|0:0,0:0:0:0:
212,283,39451,1,8,3:3:0:0:
289,156,39619,1,4,3:3:0:0:
453,100,39788,6,0,P|470:150|466:204,1,107.999996704102,4|0,3:1|0:0,0:0:0:0:
365,312,40293,2,0,P|347:261|351:207,1,107.999996704102,2|0,0:0|0:0,0:0:0:0:
367,119,40799,1,0,0:0:0:0:
241,216,40968,6,0,P|139:207|110:214,1,107.999996704102,2|0,0:0|0:0,0:0:0:0:
100,125,41473,1,0,0:0:0:0:
9,255,41642,1,2,0:0:0:0:
13,100,41810,2,0,L|3:175,1,53.9999983520508,0|8,0:0|0:0,0:0:0:0:
101,273,42147,2,0,L|91:348,1,53.9999983520508,0|8,0:0|0:0,0:0:0:0:
225,369,42484,6,0,L|218:228,1,135.000005149842,4|0,3:1|0:0,0:0:0:0:
93,326,42990,1,8,0:0:0:0:
263,152,43159,2,0,P|230:143|196:141,1,67.5000025749208,0|0,0:0|3:0,0:0:0:0:
313,243,43496,6,0,P|387:234|442:156,1,175.499991966248,12|0,0:0|0:0,0:0:0:0:
441,136,43833,5,0,3:0:0:0:
263,152,44001,1,8,0:0:0:0:
395,33,44170,1,8,0:0:0:0:
313,243,44338,1,0,3:0:0:0:
395,33,44507,1,8,0:0:0:0:
263,152,44675,1,0,3:0:0:0:
441,136,44844,1,8,0:0:0:0:
456,177,44928,1,8,0:0:0:0:
454,221,45012,1,8,0:0:0:0:
424,255,45097,1,8,0:0:0:0:
388,260,45181,6,0,L|380:331,1,72,4|0,0:1|0:0,0:0:0:0:
263,374,45518,2,0,L|254:296,1,72,2|0,0:0|0:3,0:0:0:0:
174,246,45855,5,0,0:0:0:0:
108,312,46024,1,0,3:3:0:0:
21,277,46192,1,2,0:0:0:0:
36,184,46361,1,0,3:3:0:0:
36,184,46530,5,0,3:0:0:0:
128,170,46698,1,0,0:3:0:0:
137,76,46867,1,2,0:0:0:0:
51,39,47035,1,0,3:3:0:0:
128,170,47204,5,0,0:0:0:0:
51,39,47372,1,0,3:3:0:0:
209,10,47541,1,2,0:0:0:0:
221,111,47709,1,0,3:3:0:0:
221,111,47878,5,0,3:0:0:0:
209,10,48046,1,0,0:3:0:0:
330,184,48215,1,2,0:0:0:0:
313,84,48384,1,0,3:0:0:0:
178,232,48552,5,0,0:0:0:0:
330,184,48720,1,0,3:0:0:0:
330,184,48889,1,2,0:0:0:0:
178,232,49058,1,0,3:0:0:0:
313,84,49226,6,0,L|304:6,1,72,0|0,3:0|0:0,0:0:0:0:
436,97,49563,2,0,B|419:174,1,72,2|0,0:0|3:3,0:0:0:0:
330,184,49900,1,0,0:3:0:0:
468,237,50069,1,0,3:0:0:0:
468,237,50153,1,0,3:3:0:0:
468,237,50237,1,2,0:2:0:0:
330,184,50406,1,8,1:2:0:0:
283,335,50575,6,0,L|211:330,1,72,4|0,0:1|0:3,0:0:0:0:
468,237,50912,2,0,L|397:242,1,72,2|0,0:2|3:3,0:0:0:0:
283,335,51249,5,0,0:0:0:0:
396,242,51418,1,0,3:0:0:0:
256,185,51586,1,2,0:0:0:0:
311,253,51755,1,0,3:3:0:0:
311,253,51924,5,4,3:0:0:0:
300,106,52092,1,0,0:3:0:0:
166,206,52261,1,2,0:0:0:0:
256,185,52429,1,0,3:3:0:0:
166,206,52598,5,0,0:0:0:0:
194,294,52766,1,0,3:3:0:0:
12,331,52935,1,2,0:0:0:0:
41,253,53103,1,0,3:3:0:0:
41,253,53272,5,4,3:3:0:0:
194,294,53440,1,0,0:3:0:0:
139,120,53609,1,2,0:0:0:0:
49,166,53778,1,0,3:0:0:0:
93,33,53946,5,0,0:0:0:0:
237,155,54115,1,0,3:3:0:0:
237,155,54283,1,2,0:0:0:0:
93,33,54452,1,0,3:3:0:0:
49,166,54620,6,0,P|36:207|53:258,1,72,0|0,3:0|0:3,0:0:0:0:
237,155,54957,2,0,P|249:118|242:84,1,72,0|2,0:2|3:2,0:0:0:0:
93,33,55294,5,0,0:3:0:0:
93,33,55379,1,0,0:3:0:0:
93,33,55463,1,2,3:0:0:0:
49,166,55631,1,2,0:2:0:0:
209,0,55799,1,8,1:2:0:0:
150,155,55968,6,0,L|121:242,1,80.9999975280763,4|0,3:1|0:0,0:0:0:0:
316,110,56305,2,0,P|282:87|242:86,1,80.9999975280763,8|2,0:0|0:0,0:0:0:0:
377,218,56642,2,0,L|461:204,1,80.9999975280763,2|0,0:0|3:0,0:0:0:0:
354,326,56979,1,8,0:3:0:0:
354,326,57063,1,8,0:3:0:0:
354,326,57147,1,8,0:0:0:0:
256,280,57316,6,0,P|233:237|237:189,1,80.9999975280763,2|0,0:0|3:0,0:0:0:0:
375,40,57653,2,0,P|387:75|380:120,1,80.9999975280763,10|8,0:0|0:3,0:0:0:0:
380,117,57906,1,8,0:3:0:0:
380,117,57990,1,4,3:3:0:0:
310,219,58159,1,4,3:3:0:0:
303,89,58327,1,8,3:3:0:0:
452,152,58496,1,8,3:3:0:0:
303,89,58664,6,0,L|208:111,1,80.9999975280763,2|0,0:0|0:0,0:0:0:0:
116,246,59001,2,0,P|145:222|150:178,1,80.9999975280763,10|8,0:0|0:3,0:0:0:0:
151,181,59254,1,8,0:3:0:0:
151,181,59339,1,2,0:0:0:0:
83,60,59507,1,0,3:0:0:0:
0,209,59675,1,2,0:0:0:0:
76,146,59844,1,8,0:0:0:0:
130,312,60013,6,0,L|29:344,1,80.9999975280763,2|0,0:0|0:0,0:0:0:0:
241,251,60350,2,0,L|227:340,1,80.9999975280763,8|2,0:0|0:0,0:0:0:0:
228,331,60603,1,2,0:0:0:0:
228,331,60687,1,2,3:2:0:0:
190,187,60855,1,8,0:0:0:0:
228,331,61024,1,8,0:0:0:0:
351,231,61192,1,8,0:0:0:0:
190,187,61361,6,0,L|208:108,1,80.9999975280763,4|2,0:1|0:0,0:0:0:0:
342,101,61698,2,0,L|332:20,1,80.9999975280763,8|2,0:0|0:0,0:0:0:0:
431,212,62035,2,0,P|467:181|470:129,1,80.9999975280763,2|0,3:2|0:0,0:0:0:0:
283,179,62372,1,8,0:3:0:0:
283,179,62456,1,8,0:3:0:0:
283,179,62541,1,8,0:0:0:0:
347,267,62709,6,0,L|363:362,1,80.9999975280763,2|0,0:0|3:0,0:0:0:0:
200,365,63046,2,0,B|218:266,1,80.9999975280763,8|8,0:0|0:3,0:0:0:0:
214,285,63299,1,8,0:3:0:0:
214,285,63383,1,4,3:3:0:0:
277,150,63552,1,4,3:3:0:0:
321,240,63720,1,8,3:3:0:0:
313,58,63889,1,8,3:3:0:0:
140,154,64057,6,0,L|222:156,1,80.9999975280763,2|0,0:0|0:0,0:0:0:0:
400,204,64394,2,0,P|381:169|382:129,1,80.9999975280763,8|8,0:0|0:3,0:0:0:0:
383,129,64647,1,8,0:3:0:0:
383,129,64732,1,4,0:3:0:0:
268,218,64900,1,0,3:0:0:0:
200,74,65069,2,0,L|185:160,1,80.9999975280763,2|8,0:0|0:0,0:0:0:0:
176,264,65406,5,2,0:0:0:0:
200,74,65575,1,0,0:0:0:0:
108,180,65743,1,8,0:0:0:0:
268,218,65912,1,8,0:3:0:0:
268,218,65996,1,8,0:3:0:0:
268,218,66080,1,2,3:2:0:0:
108,180,66249,5,8,0:0:0:0:
251,126,66417,1,0,3:0:0:0:
282,312,66586,1,8,0:0:0:0:
108,180,66754,6,0,P|76:132|96:16,1,180,4|2,0:1|0:0,0:0:0:0:
176,264,67259,1,8,3:3:0:0:
176,264,67344,1,8,3:3:0:0:
176,264,67428,2,0,L|88:284,1,90,8|8,0:0|0:3,0:0:0:0:
88,283,67765,1,0,3:0:0:0:
172,96,67934,2,0,L|260:116,1,90,8|0,0:0|0:0,0:0:0:0:
448,124,68271,6,0,L|232:140,1,180,0|8,3:1|3:3,0:0:0:0:
352,52,68776,1,8,0:0:0:0:
432,216,68945,1,8,0:0:0:0:
268,137,69113,1,0,3:0:0:0:
448,124,69282,1,8,0:2:0:0:
304,232,69450,6,0,B|220:192|220:276|132:231,1,180,2|0,3:2|0:0,0:0:0:0:
132,231,69956,1,2,0:0:0:0:
144,68,70124,2,0,L|180:156,1,90,8|0,0:0|0:0,0:0:0:0:
178,151,70462,1,0,3:0:0:0:
268,312,70630,1,8,0:0:0:0:
116,216,70799,6,0,L|4:228,1,90,0|8,3:0|3:3,0:0:0:0:
26,225,71136,1,0,3:0:0:0:
268,312,71304,1,8,3:0:0:0:
268,312,71388,1,8,3:0:0:0:
268,312,71473,1,8,0:0:0:0:
344,360,71641,1,8,3:3:0:0:
432,328,71810,1,12,3:0:0:0:
456,240,71978,1,8,3:2:0:0:
404,168,72147,6,0,P|378:85|434:19,1,180,2|2,0:2|0:0,0:0:0:0:
288,160,72652,1,8,3:3:0:0:
288,160,72737,1,8,3:3:0:0:
288,160,72821,2,0,L|200:180,1,90,8|0,0:0|0:0,0:0:0:0:
200,179,73158,1,0,3:0:0:0:
340,328,73327,2,0,P|351:282|340:236,1,90,8|0,0:0|0:0,0:0:0:0:
124,248,73664,6,0,L|116:364,1,90,8|0,3:3|2:0,0:0:0:0:
140,348,73917,1,0,0:0:0:0:
160,356,74001,1,10,3:3:0:0:
180,364,74086,1,10,3:3:0:0:
200,372,74169,1,8,0:0:0:0:
200,179,74338,1,8,0:0:0:0:
28,256,74506,1,0,3:0:0:0:
220,276,74675,1,8,0:2:0:0:
80,160,74844,6,0,P|49:101|64:36,1,135,4|0,3:1|0:0,0:0:0:0:
56,20,75181,2,0,L|148:12,1,90,10|8,0:0|3:3,0:0:0:0:
92,176,75518,1,2,3:2:0:0:
48,4,75687,1,8,3:0:0:0:
224,64,75855,2,0,L|316:72,1,90,2|8,3:2|0:0,0:0:0:0:
220,276,76192,5,2,0:0:0:0:
8,196,76361,1,8,0:3:0:0:
276,172,76529,2,0,L|368:164,1,90,8|8,0:2|3:0,0:0:0:0:
384,184,76781,1,8,3:0:0:0:
384,184,76866,1,8,0:0:0:0:
176,356,77034,5,8,0:0:0:0:
80,104,77203,1,12,3:0:0:0:
84,112,77288,1,8,0:0:0:0:
88,120,77372,1,8,0:0:0:0:
92,128,77456,1,8,0:0:0:0:
96,136,77541,6,0,L|88:208,1,67.5000025749208,4|0,3:1|0:0,0:0:0:0:
180,176,77878,2,0,L|252:184,1,67.5000025749208,0|2,3:0|0:2,0:0:0:0:
224,92,78215,2,0,L|232:20,1,67.5000025749208,0|0,3:0|0:0,0:0:0:0:
140,52,78552,2,0,L|68:44,1,67.5000025749208,2|0,3:2|0:0,0:0:0:0:
254,250,78889,6,0,L|246:178,1,67.5000025749208,0|0,3:1|0:0,0:0:0:0:
338,210,79226,2,0,L|410:202,1,67.5000025749208,2|0,3:0|0:0,0:0:0:0:
382,294,79563,2,0,L|390:366,1,67.5000025749208,2|0,3:2|0:0,0:0:0:0:
298,334,79900,2,0,L|226:342,1,67.5000025749208,2|0,3:2|0:0,0:0:0:0:
360,116,80237,6,0,P|372:84|368:36,1,67.5000025749208,2|0,3:2|0:0,0:0:0:0:
279,163,80574,2,0,P|301:189|330:206,1,67.5000025749208,0|2,3:0|0:0,0:0:0:0:
280,68,80911,2,0,P|246:73|217:90,1,67.5000025749208,0|0,3:0|0:0,0:0:0:0:
420,192,81248,2,0,L|496:188,1,67.5000025749208,2|0,0:0|0:0,0:0:0:0:
236,252,81586,6,0,L|96:248,1,135.000005149842,0|2,3:0|0:0,0:0:0:0:
320,312,82091,1,0,3:0:0:0:
320,312,82175,1,0,3:0:0:0:
320,312,82260,1,10,0:0:0:0:
264,116,82428,1,0,0:0:0:0:
108,224,82597,6,0,L|248:220,1,135.000005149842,4|0,1:2|0:0,0:0:0:0:
336,192,82934,5,4,1:1:0:0:
76,128,83102,1,8,3:0:0:0:
76,128,83271,1,2,3:2:0:0:
360,100,83439,5,8,0:0:0:0:
16,200,83608,1,8,3:0:0:0:
16,200,83777,1,2,3:2:0:0:
404,292,83945,2,0,L|304:288,1,90,8|0,0:0|0:1,0:1:0:0:
136,52,84282,5,2,0:0:0:0:
152,316,84451,1,8,0:0:0:0:
152,316,84619,1,8,0:0:0:0:
220,104,84788,1,8,3:0:0:0:
224,132,84872,1,8,3:0:0:0:
228,160,84956,1,10,0:2:0:0:
314,288,85125,1,8,3:0:0:0:
348,8,85293,2,0,L|344:104,1,90,2|8,3:2|0:0,0:0:0:0:
108,228,85630,5,0,1:0:0:0:
144,216,85715,1,0,1:0:0:0:
180,224,85799,1,0,1:0:0:0:
204,252,85883,1,0,1:0:0:0:
212,288,85968,5,0,1:0:0:0:
248,300,86053,1,0,1:0:0:0:
284,292,86137,1,0,1:0:0:0:
308,264,86221,1,0,1:0:0:0:
312,216,86305,5,0,1:0:0:0:
280,180,86389,1,0,1:0:0:0:
276,132,86473,1,0,1:0:0:0:
304,92,86557,1,0,1:0:0:0:
352,80,86642,1,0,1:0:0:0:
396,100,86726,1,0,1:0:0:0:
416,144,86810,1,0,1:0:0:0:
404,192,86894,1,0,1:0:0:0:
364,220,86979,5,0,1:0:0:0:
124,320,87147,1,8,3:0:0:0:
124,320,87316,1,8,3:0:0:0:
436,284,87484,5,0,1:0:0:0:
108,228,87653,1,8,3:0:0:0:
108,228,87821,1,8,3:0:0:0:
371,58,87990,6,0,L|363:234,1,161.999995056153,4|0,1:2|0:0,0:0:0:0:
363,243,88327,5,4,3:1:0:0:
225,128,88496,1,2,0:0:0:0:
187,315,88664,1,8,0:0:0:0:
257,219,88833,1,0,0:0:0:0:
86,303,89001,1,2,0:0:0:0:
288,330,89170,1,0,3:0:0:0:
152,217,89339,5,8,0:0:0:0:
187,315,89507,1,2,0:0:0:0:
357,229,89676,1,0,3:0:0:0:
221,128,89844,1,2,0:0:0:0:
288,330,90013,1,8,0:0:0:0:
324,140,90181,1,0,3:0:0:0:
187,315,90350,5,0,3:0:0:0:
357,229,90518,1,2,3:2:0:0:
188,112,90687,1,8,0:0:0:0:
245,210,90855,1,2,0:0:0:0:
328,82,91024,1,0,3:0:0:0:
130,24,91192,1,2,0:0:0:0:
108,265,91361,5,8,0:0:0:0:
188,112,91530,1,2,0:0:0:0:
1,116,91698,1,0,3:0:0:0:
195,216,91867,1,2,0:0:0:0:
85,38,92035,1,12,1:2:0:0:
8,226,92204,1,2,0:0:0:0:
195,216,92372,6,0,L|221:104,1,90,4|2,3:1|0:0,0:0:0:0:
458,66,92709,2,0,L|368:72,1,90,8|2,0:0|0:0,0:0:0:0:
401,325,93046,2,0,B|500:314,1,90,0|10,3:0|0:0,0:0:0:0:
490,315,93299,1,2,0:2:0:0:
490,315,93384,1,12,0:2:0:0:
249,369,93552,6,0,P|194:310|223:214,1,180,4|0,3:1|3:0,0:0:0:0:
89,275,94058,2,0,P|44:277|0:274,1,90,8|0,0:0|0:0,0:0:0:0:
260,129,94395,2,0,P|304:125|349:130,1,90,2|0,3:2|0:0,0:0:0:0:
407,249,94732,1,8,0:0:0:0:
138,362,94900,6,0,B|159:180,1,180,4|0,3:1|3:0,0:0:0:0:
38,0,95406,2,0,P|41:44|36:89,1,90,8|8,0:0|3:0,0:0:0:0:
7,109,95659,1,8,3:0:0:0:
7,109,95743,2,0,L|116:103,1,90,8|0,0:0|0:0,0:0:0:0:
283,96,96080,1,12,0:0:0:0:
149,19,96249,1,8,3:0:0:0:
149,19,96333,1,8,3:0:0:0:
149,19,96417,5,4,1:1:0:0:
98,202,96586,1,0,3:0:0:0:
92,90,96754,5,8,0:0:0:0:
217,282,96923,1,0,3:0:0:0:
179,99,97091,5,8,0:0:0:0:
30,297,97260,1,0,3:0:0:0:
343,223,97428,1,8,0:0:0:0:
0,103,97597,6,0,B|179:99,1,180,4|0,3:1|3:0,0:0:0:0:
36,223,98103,2,0,P|42:267|26:309,1,90,8|0,0:0|3:0,0:0:0:0:
139,315,98440,1,8,0:0:0:0:
173,293,98524,1,8,0:0:0:0:
213,286,98608,1,8,0:0:0:0:
252,294,98692,1,8,0:3:0:0:
279,324,98777,1,8,3:3:0:0:
316,340,98861,1,8,3:0:0:0:
356,338,98945,1,12,3:0:0:0:
392,320,99030,1,12,3:0:0:0:
414,286,99114,5,4,3:1:0:0:
323,76,99282,1,2,0:0:0:0:
267,209,99451,1,8,0:0:0:0:
413,116,99619,1,2,0:0:0:0:
229,130,99788,1,0,3:1:0:0:
349,0,99956,1,2,3:2:0:0:
492,203,100125,5,8,0:0:0:0:
323,76,100294,1,2,0:0:0:0:
477,31,100462,1,0,0:0:0:0:
435,271,100631,1,2,0:0:0:0:
412,115,100799,1,8,0:0:0:0:
354,348,100968,1,2,0:0:0:0:
512,116,101136,5,2,3:0:0:0:
390,30,101305,1,2,0:0:0:0:
322,211,101473,1,8,0:0:0:0:
412,115,101642,1,2,0:0:0:0:
226,175,101810,1,0,3:0:0:0:
432,264,101979,1,2,3:2:0:0:
310,110,102148,5,8,0:0:0:0:
294,318,102316,1,2,0:0:0:0:
374,195,102485,1,0,3:0:0:0:
181,217,102653,1,2,0:0:0:0:
243,40,102822,1,8,0:0:0:0:
256,140,102990,1,2,0:0:0:0:
54,140,103159,5,2,3:2:0:0:
256,140,103327,1,2,3:2:0:0:
116,66,103496,1,8,0:0:0:0:
68,238,103664,1,2,0:0:0:0:
238,325,103833,2,0,P|251:269|231:237,1,90,0|10,3:0|0:2,0:0:0:0:
237,242,104086,1,2,0:2:0:0:
237,242,104171,1,12,0:2:0:0:
122,339,104339,1,4,3:1:0:0:
212,156,104507,6,0,L|332:156,1,90,2|0,0:0|3:0,0:0:0:0:
117,98,104845,2,0,P|112:53|130:12,1,90,8|0,0:0|0:0,0:0:0:0:
241,246,105182,2,0,P|249:289|236:332,1,90,2|0,3:2|0:0,0:0:0:0:
102,196,105519,1,8,0:0:0:0:
241,121,105687,6,0,B|431:156,1,180,4|0,3:1|3:0,0:0:0:0:
329,264,106193,2,0,L|238:245,1,90,8|8,0:0|3:0,0:0:0:0:
200,245,106446,1,8,3:0:0:0:
200,245,106530,2,0,P|187:302|196:343,1,90,8|0,0:0|0:0,0:0:0:0:
415,286,106867,1,12,0:0:0:0:
270,136,107036,1,8,3:0:0:0:
270,136,107120,1,8,3:0:0:0:
270,136,107204,5,4,1:1:0:0:
200,245,107373,1,0,3:0:0:0:
224,40,107541,5,8,0:2:0:0:
318,231,107710,1,0,3:0:0:0:
343,0,107878,5,8,0:0:0:0:
151,162,108047,1,0,3:0:0:0:
417,95,108215,1,8,0:0:0:0:
103,33,108384,6,0,B|63:210,1,180,4|0,3:1|3:0,0:0:0:0:
91,319,108890,2,0,L|2:325,1,90,8|0,0:2|3:0,0:0:0:0:
1,325,109142,1,0,3:0:0:0:
2,325,109227,1,0,3:0:0:0:
196,222,109395,1,8,0:2:0:0:
300,364,109563,2,0,L|321:323,1,45,8|8,3:0|3:0,0:0:0:0:
283,178,109732,2,0,L|326:208,1,45,12|12,3:0|3:0,0:0:0:0:
407,267,109901,5,4,3:1:0:0:
196,222,110069,1,8,3:3:0:0:
316,67,110237,1,8,3:3:0:0:
254,294,110406,1,8,3:3:0:0:
39,284,110575,5,8,3:0:0:0:
206,141,110743,1,8,3:3:0:0:
297,342,110911,1,8,3:3:0:0:
99,190,111080,1,8,3:3:0:0:
260,2,111248,5,0,1:3:0:0:
172,286,111417,1,0,1:3:0:0:
172,286,111754,5,0,3:0:0:0:
172,286,111838,1,0,3:0:0:0:
172,286,111923,1,8,1:3:0:0:
245,46,112091,1,8,1:3:0:0:
209,172,112597,5,4,0:0:0:0:
256,192,112681,12,2,115293,0:0:0:0:
190,257,121698,6,0,B|281:243|248:308|342:290,1,161.999995056153,4|0,1:2|0:0,0:0:0:0:
320,212,122035,5,0,3:0:0:0:
208,340,122203,1,8,0:0:0:0:
208,340,122372,1,8,0:0:0:0:
341,290,122540,1,0,3:0:0:0:
132,320,122709,2,0,L|40:312,1,90,8|0,0:0|0:0,0:0:0:0:
304,360,123046,5,8,0:0:0:0:
336,368,123130,1,8,3:0:0:0:
368,368,123215,1,4,3:0:0:0:
400,360,123299,1,4,3:0:0:0:
432,344,123383,6,0,L|437:272,1,72,4|0,0:1|3:0,0:0:0:0:
460,116,123720,2,0,L|465:187,1,72,0|8,0:1|3:3,0:0:0:0:
437,272,124057,5,0,0:0:0:0:
356,244,124226,1,8,3:3:0:0:
248,360,124394,1,8,0:0:0:0:
176,316,124563,1,12,0:3:0:0:
172,304,124647,1,12,0:3:0:0:
168,292,124732,5,0,3:0:0:0:
88,328,124900,1,8,0:3:0:0:
12,200,125069,1,0,0:0:0:0:
92,236,125237,1,8,3:3:0:0:
168,108,125406,5,0,0:0:0:0:
88,144,125574,1,8,3:3:0:0:
12,16,125743,1,8,0:0:0:0:
100,28,125911,1,12,0:3:0:0:
96,40,125995,1,12,0:3:0:0:
92,52,126080,5,0,3:0:0:0:
92,156,126248,1,8,0:3:0:0:
256,120,126417,1,0,0:0:0:0:
88,144,126586,1,8,3:0:0:0:
344,136,126754,5,0,0:0:0:0:
172,120,126923,1,12,3:0:0:0:
176,132,127007,1,12,3:0:0:0:
180,144,127091,1,8,0:0:0:0:
316,52,127260,1,8,3:0:0:0:
424,176,127428,6,0,L|516:180,1,72,0|8,3:0|3:0,0:0:0:0:
356,296,127765,2,0,B|344:264|344:264|350:226,1,72,4|8,0:3|3:3,0:0:0:0:
495,179,128102,1,8,0:3:0:0:
492,168,128187,1,8,0:3:0:0:
488,156,128271,1,2,3:0:0:0:
484,144,128355,1,4,0:3:0:0:
480,132,128439,1,2,0:2:0:0:
344,136,128608,2,0,L|288:140,1,36,8|0,0:0|0:0,0:0:0:0:
228,36,128777,6,0,L|156:31,1,72,4|8,0:1|3:3,0:0:0:0:
0,8,129114,2,0,L|71:3,1,72,0|8,0:1|3:3,0:0:0:0:
156,31,129451,5,0,0:0:0:0:
128,112,129620,1,8,3:0:0:0:
176,280,129788,1,8,0:0:0:0:
140,200,129957,1,12,0:3:0:0:
152,196,130041,1,12,0:3:0:0:
164,192,130126,5,4,3:0:0:0:
128,112,130294,1,8,0:3:0:0:
256,36,130463,1,0,0:0:0:0:
220,116,130631,1,8,3:3:0:0:
348,192,130800,5,0,0:0:0:0:
312,112,130968,1,8,3:3:0:0:
440,36,131137,1,8,0:0:0:0:
428,124,131305,1,12,0:3:0:0:
416,120,131389,1,12,0:3:0:0:
404,116,131474,5,4,3:3:0:0:
300,116,131642,1,8,0:3:0:0:
336,280,131811,1,0,0:0:0:0:
312,112,131980,1,8,3:0:0:0:
320,368,132148,5,0,0:0:0:0:
336,196,132317,1,8,3:3:0:0:
324,200,132401,1,8,3:3:0:0:
312,204,132485,1,8,0:0:0:0:
404,340,132654,1,8,3:3:0:0:
508,216,132822,6,0,B|516:176|516:176|504:124,1,72,0|8,3:0|3:3,0:0:0:0:
408,268,133159,2,0,L|403:339,1,72,4|2,0:3|3:2,0:0:0:0:
232,352,133496,5,8,0:3:0:0:
228,340,133581,1,8,0:3:0:0:
224,328,133665,1,2,3:0:0:0:
220,316,133749,1,4,0:3:0:0:
216,304,133833,1,2,0:2:0:0:
100,360,134002,2,0,L|135:357,1,36,8|0,0:0|0:0,0:0:0:0:
220,212,134170,6,0,L|224:104,1,108,4|0,3:1|0:0,0:0:0:0:
236,92,134507,2,0,P|234:52|212:28,1,72,8|2,0:0|0:0,0:0:0:0:
128,8,134844,2,0,L|52:16,1,72,2|0,0:0|3:0,0:0:0:0:
16,244,135181,1,8,0:3:0:0:
20,232,135265,1,8,0:3:0:0:
24,220,135350,2,0,L|15:184,1,36,8|0,0:0|0:0,0:0:0:0:
144,208,135518,6,0,L|236:196,1,72,2|0,0:0|3:0,0:0:0:0:
104,368,135855,2,0,B|92:336|92:336|97:298,1,72,10|8,0:0|0:3,0:0:0:0:
100,280,136108,1,8,0:3:0:0:
100,280,136192,1,4,3:3:0:0:
216,200,136361,1,4,3:3:0:0:
184,324,136529,1,8,3:3:0:0:
16,244,136698,1,8,3:3:0:0:
264,280,136866,6,0,L|371:276,1,108,2|0,0:0|0:0,0:0:0:0:
384,287,137203,2,0,P|399:256|397:220,1,72,10|8,0:0|0:3,0:0:0:0:
388,204,137456,1,8,0:3:0:0:
388,204,137541,1,2,0:0:0:0:
316,156,137709,1,0,3:0:0:0:
456,100,137878,2,0,P|453:135|469:167,1,72,10|0,0:0|1:0,0:0:0:0:
472,292,138215,6,0,L|476:164,1,108,2|0,0:0|0:0,0:0:0:0:
469,167,138552,2,0,L|471:84,1,72,8|2,0:0|0:0,0:0:0:0:
484,80,138805,1,2,0:0:0:0:
484,80,138889,1,2,3:2:0:0:
316,156,139057,1,8,0:0:0:0:
469,167,139226,1,8,0:0:0:0:
404,28,139394,1,8,0:0:0:0:
364,232,139563,6,0,L|350:302,1,72,4|2,0:1|0:0,0:0:0:0:
302,85,139900,2,0,L|315:155,1,72,8|2,0:0|0:0,0:0:0:0:
356,320,140237,2,0,L|369:249,1,72,2|0,3:2|0:0,0:0:0:0:
232,212,140574,1,8,0:3:0:0:
228,224,140658,1,8,0:3:0:0:
224,236,140743,2,0,L|233:272,1,36,8|0,0:0|0:0,0:0:0:0:
104,248,140911,6,0,L|12:260,1,72,2|0,0:0|3:0,0:0:0:0:
120,44,141248,2,0,B|108:75|108:75|113:114,1,72,8|8,0:0|0:3,0:0:0:0:
116,132,141501,1,8,0:3:0:0:
116,132,141585,1,4,3:3:0:0:
232,212,141754,1,4,3:3:0:0:
200,88,141922,1,8,3:3:0:0:
32,168,142091,1,8,3:3:0:0:
280,132,142259,6,0,L|387:135,1,108,2|0,0:0|0:0,0:0:0:0:
400,124,142596,2,0,P|415:155|413:191,1,72,8|8,0:0|0:3,0:0:0:0:
404,208,142849,1,8,0:3:0:0:
404,208,142934,1,4,0:3:0:0:
332,256,143102,1,0,3:0:0:0:
276,48,143271,2,0,L|288:148,1,72,2|8,0:0|0:0,0:0:0:0:
408,296,143608,5,2,0:0:0:0:
332,256,143777,1,0,0:0:0:0:
256,216,143945,1,8,0:0:0:0:
188,40,144114,1,8,0:3:0:0:
192,20,144198,1,8,0:3:0:0:
196,0,144282,5,2,3:2:0:0:
224,120,144451,1,8,0:0:0:0:
256,240,144619,1,0,3:0:0:0:
284,360,144788,1,8,0:0:0:0:
434,217,144956,6,0,L|237:242,1,180,4|2,0:1|0:0,0:0:0:0:
91,317,145461,1,8,3:3:0:0:
91,317,145546,1,8,3:3:0:0:
91,317,145630,2,0,P|69:276|78:229,1,90,8|8,0:0|0:3,0:0:0:0:
180,57,145967,1,0,3:0:0:0:
89,117,146136,2,0,P|45:118|-5:92,1,90,8|0,0:0|0:0,0:0:0:0:
283,33,146473,6,0,L|256:211,1,180,0|8,3:1|3:3,0:0:0:0:
228,358,146978,1,8,0:0:0:0:
125,196,147147,1,8,0:0:0:0:
375,147,147315,1,0,3:0:0:0:
234,258,147484,1,8,0:2:0:0:
421,333,147652,6,0,P|492:212|472:170,1,180,2|0,3:2|0:0,0:0:0:0:
345,26,148158,1,2,0:0:0:0:
235,192,148327,2,0,L|222:291,1,90,8|0,0:0|0:0,0:0:0:0:
437,81,148664,1,0,3:0:0:0:
317,215,148832,1,8,0:0:0:0:
251,59,149001,6,0,P|209:43|157:43,1,90,0|8,3:0|3:3,0:0:0:0:
0,119,149338,1,0,3:0:0:0:
100,114,149506,1,8,3:0:0:0:
100,114,149590,1,8,3:0:0:0:
100,114,149675,1,8,0:0:0:0:
20,221,149843,1,8,3:3:0:0:
84,12,150012,1,12,3:0:0:0:
185,169,150180,1,8,3:2:0:0:
366,15,150349,6,0,P|263:4|195:66,1,180,2|2,0:2|0:0,0:0:0:0:
340,256,150854,1,8,3:3:0:0:
340,256,150939,1,8,3:3:0:0:
340,256,151023,2,0,L|434:238,1,90,8|0,0:0|0:0,0:0:0:0:
216,321,151360,1,0,3:0:0:0:
137,184,151529,2,0,P|119:141|130:95,1,90,8|0,0:0|0:0,0:0:0:0:
345,178,151866,6,0,L|249:209,1,90,8|0,3:3|2:0,0:0:0:0:
235,213,152119,1,0,0:0:0:0:
215,221,152203,1,10,3:3:0:0:
195,229,152288,1,10,3:3:0:0:
175,237,152371,1,8,0:0:0:0:
375,288,152540,1,8,0:0:0:0:
244,111,152708,1,0,3:0:0:0:
257,335,152877,1,8,0:2:0:0:
392,146,153046,6,0,P|418:109|421:65,1,90,4|0,3:1|0:0,0:0:0:0:
375,288,153383,2,0,L|464:295,1,90,10|8,0:0|3:3,0:0:0:0:
278,190,153720,1,2,3:2:0:0:
165,318,153889,1,8,3:0:0:0:
366,373,154057,2,0,P|382:316|370:278,1,90,2|8,3:2|0:0,0:0:0:0:
263,308,154394,5,2,0:0:0:0:
464,216,154563,1,8,0:3:0:0:
341,127,154731,2,0,L|249:119,1,90,8|8,0:2|3:0,0:0:0:0:
251,119,154983,1,8,3:0:0:0:
251,119,155068,1,8,0:0:0:0:
464,216,155236,1,8,0:0:0:0:
326,274,155406,2,0,L|308:326,1,45,12|8,3:3|0:0,0:0:0:0:
197,360,155574,2,0,L|190:303,1,45,8|8,0:0|0:0,0:0:0:0:
172,171,155743,6,0,L|323:149,1,135,4|0,3:1|0:0,0:0:0:0:
330,131,156080,2,0,P|320:93|323:38,1,90,0|2,3:0|0:2,0:0:0:0:
512,123,156417,2,8,P|501:171|474:211,1,90,8|8,3:0|0:0,0:0:0:0:
403,43,156754,1,2,3:2:0:0:
435,137,156923,1,12,3:0:0:0:
361,214,157091,6,0,L|346:308,1,90,0|0,3:1|0:0,0:0:0:0:
424,349,157428,2,0,L|440:251,1,90,8|0,0:2|0:0,0:0:0:0:
274,249,157765,2,0,L|257:344,1,90,2|8,3:2|0:0,0:0:0:0:
158,359,158102,1,0,3:2:0:0:
149,328,158187,1,0,3:2:0:0:
142,295,158271,1,8,3:2:0:0:
34,267,158439,6,0,P|22:235|34:182,1,90,2|0,3:2|0:0,0:0:0:0:
95,72,158776,2,0,L|6:63,1,90,0|2,3:0|0:0,0:0:0:0:
164,170,159113,2,0,L|279:151,1,90,0|8,3:0|0:0,0:0:0:0:
361,0,159450,2,0,P|328:44|325:83,1,90,8|4,3:3|3:0,0:0:0:0:
401,212,159788,6,0,L|437:108,1,90,0|2,3:0|0:0,0:0:0:0:
324,78,160125,1,8,0:0:0:0:
505,26,160293,1,0,3:0:0:0:
505,26,160377,1,0,3:0:0:0:
505,26,160462,1,10,0:0:0:0:
512,207,160630,1,0,0:0:0:0:
324,78,160799,6,0,P|292:124|290:232,1,161.999995056153,4|0,1:2|0:0,0:0:0:0:
302,255,161136,5,4,1:1:0:0:
430,161,161304,1,8,3:0:0:0:
430,161,161473,1,2,3:2:0:0:
193,122,161641,5,8,0:0:0:0:
450,249,161810,1,8,3:0:0:0:
450,249,161979,1,2,3:2:0:0:
120,271,162147,5,8,0:0:0:0:
343,192,162316,1,0,0:0:0:0:
278,22,162484,5,2,0:0:0:0:
210,236,162653,1,8,0:0:0:0:
464,142,162821,1,8,0:0:0:0:
342,84,162990,5,10,3:0:0:0:
338,112,163074,1,8,3:0:0:0:
334,140,163158,1,10,0:2:0:0:
332,313,163327,1,8,3:0:0:0:
464,142,163496,5,2,3:2:0:0:
236,170,163664,1,8,0:0:0:0:
479,268,163832,5,0,1:0:0:0:
458,243,163917,1,0,1:0:0:0:
427,234,164001,1,0,1:0:0:0:
395,230,164085,1,0,1:0:0:0:
366,244,164170,1,0,1:0:0:0:
339,261,164255,1,0,1:0:0:0:
309,270,164339,1,0,1:0:0:0:
277,269,164423,1,0,1:0:0:0:
249,252,164507,5,0,1:0:0:0:
227,202,164591,1,0,1:0:0:0:
231,148,164675,1,0,1:0:0:0:
210,98,164759,1,0,1:0:0:0:
169,61,164844,1,0,1:0:0:0:
114,48,164928,1,0,1:0:0:0:
63,67,165012,1,0,1:0:0:0:
30,109,165096,1,0,1:0:0:0:
33,163,165181,5,0,1:0:0:0:
294,98,165350,1,8,3:0:0:0:
145,304,165518,1,8,3:0:0:0:
114,48,165686,5,4,1:2:0:0:
114,48,166192,6,0,L|109:216,1,161.999995056153,4|0,1:2|0:0,0:0:0:0:
108,238,166529,5,4,3:1:0:0:
256,292,166698,1,2,0:0:0:0:
196,224,166866,5,8,0:0:0:0:
208,368,167035,1,0,0:0:0:0:
304,368,167203,5,2,3:2:0:0:
316,224,167372,1,0,3:0:0:0:
404,240,167541,5,8,0:2:0:0:
256,292,167710,1,2,0:0:0:0:
136,156,167878,5,0,3:0:0:0:
256,292,168046,1,2,0:0:0:0:
376,156,168215,5,8,0:0:0:0:
256,292,168383,1,0,3:0:0:0:
108,238,168552,5,0,3:0:0:0:
152,72,168720,1,2,3:2:0:0:
52,176,168889,5,8,0:0:0:0:
256,192,169057,1,2,0:0:0:0:
404,238,169226,5,2,3:2:0:0:
360,72,169394,1,0,3:2:0:0:
460,176,169563,5,8,0:0:0:0:
256,192,169731,1,2,0:0:0:0:
212,12,169900,5,0,3:0:0:0:
336,156,170069,1,2,0:0:0:0:
300,12,170237,5,4,1:2:0:0:
176,156,170406,1,2,0:0:0:0:
300,88,170574,6,0,L|210:88,1,90,4|2,3:1|0:0,0:0:0:0:
212,228,170911,2,0,L|302:228,1,90,8|2,0:0|0:0,0:0:0:0:
348,228,171164,1,2,0:0:0:0:
392,228,171248,1,0,0:0:0:0:
336,156,171417,1,0,3:2:0:0:
172,300,171586,1,8,0:2:0:0:
24,140,171754,6,0,P|4:80|16:8,1,135.000005149842,4|0,3:1|3:0,0:0:0:0:
152,32,172260,2,0,L|96:68,1,67.5000025749208,8|0,0:0|0:0,0:0:0:0:
280,120,172597,2,0,L|224:84,1,67.5000025749208,2|0,3:2|3:0,0:0:0:0:
152,32,172934,1,8,0:0:0:0:
363,87,173102,6,0,P|431:90|494:67,1,135.000005149842,4|0,3:1|3:0,0:0:0:0:
232,8,173608,2,0,L|218:75,1,67.5000025749208,8|8,0:0|3:0,0:0:0:0:
280,120,173861,1,8,3:0:0:0:
280,120,173945,2,0,L|293:187,1,67.5000025749208,8|8,0:0|3:0,0:0:0:0:
152,32,174282,1,12,0:0:0:0:
363,87,174451,1,8,3:0:0:0:
363,87,174535,1,8,3:0:0:0:
363,87,174619,5,4,1:1:0:0:
436,124,174788,1,0,3:0:0:0:
496,72,174956,5,8,0:0:0:0:
364,8,175125,1,0,3:0:0:0:
223,83,175293,5,8,0:0:0:0:
368,164,175462,1,0,3:0:0:0:
444,12,175630,1,8,0:0:0:0:
292,186,175799,6,0,B|156:204|208:104|75:124,1,233.999989288331,4|0,3:1|3:0,0:0:0:0:
120,304,176305,2,0,P|110:260|107:215,1,90,8|0,0:0|3:0,0:0:0:0:
208,16,176642,1,8,0:0:0:0:
292,186,176810,1,8,0:0:0:0:
388,40,176979,5,8,3:3:0:0:
380,68,177063,1,8,3:0:0:0:
380,96,177147,1,12,3:0:0:0:
388,124,177232,1,12,3:0:0:0:
404,146,177316,5,4,3:1:0:0:
256,92,177485,1,2,0:0:0:0:
316,160,177653,5,8,0:0:0:0:
304,16,177822,1,0,0:0:0:0:
208,16,177990,5,2,3:2:0:0:
196,160,178159,1,0,3:0:0:0:
108,144,178328,5,8,0:2:0:0:
256,92,178497,1,2,0:0:0:0:
376,228,178665,5,0,3:0:0:0:
256,92,178833,1,2,0:0:0:0:
136,228,179002,5,8,0:0:0:0:
256,92,179170,1,0,3:0:0:0:
404,146,179339,5,0,3:0:0:0:
360,312,179507,1,2,3:2:0:0:
440,280,179676,5,8,0:0:0:0:
256,192,179844,1,2,0:0:0:0:
108,146,180013,5,2,3:2:0:0:
152,312,180181,1,0,3:2:0:0:
72,280,180350,5,8,0:0:0:0:
256,192,180518,1,2,0:0:0:0:
300,372,180687,5,0,3:0:0:0:
176,228,180856,1,2,0:0:0:0:
212,372,181024,5,4,1:2:0:0:
336,228,181193,1,2,0:0:0:0:
168,144,181361,5,2,3:2:0:0:
256,312,181529,1,2,3:2:0:0:
344,144,181698,1,8,0:0:0:0:
168,312,181866,1,2,0:0:0:0:
344,312,182035,2,0,B|440:312,1,90,0|2,3:0|1:2,0:0:0:0:
434,312,182288,1,2,1:2:0:0:
434,312,182373,1,12,0:2:0:0:
256,384,182541,5,4,3:1:0:0:
288,196,182709,2,0,L|220:196,1,67.5000025749208,2|0,0:0|3:0,0:0:0:0:
60,124,183047,2,0,P|91:140|160:135,1,101.250003862381,8|0,0:0|0:0,0:0:0:0:
168,144,183384,2,0,L|180:76,1,67.5000025749208,2|0,3:2|3:0,0:0:0:0:
144,12,183721,1,8,0:0:0:0:
380,52,183889,6,0,P|348:68|252:56,1,135.000005149842,4|0,3:1|3:0,0:0:0:0:
424,112,184395,2,0,L|488:132,1,67.5000025749208,8|8,0:0|3:0,0:0:0:0:
488,208,184648,1,8,3:0:0:0:
488,208,184732,2,0,L|424:228,1,67.5000025749208,8|8,0:0|3:0,0:0:0:0:
284,264,185069,1,12,0:0:0:0:
181,167,185237,1,8,3:0:0:0:
181,167,185321,1,8,3:0:0:0:
181,167,185405,5,4,1:1:0:0:
148,232,185574,1,0,3:0:0:0:
200,296,185742,5,8,0:0:0:0:
264,164,185911,1,0,3:0:0:0:
185,27,186079,5,8,0:0:0:0:
108,168,186248,1,0,3:0:0:0:
242,235,186416,5,8,0:0:0:0:
259,2,186586,6,0,B|243:235,1,233.999989288331,4|0,3:1|3:0,0:0:0:0:
214,384,187092,2,0,L|200:296,1,90,8|0,0:2|3:0,0:0:0:0:
199,295,187344,1,0,3:0:0:0:
199,295,187429,1,0,3:0:0:0:
156,76,187597,1,8,0:2:0:0:
320,232,187766,1,8,3:3:0:0:
328,236,187850,1,8,3:0:0:0:
336,240,187934,1,12,3:0:0:0:
344,244,188019,1,12,3:0:0:0:
352,248,188102,5,4,3:1:0:0:
291,305,188271,1,8,3:3:0:0:
204,284,188440,1,8,3:3:0:0:
152,200,188608,1,8,3:3:0:0:
200,104,188777,1,8,3:3:0:0:
316,92,188945,1,8,3:3:0:0:
396,188,189113,1,8,3:3:0:0:
372,320,189281,1,8,3:3:0:0:
204,362,189451,6,0,P|145:334|128:271,1,135.000005149842,8|8,1:3|1:3,0:0:0:0:
128,271,189956,5,0,3:0:0:0:
128,271,190040,1,0,3:0:0:0:
128,271,190125,2,0,P|132:336|86:382,1,135.000005149842,8|8,1:3|1:3,0:0:0:0:
256,192,190799,12,0,192484,0:0:0:0:
190,50,192653,5,8,0:0:0:0:
190,50,192737,1,8,0:0:0:0:
190,50,192821,1,8,0:0:0:0:
121,354,193046,5,8,3:3:0:0:
419,249,193271,5,4,3:0:0:0:
121,354,193496,6,0,P|87:258|123:189,1,180,4|0,3:1|0:0,0:0:0:0:
317,96,194001,1,0,3:0:0:0:
208,219,194170,2,0,L|216:129,1,90,8|0,0:0|0:0,0:0:0:0:
378,24,194507,1,0,3:0:0:0:
489,233,194675,6,0,P|423:261|323:184,1,180,8|0,0:0|3:0,0:0:0:0:
275,10,195181,1,0,3:0:0:0:
402,100,195350,1,8,0:0:0:0:
402,100,195434,1,8,0:0:0:0:
402,100,195518,2,0,L|524:115,1,90,8|8,0:0|3:0,0:0:0:0:
334,212,195855,5,4,3:0:0:0:
248,89,196024,1,4,3:0:0:0:
206,261,196192,6,0,P|149:326|63:320,1,180,4|0,3:1|0:0,0:0:0:0:
206,125,196698,1,0,0:0:0:0:
406,252,196866,2,0,L|416:146,1,90,8|0,0:0|0:0,0:0:0:0:
304,356,197203,1,0,3:0:0:0:
494,342,197372,2,0,L|507:246,1,90,8|0,0:0|3:0,0:0:0:0:
492,78,197709,6,0,P|457:21|331:31,1,180,0|0,3:0|3:0,0:0:0:0:
215,53,198215,2,0,L|227:157,1,90,8|0,0:0|0:0,0:0:0:0:
109,322,198552,2,0,P|90:277|105:227,1,90,0|8,3:0|0:0,0:0:0:0:
215,53,198889,6,0,P|297:35|385:93,1,180,4|0,3:1|0:0,0:0:0:0:
267,200,199394,1,0,3:0:0:0:
88,160,199563,2,0,L|48:349,1,180,8|0,0:0|3:0,0:0:0:0:
239,384,200069,2,0,P|290:321|288:303,1,90,8|0,0:0|3:0,0:0:0:0:
159,273,200406,5,0,3:0:0:0:
221,163,200574,2,0,L|222:66,1,90,0|0,0:0|3:0,0:0:0:0:
328,142,200911,2,0,L|514:123,1,180,8|0,0:0|3:0,0:0:0:0:
501,261,201417,1,8,0:0:0:0:
304,342,201586,6,0,P|298:289|315:253,1,90,4|0,3:1|0:0,0:0:0:0:
452,79,201923,2,0,P|458:132|441:168,1,90,0|0,0:0|3:0,0:0:0:0:
304,342,202260,2,0,P|217:307|101:317,1,180,8|0,0:0|3:0,0:0:0:0:
214,184,202765,6,0,P|232:117|219:83,1,90,8|0,0:0|0:0,0:0:0:0:
322,10,203102,1,4,1:2:0:0:
371,193,203271,1,4,1:2:0:0:
151,118,203439,1,0,3:0:0:0:
132,343,203608,5,0,1:0:0:0:
132,343,203720,2,0,L|246:314,1,60,0|0,1:0|1:0,0:0:0:0:
253,225,203945,1,0,1:0:0:0:
253,225,204057,2,0,L|312:231,1,60,0|0,1:0|1:0,0:0:0:0:
438,363,204282,6,0,P|441:270|461:169,1,180,4|0,3:1|0:0,0:0:0:0:
294,25,204788,1,0,3:0:0:0:
243,183,204956,2,0,P|152:200|101:131,1,180,8|0,0:0|3:0,0:0:0:0:
353,190,205462,2,0,P|374:255|367:279,1,90,8|0,0:0|3:0,0:0:0:0:
271,382,205799,1,0,3:0:0:0:
105,364,205968,6,0,L|134:274,1,90,0|0,0:0|1:0,0:0:0:0:
132,278,206220,1,8,0:0:0:0:
132,278,206305,1,8,0:0:0:0:
262,282,206473,1,8,3:0:0:0:
19,183,206642,1,4,3:0:0:0:
218,114,206810,1,4,3:0:0:0:
58,7,206979,6,0,L|18:184,1,180,4|0,3:1|0:0,0:0:0:0:
212,23,207484,1,0,3:0:0:0:
298,177,207653,2,0,P|320:115|311:71,1,90,8|0,0:0|0:0,0:0:0:0:
175,185,207990,1,0,3:0:0:0:
187,338,208159,6,0,L|278:333,1,90,8|0,0:0|3:0,0:0:0:0:
421,349,208496,2,0,P|441:228|497:230,1,180,0|0,3:0|3:0,0:0:0:0:
421,349,209001,1,8,0:0:0:0:
320,206,209170,1,0,0:0:0:0:
238,357,209338,1,0,3:0:0:0:
382,260,209507,1,8,0:0:0:0:
252,71,209675,6,0,P|184:129|187:229,1,180,4|0,3:1|0:0,0:0:0:0:
199,338,210181,1,0,3:0:0:0:
75,344,210350,2,0,P|81:287|62:251,1,90,8|0,0:0|0:0,0:0:0:0:
0,148,210687,1,0,3:0:0:0:
156,203,210855,6,0,L|357:247,1,180,8|0,0:0|3:0,0:0:0:0:
505,209,211361,2,0,P|509:164|494:122,1,90,0|0,0:0|3:0,0:0:0:0:
287,38,211698,2,0,P|284:82|298:125,1,90,8|0,0:0|0:0,0:0:0:0:
397,6,212035,1,0,3:0:0:0:
397,6,212203,1,8,0:0:0:0:
195,47,212372,6,0,L|164:239,1,180,4|0,3:1|3:0,0:0:0:0:
377,320,212878,2,0,L|409:117,1,180,12|0,0:2|3:0,0:0:0:0:
117,336,213383,2,0,P|191:340|220:319,1,90,4|0,1:0|0:0,0:0:0:0:
256,132,213720,5,0,1:0:0:0:
219,85,213833,1,0,1:0:0:0:
163,66,213945,1,0,1:0:0:0:
104,70,214057,1,0,1:0:0:0:
57,107,214170,1,0,1:0:0:0:
38,162,214282,1,0,1:0:0:0:
50,219,214394,5,0,1:0:0:0:
50,219,214507,2,0,L|66:313,1,60,0|0,1:0|1:0,0:0:0:0:
224,339,214732,1,4,3:0:0:0:
224,339,214844,2,0,L|238:256,1,60,0|0,1:0|1:0,0:0:0:0:
404,204,215069,6,0,L|512:212,1,107.999996704102,4|2,0:1|0:0,0:0:0:0:
336,120,215574,1,8,3:3:0:0:
336,120,215659,1,8,3:3:0:0:
336,120,215743,2,0,L|396:116,1,53.9999983520508,8|0,0:0|0:0,0:0:0:0:
389,116,216080,1,0,3:0:0:0:
176,264,216248,6,0,L|116:268,1,53.9999983520508,8|0,0:0|0:0,0:0:0:0:
0,170,216586,2,0,L|107:178,1,107.999996704102,0|0,3:1|3:0,0:0:0:0:
107,178,217007,1,0,3:0:0:0:
107,178,217091,1,8,0:0:0:0:
252,96,217260,1,8,3:3:0:0:
200,172,217428,1,0,3:0:0:0:
200,172,217597,1,0,3:0:0:0:
12,24,217765,6,0,L|8:204,1,161.999995056153,4|0,3:1|0:0,0:0:0:0:
132,92,218439,2,0,L|104:40,1,53.9999983520508,8|0,0:0|0:0,0:0:0:0:
106,44,218777,1,0,3:0:0:0:
8,185,218945,1,8,0:0:0:0:
64,348,219114,6,0,L|120:344,1,53.9999983520508,0|0,3:0|3:0,0:0:0:0:
117,344,219451,1,0,3:0:0:0:
344,308,219619,1,8,3:0:0:0:
344,308,219703,1,8,3:0:0:0:
344,308,219788,1,8,0:0:0:0:
256,288,219956,1,8,3:3:0:0:
216,204,220125,1,12,3:0:0:0:
252,120,220293,1,4,3:0:0:0:
336,84,220462,6,0,B|416:64|412:120|493:97,1,161.999995056153,4|0,3:1|3:0,0:0:0:0:
380,216,221136,2,0,P|365:193|366:167,1,53.9999983520508,8|0,0:0|0:0,0:0:0:0:
456,12,221473,1,0,3:0:0:0:
468,216,221642,2,0,P|469:242|454:264,1,53.9999983520508,8|0,0:0|3:0,0:0:0:0:
292,248,221979,2,0,L|172:244,1,107.999996704102,0|0,3:0|3:0,0:0:0:0:
160,256,222400,1,0,3:0:0:0:
160,256,222484,2,0,L|104:248,1,53.9999983520508,8|0,0:0|0:0,0:0:0:0:
56,172,222821,1,0,3:0:0:0:
120,344,222990,1,8,0:0:0:0:
288,336,223159,6,0,L|360:332,1,72,4|0,3:1|0:0,0:0:0:0:
359,332,223496,1,0,3:0:0:0:
96,268,223664,2,0,L|24:264,1,72,4|0,1:2|0:0,0:0:0:0:
24,264,224001,1,0,3:0:0:0:
232,140,224170,2,0,B|236:180|236:180|227:210,1,72,4|0,1:0|0:0,0:0:0:0:
227,210,224507,1,0,3:0:0:0:
136,52,224675,1,4,1:2:0:0:
376,52,224844,2,0,L|472:40,1,72,4|0,1:1|0:0,0:0:0:0:
380,188,225181,5,0,1:0:0:0:
324,204,225293,1,0,1:0:0:0:
276,176,225406,1,0,1:0:0:0:
256,120,225518,1,0,1:0:0:0:
200,104,225630,1,0,1:0:0:0:
148,132,225743,1,0,1:0:0:0:
144,192,225855,6,0,L|152:300,1,107.999996704102,4|2,0:1|0:0,0:0:0:0:
60,124,226360,1,8,3:3:0:0:
60,124,226445,1,8,3:3:0:0:
60,124,226529,2,0,L|56:184,1,53.9999983520508,8|0,0:0|0:0,0:0:0:0:
151,299,226866,1,0,3:0:0:0:
240,176,227034,6,0,L|236:116,1,53.9999983520508,8|0,0:0|0:0,0:0:0:0:
332,0,227372,2,0,L|324:108,1,107.999996704102,0|0,3:1|3:0,0:0:0:0:
324,107,227793,1,0,3:0:0:0:
324,107,227877,1,8,0:0:0:0:
332,0,228046,1,8,0:3:0:0:
237,122,228214,1,0,3:0:0:0:
384,172,228383,1,0,3:0:0:0:
484,24,228551,6,0,L|304:20,1,161.999995056153,4|0,3:1|0:0,0:0:0:0:
384,172,229225,2,0,L|436:144,1,53.9999983520508,8|0,0:0|0:0,0:0:0:0:
431,146,229563,1,0,3:0:0:0:
322,20,229731,1,8,0:0:0:0:
180,108,229900,6,0,L|124:112,1,53.9999983520508,0|0,3:0|3:0,0:0:0:0:
126,111,230237,1,0,3:0:0:0:
112,280,230405,1,8,3:0:0:0:
112,280,230489,1,8,3:0:0:0:
112,280,230574,1,8,0:0:0:0:
154,200,230742,1,8,3:3:0:0:
245,183,230911,1,12,3:0:0:0:
317,239,231079,1,4,3:0:0:0:
324,332,231248,6,0,B|404:312|400:368|481:345,1,161.999995056153,4|0,3:1|3:0,0:0:0:0:
456,204,231922,2,0,L|448:260,1,53.9999983520508,8|0,0:0|0:0,0:0:0:0:
324,332,232259,1,0,3:0:0:0:
364,212,232428,2,0,L|356:158,1,53.9999983520508,8|0,0:0|0:0,0:0:0:0:
268,40,232765,6,0,L|264:160,1,107.999996704102,0|0,3:0|3:0,0:0:0:0:
276,172,233186,1,0,3:0:0:0:
276,172,233270,2,0,L|268:228,1,53.9999983520508,8|0,0:0|0:0,0:0:0:0:
192,276,233607,1,0,3:0:0:0:
364,212,233776,1,8,0:0:0:0:
176,148,233945,6,0,L|104:152,1,72,4|0,3:1|0:0,0:0:0:0:
104,151,234282,1,0,3:0:0:0:
360,56,234450,2,0,L|432:60,1,72,4|0,1:2|0:0,0:0:0:0:
432,60,234787,1,0,3:0:0:0:
256,24,234956,2,0,B|252:64|252:64|260:94,1,72,4|0,1:0|0:0,0:0:0:0:
364,212,235293,5,0,3:0:0:0:
364,212,235378,1,0,3:0:0:0:
364,212,235461,1,4,1:2:0:0:
468,316,235630,5,0,1:0:0:0:
416,288,235743,1,0,1:0:0:0:
360,304,235855,1,0,1:0:0:0:
336,356,235967,1,0,1:0:0:0:
280,372,236079,1,0,1:0:0:0:
228,344,236192,1,8,1:3:0:0:
212,288,236304,1,8,1:3:0:0:
156,272,236416,1,0,1:0:0:0:
104,300,236529,1,0,1:0:0:0:
99,356,236642,6,0,P|33:369|0:311,1,144,4|0,3:1|3:0,0:0:0:0:
64,172,237147,1,0,3:0:0:0:
64,172,237232,1,0,3:0:0:0:
64,172,237316,2,0,P|64:212|40:236,1,72,8|0,0:0|0:0,0:0:0:0:
43,234,237653,1,0,3:0:0:0:
228,208,237821,2,0,L|148:200,1,72,8|0,0:0|3:0,0:0:0:0:
56,28,238159,6,0,L|64:184,1,144,2|0,3:0|3:0,0:0:0:0:
63,171,238580,1,0,3:0:0:0:
63,171,238664,1,8,1:3:0:0:
184,296,238833,1,8,3:3:0:0:
328,200,239001,2,0,L|404:196,1,72,0|0,0:0|3:0,0:0:0:0:
404,20,239338,6,0,B|340:-4|333:52|264:27,1,144,4|0,3:1|0:0,0:0:0:0:
264,27,239844,1,0,3:0:0:0:
380,108,240012,2,0,L|472:112,1,72,8|0,0:0|0:0,0:0:0:0:
451,111,240350,1,0,3:0:0:0:
328,200,240518,1,8,0:0:0:0:
176,216,240687,6,0,L|92:224,1,72,0|0,3:0|3:0,0:0:0:0:
296,96,241024,1,0,3:0:0:0:
304,320,241192,1,8,3:0:0:0:
304,320,241276,1,8,3:0:0:0:
304,320,241361,1,8,0:0:0:0:
216,300,241529,1,8,3:3:0:0:
176,216,241698,1,12,3:0:0:0:
212,132,241866,1,4,3:0:0:0:
296,96,242035,6,0,B|367:78|363:128|435:107,1,144,4|0,3:1|3:0,0:0:0:0:
435,107,242541,1,0,3:0:0:0:
324,184,242709,2,0,P|320:219|319:255,1,72,8|0,0:0|0:0,0:0:0:0:
319,255,243046,1,0,3:0:0:0:
484,232,243215,2,0,P|448:228|412:227,1,72,8|0,0:0|0:0,0:0:0:0:
260,328,243552,6,0,L|116:336,1,144,0|0,3:0|3:0,0:0:0:0:
88,312,243973,1,0,3:0:0:0:
88,312,244057,2,0,L|16:304,1,72,8|0,0:0|0:0,0:0:0:0:
72,152,244394,1,0,3:0:0:0:
116,335,244563,1,8,0:0:0:0:
280,344,244732,6,0,L|384:348,1,90,4|0,3:1|0:0,0:0:0:0:
436,288,245069,1,0,3:0:0:0:
216,164,245237,6,0,L|273:250,1,90,4|0,1:0|0:0,0:0:0:0:
352,257,245574,1,0,3:0:0:0:
320,8,245743,6,0,L|284:105,1,90,4|0,1:0|0:0,0:0:0:0:
208,300,246080,5,4,3:1:0:0:
265,239,246249,1,8,3:3:0:0:
244,152,246418,1,8,3:3:0:0:
160,100,246586,1,8,3:3:0:0:
64,148,246755,1,8,3:3:0:0:
52,264,246923,1,8,3:3:0:0:
148,344,247091,1,8,3:3:0:0:
280,320,247259,1,8,3:3:0:0:
320,180,247428,5,0,0:0:0:0:
106,196,258046,6,0,L|118:123,1,45,8|8,0:0|0:0,0:0:0:0:
124,57,258215,1,8,0:0:0:0:
201,254,258383,1,0,3:0:0:0:
226,128,258552,1,0,3:0:0:0:
310,304,258720,2,0,L|320:200,1,90,8|0,0:0|3:0,0:0:0:0:
341,79,259057,1,0,3:0:0:0:
458,278,259226,6,0,P|490:247|457:139,1,161.999995056153,12|0,0:0|0:0,0:0:0:0:
432,133,259563,5,4,3:1:0:0:
204,269,259732,1,2,0:0:0:0:
396,224,259900,1,8,0:0:0:0:
246,160,260069,1,0,0:0:0:0:
341,305,260237,1,2,0:0:0:0:
160,372,260406,1,0,3:0:0:0:
404,370,260575,5,8,0:0:0:0:
151,260,260743,1,2,0:0:0:0:
344,173,260912,1,0,3:0:0:0:
165,139,261080,1,2,0:0:0:0:
392,57,261249,1,8,0:0:0:0:
250,230,261417,1,0,3:0:0:0:
484,279,261586,5,0,3:0:0:0:
344,173,261754,1,2,3:2:0:0:
491,36,261923,1,8,0:0:0:0:
470,140,262091,1,2,0:0:0:0:
270,90,262260,1,0,3:0:0:0:
325,0,262428,1,2,0:0:0:0:
349,270,262597,5,8,0:0:0:0:
230,295,262766,1,2,0:0:0:0:
123,28,262934,1,0,3:0:0:0:
238,16,263103,1,2,0:0:0:0:
112,313,263271,1,12,1:2:0:0:
0,285,263440,1,2,0:0:0:0:
348,84,263608,6,0,L|358:224,1,107.999996704102,4|2,3:1|0:0,0:0:0:0:
112,313,263945,2,0,L|105:188,1,107.999996704102,8|2,0:0|0:0,0:0:0:0:
262,316,264282,2,0,B|369:302,1,107.999996704102,0|10,3:0|0:2,0:0:0:0:
418,298,264535,1,2,0:2:0:0:
418,298,264620,1,12,0:2:0:0:
112,313,264788,6,0,P|151:235|80:132,1,215.999993408203,4|0,3:1|3:0,0:0:0:0:
262,316,265294,2,0,P|319:319|358:285,1,107.999996704102,8|0,0:0|0:0,0:0:0:0:
358,35,265631,2,0,P|396:58|406:130,1,107.999996704102,2|0,3:2|0:0,0:0:0:0:
214,0,265968,1,8,0:0:0:0:
210,181,266136,6,0,B|143:239|55:163|-26:227,1,215.999993408203,4|0,3:1|3:0,0:0:0:0:
314,356,266642,2,0,P|316:302|286:258,1,107.999996704102,8|8,0:0|3:0,0:0:0:0:
210,181,266895,1,8,3:0:0:0:
210,181,266979,2,0,L|331:163,1,107.999996704102,8|0,0:0|0:0,0:0:0:0:
193,335,267316,1,12,0:0:0:0:
380,232,267485,1,8,3:0:0:0:
380,232,267569,1,8,3:0:0:0:
380,232,267653,5,4,1:1:0:0:
210,181,267822,1,0,3:0:0:0:
349,87,267990,5,8,0:0:0:0:
167,247,268159,1,0,3:0:0:0:
445,296,268327,5,8,0:0:0:0:
93,235,268496,1,0,3:0:0:0:
316,165,268664,5,8,0:0:0:0:
25,249,268833,2,0,B|102:205|165:286|236:237,1,215.999993408203,4|0,3:1|0:0,0:0:0:0:
366,50,269338,2,0,P|329:94|332:155,1,107.999996704102,8|0,0:0|0:0,0:0:0:0:
512,328,269675,5,8,0:0:0:0:
476,288,269760,1,8,0:0:0:0:
424,284,269844,1,8,0:0:0:0:
376,308,269928,1,8,0:0:0:0:
356,356,270012,5,8,3:0:0:0:
308,380,270097,1,4,3:0:0:0:
256,384,270181,1,4,3:0:0:0:
204,372,270265,1,4,3:0:0:0:
164,340,270350,5,4,3:1:0:0:
108,188,270519,1,2,0:0:0:0:
178,252,270687,5,8,0:0:0:0:
28,224,270856,1,0,0:0:0:0:
196,164,271024,5,2,3:2:0:0:
92,280,271193,1,0,3:0:0:0:
112,64,271362,5,8,0:2:0:0:
256,224,271529,1,2,0:0:0:0:
108,188,271699,5,0,3:0:0:0:
108,188,271867,1,2,0:0:0:0:
256,24,272036,5,8,0:0:0:0:
256,224,272204,1,0,3:0:0:0:
196,84,272373,5,0,3:0:0:0:
316,84,272541,1,2,3:2:0:0:
178,252,272710,5,8,0:0:0:0:
256,144,272878,1,2,0:2:0:0:
334,252,273046,5,0,3:0:0:0:
256,224,273215,1,2,0:2:0:0:
400,64,273383,5,8,0:2:0:0:
484,224,273552,1,0,3:0:0:0:
402,192,273720,5,0,3:0:0:0:
402,192,273889,1,2,0:0:0:0:
464,12,274058,5,8,0:0:0:0:
484,224,274227,1,2,0:0:0:0:
484,224,274310,1,0,0:0:0:0:
484,224,274395,6,0,P|502:264|499:308,1,90,0|2,3:1|0:0,0:0:0:0:
464,102,274732,2,0,L|464:12,1,90,8|2,0:0|0:0,0:0:0:0:
464,12,274985,1,2,0:0:0:0:
464,12,275069,1,0,0:0:0:0:
312,192,275238,1,0,3:2:0:0:
499,308,275407,1,8,0:2:0:0:
388,144,275575,6,0,P|373:78|378:11,1,135,4|0,3:1|3:0,0:0:0:0:
312,192,276080,6,0,L|216:204,1,90,8|0,0:0|3:0,0:0:0:0:
132,191,276417,1,0,3:0:0:0:
156,36,276586,1,0,3:0:0:0:
188,120,276755,1,8,0:0:0:0:
30,269,276923,6,0,P|96:259|162:275,1,135.000005149842,4|0,3:1|3:0,0:0:0:0:
316,324,277429,6,0,L|219:315,1,90,8|8,0:0|3:0,0:0:0:0:
30,269,277765,2,0,P|80:256|108:220,1,90,0|8,3:0|3:0,0:0:0:0:
244,52,278103,1,8,0:0:0:0:
348,252,278272,1,8,3:0:0:0:
388,280,278356,1,8,3:0:0:0:
436,276,278440,5,4,1:1:0:0:
496,208,278609,1,0,3:0:0:0:
384,100,278777,5,8,0:0:0:0:
348,252,278946,1,0,3:0:0:0:
432,364,279114,5,8,0:0:0:0:
511,319,279283,1,0,3:0:0:0:
412,184,279451,1,8,0:0:0:0:
344,344,279620,6,0,B|208:362|260:262|127:282,1,233.999989288331,4|0,3:1|3:0,0:0:0:0:
12,380,280126,2,0,P|56:384|100:366,1,90,8|0,0:0|3:0,0:0:0:0:
140,192,280463,1,8,0:0:0:0:
280,56,280631,1,8,0:0:0:0:
280,32,280715,1,8,0:0:0:0:
275,11,280799,6,0,P|266:43|275:75,1,67.5000025749208,0|0,3:0|3:0,0:0:0:0:
420,75,280968,2,0,P|428:43|420:11,1,67.5000025749208,0|0,3:0|3:0,0:0:0:0:
348,44,281136,5,4,3:1:0:0:
404,196,281305,1,2,0:0:0:0:
334,132,281473,5,8,0:0:0:0:
484,160,281642,1,0,0:0:0:0:
316,220,281810,5,2,3:2:0:0:
420,104,281979,1,0,3:0:0:0:
400,320,282148,5,8,0:2:0:0:
256,160,282315,1,2,0:0:0:0:
404,196,282485,5,0,3:0:0:0:
404,196,282653,1,2,0:0:0:0:
256,360,282822,5,8,0:0:0:0:
256,160,282990,1,0,3:0:0:0:
316,300,283159,5,0,3:0:0:0:
196,300,283327,1,2,3:2:0:0:
334,132,283496,5,8,0:0:0:0:
256,240,283664,1,2,0:2:0:0:
178,132,283832,5,0,3:0:0:0:
256,160,284001,1,2,0:2:0:0:
112,320,284169,5,8,0:2:0:0:
28,160,284338,1,0,3:0:0:0:
110,192,284506,5,0,3:0:0:0:
110,192,284675,1,2,0:0:0:0:
28,348,284844,5,8,0:0:0:0:
96,108,285012,1,2,0:0:0:0:
112,320,285181,6,0,B|196:356|208:292|288:336,1,180,4|8,3:1|0:0,0:0:0:0:
376,172,285687,1,8,0:0:0:0:
452,340,285855,1,8,3:0:0:0:
372,316,286024,1,4,3:0:0:0:
456,192,286192,2,0,P|469:138|476:84,1,90,8|0,0:0|0:0,0:0:0:0:
208,44,286529,6,0,P|222:109|211:175,1,135,4|0,3:1|0:0,0:0:0:0:
200,192,286866,2,0,L|296:180,1,90,8|0,0:0|3:0,0:0:0:0:
380,193,287203,1,0,3:0:0:0:
356,348,287372,1,0,3:0:0:0:
324,264,287541,1,8,0:0:0:0:
508,138,287709,6,0,P|422:158|350:109,1,180,4|0,3:1|3:0,0:0:0:0:
184,56,288215,2,0,P|276:60|316:28,1,135,8|0,0:0|0:0,0:0:0:0:
312,16,288551,2,0,L|409:25,1,90,0|8,3:0|3:0,0:0:0:0:
324,172,288889,1,8,0:0:0:0:
164,132,289057,1,8,3:0:0:0:
120,120,289141,1,8,3:0:0:0:
76,108,289225,5,4,1:1:0:0:
16,176,289394,1,0,3:0:0:0:
128,284,289562,5,8,0:0:0:0:
164,132,289731,1,0,3:0:0:0:
80,20,289899,5,8,0:0:0:0:
1,65,290068,1,0,3:0:0:0:
100,200,290236,1,8,0:0:0:0:
164,44,290406,6,0,B|300:26|248:126|381:106,1,233.999989288331,4|0,3:1|3:0,0:0:0:0:
269,247,290911,2,0,P|225:243|181:261,1,90,8|0,0:0|3:0,0:0:0:0:
400,351,291248,1,8,0:0:0:0:
385,333,291332,1,8,0:0:0:0:
374,314,291416,1,0,3:0:0:0:
365,293,291500,1,0,3:0:0:0:
359,272,291585,1,8,3:0:0:0:
356,249,291669,1,8,3:0:0:0:
357,227,291753,1,4,3:0:0:0:
360,205,291837,1,4,3:0:0:0:
368,184,291923,5,12,0:0:0:0:
271,367,292091,1,4,3:0:0:0:
162,195,292260,1,4,3:0:0:0:
371,302,292428,5,12,0:0:0:0:
261,125,292597,1,0,0:0:0:0:
172,311,292765,1,8,0:0:0:0:
344,372,292934,5,4,0:0:0:0:
188,124,293102,1,2,0:0:0:0:
8,368,293271,5,12,0:0:0:0:
240,196,293439,1,0,0:0:0:0:
205,383,293608,1,8,0:0:0:0:
112,132,293777,1,4,0:0:0:0:
300,248,293945,5,10,0:0:0:0:
455,67,294114,1,8,3:0:0:0:
415,87,294199,1,8,0:0:0:0:
371,79,294283,1,8,0:0:0:0:
335,51,294367,1,8,0:0:0:0:
291,39,294452,1,8,0:0:0:0:
247,55,294536,1,8,0:0:0:0:
220,93,294619,6,0,P|223:191|239:271,1,180,4|10,0:0|0:0,0:0:0:0:
239,271,295293,1,2,3:2:0:0:
129,364,295462,2,0,P|112:329|109:278,1,90,0|10,3:0|0:2,0:0:0:0:
172,90,295799,1,0,0:0:0:0:
336,175,295968,6,0,L|385:363,2,180,0|10|2,3:0|0:2|3:2,0:0:0:0:
221,49,296810,2,0,P|206:97|212:141,1,90,0|10,3:2|0:0,0:0:0:0:
444,237,297147,1,2,0:0:0:0:
444,237,297232,1,2,0:0:0:0:
444,237,297316,6,0,P|490:130|447:76,1,180,0|10,0:0|0:0,0:0:0:0:
335,41,297821,1,0,0:0:0:0:
310,245,297990,2,0,L|278:343,1,90,2|0,3:2|3:0,0:0:0:0:
239,96,298327,1,10,0:0:0:0:
165,195,298496,1,0,0:0:0:0:
239,96,298664,6,0,P|248:52|239:8,1,90,0|0,3:0|0:0,0:0:0:0:
45,154,299001,2,0,L|17:240,1,90,10|0,0:0|0:0,0:0:0:0:
252,195,299338,2,0,P|208:186|164:194,1,90,2|0,3:2|3:0,0:0:0:0:
346,284,299675,2,0,L|446:258,1,90,10|0,0:0|0:0,0:0:0:0:
424,80,300012,5,2,3:2:0:0:
315,158,300181,1,0,3:0:0:0:
165,56,300350,2,0,P|133:146|134:235,1,180,10|2,0:0|3:2,0:0:0:0:
416,178,300855,1,0,3:0:0:0:
318,54,301024,1,10,0:0:0:0:
133,229,301192,6,0,L|169:38,1,180,4|0,3:2|0:0,0:0:0:0:
334,17,301698,2,0,L|314:128,1,90,10|0,0:0|0:0,0:0:0:0:
273,281,302035,1,2,3:2:0:0:
208,33,302203,1,0,3:0:0:0:
462,124,302372,1,10,0:2:0:0:
208,33,302541,1,0,3:0:0:0:
217,51,302625,1,0,3:0:0:0:
225,67,302709,5,4,3:1:0:0:
457,189,302878,1,0,3:0:0:0:
165,266,303046,1,8,0:0:0:0:
334,24,303215,1,2,3:2:0:0:
401,298,303383,1,8,0:0:0:0:
162,153,303552,1,2,3:2:0:0:
434,78,303720,1,8,0:0:0:0:
264,334,303889,6,0,P|166:316|83:309,1,180,4|2,3:1|0:2,0:0:0:0:
134,102,304394,1,8,0:0:0:0:
30,198,304563,1,10,0:2:0:0:
58,220,304647,1,8,0:0:0:0:
94,222,304732,1,8,0:0:0:0:
129,214,304816,1,8,0:0:0:0:
160,197,304900,1,8,0:0:0:0:
195,197,304984,1,8,0:0:0:0:
230,203,305069,2,0,L|281:219,1,45,8|4,3:0|3:0,0:0:0:0:
345,283,305237,2,0,L|412:275,1,45,4|4,3:0|3:0,0:0:0:0:
484,259,305406,6,0,P|497:116|504:65,1,180,4|10,3:1|0:0,0:0:0:0:
377,10,305911,1,0,0:0:0:0:
298,139,306080,2,0,P|279:193|278:232,1,90,2|0,3:2|3:0,0:0:0:0:
439,327,306417,1,10,0:0:0:0:
372,188,306586,1,0,0:0:0:0:
251,338,306754,5,2,3:2:0:0:
481,240,306923,1,0,3:0:0:0:
302,106,307091,2,0,L|195:91,1,90,10|0,0:0|0:0,0:0:0:0:
31,184,307428,1,2,3:2:0:0:
161,18,307597,1,0,3:0:0:0:
9,88,307765,2,0,P|-6:37|3:-3,1,90,10|0,0:0|0:0,0:0:0:0:
253,153,308102,6,0,L|49:178,1,180,2|10,3:2|0:0,0:0:0:0:
288,0,308608,2,0,P|316:34|322:77,1,90,0|2,0:0|3:2,0:0:0:0:
196,251,308945,1,0,3:0:0:0:
326,182,309114,2,0,L|424:200,1,90,10|0,0:0|0:0,0:0:0:0:
414,198,309366,1,0,0:0:0:0:
414,198,309451,5,0,3:0:0:0:
224,170,309619,1,0,3:0:0:0:
331,8,309788,1,10,0:0:0:0:
326,182,309956,1,8,0:0:0:0:
486,74,310125,2,0,P|503:109|489:172,1,90,2|0,3:2|3:0,0:0:0:0:
303,83,310462,1,10,0:0:0:0:
414,198,310630,6,0,L|356:373,1,180,0|0,3:0|3:0,0:0:0:0:
185,164,311136,2,0,P|193:109|222:72,1,90,10|0,0:0|0:0,0:0:0:0:
138,246,311473,1,2,3:2:0:0:
280,154,311642,1,0,3:0:0:0:
332,274,311810,2,0,L|206:251,1,90,10|0,0:0|0:0,0:0:0:0:
29,65,312147,6,0,L|133:88,1,90,0|0,3:0|3:0,0:0:0:0:
39,284,312484,2,0,P|43:222|39:169,1,90,10|0,0:0|0:0,0:0:0:0:
285,41,312821,1,2,3:2:0:0:
224,129,312990,1,0,3:0:0:0:
310,218,313159,2,0,L|406:195,1,90,10|0,0:0|3:0,0:0:0:0:
397,197,313411,1,0,3:0:0:0:
397,197,313496,5,12,3:2:0:0:
176,248,313664,1,0,3:0:0:0:
372,116,313833,5,8,0:0:0:0:
108,109,314001,1,0,3:0:0:0:
425,181,314170,5,12,0:0:0:0:
81,220,314338,1,0,3:0:0:0:
435,50,314507,5,8,0:0:0:0:
147,27,314675,1,4,3:1:0:0:
456,172,314844,5,0,1:0:0:0:
456,172,314928,2,0,L|449:128,1,45,0|0,1:0|1:0,0:0:0:0:
323,22,315097,1,0,1:0:0:0:
323,22,315181,2,0,L|310:85,1,45,0|0,1:0|1:0,0:0:0:0:
288,251,315350,5,0,1:0:0:0:
263,288,315434,1,0,1:0:0:0:
221,303,315518,1,0,1:0:0:0:
177,293,315602,1,0,1:0:0:0:
144,261,315687,1,0,1:0:0:0:
104,239,315771,1,0,1:0:0:0:
59,236,315855,1,0,1:0:0:0:
18,256,315939,1,0,1:0:0:0:
0,298,316024,1,4,1:0:0:0:
256,192,316108,12,0,322597,0:0:0:0:
152,144,322935,5,0,0:0:0:0:
128,58,323272,1,0,0:0:0:0:
2,131,323609,1,0,0:0:0:0:
38,49,323946,1,0,0:0:0:0:
70,191,324283,2,0,P|60:229|75:286,1,90
145,145,324957,2,0,L|279:138,1,135
300,223,325631,5,0,0:0:0:0:
363,98,325968,1,0,0:0:0:0:
389,232,326305,1,0,0:0:0:0:
279,138,326642,1,0,0:0:0:0:
434,154,326979,2,0,P|451:99|438:55,1,90
365,26,327653,2,0,L|320:28,2,45
278,227,328328,5,0,0:0:0:0:
279,138,328665,1,0,0:0:0:0:
100,46,329002,1,0,0:0:0:0:
100,136,329339,1,0,0:0:0:0:
279,138,329676,1,0,0:0:0:0:
280,49,330013,1,0,0:0:0:0:
100,136,330350,2,0,P|83:200|113:259,1,135
156,348,331024,5,0,0:0:0:0:
210,276,331361,1,0,0:0:0:0:
297,255,331699,1,0,0:0:0:0:
359,319,332036,1,0,0:0:0:0:
455,200,332373,2,0,P|463:244|440:281,1,90
365,177,333047,2,0,L|375:121,2,45
191,231,333721,6,0,P|177:279|167:328,1,90,2|0,0:0|0:0,0:0:0:0:
191,231,334395,2,0,P|159:197|120:163,1,90,2|0,0:0|0:0,0:0:0:0:
191,231,334901,1,0,0:0:0:0:
191,231,335069,2,0,P|234:231|283:223,1,90,2|0,0:0|0:0,0:0:0:0:
427,260,335743,1,2,0:0:0:0:
427,260,336418,6,0,P|437:212|451:164,1,90,2|0,0:0|0:0,0:0:0:0:
427,260,337092,2,0,P|465:293|498:329,1,90,2|0,0:0|0:0,0:0:0:0:
427,260,337597,1,0,0:0:0:0:
427,260,337766,2,0,P|380:277|332:287,1,90,2|0,0:0|0:0,0:0:0:0:
191,231,338440,2,0,L|201:175,2,45,2|0|0,0:0|0:0|0:0,0:0:0:0:
53,109,339114,6,0,P|41:153|37:209,1,90,2|0,0:0|0:0,0:0:0:0:
191,231,339788,2,0,P|159:199|113:168,1,90,2|0,0:0|0:0,0:0:0:0:
10,298,340294,1,0,0:0:0:0:
9,297,340463,2,0,P|51:280|90:257,1,90,2|0,0:0|0:0,0:0:0:0:
139,90,341137,2,0,L|264:104,1,90,2|0,0:0|0:0,0:0:0:0:
292,48,341642,1,0,0:0:0:0:
372,47,341811,6,0,L|368:143,1,90,2|0,0:0|0:0,0:0:0:0:
266,301,342485,2,0,L|262:211,1,90,2|0,0:0|0:0,0:0:0:0:
465,124,343159,2,0,L|460:34,1,90,2|0,0:0|0:0,0:0:0:0:
380,18,343665,1,0,0:0:0:0:
465,124,343833,5,2,0:0:0:0:
486,204,344002,1,2,0:0:0:0:
440,273,344170,1,0,0:0:0:0:
440,273,344508,6,0,L|424:329,1,45,2|0,0:0|0:0,0:0:0:0:
356,366,344845,2,0,L|340:310,1,45
274,267,345182,2,0,L|218:271,1,45,2|0,0:0|0:0,0:0:0:0:
169,333,345519,2,0,L|124:326,1,45
59,277,345856,2,0,P|39:233|40:177,2,90,2|0|2,0:0|0:0|0:0,0:0:0:0:
187,88,347036,1,2,0:0:0:0:
187,88,347204,6,0,L|245:66,1,45,2|0,0:0|0:0,0:0:0:0:
316,43,347541,2,0,L|332:99,1,45
327,183,347878,2,0,L|383:179,1,45,2|0,0:0|0:0,0:0:0:0:
434,238,348215,2,0,L|414:289,1,45
349,346,348552,2,0,L|317:236,2,90,2|0|2,0:0|0:0|0:0,0:0:0:0:
264,362,349395,2,0,L|254:315,1,45,2|0,0:0|0:0,0:0:0:0:
237,238,349732,1,2,0:0:0:0:
289,162,349901,6,0,P|289:140|285:118,1,45,2|0,0:0|0:0,0:0:0:0:
346,232,350238,2,0,P|366:243|387:251,1,45
237,238,350575,2,0,L|148:247,1,90,2|0,0:0|0:0,0:0:0:0:
55,225,351081,1,0,0:0:0:0:
96,130,351249,2,0,P|120:136|144:162,1,45,2|0,0:0|0:0,0:0:0:0:
55,225,351586,2,0,P|39:243|4:251,1,45
12,142,351923,2,0,P|6:120|16:85,1,45,2|0,0:0|0:0,0:0:0:0:
137,0,352260,2,0,L|119:51,1,45
222,113,352597,6,0,B|405:93,2,180,2|2|2,0:0|0:0|0:0,0:0:0:0:
113,4,354283,1,0,0:0:0:0:
147,191,354620,2,0,B|268:145|281:333|150:269|106:304|106:304|88:254|-54:255|40:92|128:188,1,540
